  0
SECTION
  2
HEADER
  9
$ACADVER
  1
AC1009
  9
$INSBASE
 10
0.0
 20
0.0
 30
0.0
  9
$EXTMIN
 10
0.0
 20
0.0
 30
0.0
  9
$EXTMAX
 10
4200.0
 20
5900.0
 30
0.0
  9
$LIMMIN
 10
0.0
 20
0.0
  9
$LIMMAX
 10
297.0
 20
210.0
  9
$ORTHOMODE
 70
     0
  9
$REGENMODE
 70
     1
  9
$FILLMODE
 70
     0
  9
$QTEXTMODE
 70
     0
  9
$MIRRTEXT
 70
     1
  9
$DRAGMODE
 70
     2
  9
$LTSCALE
 40
100.0
  9
$OSMODE
 70
    37
  9
$ATTMODE
 70
     1
  9
$TEXTSIZE
 40
180.0
  9
$TRACEWID
 40
0.05
  9
$TEXTSTYLE
  7
STANDARD
  9
$CLAYER
  8
1
  9
$CELTYPE
  6
BYLAYER
  9
$CECOLOR
 62
   256
  9
$DIMSCALE
 40
20.0
  9
$DIMASZ
 40
2.0
  9
$DIMEXO
 40
0.5
  9
$DIMDLI
 40
10.0
  9
$DIMRND
 40
0.0
  9
$DIMDLE
 40
0.0
  9
$DIMEXE
 40
1.0
  9
$DIMTP
 40
1.0
  9
$DIMTM
 40
1.0
  9
$DIMTXT
 40
3.0
  9
$DIMCEN
 40
0.0
  9
$DIMTSZ
 40
0.0
  9
$DIMTOL
 70
     0
  9
$DIMLIM
 70
     0
  9
$DIMTIH
 70
     0
  9
$DIMTOH
 70
     0
  9
$DIMSE1
 70
     0
  9
$DIMSE2
 70
     0
  9
$DIMTAD
 70
     1
  9
$DIMZIN
 70
     8
  9
$DIMBLK
  1

  9
$DIMASO
 70
     1
  9
$DIMSHO
 70
     1
  9
$DIMPOST
  1

  9
$DIMAPOST
  1

  9
$DIMALT
 70
     0
  9
$DIMALTD
 70
     2
  9
$DIMALTF
 40
0.039
  9
$DIMLFAC
 40
1.0
  9
$DIMTOFL
 70
     1
  9
$DIMTVP
 40
0.0
  9
$DIMTIX
 70
     0
  9
$DIMSOXD
 70
     0
  9
$DIMSAH
 70
     1
  9
$DIMBLK1
  1
OPEN
  9
$DIMBLK2
  1
DOT
  9
$DIMSTYLE
  2
IGA
  9
$DIMCLRD
 70
     0
  9
$DIMCLRE
 70
     0
  9
$DIMCLRT
 70
     0
  9
$DIMTFAC
 40
10.0
  9
$DIMGAP
 40
1.0
  9
$LUNITS
 70
     2
  9
$LUPREC
 70
     3
  9
$SKETCHINC
 40
0.1
  9
$FILLETRAD
 40
50.0
  9
$AUNITS
 70
     0
  9
$AUPREC
 70
     0
  9
$MENU
  1
acad
  9
$ELEVATION
 40
0.0
  9
$PELEVATION
 40
0.0
  9
$THICKNESS
 40
0.0
  9
$LIMCHECK
 70
     0
  9
$BLIPMODE
 70
     0
  9
$CHAMFERA
 40
0.5
  9
$CHAMFERB
 40
0.5
  9
$SKPOLY
 70
     0
  9
$TDCREATE
 40
2451019.6100931708
  9
$TDUPDATE
 40
2454953.6391807641
  9
$TDINDWG
 40
0.0096236806
  9
$TDUSRTIMER
 40
0.0096236806
  9
$USRTIMER
 70
     1
  9
$ANGBASE
 50
0.0
  9
$ANGDIR
 70
     0
  9
$PDMODE
 70
     0
  9
$PDSIZE
 40
0.0
  9
$PLINEWID
 40
0.0
  9
$COORDS
 70
     1
  9
$SPLFRAME
 70
     0
  9
$SPLINETYPE
 70
     6
  9
$SPLINESEGS
 70
     8
  9
$ATTDIA
 70
     0
  9
$ATTREQ
 70
     1
  9
$HANDLING
 70
 10241
  9
$HANDSEED
  5
45F
  9
$SURFTAB1
 70
     6
  9
$SURFTAB2
 70
     6
  9
$SURFTYPE
 70
     6
  9
$SURFU
 70
     6
  9
$SURFV
 70
     6
  9
$UCSNAME
  2

  9
$UCSORG
 10
0.0
 20
0.0
 30
0.0
  9
$UCSXDIR
 10
1.0
 20
0.0
 30
0.0
  9
$UCSYDIR
 10
0.0
 20
1.0
 30
0.0
  9
$PUCSNAME
  2

  9
$PUCSORG
 10
0.0
 20
0.0
 30
0.0
  9
$PUCSXDIR
 10
1.0
 20
0.0
 30
0.0
  9
$PUCSYDIR
 10
0.0
 20
1.0
 30
0.0
  9
$USERI1
 70
     0
  9
$USERI2
 70
     0
  9
$USERI3
 70
     0
  9
$USERI4
 70
     0
  9
$USERI5
 70
     0
  9
$USERR1
 40
0.0
  9
$USERR2
 40
0.0
  9
$USERR3
 40
0.0
  9
$USERR4
 40
0.0
  9
$USERR5
 40
0.0
  9
$WORLDVIEW
 70
     1
  9
$SHADEDGE
 70
     3
  9
$SHADEDIF
 70
    70
  9
$TILEMODE
 70
     1
  9
$MAXACTVP
 70
    16
  9
$PLIMCHECK
 70
     0
  9
$PEXTMIN
 10
1.0000000000000000E+020
 20
1.0000000000000000E+020
 30
1.0000000000000000E+020
  9
$PEXTMAX
 10
-1.0000000000000000E+020
 20
-1.0000000000000000E+020
 30
-1.0000000000000000E+020
  9
$PLIMMIN
 10
0.0
 20
0.0
  9
$PLIMMAX
 10
12.0
 20
9.0
  9
$UNITMODE
 70
     0
  9
$VISRETAIN
 70
     0
  9
$PLINEGEN
 70
     0
  9
$PSLTSCALE
 70
     1
  0
ENDSEC
  0
SECTION
  2
TABLES
  0
TABLE
  2
VPORT
 70
     2
  0
VPORT
  2
*ACTIVE
 70
     0
 10
0.0
 20
0.0
 11
1.0
 21
1.0
 12
3979.6884322054329
 22
681.20484067187499
 13
0.0
 23
0.0
 14
10.0
 24
10.0
 15
10.0
 25
10.0
 16
0.0
 26
0.0
 36
1.0
 17
0.0
 27
0.0
 37
0.0
 40
1745.9328350868821
 41
3.1666666666666661
 42
50.0
 43
0.0
 44
0.0
 50
0.0
 51
0.0
 71
     0
 72
   100
 73
     1
 74
     0
 75
     0
 76
     0
 77
     0
 78
     0
  0
ENDTAB
  0
TABLE
  2
LTYPE
 70
     2
  0
LTYPE
  2
CONTINUOUS
 70
     0
  3
Solid line
 72
    65
 73
     0
 40
0.0
  0
LTYPE
  2
CENTER
 70
     0
  3
____ _ ____ _ ____ _ ____ _ ____ _ ____ _ ____ 
 72
    65
 73
     4
 40
2.0
 49
1.25
 49
-0.25
 49
0.25
 49
-0.25
  0
ENDTAB
  0
TABLE
  2
LAYER
 70
     6
  0
LAYER
  2
0
 70
     0
 62
     7
  6
CONTINUOUS
  0
LAYER
  2
3
 70
     0
 62
     2
  6
CONTINUOUS
  0
LAYER
  2
2
 70
     0
 62
     3
  6
CENTER
  0
LAYER
  2
1
 70
     0
 62
     4
  6
CONTINUOUS
  0
LAYER
  2
4
 70
     0
 62
     7
  6
CONTINUOUS
  0
LAYER
  2
DEFPOINTS
 70
     0
 62
     7
  6
CONTINUOUS
  0
ENDTAB
  0
TABLE
  2
STYLE
 70
     1
  0
STYLE
  2
STANDARD
 70
     0
 40
0.0
 41
1.0
 50
0.0
 71
     0
 42
180.0
  3
simplex.shx
  4
extfont.shx
  0
ENDTAB
  0
TABLE
  2
VIEW
 70
     0
  0
ENDTAB
  0
TABLE
  2
UCS
 70
     0
  0
ENDTAB
  0
TABLE
  2
APPID
 70
     1
  0
APPID
  2
ACAD
 70
     0
  0
ENDTAB
  0
TABLE
  2
DIMSTYLE
 70
     1
  0
DIMSTYLE
  2
IGA
 70
     0
  3

  4

  5

  6
OPEN
  7
OPEN
 40
2.0
 41
2.0
 42
0.5
 43
10.0
 44
1.0
 45
0.0
 46
0.0
 47
1.0
 48
1.0
140
3.0
141
0.0
142
0.0
143
0.03937
144
1.0
145
0.0
146
10.0
147
1.0
 71
     0
 72
     0
 73
     0
 74
     0
 75
     0
 76
     0
 77
     1
 78
     8
170
     0
171
     2
172
     0
173
     1
174
     0
175
     0
176
     0
177
     0
178
     0
  0
ENDTAB
  0
ENDSEC
  0
SECTION
  2
BLOCKS
  0
BLOCK
  8
0
  2
$MODEL_SPACE
 70
     0
 10
0.0
 20
0.0
 30
0.0
  3
$MODEL_SPACE
  1

  0
ENDBLK
  5
7
  8
0
  0
BLOCK
 67
     1
  8
0
  2
$PAPER_SPACE
 70
     0
 10
0.0
 20
0.0
 30
0.0
  3
$PAPER_SPACE
  1

  0
ENDBLK
  5
A
 67
     1
  8
0
  0
BLOCK
  8
0
  2
*D0
 70
     1
 10
0.0
 20
0.0
 30
0.0
  3
*D0
  1

  0
LINE
  5
30
  8
0
  6
BYBLOCK
 62
     0
 10
527.07576345990128
 20
1566.0744641198719
 30
0.0
 11
527.07576345990128
 21
1397.9224717563779
 31
0.0
  0
LINE
  5
31
  8
0
  6
BYBLOCK
 62
     0
 10
1242.0757634599011
 20
1528.129296440849
 30
0.0
 11
1242.0757634599011
 21
1397.9224717563779
 31
0.0
  0
LINE
  5
32
  8
0
  6
BYBLOCK
 62
     0
 10
567.07576345990117
 20
1417.9224717563779
 30
0.0
 11
1202.0757634599011
 21
1417.9224717563779
 31
0.0
  0
INSERT
  5
33
  8
0
  6
BYBLOCK
 62
     0
  2
_OPEN
 10
527.07576345990128
 20
1417.9224717563779
 30
0.0
 41
40.0
 42
40.0
 43
40.0
 50
180.0
  0
INSERT
  5
3A
  8
0
  6
BYBLOCK
 62
     0
  2
_OPEN
 10
1242.0757634599011
 20
1417.9224717563779
 30
0.0
 41
40.0
 42
40.0
 43
40.0
  0
TEXT
  5
3B
  8
1
 62
     0
 10
813.14719203132995
 20
1437.9224717563791
 30
0.0
 40
60.0
  1
715
  0
POINT
  5
3C
  8
DEFPOINTS
  6
BYBLOCK
 62
     0
 10
527.07576345990128
 20
1576.0744641198719
 30
0.0
  0
POINT
  5
3E
  8
DEFPOINTS
  6
BYBLOCK
 62
     0
 10
1242.0757634599011
 20
1538.1292964408501
 30
0.0
  0
POINT
  5
3F
  8
DEFPOINTS
  6
BYBLOCK
 62
     0
 10
1242.0757634599011
 20
1417.9224717563779
 30
0.0
  0
ENDBLK
  5
41
  8
0
  0
BLOCK
  8
0
  2
*D1
 70
     1
 10
0.0
 20
0.0
 30
0.0
  3
*D1
  1

  0
LINE
  5
DD
  8
0
  6
BYBLOCK
 62
     0
 10
818.07576345990128
 20
2427.0744641198721
 30
0.0
 11
818.07576345990128
 21
2597.9797560426791
 31
0.0
  0
LINE
  5
DE
  8
0
  6
BYBLOCK
 62
     0
 10
1242.0757634599011
 20
2461.2334556268929
 30
0.0
 11
1242.0757634599011
 21
2597.9797560426791
 31
0.0
  0
LINE
  5
DF
  8
0
  6
BYBLOCK
 62
     0
 10
858.07576345990128
 20
2577.9797560426791
 30
0.0
 11
1202.0757634599011
 21
2577.9797560426791
 31
0.0
  0
INSERT
  5
E0
  8
0
  6
BYBLOCK
 62
     0
  2
_OPEN
 10
818.07576345990128
 20
2577.9797560426791
 30
0.0
 41
40.0
 42
40.0
 43
40.0
 50
180.0
  0
INSERT
  5
E1
  8
0
  6
BYBLOCK
 62
     0
  2
_OPEN
 10
1242.0757634599011
 20
2577.9797560426791
 30
0.0
 41
40.0
 42
40.0
 43
40.0
  0
TEXT
  5
E2
  8
1
 62
     0
 10
951.50433488847273
 20
2597.9797560426791
 30
0.0
 40
60.0
  1
424
  0
POINT
  5
E3
  8
DEFPOINTS
  6
BYBLOCK
 62
     0
 10
818.07576345990128
 20
2417.0744641198721
 30
0.0
  0
POINT
  5
E4
  8
DEFPOINTS
  6
BYBLOCK
 62
     0
 10
1242.0757634599011
 20
2451.2334556268938
 30
0.0
  0
POINT
  5
E5
  8
DEFPOINTS
  6
BYBLOCK
 62
     0
 10
1242.0757634599011
 20
2577.9797560426791
 30
0.0
  0
ENDBLK
  5
E7
  8
0
  0
BLOCK
  8
0
  2
*D2
 70
     1
 10
0.0
 20
0.0
 30
0.0
  3
*D2
  1

  0
LINE
  5
D0
  8
0
  6
BYBLOCK
 62
     0
 10
818.07576345990128
 20
2427.0744641198721
 30
0.0
 11
818.07576345990128
 21
2508.7983719818822
 31
0.0
  0
LINE
  5
D1
  8
0
  6
BYBLOCK
 62
     0
 10
1230.0757634599011
 20
2427.0744641198721
 30
0.0
 11
1230.0757634599011
 21
2508.7983719818822
 31
0.0
  0
LINE
  5
D2
  8
0
  6
BYBLOCK
 62
     0
 10
858.07576345990128
 20
2488.7983719818822
 30
0.0
 11
1190.0757634599011
 21
2488.7983719818822
 31
0.0
  0
INSERT
  5
D3
  8
0
  6
BYBLOCK
 62
     0
  2
_OPEN
 10
818.07576345990128
 20
2488.7983719818822
 30
0.0
 41
40.0
 42
40.0
 43
40.0
 50
180.0
  0
INSERT
  5
D4
  8
0
  6
BYBLOCK
 62
     0
  2
_OPEN
 10
1230.0757634599011
 20
2488.7983719818822
 30
0.0
 41
40.0
 42
40.0
 43
40.0
  0
TEXT
  5
D5
  8
1
 62
     0
 10
952.64719203132984
 20
2508.7983719818822
 30
0.0
 40
60.0
  1
412
  0
POINT
  5
D6
  8
DEFPOINTS
  6
BYBLOCK
 62
     0
 10
818.07576345990128
 20
2417.0744641198721
 30
0.0
  0
POINT
  5
D7
  8
DEFPOINTS
  6
BYBLOCK
 62
     0
 10
1230.0757634599011
 20
2417.0744641198721
 30
0.0
  0
POINT
  5
D8
  8
DEFPOINTS
  6
BYBLOCK
 62
     0
 10
1230.0757634599011
 20
2488.7983719818822
 30
0.0
  0
ENDBLK
  5
DA
  8
0
  0
BLOCK
  8
0
  2
*D3
 70
     1
 10
0.0
 20
0.0
 30
0.0
  3
*D3
  1

  0
LINE
  5
92
  8
0
  6
BYBLOCK
 62
     0
 10
1467.0757634599011
 20
1576.0744641198719
 30
0.0
 11
1927.66029530169
 21
1576.0744641198719
 31
0.0
  0
LINE
  5
93
  8
0
  6
BYBLOCK
 62
     0
 10
1267.0757634599011
 20
2417.0744641198721
 30
0.0
 11
1927.66029530169
 21
2417.0744641198721
 31
0.0
  0
LINE
  5
94
  8
0
  6
BYBLOCK
 62
     0
 10
1907.6602953016891
 20
1616.0744641198719
 30
0.0
 11
1907.6602953016891
 21
2377.0744641198721
 31
0.0
  0
INSERT
  5
95
  8
0
  6
BYBLOCK
 62
     0
  2
_OPEN
 10
1907.6602953016891
 20
1576.0744641198719
 30
0.0
 41
40.0
 42
40.0
 43
40.0
 50
270.0
  0
INSERT
  5
96
  8
0
  6
BYBLOCK
 62
     0
  2
_OPEN
 10
1907.6602953016891
 20
2417.0744641198721
 30
0.0
 41
40.0
 42
40.0
 43
40.0
 50
90.0
  0
TEXT
  5
97
  8
1
 62
     0
 10
1887.66029530169
 20
1932.2887498341579
 30
0.0
 40
60.0
  1
841
 50
90.0
  0
POINT
  5
98
  8
DEFPOINTS
  6
BYBLOCK
 62
     0
 10
1457.0757634599011
 20
1576.0744641198719
 30
0.0
  0
POINT
  5
99
  8
DEFPOINTS
  6
BYBLOCK
 62
     0
 10
1257.0757634599011
 20
2417.0744641198721
 30
0.0
  0
POINT
  5
9A
  8
DEFPOINTS
  6
BYBLOCK
 62
     0
 10
1907.6602953016891
 20
2417.0744641198721
 30
0.0
  0
ENDBLK
  5
9C
  8
0
  0
BLOCK
  8
0
  2
*D4
 70
     1
 10
0.0
 20
0.0
 30
0.0
  3
*D4
  1

  0
LINE
  5
124
  8
0
  6
BYBLOCK
 62
     0
 10
1467.0757634599011
 20
1687.074464119873
 30
0.0
 11
1703.973198485136
 21
1687.074464119873
 31
0.0
  0
LINE
  5
125
  8
0
  6
BYBLOCK
 62
     0
 10
1467.0757634599011
 20
1651.0744641198719
 30
0.0
 11
1703.973198485136
 21
1651.0744641198719
 31
0.0
  0
LINE
  5
126
  8
0
  6
BYBLOCK
 62
     0
 10
1683.973198485136
 20
1727.074464119873
 30
0.0
 11
1683.973198485136
 21
1767.0744641198719
 31
0.0
  0
LINE
  5
127
  8
0
  6
BYBLOCK
 62
     0
 10
1683.973198485136
 20
1611.0744641198719
 30
0.0
 11
1683.973198485136
 21
1571.0744641198719
 31
0.0
  0
TEXT
  5
128
  8
1
 62
     0
 10
1798.5635042999961
 20
1595.0639020000169
 30
0.0
 40
60.0
  1
(36)
 50
90.0
  0
LINE
  5
129
  8
0
  6
BYBLOCK
 62
     0
 10
1683.973198485136
 20
1687.074464119873
 30
0.0
 11
1683.973198485136
 21
1651.0744641198719
 31
0.0
  0
INSERT
  5
12A
  8
0
  6
BYBLOCK
 62
     0
  2
_OPEN
 10
1683.973198485136
 20
1687.074464119873
 30
0.0
 41
40.0
 42
40.0
 43
40.0
 50
270.0
  0
INSERT
  5
12B
  8
0
  6
BYBLOCK
 62
     0
  2
_DOT
 10
1683.973198485136
 20
1651.0744641198719
 30
0.0
 41
40.0
 42
40.0
 43
40.0
 50
90.0
  0
POINT
  5
134
  8
DEFPOINTS
  6
BYBLOCK
 62
     0
 10
1457.0757634599011
 20
1687.074464119873
 30
0.0
  0
POINT
  5
135
  8
DEFPOINTS
  6
BYBLOCK
 62
     0
 10
1457.0757634599011
 20
1651.0744641198719
 30
0.0
  0
POINT
  5
136
  8
DEFPOINTS
  6
BYBLOCK
 62
     0
 10
1683.973198485136
 20
1651.0744641198719
 30
0.0
  0
ENDBLK
  5
138
  8
0
  0
BLOCK
  8
0
  2
*D5
 70
     1
 10
0.0
 20
0.0
 30
0.0
  3
*D5
  1

  0
LINE
  5
116
  8
0
  6
BYBLOCK
 62
     0
 10
1569.453533099178
 20
2112.0744641198721
 30
0.0
 11
1703.973198485136
 21
2112.0744641198721
 31
0.0
  0
LINE
  5
117
  8
0
  6
BYBLOCK
 62
     0
 10
1467.0757634599011
 20
1687.074464119873
 30
0.0
 11
1703.973198485136
 21
1687.074464119873
 31
0.0
  0
LINE
  5
118
  8
0
  6
BYBLOCK
 62
     0
 10
1683.973198485136
 20
2072.0744641198721
 30
0.0
 11
1683.973198485136
 21
1727.074464119873
 31
0.0
  0
INSERT
  5
119
  8
0
  6
BYBLOCK
 62
     0
  2
_OPEN
 10
1683.973198485136
 20
2112.0744641198721
 30
0.0
 41
40.0
 42
40.0
 43
40.0
 50
90.0
  0
INSERT
  5
11A
  8
0
  6
BYBLOCK
 62
     0
  2
_OPEN
 10
1683.973198485136
 20
1687.074464119873
 30
0.0
 41
40.0
 42
40.0
 43
40.0
 50
270.0
  0
TEXT
  5
11B
  8
1
 62
     0
 10
1663.9731984851369
 20
1822.431606977015
 30
0.0
 40
60.0
  1
425
 50
90.0
  0
POINT
  5
11C
  8
DEFPOINTS
  6
BYBLOCK
 62
     0
 10
1559.453533099178
 20
2112.0744641198721
 30
0.0
  0
POINT
  5
11D
  8
DEFPOINTS
  6
BYBLOCK
 62
     0
 10
1457.0757634599011
 20
1687.074464119873
 30
0.0
  0
POINT
  5
11E
  8
DEFPOINTS
  6
BYBLOCK
 62
     0
 10
1683.973198485136
 20
1687.074464119873
 30
0.0
  0
ENDBLK
  5
120
  8
0
  0
BLOCK
  8
0
  2
*D6
 70
     1
 10
0.0
 20
0.0
 30
0.0
  3
*D6
  1

  0
LINE
  5
13B
  8
0
  6
BYBLOCK
 62
     0
 10
1467.0757634599011
 20
1651.0744641198719
 30
0.0
 11
1703.973198485136
 21
1651.0744641198719
 31
0.0
  0
LINE
  5
13C
  8
0
  6
BYBLOCK
 62
     0
 10
1467.0757634599011
 20
1576.0744641198719
 30
0.0
 11
1703.973198485136
 21
1576.0744641198719
 31
0.0
  0
LINE
  5
13D
  8
0
  6
BYBLOCK
 62
     0
 10
1683.973198485136
 20
1691.0744641198719
 30
0.0
 11
1683.973198485136
 21
1731.0744641198719
 31
0.0
  0
LINE
  5
13E
  8
0
  6
BYBLOCK
 62
     0
 10
1683.973198485136
 20
1536.0744641198719
 30
0.0
 11
1683.973198485136
 21
1358.931606977015
 31
0.0
  0
LINE
  5
13F
  8
0
  6
BYBLOCK
 62
     0
 10
1683.973198485136
 20
1651.0744641198719
 30
0.0
 11
1683.973198485136
 21
1576.0744641198719
 31
0.0
  0
INSERT
  5
140
  8
0
  6
BYBLOCK
 62
     0
  2
_DOT
 10
1683.973198485136
 20
1651.0744641198719
 30
0.0
 41
40.0
 42
40.0
 43
40.0
 50
270.0
  0
INSERT
  5
141
  8
0
  6
BYBLOCK
 62
     0
  2
_OPEN
 10
1683.973198485136
 20
1576.0744641198719
 30
0.0
 41
40.0
 42
40.0
 43
40.0
 50
90.0
  0
TEXT
  5
142
  8
1
 62
     0
 10
1663.9731984851369
 20
1378.931606977015
 30
0.0
 40
60.0
  1
75
 50
90.0
  0
POINT
  5
143
  8
DEFPOINTS
  6
BYBLOCK
 62
     0
 10
1457.0757634599011
 20
1651.0744641198719
 30
0.0
  0
POINT
  5
144
  8
DEFPOINTS
  6
BYBLOCK
 62
     0
 10
1457.0757634599011
 20
1576.0744641198719
 30
0.0
  0
POINT
  5
145
  8
DEFPOINTS
  6
BYBLOCK
 62
     0
 10
1683.973198485136
 20
1576.0744641198719
 30
0.0
  0
ENDBLK
  5
147
  8
0
  0
BLOCK
  8
0
  2
*D7
 70
     1
 10
0.0
 20
0.0
 30
0.0
  3
*D7
  1

  0
LINE
  5
85
  8
0
  6
BYBLOCK
 62
     0
 10
1242.0757634599011
 20
1528.129296440849
 30
0.0
 11
1242.0757634599011
 21
1397.9224717563779
 31
0.0
  0
LINE
  5
86
  8
0
  6
BYBLOCK
 62
     0
 10
1457.0757634599011
 20
1566.0744641198719
 30
0.0
 11
1457.0757634599011
 21
1397.9224717563779
 31
0.0
  0
LINE
  5
87
  8
0
  6
BYBLOCK
 62
     0
 10
1282.0757634599011
 20
1417.9224717563779
 30
0.0
 11
1417.0757634599011
 21
1417.9224717563779
 31
0.0
  0
TEXT
  5
88
  8
1
 62
     0
 10
1278.14719203133
 20
1438.0023791203221
 30
0.0
 40
60.0
  1
215
  0
INSERT
  5
89
  8
0
  6
BYBLOCK
 62
     0
  2
_OPEN
 10
1242.0757634599011
 20
1417.9224717563779
 30
0.0
 41
40.0
 42
40.0
 43
40.0
 50
180.0
  0
INSERT
  5
8A
  8
0
  6
BYBLOCK
 62
     0
  2
_OPEN
 10
1457.0757634599011
 20
1417.9224717563779
 30
0.0
 41
40.0
 42
40.0
 43
40.0
  0
POINT
  5
8B
  8
DEFPOINTS
  6
BYBLOCK
 62
     0
 10
1242.0757634599011
 20
1538.1292964408501
 30
0.0
  0
POINT
  5
8C
  8
DEFPOINTS
  6
BYBLOCK
 62
     0
 10
1457.0757634599011
 20
1576.0744641198719
 30
0.0
  0
POINT
  5
8D
  8
DEFPOINTS
  6
BYBLOCK
 62
     0
 10
1457.0757634599011
 20
1417.9224717563779
 30
0.0
  0
ENDBLK
  5
8F
  8
0
  0
BLOCK
  8
0
  2
*D8
 70
     1
 10
0.0
 20
0.0
 30
0.0
  3
*D8
  1

  0
LINE
  5
9F
  8
0
  6
BYBLOCK
 62
     0
 10
1267.0757634599011
 20
2417.0744641198721
 30
0.0
 11
1703.973198485136
 21
2417.0744641198721
 31
0.0
  0
LINE
  5
A0
  8
0
  6
BYBLOCK
 62
     0
 10
1569.453533099178
 20
2112.0744641198721
 30
0.0
 11
1703.973198485136
 21
2112.0744641198721
 31
0.0
  0
LINE
  5
A1
  8
0
  6
BYBLOCK
 62
     0
 10
1683.973198485136
 20
2377.0744641198721
 30
0.0
 11
1683.973198485136
 21
2152.0744641198721
 31
0.0
  0
INSERT
  5
A2
  8
0
  6
BYBLOCK
 62
     0
  2
_OPEN
 10
1683.973198485136
 20
2417.0744641198721
 30
0.0
 41
40.0
 42
40.0
 43
40.0
 50
90.0
  0
INSERT
  5
A3
  8
0
  6
BYBLOCK
 62
     0
  2
_OPEN
 10
1683.973198485136
 20
2112.0744641198721
 30
0.0
 41
40.0
 42
40.0
 43
40.0
 50
270.0
  0
TEXT
  5
A4
  8
1
 62
     0
 10
1663.9731984851369
 20
2187.4316069770148
 30
0.0
 40
60.0
  1
305
 50
90.0
  0
POINT
  5
A5
  8
DEFPOINTS
  6
BYBLOCK
 62
     0
 10
1257.0757634599011
 20
2417.0744641198721
 30
0.0
  0
POINT
  5
A6
  8
DEFPOINTS
  6
BYBLOCK
 62
     0
 10
1559.453533099178
 20
2112.0744641198721
 30
0.0
  0
POINT
  5
A7
  8
DEFPOINTS
  6
BYBLOCK
 62
     0
 10
1683.973198485136
 20
2112.0744641198721
 30
0.0
  0
ENDBLK
  5
A9
  8
0
  0
BLOCK
  8
0
  2
*D9
 70
     1
 10
0.0
 20
0.0
 30
0.0
  3
*D9
  1

  0
LINE
  5
AC
  8
0
  6
BYBLOCK
 62
     0
 10
1242.0757634599011
 20
2461.2334556268929
 30
0.0
 11
1242.0757634599011
 21
2597.9797560426791
 31
0.0
  0
LINE
  5
AD
  8
0
  6
BYBLOCK
 62
     0
 10
1524.0834804219171
 20
2092.0744641198721
 30
0.0
 11
1524.0834804219171
 21
2597.9797560426791
 31
0.0
  0
LINE
  5
AE
  8
0
  6
BYBLOCK
 62
     0
 10
1282.0757634599011
 20
2577.9797560426791
 30
0.0
 11
1484.0834804219171
 21
2577.9797560426791
 31
0.0
  0
INSERT
  5
AF
  8
0
  6
BYBLOCK
 62
     0
  2
_OPEN
 10
1242.0757634599011
 20
2577.9797560426791
 30
0.0
 41
40.0
 42
40.0
 43
40.0
 50
180.0
  0
INSERT
  5
B0
  8
0
  6
BYBLOCK
 62
     0
  2
_OPEN
 10
1524.0834804219171
 20
2577.9797560426791
 30
0.0
 41
40.0
 42
40.0
 43
40.0
  0
TEXT
  5
B1
  8
1
 62
     0
 10
1305.9367647980521
 20
2597.9797560426791
 30
0.0
 40
60.0
  1
282
  0
POINT
  5
B2
  8
DEFPOINTS
  6
BYBLOCK
 62
     0
 10
1242.0757634599011
 20
2451.2334556268938
 30
0.0
  0
POINT
  5
B3
  8
DEFPOINTS
  6
BYBLOCK
 62
     0
 10
1524.0834804219171
 20
2082.0744641198721
 30
0.0
  0
POINT
  5
B4
  8
DEFPOINTS
  6
BYBLOCK
 62
     0
 10
1524.0834804219171
 20
2577.9797560426791
 30
0.0
  0
ENDBLK
  5
B6
  8
0
  0
BLOCK
  8
0
  2
*D10
 70
     1
 10
0.0
 20
0.0
 30
0.0
  3
*D10
  1

  0
LINE
  5
15B
  8
0
  6
BYBLOCK
 62
     0
 10
1027.0757634599011
 20
4153.2595297880043
 30
0.0
 11
1027.0757634599011
 21
4278.0099711966895
 31
0.0
  0
LINE
  5
15C
  8
0
  6
BYBLOCK
 62
     0
 10
527.07576345990128
 20
3713.259529788003
 30
0.0
 11
527.07576345990128
 21
4278.0099711966895
 31
0.0
  0
LINE
  5
15D
  8
0
  6
BYBLOCK
 62
     0
 10
987.07576345990117
 20
4258.0099711966886
 30
0.0
 11
567.07576345990117
 21
4258.0099711966886
 31
0.0
  0
INSERT
  5
15E
  8
0
  6
BYBLOCK
 62
     0
  2
_OPEN
 10
1027.0757634599011
 20
4258.0099711966886
 30
0.0
 41
40.0
 42
40.0
 43
40.0
  0
INSERT
  5
15F
  8
0
  6
BYBLOCK
 62
     0
  2
_OPEN
 10
527.07576345990128
 20
4258.0099711966886
 30
0.0
 41
40.0
 42
40.0
 43
40.0
 50
180.0
  0
TEXT
  5
160
  8
1
 62
     0
 10
699.93290631704406
 20
4278.0099711966895
 30
0.0
 40
60.0
  1
500
  0
POINT
  5
161
  8
DEFPOINTS
  6
BYBLOCK
 62
     0
 10
1027.0757634599011
 20
4143.2595297880043
 30
0.0
  0
POINT
  5
162
  8
DEFPOINTS
  6
BYBLOCK
 62
     0
 10
527.07576345990128
 20
3703.259529788003
 30
0.0
  0
POINT
  5
163
  8
DEFPOINTS
  6
BYBLOCK
 62
     0
 10
527.07576345990128
 20
4258.0099711966886
 30
0.0
  0
ENDBLK
  5
165
  8
0
  0
BLOCK
  8
0
  2
*D11
 70
     1
 10
0.0
 20
0.0
 30
0.0
  3
*D11
  1

  0
LINE
  5
14E
  8
0
  6
BYBLOCK
 62
     0
 10
527.07576345990128
 20
3273.259529788003
 30
0.0
 11
527.07576345990128
 21
3045.0843755637738
 31
0.0
  0
LINE
  5
14F
  8
0
  6
BYBLOCK
 62
     0
 10
1457.0757634599011
 20
3273.259529788003
 30
0.0
 11
1457.0757634599011
 21
3045.0843755637738
 31
0.0
  0
LINE
  5
150
  8
0
  6
BYBLOCK
 62
     0
 10
567.07576345990117
 20
3065.0843755637738
 30
0.0
 11
1417.0757634599011
 21
3065.0843755637738
 31
0.0
  0
INSERT
  5
151
  8
0
  6
BYBLOCK
 62
     0
  2
_OPEN
 10
527.07576345990128
 20
3065.0843755637738
 30
0.0
 41
40.0
 42
40.0
 43
40.0
 50
180.0
  0
INSERT
  5
152
  8
0
  6
BYBLOCK
 62
     0
  2
_OPEN
 10
1457.0757634599011
 20
3065.0843755637738
 30
0.0
 41
40.0
 42
40.0
 43
40.0
  0
TEXT
  5
153
  8
1
 62
     0
 10
914.93290631704406
 20
3085.0843755637738
 30
0.0
 40
60.0
  1
930
  0
POINT
  5
154
  8
DEFPOINTS
  6
BYBLOCK
 62
     0
 10
527.07576345990128
 20
3283.259529788003
 30
0.0
  0
POINT
  5
155
  8
DEFPOINTS
  6
BYBLOCK
 62
     0
 10
1457.0757634599011
 20
3283.259529788003
 30
0.0
  0
POINT
  5
156
  8
DEFPOINTS
  6
BYBLOCK
 62
     0
 10
1457.0757634599011
 20
3065.0843755637738
 30
0.0
  0
ENDBLK
  5
158
  8
0
  0
BLOCK
  8
0
  2
*D12
 70
     1
 10
0.0
 20
0.0
 30
0.0
  3
*D12
  1

  0
LINE
  5
171
  8
0
  6
BYBLOCK
 62
     0
 10
517.07576345990117
 20
3283.259529788003
 30
0.0
 11
431.73182529953368
 21
3283.259529788003
 31
0.0
  0
LINE
  5
172
  8
0
  6
BYBLOCK
 62
     0
 10
517.07576345990117
 20
3703.259529788003
 30
0.0
 11
431.73182529953368
 21
3703.259529788003
 31
0.0
  0
LINE
  5
173
  8
0
  6
BYBLOCK
 62
     0
 10
451.73182529953368
 20
3323.259529788003
 30
0.0
 11
451.73182529953368
 21
3663.259529788003
 31
0.0
  0
INSERT
  5
174
  8
0
  6
BYBLOCK
 62
     0
  2
_OPEN
 10
451.73182529953368
 20
3283.259529788003
 30
0.0
 41
40.0
 42
40.0
 43
40.0
 50
270.0
  0
INSERT
  5
175
  8
0
  6
BYBLOCK
 62
     0
  2
_OPEN
 10
451.73182529953368
 20
3703.259529788003
 30
0.0
 41
40.0
 42
40.0
 43
40.0
 50
90.0
  0
TEXT
  5
176
  8
1
 62
     0
 10
431.73182529953368
 20
3416.1166726451461
 30
0.0
 40
60.0
  1
420
 50
90.0
  0
POINT
  5
177
  8
DEFPOINTS
  6
BYBLOCK
 62
     0
 10
527.07576345990128
 20
3283.259529788003
 30
0.0
  0
POINT
  5
178
  8
DEFPOINTS
  6
BYBLOCK
 62
     0
 10
527.07576345990128
 20
3703.259529788003
 30
0.0
  0
POINT
  5
179
  8
DEFPOINTS
  6
BYBLOCK
 62
     0
 10
451.73182529953368
 20
3703.259529788003
 30
0.0
  0
ENDBLK
  5
17B
  8
0
  0
BLOCK
  8
0
  2
*D13
 70
     1
 10
0.0
 20
0.0
 30
0.0
  3
*D13
  1

  0
LINE
  5
1EC
  8
0
  6
BYBLOCK
 62
     0
 10
1467.0757634599011
 20
3283.259529788003
 30
0.0
 11
1763.2182386019281
 21
3283.259529788003
 31
0.0
  0
LINE
  5
1ED
  8
0
  6
BYBLOCK
 62
     0
 10
1467.0757634599011
 20
4143.2595297880043
 30
0.0
 11
1763.2182386019281
 21
4143.2595297880043
 31
0.0
  0
LINE
  5
1EE
  8
0
  6
BYBLOCK
 62
     0
 10
1743.2182386019281
 20
3323.259529788003
 30
0.0
 11
1743.2182386019281
 21
4103.2595297880043
 31
0.0
  0
INSERT
  5
1EF
  8
0
  6
BYBLOCK
 62
     0
  2
_OPEN
 10
1743.2182386019281
 20
3283.259529788003
 30
0.0
 41
40.0
 42
40.0
 43
40.0
 50
270.0
  0
INSERT
  5
1F0
  8
0
  6
BYBLOCK
 62
     0
  2
_OPEN
 10
1743.2182386019281
 20
4143.2595297880043
 30
0.0
 41
40.0
 42
40.0
 43
40.0
 50
90.0
  0
TEXT
  5
1F1
  8
1
 62
     0
 10
1723.2182386019281
 20
3636.1166726451461
 30
0.0
 40
60.0
  1
860
 50
90.0
  0
POINT
  5
1F2
  8
DEFPOINTS
  6
BYBLOCK
 62
     0
 10
1457.0757634599011
 20
3283.259529788003
 30
0.0
  0
POINT
  5
1F3
  8
DEFPOINTS
  6
BYBLOCK
 62
     0
 10
1457.0757634599011
 20
4143.2595297880043
 30
0.0
  0
POINT
  5
1F4
  8
DEFPOINTS
  6
BYBLOCK
 62
     0
 10
1743.2182386019281
 20
4143.2595297880043
 30
0.0
  0
ENDBLK
  5
1F6
  8
0
  0
BLOCK
  8
0
  2
*D14
 70
     1
 10
0.0
 20
0.0
 30
0.0
  3
*D14
  1

  0
LINE
  5
19D
  8
0
  6
BYBLOCK
 62
     0
 10
1457.0757634599011
 20
4153.2595297880043
 30
0.0
 11
1457.0757634599011
 21
4278.0099711966895
 31
0.0
  0
LINE
  5
19E
  8
0
  6
BYBLOCK
 62
     0
 10
1027.0757634599011
 20
4153.2595297880043
 30
0.0
 11
1027.0757634599011
 21
4278.0099711966895
 31
0.0
  0
LINE
  5
19F
  8
0
  6
BYBLOCK
 62
     0
 10
1417.0757634599011
 20
4258.0099711966886
 30
0.0
 11
1067.0757634599011
 21
4258.0099711966886
 31
0.0
  0
INSERT
  5
1A0
  8
0
  6
BYBLOCK
 62
     0
  2
_OPEN
 10
1457.0757634599011
 20
4258.0099711966886
 30
0.0
 41
40.0
 42
40.0
 43
40.0
  0
INSERT
  5
1A1
  8
0
  6
BYBLOCK
 62
     0
  2
_OPEN
 10
1027.0757634599011
 20
4258.0099711966886
 30
0.0
 41
40.0
 42
40.0
 43
40.0
 50
180.0
  0
TEXT
  5
1A2
  8
1
 62
     0
 10
1164.9329063170439
 20
4278.0099711966895
 30
0.0
 40
60.0
  1
430
  0
POINT
  5
1A3
  8
DEFPOINTS
  6
BYBLOCK
 62
     0
 10
1457.0757634599011
 20
4143.2595297880043
 30
0.0
  0
POINT
  5
1A4
  8
DEFPOINTS
  6
BYBLOCK
 62
     0
 10
1027.0757634599011
 20
4143.2595297880043
 30
0.0
  0
POINT
  5
1A5
  8
DEFPOINTS
  6
BYBLOCK
 62
     0
 10
1027.0757634599011
 20
4258.0099711966886
 30
0.0
  0
ENDBLK
  5
1A7
  8
0
  0
BLOCK
  8
0
  2
*D15
 70
     1
 10
0.0
 20
0.0
 30
0.0
  3
*D15
  1

  0
LINE
  5
21E
  8
0
  6
BYBLOCK
 62
     0
 10
2458.8796986894081
 20
1566.0744641198719
 30
0.0
 11
2458.8796986894081
 21
1398.2759560304889
 31
0.0
  0
LINE
  5
21F
  8
0
  6
BYBLOCK
 62
     0
 10
3123.8796986894099
 20
1528.129296440849
 30
0.0
 11
3123.8796986894099
 21
1398.2759560304889
 31
0.0
  0
LINE
  5
220
  8
0
  6
BYBLOCK
 62
     0
 10
2498.879698689409
 20
1418.275956030488
 30
0.0
 11
3083.8796986894099
 21
1418.275956030488
 31
0.0
  0
INSERT
  5
221
  8
0
  6
BYBLOCK
 62
     0
  2
_OPEN
 10
2458.8796986894081
 20
1418.275956030488
 30
0.0
 41
40.0
 42
40.0
 43
40.0
 50
180.0
  0
INSERT
  5
222
  8
0
  6
BYBLOCK
 62
     0
  2
_OPEN
 10
3123.8796986894099
 20
1418.275956030488
 30
0.0
 41
40.0
 42
40.0
 43
40.0
  0
TEXT
  5
223
  8
1
 62
     0
 10
2714.2368415465521
 20
1438.2759560304889
 30
0.0
 40
60.0
  1
665
  0
POINT
  5
224
  8
DEFPOINTS
  6
BYBLOCK
 62
     0
 10
2458.8796986894081
 20
1576.0744641198719
 30
0.0
  0
POINT
  5
225
  8
DEFPOINTS
  6
BYBLOCK
 62
     0
 10
3123.8796986894099
 20
1538.1292964408501
 30
0.0
  0
POINT
  5
226
  8
DEFPOINTS
  6
BYBLOCK
 62
     0
 10
3123.8796986894099
 20
1418.275956030488
 30
0.0
  0
ENDBLK
  5
228
  8
0
  0
BLOCK
  8
0
  2
*D16
 70
     1
 10
0.0
 20
0.0
 30
0.0
  3
*D16
  1

  0
LINE
  5
285
  8
0
  6
BYBLOCK
 62
     0
 10
3123.8796986894099
 20
1528.129296440849
 30
0.0
 11
3123.8796986894099
 21
1398.2759560304889
 31
0.0
  0
LINE
  5
286
  8
0
  6
BYBLOCK
 62
     0
 10
3318.8796986894099
 20
1566.0744641198719
 30
0.0
 11
3318.8796986894099
 21
1398.2759560304889
 31
0.0
  0
LINE
  5
287
  8
0
  6
BYBLOCK
 62
     0
 10
3163.8796986894099
 20
1418.275956030488
 30
0.0
 11
3278.8796986894099
 21
1418.275956030488
 31
0.0
  0
TEXT
  5
288
  8
1
 62
     0
 10
3149.9511272608379
 20
1446.0187337650091
 30
0.0
 40
60.0
  1
195
  0
INSERT
  5
289
  8
0
  6
BYBLOCK
 62
     0
  2
_OPEN
 10
3123.8796986894099
 20
1418.275956030488
 30
0.0
 41
40.0
 42
40.0
 43
40.0
 50
180.0
  0
INSERT
  5
28A
  8
0
  6
BYBLOCK
 62
     0
  2
_OPEN
 10
3318.8796986894099
 20
1418.275956030488
 30
0.0
 41
40.0
 42
40.0
 43
40.0
  0
POINT
  5
28B
  8
DEFPOINTS
  6
BYBLOCK
 62
     0
 10
3123.8796986894099
 20
1538.1292964408501
 30
0.0
  0
POINT
  5
28C
  8
DEFPOINTS
  6
BYBLOCK
 62
     0
 10
3318.8796986894099
 20
1576.0744641198719
 30
0.0
  0
POINT
  5
28D
  8
DEFPOINTS
  6
BYBLOCK
 62
     0
 10
3318.8796986894099
 20
1418.275956030488
 30
0.0
  0
ENDBLK
  5
28F
  8
0
  0
BLOCK
  8
0
  2
*D17
 70
     1
 10
0.0
 20
0.0
 30
0.0
  3
*D17
  1

  0
LINE
  5
211
  8
0
  6
BYBLOCK
 62
     0
 10
2363.8796986894081
 20
2272.0744641198721
 30
0.0
 11
2363.8796986894081
 21
2641.3266003479398
 31
0.0
  0
LINE
  5
212
  8
0
  6
BYBLOCK
 62
     0
 10
3123.8796986894099
 20
2601.3534097697279
 30
0.0
 11
3123.8796986894099
 21
2641.3266003479398
 31
0.0
  0
LINE
  5
213
  8
0
  6
BYBLOCK
 62
     0
 10
2403.8796986894081
 20
2621.3266003479398
 30
0.0
 11
3083.8796986894099
 21
2621.3266003479398
 31
0.0
  0
INSERT
  5
214
  8
0
  6
BYBLOCK
 62
     0
  2
_OPEN
 10
2363.8796986894081
 20
2621.3266003479398
 30
0.0
 41
40.0
 42
40.0
 43
40.0
 50
180.0
  0
INSERT
  5
215
  8
0
  6
BYBLOCK
 62
     0
  2
_OPEN
 10
3123.8796986894099
 20
2621.3266003479398
 30
0.0
 41
40.0
 42
40.0
 43
40.0
  0
TEXT
  5
216
  8
1
 62
     0
 10
2666.7368415465521
 20
2641.3266003479398
 30
0.0
 40
60.0
  1
760
  0
POINT
  5
217
  8
DEFPOINTS
  6
BYBLOCK
 62
     0
 10
2363.8796986894081
 20
2262.0744641198721
 30
0.0
  0
POINT
  5
218
  8
DEFPOINTS
  6
BYBLOCK
 62
     0
 10
3123.8796986894099
 20
2591.3534097697279
 30
0.0
  0
POINT
  5
219
  8
DEFPOINTS
  6
BYBLOCK
 62
     0
 10
3123.8796986894099
 20
2621.3266003479398
 30
0.0
  0
ENDBLK
  5
21B
  8
0
  0
BLOCK
  8
0
  2
*D18
 70
     1
 10
0.0
 20
0.0
 30
0.0
  3
*D18
  1

  0
LINE
  5
1FF
  8
0
  6
BYBLOCK
 62
     0
 10
3311.8796986894099
 20
2312.0744641198721
 30
0.0
 11
3492.9209028191121
 21
2312.0744641198721
 31
0.0
  0
LINE
  5
200
  8
0
  6
BYBLOCK
 62
     0
 10
3311.8796986894099
 20
1912.0744641198719
 30
0.0
 11
3492.9209028191121
 21
1912.0744641198719
 31
0.0
  0
LINE
  5
201
  8
0
  6
BYBLOCK
 62
     0
 10
3472.9209028191131
 20
2272.0744641198721
 30
0.0
 11
3472.9209028191131
 21
1952.0744641198719
 31
0.0
  0
INSERT
  5
202
  8
0
  6
BYBLOCK
 62
     0
  2
_OPEN
 10
3472.9209028191131
 20
2312.0744641198721
 30
0.0
 41
40.0
 42
40.0
 43
40.0
 50
90.0
  0
INSERT
  5
203
  8
0
  6
BYBLOCK
 62
     0
  2
_OPEN
 10
3472.9209028191131
 20
1912.0744641198719
 30
0.0
 41
40.0
 42
40.0
 43
40.0
 50
270.0
  0
TEXT
  5
204
  8
1
 62
     0
 10
3452.9209028191121
 20
2004.931606977015
 30
0.0
 40
60.0
  1
φ400
 50
90.0
  0
POINT
  5
205
  8
DEFPOINTS
  6
BYBLOCK
 62
     0
 10
3301.8796986894099
 20
2312.0744641198721
 30
0.0
  0
POINT
  5
206
  8
DEFPOINTS
  6
BYBLOCK
 62
     0
 10
3301.8796986894099
 20
1912.0744641198719
 30
0.0
  0
POINT
  5
207
  8
DEFPOINTS
  6
BYBLOCK
 62
     0
 10
3472.9209028191131
 20
1912.0744641198719
 30
0.0
  0
ENDBLK
  5
209
  8
0
  0
BLOCK
  8
0
  2
*D19
 70
     1
 10
0.0
 20
0.0
 30
0.0
  3
*D19
  1

  0
LINE
  5
2E5
  8
0
  6
BYBLOCK
 62
     0
 10
3123.8796986894099
 20
2601.3534097697279
 30
0.0
 11
3123.8796986894099
 21
2641.3266003479398
 31
0.0
  0
LINE
  5
2E6
  8
0
  6
BYBLOCK
 62
     0
 10
3276.8796986894099
 20
2347.0744641198721
 30
0.0
 11
3276.8796986894099
 21
2641.3266003479398
 31
0.0
  0
LINE
  5
2E7
  8
0
  6
BYBLOCK
 62
     0
 10
3163.8796986894099
 20
2621.3266003479398
 30
0.0
 11
3236.8796986894099
 21
2621.3266003479398
 31
0.0
  0
TEXT
  5
2E8
  8
1
 62
     0
 10
3128.9511272608388
 20
2671.3266003479398
 30
0.0
 40
60.0
  1
153
  0
INSERT
  5
2E9
  8
0
  6
BYBLOCK
 62
     0
  2
_OPEN
 10
3123.8796986894099
 20
2621.3266003479398
 30
0.0
 41
40.0
 42
40.0
 43
40.0
 50
180.0
  0
INSERT
  5
2EA
  8
0
  6
BYBLOCK
 62
     0
  2
_OPEN
 10
3276.8796986894099
 20
2621.3266003479398
 30
0.0
 41
40.0
 42
40.0
 43
40.0
  0
POINT
  5
2EB
  8
DEFPOINTS
  6
BYBLOCK
 62
     0
 10
3123.8796986894099
 20
2591.3534097697279
 30
0.0
  0
POINT
  5
2EC
  8
DEFPOINTS
  6
BYBLOCK
 62
     0
 10
3276.8796986894099
 20
2337.0744641198721
 30
0.0
  0
POINT
  5
2ED
  8
DEFPOINTS
  6
BYBLOCK
 62
     0
 10
3276.8796986894099
 20
2621.3266003479398
 30
0.0
  0
ENDBLK
  5
2EF
  8
0
  0
BLOCK
  8
0
  2
*D20
 70
     1
 10
0.0
 20
0.0
 30
0.0
  3
*D20
  1

  0
LINE
  5
2B7
  8
0
  6
BYBLOCK
 62
     0
 10
2973.8796986894099
 20
2427.0744641198721
 30
0.0
 11
2973.8796986894099
 21
2508.7488576603582
 31
0.0
  0
LINE
  5
2B8
  8
0
  6
BYBLOCK
 62
     0
 10
3273.8796986894099
 20
2427.0744641198721
 30
0.0
 11
3273.8796986894099
 21
2508.7488576603582
 31
0.0
  0
LINE
  5
2B9
  8
0
  6
BYBLOCK
 62
     0
 10
3013.8796986894099
 20
2488.7488576603582
 30
0.0
 11
3233.8796986894099
 21
2488.7488576603582
 31
0.0
  0
INSERT
  5
2BA
  8
0
  6
BYBLOCK
 62
     0
  2
_OPEN
 10
2973.8796986894099
 20
2488.7488576603582
 30
0.0
 41
40.0
 42
40.0
 43
40.0
 50
180.0
  0
INSERT
  5
2BB
  8
0
  6
BYBLOCK
 62
     0
  2
_OPEN
 10
3273.8796986894099
 20
2488.7488576603582
 30
0.0
 41
40.0
 42
40.0
 43
40.0
  0
TEXT
  5
2BC
  8
1
 62
     0
 10
3046.7368415465521
 20
2508.7488576603582
 30
0.0
 40
60.0
  1
300
  0
POINT
  5
2BD
  8
DEFPOINTS
  6
BYBLOCK
 62
     0
 10
2973.8796986894099
 20
2417.0744641198721
 30
0.0
  0
POINT
  5
2BE
  8
DEFPOINTS
  6
BYBLOCK
 62
     0
 10
3273.8796986894099
 20
2417.0744641198721
 30
0.0
  0
POINT
  5
2BF
  8
DEFPOINTS
  6
BYBLOCK
 62
     0
 10
3273.8796986894099
 20
2488.7488576603582
 30
0.0
  0
ENDBLK
  5
2C1
  8
0
  0
BLOCK
  8
0
  2
_OPEN
 70
     0
 10
0.0
 20
0.0
 30
0.0
  3
_OPEN
  1

  0
LINE
  5
35
  8
0
  6
BYBLOCK
 62
     0
 10
-1.0
 20
0.1666666666666666
 30
0.0
 11
0.0
 21
0.0
 31
0.0
  0
LINE
  5
36
  8
0
  6
BYBLOCK
 62
     0
 10
0.0
 20
0.0
 30
0.0
 11
-1.0
 21
-0.1666666666666666
 31
0.0
  0
LINE
  5
37
  8
0
  6
BYBLOCK
 62
     0
 10
0.0
 20
0.0
 30
0.0
 11
-1.0
 21
0.0
 31
0.0
  0
ENDBLK
  5
39
  8
0
  0
BLOCK
  8
0
  2
_DOT
 70
     0
 10
0.0
 20
0.0
 30
0.0
  3
_DOT
  1

  0
LINE
  5
12D
  8
0
  6
BYBLOCK
 62
     0
 10
0.0
 20
0.0
 30
0.0
 11
-1.0
 21
-0.0000000000000284
 31
0.0
  0
POLYLINE
  5
12E
  8
0
  6
BYBLOCK
 62
     0
 66
     1
 10
0.0
 20
0.0
 30
0.0
 70
     1
 40
0.1666666666666666
 41
0.1666666666666666
  0
VERTEX
  5
397
  8
0
  6
BYBLOCK
 62
     0
 10
-0.0833333333333286
 20
-0.0000000000000284
 30
0.0
 42
1.0
  0
VERTEX
  5
398
  8
0
  6
BYBLOCK
 62
     0
 10
0.0833333333333286
 20
-0.0000000000000284
 30
0.0
 42
1.0
  0
SEQEND
  5
399
  8
0
  6
BYBLOCK
 62
     0
  0
ENDBLK
  5
133
  8
0
  0
BLOCK
  8
0
  2
*D23
 70
     1
 10
0.0
 20
0.0
 30
0.0
  3
*D23
  1

  0
LINE
  5
44
  8
0
  6
BYBLOCK
 62
     0
 10
1522.6378594147191
 20
2122.0744641198721
 30
0.0
 11
1522.6378594147191
 21
2722.5216400413969
 31
0.0
  0
LINE
  5
45
  8
0
  6
BYBLOCK
 62
     0
 10
527.07576345990128
 20
1772.0744641198719
 30
0.0
 11
527.07576345990128
 21
2722.5216400413969
 31
0.0
  0
LINE
  5
46
  8
0
  6
BYBLOCK
 62
     0
 10
1482.6378594147191
 20
2702.5216400413969
 30
0.0
 11
567.07576345990117
 21
2702.5216400413969
 31
0.0
  0
INSERT
  5
47
  8
0
  6
BYBLOCK
 62
     0
  2
_OPEN
 10
1522.6378594147191
 20
2702.5216400413969
 30
0.0
 41
40.0
 42
40.0
 43
40.0
  0
INSERT
  5
48
  8
0
  6
BYBLOCK
 62
     0
  2
_OPEN
 10
527.07576345990128
 20
2702.5216400413969
 30
0.0
 41
40.0
 42
40.0
 43
40.0
 50
180.0
  0
TEXT
  5
49
  8
1
 62
     0
 10
1025.192279659957
 20
2722.5216400413969
 30
0.0
 40
60.0
  1
996
  0
POINT
  5
4A
  8
DEFPOINTS
  6
BYBLOCK
 62
     0
 10
1522.6378594147191
 20
2112.0744641198721
 30
0.0
  0
POINT
  5
4B
  8
DEFPOINTS
  6
BYBLOCK
 62
     0
 10
527.07576345990128
 20
1762.074464119873
 30
0.0
  0
POINT
  5
4C
  8
DEFPOINTS
  6
BYBLOCK
 62
     0
 10
527.07576345990128
 20
2702.5216400413969
 30
0.0
  0
ENDBLK
  5
4E
  8
0
  0
BLOCK
  8
0
  2
*D24
 70
     1
 10
0.0
 20
0.0
 30
0.0
  3
*D24
  1

  0
LINE
  5
321
  8
3
 62
     0
 10
527.07576345990128
 20
1566.0744641198719
 30
0.0
 11
527.07576345990128
 21
1397.9224717563779
 31
0.0
  0
LINE
  5
322
  8
3
 62
     0
 10
1242.0757634599011
 20
1528.129296440849
 30
0.0
 11
1242.0757634599011
 21
1397.9224717563779
 31
0.0
  0
LINE
  5
323
  8
3
 62
     0
 10
567.07576345990117
 20
1417.9224717563779
 30
0.0
 11
1202.0757634599011
 21
1417.9224717563779
 31
0.0
  0
INSERT
  5
324
  8
3
 62
     0
  2
_OPEN
 10
527.07576345990128
 20
1417.9224717563779
 30
0.0
 41
40.0
 42
40.0
 43
40.0
 50
180.0
  0
INSERT
  5
325
  8
3
 62
     0
  2
_OPEN
 10
1242.0757634599011
 20
1417.9224717563779
 30
0.0
 41
40.0
 42
40.0
 43
40.0
  0
TEXT
  8
3
  40
60
  5
44D
  62
0
  72
0
  71
0
 10
764.576
 20
1361.72
 30
0.000000
  1
715
  0
POINT
  5
327
  8
DEFPOINTS
 62
     0
 10
527.07576345990128
 20
1576.0744641198719
 30
0.0
  0
POINT
  5
328
  8
DEFPOINTS
 62
     0
 10
1242.0757634599011
 20
1538.1292964408501
 30
0.0
  0
POINT
  5
329
  8
DEFPOINTS
 62
     0
 10
1242.0757634599011
 20
1417.9224717563779
 30
0.0
  0
ENDBLK
  5
32B
  8
0
  0
BLOCK
  8
0
  2
*D25
 70
     1
 10
0.0
 20
0.0
 30
0.0
  3
*D25
  1

  0
LINE
  5
32D
  8
3
 62
     0
 10
1522.6378594147191
 20
2122.0744641198721
 30
0.0
 11
1522.6378594147191
 21
2722.5216400413969
 31
0.0
  0
LINE
  5
32E
  8
3
 62
     0
 10
527.07576345990128
 20
1772.0744641198719
 30
0.0
 11
527.07576345990128
 21
2722.5216400413969
 31
0.0
  0
LINE
  5
32F
  8
3
 62
     0
 10
1482.6378594147191
 20
2702.5216400413969
 30
0.0
 11
567.0757634599014
 21
2702.5216400413969
 31
0.0
  0
INSERT
  5
330
  8
3
 62
     0
  2
_OPEN
 10
1522.6378594147191
 20
2702.5216400413969
 30
0.0
 41
40.0
 42
40.0
 43
40.0
  0
INSERT
  5
331
  8
3
 62
     0
  2
_OPEN
 10
527.07576345990128
 20
2702.5216400413969
 30
0.0
 41
40.0
 42
40.0
 43
40.0
 50
180.0
  0
TEXT
  8
3
  40
60
  5
44E
  62
0
  72
0
  71
0
 10
980.907
 20
2646.32
 30
0.000000
  1
996
  0
POINT
  5
333
  8
DEFPOINTS
 62
     0
 10
1522.6378594147191
 20
2112.0744641198721
 30
0.0
  0
POINT
  5
334
  8
DEFPOINTS
 62
     0
 10
527.07576345990128
 20
1762.074464119873
 30
0.0
  0
POINT
  5
335
  8
DEFPOINTS
 62
     0
 10
527.07576345990128
 20
2702.5216400413969
 30
0.0
  0
ENDBLK
  5
337
  8
0
  0
BLOCK
  8
0
  2
*D26
 70
     1
 10
0.0
 20
0.0
 30
0.0
  3
*D26
  1

  0
LINE
  5
339
  8
3
 62
     0
 10
1467.0757634599011
 20
1576.0744641198719
 30
0.0
 11
1927.66029530169
 21
1576.0744641198719
 31
0.0
  0
LINE
  5
33A
  8
3
 62
     0
 10
1267.0757634599011
 20
2417.0744641198721
 30
0.0
 11
1927.66029530169
 21
2417.0744641198721
 31
0.0
  0
LINE
  5
33B
  8
3
 62
     0
 10
1907.6602953016891
 20
1616.0744641198719
 30
0.0
 11
1907.6602953016891
 21
2377.0744641198721
 31
0.0
  0
INSERT
  5
33C
  8
3
 62
     0
  2
_OPEN
 10
1907.6602953016891
 20
1576.0744641198719
 30
0.0
 41
40.0
 42
40.0
 43
40.0
 50
270.0
  0
INSERT
  5
33D
  8
3
 62
     0
  2
_OPEN
 10
1907.6602953016891
 20
2417.0744641198721
 30
0.0
 41
40.0
 42
40.0
 43
40.0
 50
90.0
  0
TEXT
  8
3
  40
60
  5
44F
  62
0
  72
0
  71
0
 10
1737.66
 20
1890.37
 30
0.000000
  1
841
  0
POINT
  5
33F
  8
DEFPOINTS
 62
     0
 10
1457.0757634599011
 20
1576.0744641198719
 30
0.0
  0
POINT
  5
340
  8
DEFPOINTS
 62
     0
 10
1257.0757634599011
 20
2417.0744641198721
 30
0.0
  0
POINT
  5
341
  8
DEFPOINTS
 62
     0
 10
1907.6602953016891
 20
2417.0744641198721
 30
0.0
  0
ENDBLK
  5
343
  8
0
  0
BLOCK
  8
0
  2
*D27
 70
     1
 10
0.0
 20
0.0
 30
0.0
  3
*D27
  1

  0
LINE
  5
345
  8
3
 62
     0
 10
1267.0757634599011
 20
2417.0744641198721
 30
0.0
 11
1703.973198485136
 21
2417.0744641198721
 31
0.0
  0
LINE
  5
346
  8
3
 62
     0
 10
1569.453533099178
 20
2112.0744641198721
 30
0.0
 11
1703.973198485136
 21
2112.0744641198721
 31
0.0
  0
LINE
  5
347
  8
3
 62
     0
 10
1683.973198485136
 20
2377.0744641198721
 30
0.0
 11
1683.973198485136
 21
2152.0744641198721
 31
0.0
  0
INSERT
  5
348
  8
3
 62
     0
  2
_OPEN
 10
1683.973198485136
 20
2417.0744641198721
 30
0.0
 41
40.0
 42
40.0
 43
40.0
 50
90.0
  0
INSERT
  5
349
  8
3
 62
     0
  2
_OPEN
 10
1683.973198485136
 20
2112.0744641198721
 30
0.0
 41
40.0
 42
40.0
 43
40.0
 50
270.0
  0
TEXT
  8
3
  40
60
  5
450
  62
0
  72
0
  71
0
 10
1513.97
 20
2158.37
 30
0.000000
  1
305
  0
POINT
  5
34B
  8
DEFPOINTS
 62
     0
 10
1257.0757634599011
 20
2417.0744641198721
 30
0.0
  0
POINT
  5
34C
  8
DEFPOINTS
 62
     0
 10
1559.453533099178
 20
2112.0744641198721
 30
0.0
  0
POINT
  5
34D
  8
DEFPOINTS
 62
     0
 10
1683.973198485136
 20
2112.0744641198721
 30
0.0
  0
ENDBLK
  5
34F
  8
0
  0
BLOCK
  8
0
  2
*D28
 70
     1
 10
0.0
 20
0.0
 30
0.0
  3
*D28
  1

  0
LINE
  5
351
  8
3
 62
     0
 10
1242.0757634599011
 20
2461.2334556268929
 30
0.0
 11
1242.0757634599011
 21
2597.9797560426791
 31
0.0
  0
LINE
  5
352
  8
3
 62
     0
 10
1524.0834804219171
 20
2092.0744641198721
 30
0.0
 11
1524.0834804219171
 21
2597.9797560426791
 31
0.0
  0
LINE
  5
353
  8
3
 62
     0
 10
1282.0757634599011
 20
2577.9797560426791
 30
0.0
 11
1484.0834804219171
 21
2577.9797560426791
 31
0.0
  0
INSERT
  5
354
  8
3
 62
     0
  2
_OPEN
 10
1242.0757634599011
 20
2577.9797560426791
 30
0.0
 41
40.0
 42
40.0
 43
40.0
 50
180.0
  0
INSERT
  5
355
  8
3
 62
     0
  2
_OPEN
 10
1524.0834804219171
 20
2577.9797560426791
 30
0.0
 41
40.0
 42
40.0
 43
40.0
  0
TEXT
  8
3
  40
60
  5
451
  62
0
  72
0
  71
0
 10
1263.08
 20
2521.78
 30
0.000000
  1
282
  0
POINT
  5
357
  8
DEFPOINTS
 62
     0
 10
1242.0757634599011
 20
2451.2334556268938
 30
0.0
  0
POINT
  5
358
  8
DEFPOINTS
 62
     0
 10
1524.0834804219171
 20
2082.0744641198721
 30
0.0
  0
POINT
  5
359
  8
DEFPOINTS
 62
     0
 10
1524.0834804219171
 20
2577.9797560426791
 30
0.0
  0
ENDBLK
  5
35B
  8
0
  0
BLOCK
  8
0
  2
*D29
 70
     1
 10
0.0
 20
0.0
 30
0.0
  3
*D29
  1

  0
LINE
  5
35D
  8
3
 62
     0
 10
818.07576345990128
 20
2427.0744641198721
 30
0.0
 11
818.07576345990128
 21
2508.7983719818822
 31
0.0
  0
LINE
  5
35E
  8
3
 62
     0
 10
1230.0757634599011
 20
2427.0744641198721
 30
0.0
 11
1230.0757634599011
 21
2508.7983719818822
 31
0.0
  0
LINE
  5
35F
  8
3
 62
     0
 10
858.07576345990128
 20
2488.7983719818822
 30
0.0
 11
1190.0757634599011
 21
2488.7983719818822
 31
0.0
  0
INSERT
  5
360
  8
3
 62
     0
  2
_OPEN
 10
818.07576345990128
 20
2488.7983719818822
 30
0.0
 41
40.0
 42
40.0
 43
40.0
 50
180.0
  0
INSERT
  5
361
  8
3
 62
     0
  2
_OPEN
 10
1230.0757634599011
 20
2488.7983719818822
 30
0.0
 41
40.0
 42
40.0
 43
40.0
  0
TEXT
  8
3
  40
60
  5
452
  62
0
  72
0
  71
0
 10
904.076
 20
2432.60
 30
0.000000
  1
412
  0
POINT
  5
363
  8
DEFPOINTS
 62
     0
 10
818.07576345990128
 20
2417.0744641198721
 30
0.0
  0
POINT
  5
364
  8
DEFPOINTS
 62
     0
 10
1230.0757634599011
 20
2417.0744641198721
 30
0.0
  0
POINT
  5
365
  8
DEFPOINTS
 62
     0
 10
1230.0757634599011
 20
2488.7983719818822
 30
0.0
  0
ENDBLK
  5
367
  8
0
  0
BLOCK
  8
0
  2
*D30
 70
     1
 10
0.0
 20
0.0
 30
0.0
  3
*D30
  1

  0
LINE
  5
369
  8
3
 62
     0
 10
818.07576345990128
 20
2427.0744641198721
 30
0.0
 11
818.07576345990128
 21
2597.9797560426791
 31
0.0
  0
LINE
  5
36A
  8
3
 62
     0
 10
1242.0757634599011
 20
2461.2334556268929
 30
0.0
 11
1242.0757634599011
 21
2597.9797560426791
 31
0.0
  0
LINE
  5
36B
  8
3
 62
     0
 10
858.07576345990128
 20
2577.9797560426791
 30
0.0
 11
1202.0757634599011
 21
2577.9797560426791
 31
0.0
  0
INSERT
  5
36C
  8
3
 62
     0
  2
_OPEN
 10
818.07576345990128
 20
2577.9797560426791
 30
0.0
 41
40.0
 42
40.0
 43
40.0
 50
180.0
  0
INSERT
  5
36D
  8
3
 62
     0
  2
_OPEN
 10
1242.0757634599011
 20
2577.9797560426791
 30
0.0
 41
40.0
 42
40.0
 43
40.0
  0
TEXT
  8
3
  40
60
  5
453
  62
0
  72
0
  71
0
 10
910.076
 20
2521.78
 30
0.000000
  1
424
  0
POINT
  5
36F
  8
DEFPOINTS
 62
     0
 10
818.07576345990128
 20
2417.0744641198721
 30
0.0
  0
POINT
  5
370
  8
DEFPOINTS
 62
     0
 10
1242.0757634599011
 20
2451.2334556268938
 30
0.0
  0
POINT
  5
371
  8
DEFPOINTS
 62
     0
 10
1242.0757634599011
 20
2577.9797560426791
 30
0.0
  0
ENDBLK
  5
373
  8
0
  0
BLOCK
  8
0
  2
*D31
 70
     1
 10
0.0
 20
0.0
 30
0.0
  3
*D31
  1

  0
LINE
  5
38C
  8
3
 62
     0
 10
1569.453533099178
 20
2112.0744641198721
 30
0.0
 11
1703.973198485136
 21
2112.0744641198721
 31
0.0
  0
LINE
  5
38D
  8
3
 62
     0
 10
1467.0757634599011
 20
1687.074464119873
 30
0.0
 11
1703.973198485136
 21
1687.0744641198719
 31
0.0
  0
LINE
  5
38E
  8
3
 62
     0
 10
1683.973198485136
 20
2072.0744641198721
 30
0.0
 11
1683.973198485136
 21
1727.0744641198719
 31
0.0
  0
INSERT
  5
38F
  8
3
 62
     0
  2
_OPEN
 10
1683.973198485136
 20
2112.0744641198721
 30
0.0
 41
40.0
 42
40.0
 43
40.0
 50
90.0
  0
INSERT
  5
390
  8
3
 62
     0
  2
_OPEN
 10
1683.973198485136
 20
1687.0744641198719
 30
0.0
 41
40.0
 42
40.0
 43
40.0
 50
270.0
  0
TEXT
  8
3
  40
60
  5
454
  62
0
  72
0
  71
0
 10
1513.97
 20
1793.37
 30
0.000000
  1
425
  0
POINT
  5
392
  8
DEFPOINTS
 62
     0
 10
1559.453533099178
 20
2112.0744641198721
 30
0.0
  0
POINT
  5
393
  8
DEFPOINTS
 62
     0
 10
1457.0757634599011
 20
1687.074464119873
 30
0.0
  0
POINT
  5
394
  8
DEFPOINTS
 62
     0
 10
1683.973198485136
 20
1687.0744641198719
 30
0.0
  0
ENDBLK
  5
396
  8
0
  0
BLOCK
  8
0
  2
*D32
 70
     1
 10
0.0
 20
0.0
 30
0.0
  3
*D32
  1

  0
LINE
  5
39B
  8
3
 62
     0
 10
1467.0757634599011
 20
1651.0744641198719
 30
0.0
 11
1703.973198485136
 21
1651.0744641198719
 31
0.0
  0
LINE
  5
39C
  8
3
 62
     0
 10
1467.0757634599011
 20
1576.0744641198719
 30
0.0
 11
1703.973198485136
 21
1576.0744641198719
 31
0.0
  0
LINE
  5
39D
  8
3
 62
     0
 10
1683.973198485136
 20
1691.0744641198719
 30
0.0
 11
1683.973198485136
 21
1731.0744641198719
 31
0.0
  0
LINE
  5
39E
  8
3
 62
     0
 10
1683.973198485136
 20
1536.0744641198719
 30
0.0
 11
1683.973198485136
 21
1358.931606977015
 31
0.0
  0
LINE
  5
39F
  8
3
 62
     0
 10
1683.973198485136
 20
1651.0744641198719
 30
0.0
 11
1683.973198485136
 21
1576.0744641198719
 31
0.0
  0
INSERT
  5
3A0
  8
3
 62
     0
  2
_DOT
 10
1683.973198485136
 20
1651.0744641198719
 30
0.0
 41
40.0
 42
40.0
 43
40.0
 50
270.0
  0
INSERT
  5
3A1
  8
3
 62
     0
  2
_OPEN
 10
1683.973198485136
 20
1576.0744641198719
 30
0.0
 41
40.0
 42
40.0
 43
40.0
 50
90.0
  0
TEXT
  8
3
  40
60
  5
455
  62
0
  72
0
  71
0
 10
1513.97
 20
1321.30
 30
0.000000
  1
75
  0
POINT
  5
3A3
  8
DEFPOINTS
 62
     0
 10
1457.0757634599011
 20
1651.0744641198719
 30
0.0
  0
POINT
  5
3A4
  8
DEFPOINTS
 62
     0
 10
1457.0757634599011
 20
1576.0744641198719
 30
0.0
  0
POINT
  5
3A5
  8
DEFPOINTS
 62
     0
 10
1683.973198485136
 20
1576.0744641198719
 30
0.0
  0
ENDBLK
  5
3A7
  8
0
  0
BLOCK
  8
0
  2
*D33
 70
     1
 10
0.0
 20
0.0
 30
0.0
  3
*D33
  1

  0
LINE
  5
3A9
  8
3
 62
     0
 10
527.07576345990128
 20
3273.259529788003
 30
0.0
 11
527.07576345990128
 21
3045.0843755637738
 31
0.0
  0
LINE
  5
3AA
  8
3
 62
     0
 10
1457.0757634599011
 20
3273.259529788003
 30
0.0
 11
1457.0757634599011
 21
3045.0843755637738
 31
0.0
  0
LINE
  5
3AB
  8
3
 62
     0
 10
567.07576345990117
 20
3065.0843755637738
 30
0.0
 11
1417.0757634599011
 21
3065.0843755637738
 31
0.0
  0
INSERT
  5
3AC
  8
3
 62
     0
  2
_OPEN
 10
527.07576345990128
 20
3065.0843755637738
 30
0.0
 41
40.0
 42
40.0
 43
40.0
 50
180.0
  0
INSERT
  5
3AD
  8
3
 62
     0
  2
_OPEN
 10
1457.0757634599011
 20
3065.0843755637738
 30
0.0
 41
40.0
 42
40.0
 43
40.0
  0
TEXT
  8
3
  40
60
  5
456
  62
0
  72
0
  71
0
 10
872.076
 20
3008.88
 30
0.000000
  1
930
  0
POINT
  5
3AF
  8
DEFPOINTS
 62
     0
 10
527.07576345990128
 20
3283.259529788003
 30
0.0
  0
POINT
  5
3B0
  8
DEFPOINTS
 62
     0
 10
1457.0757634599011
 20
3283.259529788003
 30
0.0
  0
POINT
  5
3B1
  8
DEFPOINTS
 62
     0
 10
1457.0757634599011
 20
3065.0843755637738
 30
0.0
  0
ENDBLK
  5
3B3
  8
0
  0
BLOCK
  8
0
  2
*D34
 70
     1
 10
0.0
 20
0.0
 30
0.0
  3
*D34
  1

  0
LINE
  5
3B5
  8
3
 62
     0
 10
1027.0757634599011
 20
4153.2595297880043
 30
0.0
 11
1027.0757634599011
 21
4278.0099711966895
 31
0.0
  0
LINE
  5
3B6
  8
3
 62
     0
 10
527.07576345990128
 20
3713.259529788003
 30
0.0
 11
527.07576345990128
 21
4278.0099711966895
 31
0.0
  0
LINE
  5
3B7
  8
3
 62
     0
 10
987.07576345990117
 20
4258.0099711966886
 30
0.0
 11
567.07576345990117
 21
4258.0099711966886
 31
0.0
  0
INSERT
  5
3B8
  8
3
 62
     0
  2
_OPEN
 10
1027.0757634599011
 20
4258.0099711966886
 30
0.0
 41
40.0
 42
40.0
 43
40.0
  0
INSERT
  5
3B9
  8
3
 62
     0
  2
_OPEN
 10
527.07576345990128
 20
4258.0099711966886
 30
0.0
 41
40.0
 42
40.0
 43
40.0
 50
180.0
  0
TEXT
  8
3
  40
60
  5
457
  62
0
  72
0
  71
0
 10
657.076
 20
4201.81
 30
0.000000
  1
500
  0
POINT
  5
3BB
  8
DEFPOINTS
 62
     0
 10
1027.0757634599011
 20
4143.2595297880043
 30
0.0
  0
POINT
  5
3BC
  8
DEFPOINTS
 62
     0
 10
527.07576345990128
 20
3703.259529788003
 30
0.0
  0
POINT
  5
3BD
  8
DEFPOINTS
 62
     0
 10
527.07576345990128
 20
4258.0099711966886
 30
0.0
  0
ENDBLK
  5
3BF
  8
0
  0
BLOCK
  8
0
  2
*D35
 70
     1
 10
0.0
 20
0.0
 30
0.0
  3
*D35
  1

  0
LINE
  5
3C1
  8
3
 62
     0
 10
517.07576345990117
 20
3283.259529788003
 30
0.0
 11
431.73182529953363
 21
3283.259529788003
 31
0.0
  0
LINE
  5
3C2
  8
3
 62
     0
 10
517.07576345990117
 20
3703.259529788003
 30
0.0
 11
431.73182529953368
 21
3703.259529788003
 31
0.0
  0
LINE
  5
3C3
  8
3
 62
     0
 10
451.73182529953368
 20
3323.259529788003
 30
0.0
 11
451.73182529953368
 21
3663.259529788003
 31
0.0
  0
INSERT
  5
3C4
  8
3
 62
     0
  2
_OPEN
 10
451.73182529953368
 20
3283.259529788003
 30
0.0
 41
40.0
 42
40.0
 43
40.0
 50
270.0
  0
INSERT
  5
3C5
  8
3
 62
     0
  2
_OPEN
 10
451.73182529953368
 20
3703.259529788003
 30
0.0
 41
40.0
 42
40.0
 43
40.0
 50
90.0
  0
TEXT
  8
3
  40
60
  5
458
  62
0
  72
0
  71
0
 10
281.732
 20
3387.06
 30
0.000000
  1
420
  0
POINT
  5
3C7
  8
DEFPOINTS
 62
     0
 10
527.07576345990128
 20
3283.259529788003
 30
0.0
  0
POINT
  5
3C8
  8
DEFPOINTS
 62
     0
 10
527.07576345990128
 20
3703.259529788003
 30
0.0
  0
POINT
  5
3C9
  8
DEFPOINTS
 62
     0
 10
451.73182529953368
 20
3703.259529788003
 30
0.0
  0
ENDBLK
  5
3CB
  8
0
  0
BLOCK
  8
0
  2
*D36
 70
     1
 10
0.0
 20
0.0
 30
0.0
  3
*D36
  1

  0
LINE
  5
3CD
  8
3
 62
     0
 10
1457.0757634599011
 20
4153.2595297880043
 30
0.0
 11
1457.0757634599011
 21
4278.0099711966895
 31
0.0
  0
LINE
  5
3CE
  8
3
 62
     0
 10
1027.0757634599011
 20
4153.2595297880043
 30
0.0
 11
1027.0757634599011
 21
4278.0099711966895
 31
0.0
  0
LINE
  5
3CF
  8
3
 62
     0
 10
1417.0757634599011
 20
4258.0099711966886
 30
0.0
 11
1067.0757634599011
 21
4258.0099711966886
 31
0.0
  0
INSERT
  5
3D0
  8
3
 62
     0
  2
_OPEN
 10
1457.0757634599011
 20
4258.0099711966886
 30
0.0
 41
40.0
 42
40.0
 43
40.0
  0
INSERT
  5
3D1
  8
3
 62
     0
  2
_OPEN
 10
1027.0757634599011
 20
4258.0099711966886
 30
0.0
 41
40.0
 42
40.0
 43
40.0
 50
180.0
  0
TEXT
  8
3
  40
60
  5
459
  62
0
  72
0
  71
0
 10
1122.08
 20
4201.81
 30
0.000000
  1
430
  0
POINT
  5
3D3
  8
DEFPOINTS
 62
     0
 10
1457.0757634599011
 20
4143.2595297880043
 30
0.0
  0
POINT
  5
3D4
  8
DEFPOINTS
 62
     0
 10
1027.0757634599011
 20
4143.2595297880043
 30
0.0
  0
POINT
  5
3D5
  8
DEFPOINTS
 62
     0
 10
1027.0757634599011
 20
4258.0099711966886
 30
0.0
  0
ENDBLK
  5
3D7
  8
0
  0
BLOCK
  8
0
  2
*D37
 70
     1
 10
0.0
 20
0.0
 30
0.0
  3
*D37
  1

  0
LINE
  5
3D9
  8
3
 62
     0
 10
1467.0757634599011
 20
3283.259529788003
 30
0.0
 11
1763.2182386019281
 21
3283.259529788003
 31
0.0
  0
LINE
  5
3DA
  8
3
 62
     0
 10
1467.0757634599011
 20
4143.2595297880043
 30
0.0
 11
1763.2182386019281
 21
4143.2595297880043
 31
0.0
  0
LINE
  5
3DB
  8
3
 62
     0
 10
1743.2182386019281
 20
3323.259529788003
 30
0.0
 11
1743.2182386019281
 21
4103.2595297880043
 31
0.0
  0
INSERT
  5
3DC
  8
3
 62
     0
  2
_OPEN
 10
1743.2182386019281
 20
3283.259529788003
 30
0.0
 41
40.0
 42
40.0
 43
40.0
 50
270.0
  0
INSERT
  5
3DD
  8
3
 62
     0
  2
_OPEN
 10
1743.2182386019281
 20
4143.2595297880043
 30
0.0
 41
40.0
 42
40.0
 43
40.0
 50
90.0
  0
TEXT
  8
3
  40
60
  5
45A
  62
0
  72
0
  71
0
 10
1573.22
 20
3607.06
 30
0.000000
  1
860
  0
POINT
  5
3DF
  8
DEFPOINTS
 62
     0
 10
1457.0757634599011
 20
3283.259529788003
 30
0.0
  0
POINT
  5
3E0
  8
DEFPOINTS
 62
     0
 10
1457.0757634599011
 20
4143.2595297880043
 30
0.0
  0
POINT
  5
3E1
  8
DEFPOINTS
 62
     0
 10
1743.2182386019281
 20
4143.2595297880043
 30
0.0
  0
ENDBLK
  5
3E3
  8
0
  0
BLOCK
  8
0
  2
*D38
 70
     1
 10
0.0
 20
0.0
 30
0.0
  3
*D38
  1

  0
LINE
  5
3E5
  8
3
 62
     0
 10
3311.8796986894099
 20
2312.0744641198721
 30
0.0
 11
3492.9209028191121
 21
2312.0744641198721
 31
0.0
  0
LINE
  5
3E6
  8
3
 62
     0
 10
3311.8796986894099
 20
1912.0744641198719
 30
0.0
 11
3492.9209028191121
 21
1912.0744641198719
 31
0.0
  0
LINE
  5
3E7
  8
3
 62
     0
 10
3472.9209028191131
 20
2272.0744641198721
 30
0.0
 11
3472.9209028191131
 21
1952.0744641198719
 31
0.0
  0
INSERT
  5
3E8
  8
3
 62
     0
  2
_OPEN
 10
3472.9209028191131
 20
2312.0744641198721
 30
0.0
 41
40.0
 42
40.0
 43
40.0
 50
90.0
  0
INSERT
  5
3E9
  8
3
 62
     0
  2
_OPEN
 10
3472.9209028191131
 20
1912.0744641198719
 30
0.0
 41
40.0
 42
40.0
 43
40.0
 50
270.0
  0
TEXT
  8
3
  40
60
  5
45B
  62
0
  72
0
  71
0
 10
3302.92
 20
2005.87
 30
0.000000
  1
φ400
  0
POINT
  5
3EB
  8
DEFPOINTS
 62
     0
 10
3301.8796986894099
 20
2312.0744641198721
 30
0.0
  0
POINT
  5
3EC
  8
DEFPOINTS
 62
     0
 10
3301.8796986894099
 20
1912.0744641198719
 30
0.0
  0
POINT
  5
3ED
  8
DEFPOINTS
 62
     0
 10
3472.9209028191131
 20
1912.0744641198719
 30
0.0
  0
ENDBLK
  5
3EF
  8
0
  0
BLOCK
  8
0
  2
*D39
 70
     1
 10
0.0
 20
0.0
 30
0.0
  3
*D39
  1

  0
LINE
  5
3F1
  8
3
 62
     0
 10
2363.8796986894081
 20
2272.0744641198721
 30
0.0
 11
2363.8796986894081
 21
2641.3266003479398
 31
0.0
  0
LINE
  5
3F2
  8
3
 62
     0
 10
3123.8796986894099
 20
2601.3534097697279
 30
0.0
 11
3123.8796986894099
 21
2641.3266003479398
 31
0.0
  0
LINE
  5
3F3
  8
3
 62
     0
 10
2403.8796986894081
 20
2621.3266003479398
 30
0.0
 11
3083.8796986894099
 21
2621.3266003479398
 31
0.0
  0
INSERT
  5
3F4
  8
3
 62
     0
  2
_OPEN
 10
2363.8796986894081
 20
2621.3266003479398
 30
0.0
 41
40.0
 42
40.0
 43
40.0
 50
180.0
  0
INSERT
  5
3F5
  8
3
 62
     0
  2
_OPEN
 10
3123.8796986894099
 20
2621.3266003479398
 30
0.0
 41
40.0
 42
40.0
 43
40.0
  0
TEXT
  8
3
  40
60
  5
45C
  62
0
  72
0
  71
0
 10
2623.88
 20
2565.13
 30
0.000000
  1
760
  0
POINT
  5
3F7
  8
DEFPOINTS
 62
     0
 10
2363.8796986894081
 20
2262.0744641198721
 30
0.0
  0
POINT
  5
3F8
  8
DEFPOINTS
 62
     0
 10
3123.8796986894099
 20
2591.3534097697279
 30
0.0
  0
POINT
  5
3F9
  8
DEFPOINTS
 62
     0
 10
3123.8796986894099
 20
2621.3266003479398
 30
0.0
  0
ENDBLK
  5
3FB
  8
0
  0
BLOCK
  8
0
  2
*D40
 70
     1
 10
0.0
 20
0.0
 30
0.0
  3
*D40
  1

  0
LINE
  5
3FD
  8
3
 62
     0
 10
2458.8796986894081
 20
1566.0744641198719
 30
0.0
 11
2458.8796986894081
 21
1398.2759560304889
 31
0.0
  0
LINE
  5
3FE
  8
3
 62
     0
 10
3123.8796986894099
 20
1528.129296440849
 30
0.0
 11
3123.8796986894099
 21
1398.2759560304889
 31
0.0
  0
LINE
  5
3FF
  8
3
 62
     0
 10
2498.879698689409
 20
1418.275956030488
 30
0.0
 11
3083.8796986894099
 21
1418.275956030488
 31
0.0
  0
INSERT
  5
400
  8
3
 62
     0
  2
_OPEN
 10
2458.8796986894081
 20
1418.275956030488
 30
0.0
 41
40.0
 42
40.0
 43
40.0
 50
180.0
  0
INSERT
  5
401
  8
3
 62
     0
  2
_OPEN
 10
3123.8796986894099
 20
1418.275956030488
 30
0.0
 41
40.0
 42
40.0
 43
40.0
  0
TEXT
  8
3
  40
60
  5
45D
  62
0
  72
0
  71
0
 10
2671.38
 20
1362.08
 30
0.000000
  1
665
  0
POINT
  5
403
  8
DEFPOINTS
 62
     0
 10
2458.8796986894081
 20
1576.0744641198719
 30
0.0
  0
POINT
  5
404
  8
DEFPOINTS
 62
     0
 10
3123.8796986894099
 20
1538.1292964408501
 30
0.0
  0
POINT
  5
405
  8
DEFPOINTS
 62
     0
 10
3123.8796986894099
 20
1418.275956030488
 30
0.0
  0
ENDBLK
  5
407
  8
0
  0
BLOCK
  8
0
  2
*D41
 70
     1
 10
0.0
 20
0.0
 30
0.0
  3
*D41
  1

  0
LINE
  5
438
  8
3
 62
     0
 10
2973.8796986894099
 20
2427.0744641198721
 30
0.0
 11
2973.8796986894099
 21
2508.7488576603582
 31
0.0
  0
LINE
  5
439
  8
3
 62
     0
 10
3273.8796986894099
 20
2427.0744641198721
 30
0.0
 11
3273.8796986894099
 21
2508.7488576603582
 31
0.0
  0
LINE
  5
43A
  8
3
 62
     0
 10
3013.8796986894099
 20
2488.7488576603582
 30
0.0
 11
3233.8796986894099
 21
2488.7488576603582
 31
0.0
  0
INSERT
  5
43B
  8
3
 62
     0
  2
_OPEN
 10
2973.8796986894099
 20
2488.7488576603582
 30
0.0
 41
40.0
 42
40.0
 43
40.0
 50
180.0
  0
INSERT
  5
43C
  8
3
 62
     0
  2
_OPEN
 10
3273.8796986894099
 20
2488.7488576603582
 30
0.0
 41
40.0
 42
40.0
 43
40.0
  0
TEXT
  8
3
  40
60
  5
45E
  62
0
  72
0
  71
0
 10
3003.88
 20
2432.55
 30
0.000000
  1
300
  0
POINT
  5
43E
  8
DEFPOINTS
 62
     0
 10
2973.8796986894099
 20
2417.0744641198721
 30
0.0
  0
POINT
  5
43F
  8
DEFPOINTS
 62
     0
 10
3273.8796986894099
 20
2417.0744641198721
 30
0.0
  0
POINT
  5
440
  8
DEFPOINTS
 62
     0
 10
3273.8796986894099
 20
2488.7488576603582
 30
0.0
  0
ENDBLK
  5
442
  8
0
  0
ENDSEC
  0
SECTION
  2
ENTITIES
  0
LINE
  5
1E
  8
4
 10
4200.0
 20
0.0
 30
0.0
 11
0.0
 21
0.0
 31
0.0
  0
LINE
  5
20
  8
4
 10
0.0
 20
5900.0
 30
0.0
 11
4200.0
 21
5900.0
 31
0.0
  0
LINE
  5
21
  8
4
 10
1300.0
 20
1000.0
 30
0.0
 11
3700.0
 21
1000.0
 31
0.0
  0
LINE
  5
22
  8
4
 10
500.0
 20
5338.8175085296098
 30
0.0
 11
3700.0
 21
5338.8175085296098
 31
0.0
  0
LINE
  5
23
  8
4
 10
500.0
 20
4938.8175085296089
 30
0.0
 11
3700.0
 21
4938.8175085296089
 31
0.0
  0
TEXT
  5
24
  8
4
 10
632.33518665889278
 20
5067.7619523985959
 30
0.0
 40
144.0
  1
遠心式片吸込片持リミットロードファン
  0
TEXT
  5
25
  8
4
 10
1625.7541839190339
 20
4766.8576826650306
 30
0.0
 40
107.9999999999999
  1
床置防振ベット
  0
LINE
  5
26
  8
4
 10
1300.0
 20
800.0
 30
0.0
 11
3700.0
 21
800.0
 31
0.0
  0
LINE
  5
27
  8
4
 10
1300.0
 20
600.0
 30
0.0
 11
3700.0
 21
600.0
 31
0.0
  0
LINE
  5
29
  8
4
 10
0.0
 20
0.0
 30
0.0
 11
0.0
 21
5900.0
 31
0.0
  0
LINE
  5
2A
  8
2
 10
581.46036345990149
 20
1932.0744641198719
 30
0.0
 11
790.12126345990146
 21
1932.0744641198719
 31
0.0
  0
DIMENSION
  5
2D
  8
3
  2
*D24
 10
1242.0757634599011
 20
1417.9224717563779
 30
0.0
 11
884.57576345990151
 21
1467.9224717563791
 31
0.0
 70
     0
 13
527.07576345990128
 23
1576.0744641198719
 33
0.0
 14
1242.0757634599011
 24
1538.1292964408501
 34
0.0
1001
ACAD
1000
DSTYLE
1002
{
1070
   287
1070
     3
1070
    40
1040
20.0
1070
   143
1040
0.039
1070
   172
1070
     1
1070
   271
1070
     0
1070
   279
1070
     0
1070
   288
1070
     1
1002
}
  0
DIMENSION
  5
42
  8
3
  2
*D25
 10
527.07576345990128
 20
2702.5216400413969
 30
0.0
 11
1100.906565374243
 21
2702.5216400413969
 31
0.0
 70
   128
 13
1522.6378594147191
 23
2112.0744641198721
 33
0.0
 14
527.07576345990128
 24
1762.074464119873
 34
0.0
1001
ACAD
1000
DSTYLE
1002
{
1070
   287
1070
     3
1070
    40
1040
20.0
1070
   143
1040
0.039
1070
   172
1070
     1
1070
   271
1070
     0
1070
   279
1070
     0
1070
   288
1070
     1
1002
}
  0
LINE
  5
4F
  8
1
 10
727.97714052186984
 20
1789.2701799270831
 30
0.0
 11
1287.9771405218689
 21
1969.2701799270831
 31
0.0
  0
LINE
  5
50
  8
1
 10
636.17438639793363
 20
2074.8787483126621
 30
0.0
 11
1196.1743863979329
 21
2254.8787483126621
 31
0.0
  0
LINE
  5
51
  8
1
 10
706.95451187672097
 20
1860.0502468231009
 30
0.0
 11
1262.8080538072511
 21
2052.0542830392292
 31
0.0
  0
LINE
  5
52
  8
1
 10
660.32958382920924
 20
2005.1055785264709
 30
0.0
 11
1223.9539471009909
 21
2172.9337261253709
 31
0.0
  0
ARC
  5
53
  8
1
 10
1212.0757634599011
 20
2142.074464119873
 30
0.0
 40
372.00771696201542
 50
184.61143090996089
 51
270.00000000000068
  0
LINE
  5
54
  8
1
 10
527.07576345990128
 20
1576.0744641198719
 30
0.0
 11
1457.0757634599011
 21
1576.0744641198719
 31
0.0
  0
LINE
  5
55
  8
1
 10
527.07576345990128
 20
1651.0744641198719
 30
0.0
 11
1457.0757634599011
 21
1651.0744641198719
 31
0.0
  0
LINE
  5
56
  8
1
 10
527.07576345990128
 20
1687.0744641198719
 30
0.0
 11
1457.0757634599011
 21
1687.074464119873
 31
0.0
  0
LINE
  5
57
  8
1
 10
527.07576345990128
 20
1762.074464119873
 30
0.0
 11
1457.0757634599011
 21
1762.074464119873
 31
0.0
  0
LINE
  5
58
  8
1
 10
527.07576345990128
 20
1687.074464119873
 30
0.0
 11
1457.0757634599011
 21
1687.074464119873
 31
0.0
  0
LINE
  5
59
  8
1
 10
560.46325161871118
 20
1832.0744641198719
 30
0.0
 11
803.68827530109138
 21
1832.0744641198719
 31
0.0
  0
LINE
  5
5A
  8
1
 10
532.07576345990117
 20
1792.0744641198719
 30
0.0
 11
832.07576345990128
 21
1792.0744641198719
 31
0.0
  0
ARC
  5
5B
  8
1
 10
682.07576345990117
 20
1932.0744641198719
 30
0.0
 40
100.8
 50
285.7971
 51
0.0
  0
ARC
  5
5C
  8
1
 10
682.07576345990117
 20
1932.0744641198719
 30
0.0
 40
97.0
 50
278.38409999999988
 51
0.0
  0
LINE
  5
5D
  8
2
 10
682.07576345990117
 20
2033.2993641198721
 30
0.0
 11
682.07576345990117
 21
1830.5860641198731
 31
0.0
  0
ARC
  5
5E
  8
1
 10
682.07576345990117
 20
1932.0744641198719
 30
0.0
 40
150.0
 50
107.8188889145228
 51
287.81888891452269
  0
ARC
  5
5F
  8
1
 10
682.07576345990117
 20
1932.0744641198719
 30
0.0
 40
100.8
 50
0.0
 51
254.57230000000001
  0
ARC
  5
60
  8
1
 10
682.07576345990117
 20
1932.0744641198719
 30
0.0
 40
97.0
 50
0.0
 51
261.65320000000003
  0
CIRCLE
  5
61
  8
1
 10
682.07576345990117
 20
1932.0744641198719
 30
0.0
 40
76.200000000000003
  0
LINE
  5
62
  8
1
 10
628.62536345990145
 20
1846.6241641198719
 30
0.0
 11
622.07576345990128
 21
1840.0744641198719
 31
0.0
  0
LINE
  5
63
  8
1
 10
549.57576345990117
 20
1792.0744641198719
 30
0.0
 11
560.46325161871118
 21
1832.0744641198719
 31
0.0
  0
LINE
  5
64
  8
1
 10
527.07576345990128
 20
1651.0744641198719
 30
0.0
 11
527.07576345990128
 21
1576.0744641198719
 31
0.0
  0
LINE
  5
65
  8
1
 10
532.07576345990117
 20
1792.0744641198719
 30
0.0
 11
532.07576345990117
 21
1762.074464119873
 31
0.0
  0
LINE
  5
66
  8
1
 10
527.07576345990128
 20
1762.074464119873
 30
0.0
 11
527.07576345990128
 21
1687.0744641198719
 31
0.0
  0
LINE
  5
67
  8
1
 10
582.07576345990117
 20
1832.0744641198719
 30
0.0
 11
622.07576345990128
 21
1832.0744641198719
 31
0.0
  0
ARC
  5
68
  8
1
 10
584.07576345990128
 20
1842.0744641198719
 30
0.0
 40
2.0
 50
90.0
 51
180.0
  0
LINE
  5
69
  8
1
 10
582.07576345990117
 20
1832.0744641198719
 30
0.0
 11
582.07576345990117
 21
1842.0744641198719
 31
0.0
  0
LINE
  5
6A
  8
1
 10
622.07576345990128
 20
1832.0744641198719
 30
0.0
 11
622.07576345990128
 21
1842.0744641198719
 31
0.0
  0
LINE
  5
6B
  8
1
 10
602.07576345990128
 20
1845.4549641198721
 30
0.0
 11
602.07576345990128
 21
1828.1078641198719
 31
0.0
  0
LINE
  5
6C
  8
1
 10
608.07576345990117
 20
1832.0744641198719
 30
0.0
 11
608.07576345990117
 21
1844.0744641198719
 31
0.0
  0
LINE
  5
6D
  8
1
 10
596.07576345990117
 20
1844.0744641198719
 30
0.0
 11
596.07576345990117
 21
1832.0744641198719
 31
0.0
  0
ARC
  5
6E
  8
1
 10
620.07576345990117
 20
1842.0744641198719
 30
0.0
 40
2.0
 50
0.0
 51
90.0
  0
LINE
  5
6F
  8
1
 10
582.96796345990151
 20
1843.742564119872
 30
0.0
 11
599.36876345990129
 21
1874.404564119872
 31
0.0
  0
LINE
  5
70
  8
1
 10
584.07576345990128
 20
1844.0744641198719
 30
0.0
 11
620.07576345990117
 21
1844.0744641198719
 31
0.0
  0
LINE
  5
71
  8
1
 10
709.69346345990152
 20
1835.0744641198719
 30
0.0
 11
654.80636345990149
 21
1835.0744641198719
 31
0.0
  0
LINE
  5
72
  8
1
 10
667.36716345990135
 20
1836.0744641198719
 30
0.0
 11
696.84816345990146
 21
1836.0744641198719
 31
0.0
  0
LINE
  5
73
  8
1
 10
782.07576345990117
 20
1832.0744641198719
 30
0.0
 11
742.07576345990128
 21
1832.0744641198719
 31
0.0
  0
LINE
  5
74
  8
1
 10
780.07576345990128
 20
1844.0744641198719
 30
0.0
 11
744.07576345990117
 21
1844.0744641198719
 31
0.0
  0
LINE
  5
75
  8
1
 10
742.07576345990128
 20
1832.0744641198719
 30
0.0
 11
742.07576345990128
 21
1842.0744641198719
 31
0.0
  0
LINE
  5
76
  8
1
 10
735.82236345990157
 20
1846.3279641198719
 30
0.0
 11
742.07576345990128
 21
1840.0744641198719
 31
0.0
  0
ARC
  5
77
  8
1
 10
744.07576345990117
 20
1842.0744641198719
 30
0.0
 40
2.0
 50
90.0
 51
180.0
  0
LINE
  5
78
  8
1
 10
782.07576345990117
 20
1832.0744641198719
 30
0.0
 11
782.07576345990117
 21
1842.0744641198719
 31
0.0
  0
LINE
  5
79
  8
1
 10
762.07576345990117
 20
1845.4549641198721
 30
0.0
 11
762.07576345990117
 21
1828.1078641198719
 31
0.0
  0
LINE
  5
7A
  8
1
 10
768.07576345990128
 20
1844.0744641198719
 30
0.0
 11
768.07576345990128
 21
1832.0744641198719
 31
0.0
  0
LINE
  5
7B
  8
1
 10
756.07576345990128
 20
1832.0744641198719
 30
0.0
 11
756.07576345990128
 21
1844.0744641198719
 31
0.0
  0
LINE
  5
7C
  8
1
 10
780.98496345990134
 20
1844.113964119872
 30
0.0
 11
764.86626345990135
 21
1874.2482641198719
 31
0.0
  0
ARC
  5
7D
  8
1
 10
780.07576345990128
 20
1842.0744641198719
 30
0.0
 40
2.0
 50
0.0
 51
90.0
  0
TEXT
  5
7E
  8
4
 10
1372.516212049595
 20
643.29031346402189
 30
0.0
 40
100.0
  1
機器型番
  0
TEXT
  5
7F
  8
4
 10
1377.0041616938031
 20
863.08605173322564
 30
0.0
 40
100.0
  1
機器名称
  0
LINE
  5
81
  8
4
 10
1300.0
 20
1000.0
 30
0.0
 11
1300.0
 21
600.0
 31
0.0
  0
LINE
  5
82
  8
2
 10
802.83267974318369
 20
2112.0744641198721
 30
0.0
 11
1559.453533099178
 21
2112.0744641198721
 31
0.0
  0
DIMENSION
  5
83
  8
3
  2
*D7
 10
1457.0757634599011
 20
1417.9224717563779
 30
0.0
 11
1349.5757634599011
 21
1468.0023791203221
 31
0.0
 70
   128
 13
1242.0757634599011
 23
1538.1292964408501
 33
0.0
 14
1457.0757634599011
 24
1576.0744641198719
 34
0.0
1001
ACAD
1000
DSTYLE
1002
{
1070
   288
1070
     1
1070
   172
1070
     1
1070
    40
1040
20.0
1070
   271
1070
     0
1070
   143
1040
0.039
1002
}
  0
DIMENSION
  5
90
  8
3
  2
*D26
 10
1907.6602953016891
 20
2417.0744641198721
 30
0.0
 11
1857.6602953016891
 21
1996.574464119873
 31
0.0
 70
     0
 13
1457.0757634599011
 23
1576.0744641198719
 33
0.0
 14
1257.0757634599011
 24
2417.0744641198721
 34
0.0
 50
90.0
1001
ACAD
1000
DSTYLE
1002
{
1070
   287
1070
     3
1070
    40
1040
20.0
1070
   143
1040
0.039
1070
   172
1070
     1
1070
   271
1070
     0
1070
   279
1070
     0
1070
   288
1070
     1
1002
}
  0
DIMENSION
  5
9D
  8
3
  2
*D27
 10
1683.973198485136
 20
2112.0744641198721
 30
0.0
 11
1633.973198485136
 21
2264.574464119873
 31
0.0
 70
     0
 13
1257.0757634599011
 23
2417.0744641198721
 33
0.0
 14
1559.453533099178
 24
2112.0744641198721
 34
0.0
 50
90.0
1001
ACAD
1000
DSTYLE
1002
{
1070
   287
1070
     3
1070
    40
1040
20.0
1070
   143
1040
0.039
1070
   172
1070
     1
1070
   271
1070
     0
1070
   279
1070
     0
1070
   288
1070
     1
1002
}
  0
DIMENSION
  5
AA
  8
3
  2
*D28
 10
1524.0834804219171
 20
2577.9797560426791
 30
0.0
 11
1383.079621940909
 21
2627.9797560426791
 31
0.0
 70
     0
 13
1242.0757634599011
 23
2451.2334556268938
 33
0.0
 14
1524.0834804219171
 24
2082.0744641198721
 34
0.0
1001
ACAD
1000
DSTYLE
1002
{
1070
   287
1070
     3
1070
    40
1040
20.0
1070
   143
1040
0.039
1070
   172
1070
     1
1070
   271
1070
     0
1070
   279
1070
     0
1070
   288
1070
     1
1002
}
  0
ARC
  5
B7
  8
1
 10
1212.075763459902
 20
2082.0744641198721
 30
0.0
 40
312.00771696201508
 50
270.00000000000063
 51
7.5238204386395493
  0
LINE
  5
B8
  8
1
 10
1427.0757634599011
 20
1767.0744641198719
 30
0.0
 11
1447.0757634599011
 21
1767.0744641198719
 31
0.0
  0
ARC
  5
B9
  8
1
 10
1265.0757634598999
 20
2089.074464119873
 30
0.0
 40
269.74745134352202
 50
7.5238204386390093
 51
89.999999999999687
  0
ARC
  5
BA
  8
1
 10
1265.0757634598999
 20
2089.074464119873
 30
0.0
 40
258.54745134352208
 50
7.5238204386395493
 51
89.999999999999758
  0
LINE
  5
BB
  8
1
 10
1017.0757634599011
 20
2053.6744641198729
 30
0.0
 11
1467.0757634599011
 21
2053.6744641198729
 31
0.0
  0
ARC
  5
BC
  8
1
 10
1212.075763459902
 20
2082.074464119873
 30
0.0
 40
323.2077169620157
 50
311.6981993331782
 51
7.5238204386390066
  0
LINE
  5
BD
  8
1
 10
1427.0757634599011
 20
2007.674464119872
 30
0.0
 11
1526.6037722346341
 21
2007.674464119872
 31
0.0
  0
LINE
  5
BE
  8
1
 10
1427.0757634599011
 20
2013.674464119872
 30
0.0
 11
1527.9628766883429
 21
2013.6744641198729
 31
0.0
  0
LINE
  5
BF
  8
1
 10
1427.0757634599011
 20
1802.0744641198719
 30
0.0
 11
1447.0757634599011
 21
1802.0744641198719
 31
0.0
  0
LINE
  5
C0
  8
2
 10
1242.0757634599011
 20
2451.2334556268938
 30
0.0
 11
1242.0757634599011
 21
1538.1292964408501
 31
0.0
  0
ARC
  5
C1
  8
1
 10
1212.0757634599011
 20
2142.074464119873
 30
0.0
 40
383.20771696201541
 50
184.6042794959863
 51
242.8274740584886
  0
LINE
  5
C2
  8
1
 10
1057.0757634599011
 20
2053.6744641198729
 30
0.0
 11
1057.0757634599011
 21
1762.074464119873
 31
0.0
  0
LINE
  5
C3
  8
1
 10
1427.0757634599011
 20
2053.6744641198729
 30
0.0
 11
1427.0757634599011
 21
1762.074464119873
 31
0.0
  0
ARC
  5
C4
  8
1
 10
1242.0757634599011
 20
2112.0744641198721
 30
0.0
 40
150.0
 50
287.81888891452269
 51
107.8188889145228
  0
LINE
  5
C5
  8
1
 10
1017.0757634599011
 20
2053.6744641198729
 30
0.0
 11
1017.0757634599011
 21
2013.674464119872
 31
0.0
  0
LINE
  5
C6
  8
1
 10
851.01954299106592
 20
2013.6744641198729
 30
0.0
 11
1057.0757634599011
 21
2013.674464119872
 31
0.0
  0
LINE
  5
C7
  8
1
 10
853.20977964527435
 20
2007.6744641198729
 30
0.0
 11
1057.0757634599011
 21
2007.674464119872
 31
0.0
  0
LINE
  5
C8
  8
1
 10
853.20977964527435
 20
2007.674464119872
 30
0.0
 11
1057.0757634599011
 21
2007.674464119872
 31
0.0
  0
LINE
  5
C9
  8
1
 10
814.57576345990128
 20
1792.0744641198719
 30
0.0
 11
803.68827530109172
 21
1832.0744641198719
 31
0.0
  0
LINE
  5
CA
  8
1
 10
832.07576345990128
 20
1792.0744641198719
 30
0.0
 11
832.07576345990128
 21
1762.074464119873
 31
0.0
  0
LINE
  5
CB
  8
1
 10
1037.0757634599011
 20
1802.0744641198719
 30
0.0
 11
1037.0757634599011
 21
1762.074464119873
 31
0.0
  0
LINE
  5
CC
  8
1
 10
1037.0757634599011
 20
1767.0744641198719
 30
0.0
 11
1057.0757634599011
 21
1767.0744641198719
 31
0.0
  0
LINE
  5
CD
  8
1
 10
1037.0757634599011
 20
1802.0744641198719
 30
0.0
 11
1057.0757634599011
 21
1802.0744641198719
 31
0.0
  0
DIMENSION
  5
CE
  8
3
  2
*D29
 10
1230.0757634599011
 20
2488.7983719818822
 30
0.0
 11
1024.0757634599011
 21
2538.7983719818822
 31
0.0
 70
     0
 13
818.07576345990128
 23
2417.0744641198721
 33
0.0
 14
1230.0757634599011
 24
2417.0744641198721
 34
0.0
1001
ACAD
1000
DSTYLE
1002
{
1070
   287
1070
     3
1070
    40
1040
20.0
1070
   143
1040
0.039
1070
   172
1070
     1
1070
   271
1070
     0
1070
   279
1070
     0
1070
   288
1070
     1
1002
}
  0
DIMENSION
  5
DB
  8
3
  2
*D30
 10
1242.0757634599011
 20
2577.9797560426791
 30
0.0
 11
1030.0757634599011
 21
2627.9797560426791
 31
0.0
 70
     0
 13
818.07576345990128
 23
2417.0744641198721
 33
0.0
 14
1242.0757634599011
 24
2451.2334556268938
 34
0.0
1001
ACAD
1000
DSTYLE
1002
{
1070
   287
1070
     3
1070
    40
1040
20.0
1070
   143
1040
0.039
1070
   172
1070
     1
1070
   271
1070
     0
1070
   279
1070
     0
1070
   288
1070
     1
1002
}
  0
LINE
  5
E8
  8
1
 10
1257.0757634599011
 20
2414.0744641198721
 30
0.0
 11
795.63504136225026
 21
2414.0744641198721
 31
0.0
  0
LINE
  5
E9
  8
1
 10
1232.0757634599011
 20
2392.074464119873
 30
0.0
 11
815.08094614732988
 21
2392.0744641198721
 31
0.0
  0
LINE
  5
EA
  8
1
 10
1257.0757634599011
 20
2417.0744641198721
 30
0.0
 11
791.08094614732988
 21
2417.0744641198721
 31
0.0
  0
LINE
  5
EB
  8
1
 10
1052.0757634599011
 20
2056.8744641198718
 30
0.0
 11
1432.0757634599011
 21
2056.8744641198718
 31
0.0
  0
ARC
  5
EC
  8
1
 10
1118.0757634599011
 20
2327.0744641198721
 30
0.0
 40
31.0
 50
171.05317790537509
 51
330.96585194849621
  0
LINE
  5
ED
  8
1
 10
809.85306138619853
 20
2392.0744641198721
 30
0.0
 11
830.10470167232415
 21
2111.313087425855
 31
0.0
  0
LINE
  5
EE
  8
1
 10
841.2722881648059
 20
2112.1658668881241
 30
0.0
 11
818.07576345990128
 21
2417.0744641198721
 31
0.0
  0
POLYLINE
  5
EF
  8
1
 66
     1
 10
0.0
 20
0.0
 30
0.0
  0
VERTEX
  5
374
  8
1
 10
816.07056730745569
 20
2417.0744641198721
 30
0.0
  0
VERTEX
  5
375
  8
1
 10
829.14769154740395
 20
2235.7779689751401
 30
0.0
 42
0.3908423130543746
  0
SEQEND
  5
376
  8
1
  0
LINE
  5
F3
  8
1
 10
809.85306138619853
 20
2392.0744641198721
 30
0.0
 11
816.08094614733
 21
2392.0744641198721
 31
0.0
  0
POLYLINE
  5
F4
  8
1
 66
     1
 10
0.0
 20
0.0
 30
0.0
 70
     1
  0
VERTEX
  5
377
  8
1
 10
816.08094614733
 20
2417.0744641198721
 30
0.0
  0
VERTEX
  5
378
  8
1
 10
791.08094614732988
 20
2417.0744641198721
 30
0.0
  0
VERTEX
  5
379
  8
1
 10
791.08094614732988
 20
2416.0744641198721
 30
0.0
 42
0.4142135623730951
  0
VERTEX
  5
37A
  8
1
 10
793.08094614733
 20
2414.0744641198721
 30
0.0
  0
VERTEX
  5
37B
  8
1
 10
809.08094614733
 20
2414.0744641198721
 30
0.0
 42
-0.4142135623730951
  0
VERTEX
  5
37C
  8
1
 10
813.08094614732988
 20
2410.074464119873
 30
0.0
  0
VERTEX
  5
37D
  8
1
 10
813.08094614732988
 20
2394.0744641198721
 30
0.0
 42
0.4142135623730951
  0
VERTEX
  5
37E
  8
1
 10
815.08094614732988
 20
2392.0744641198721
 30
0.0
  0
VERTEX
  5
37F
  8
1
 10
816.08094614733
 20
2392.0744641198721
 30
0.0
  0
SEQEND
  5
380
  8
1
  0
LINE
  5
FF
  8
1
 10
1052.0757634599011
 20
2056.8744641198718
 30
0.0
 11
1052.0757634599011
 21
2053.6744641198729
 31
0.0
  0
LINE
  5
100
  8
1
 10
1100.0757634599011
 20
2412.0744641198721
 30
0.0
 11
1087.4529371549081
 21
2331.8955126670489
 31
0.0
  0
CIRCLE
  5
101
  8
1
 10
1242.0757634599011
 20
2112.0744641198721
 30
0.0
 40
63.5
  0
ARC
  5
102
  8
1
 10
1265.0757634599049
 20
2135.0744641198721
 30
0.0
 40
212.5474513435226
 50
90.000000000000966
 51
124.1196176319494
  0
LINE
  5
103
  8
1
 10
1240.0757634599011
 20
2357.4208649963448
 30
0.0
 11
1240.0757634599011
 21
2392.0744641198721
 31
0.0
  0
LINE
  5
104
  8
1
 10
1230.0757634599011
 20
2345.9369144419979
 30
0.0
 11
1230.0757634599011
 21
2417.0744641198721
 31
0.0
  0
LINE
  5
105
  8
1
 10
1232.0757634599011
 20
2345.9369144419979
 30
0.0
 11
1232.0757634599011
 21
2417.0744641198721
 31
0.0
  0
ARC
  5
106
  8
1
 10
1265.075763459917
 20
2135.074464119873
 30
0.0
 40
223.74745134352219
 50
90.000000000003965
 51
96.415231784445751
  0
LINE
  5
107
  8
1
 10
1240.0757634599011
 20
2392.0744641198721
 30
0.0
 11
1232.0757634599011
 21
2392.074464119873
 31
0.0
  0
POLYLINE
  5
108
  8
1
 66
     1
 10
0.0
 20
0.0
 30
0.0
 70
     1
  0
VERTEX
  5
381
  8
1
 10
1232.0757634599011
 20
2417.0744641198721
 30
0.0
  0
VERTEX
  5
382
  8
1
 10
1257.0757634599011
 20
2417.0744641198721
 30
0.0
  0
VERTEX
  5
383
  8
1
 10
1257.0757634599011
 20
2416.0744641198721
 30
0.0
 42
-0.4142135623730951
  0
VERTEX
  5
384
  8
1
 10
1255.0757634599011
 20
2414.0744641198721
 30
0.0
  0
VERTEX
  5
385
  8
1
 10
1239.0757634599011
 20
2414.0744641198721
 30
0.0
 42
0.4142135623730951
  0
VERTEX
  5
386
  8
1
 10
1235.0757634599011
 20
2410.074464119873
 30
0.0
  0
VERTEX
  5
387
  8
1
 10
1235.0757634599011
 20
2394.0744641198721
 30
0.0
 42
-0.4142135623730951
  0
VERTEX
  5
388
  8
1
 10
1233.0757634599011
 20
2392.0744641198721
 30
0.0
  0
VERTEX
  5
389
  8
1
 10
1232.0757634599011
 20
2392.0744641198721
 30
0.0
  0
SEQEND
  5
38A
  8
1
  0
LINE
  5
113
  8
1
 10
1432.0757634599011
 20
2056.8744641198718
 30
0.0
 11
1432.0757634599011
 21
2053.6744641198729
 31
0.0
  0
DIMENSION
  5
114
  8
3
  2
*D31
 10
1683.973198485136
 20
1687.0744641198719
 30
0.0
 11
1633.973198485136
 21
1899.5744641198719
 31
0.0
 70
     0
 13
1559.453533099178
 23
2112.0744641198721
 33
0.0
 14
1457.0757634599011
 24
1687.074464119873
 34
0.0
 50
90.0
1001
ACAD
1000
DSTYLE
1002
{
1070
   287
1070
     3
1070
    40
1040
20.0
1070
   143
1040
0.039
1070
   172
1070
     1
1070
   271
1070
     0
1070
   279
1070
     0
1070
   288
1070
     1
1002
}
  0
LINE
  5
121
  8
1
 10
1467.0757634599011
 20
2053.6744641198729
 30
0.0
 11
1467.0757634599011
 21
2013.674464119872
 31
0.0
  0
DIMENSION
  5
122
  8
3
  2
*D4
 10
1683.973198485136
 20
1651.0744641198719
 30
0.0
 11
1778.5635042999961
 21
1682.206759142874
 31
0.0
 70
   128
  1
(36)
 13
1457.0757634599011
 23
1687.074464119873
 33
0.0
 14
1457.0757634599011
 24
1651.0744641198719
 34
0.0
 50
90.0
1001
ACAD
1000
DSTYLE
1002
{
1070
   288
1070
     1
1070
   172
1070
     1
1070
    40
1040
20.0
1070
   271
1070
     0
1070
     7
1000
_DOT
1070
   143
1040
0.039
1002
}
  0
DIMENSION
  5
139
  8
3
  2
*D32
 10
1683.973198485136
 20
1576.0744641198719
 30
0.0
 11
1633.973198485136
 21
1427.5030355484439
 31
0.0
 70
     0
 13
1457.0757634599011
 23
1651.0744641198719
 33
0.0
 14
1457.0757634599011
 24
1576.0744641198719
 34
0.0
 50
90.0
1001
ACAD
1000
DSTYLE
1002
{
1070
   287
1070
     3
1070
    40
1040
20.0
1070
   143
1040
0.039
1070
   172
1070
     1
1070
   271
1070
     0
1070
   279
1070
     0
1070
   288
1070
     1
1070
     6
1000
DOT
1002
}
  0
LINE
  5
148
  8
1
 10
1447.0757634599011
 20
1802.0744641198719
 30
0.0
 11
1447.0757634599011
 21
1762.074464119873
 31
0.0
  0
LINE
  5
149
  8
1
 10
1457.0757634599011
 20
1651.0744641198719
 30
0.0
 11
1457.0757634599011
 21
1576.0744641198719
 31
0.0
  0
LINE
  5
14A
  8
1
 10
1457.0757634599011
 20
1762.074464119873
 30
0.0
 11
1457.0757634599011
 21
1687.074464119873
 31
0.0
  0
LINE
  5
14B
  8
2
 10
760.32147816029089
 20
3948.2595297880039
 30
0.0
 11
1650.1802373187741
 21
3948.2595297880039
 31
0.0
  0
DIMENSION
  5
14C
  8
3
  2
*D33
 10
1457.0757634599011
 20
3065.0843755637738
 30
0.0
 11
992.07576345990128
 21
3115.0843755637752
 31
0.0
 70
     0
 13
527.07576345990128
 23
3283.259529788003
 33
0.0
 14
1457.0757634599011
 24
3283.259529788003
 34
0.0
1001
ACAD
1000
DSTYLE
1002
{
1070
   287
1070
     3
1070
    40
1040
20.0
1070
   143
1040
0.039
1070
   172
1070
     1
1070
   271
1070
     0
1070
   279
1070
     0
1070
   288
1070
     1
1002
}
  0
DIMENSION
  5
159
  8
3
  2
*D34
 10
527.07576345990128
 20
4258.0099711966886
 30
0.0
 11
777.07576345990128
 21
4308.0099711966886
 31
0.0
 70
     0
 13
1027.0757634599011
 23
4143.2595297880043
 33
0.0
 14
527.07576345990128
 24
3703.259529788003
 34
0.0
1001
ACAD
1000
DSTYLE
1002
{
1070
   287
1070
     3
1070
    40
1040
20.0
1070
   143
1040
0.039
1070
   172
1070
     1
1070
   271
1070
     0
1070
   279
1070
     0
1070
   288
1070
     1
1002
}
  0
LINE
  5
166
  8
1
 10
532.07576345990174
 20
3310.2595297880048
 30
0.0
 11
1392.0757634599011
 21
3310.259529788003
 31
0.0
  0
LINE
  5
167
  8
1
 10
532.07576345990117
 20
3188.2595297880039
 30
0.0
 11
1392.0757634599011
 21
3188.259529788003
 31
0.0
  0
LINE
  5
168
  8
1
 10
1178.5757634599011
 20
3268.2595297880039
 30
0.0
 11
758.27576345990155
 21
3268.2595297880039
 31
0.0
  0
LINE
  5
169
  8
1
 10
758.27576345990155
 20
3218.2595297880039
 30
0.0
 11
1178.5757634599011
 21
3218.2595297880039
 31
0.0
  0
LINE
  5
16A
  8
1
 10
782.07576345990117
 20
3323.259529788003
 30
0.0
 11
1052.0757634599011
 21
3323.259529788003
 31
0.0
  0
LINE
  5
16B
  8
1
 10
527.07576345990128
 20
3703.259529788003
 30
0.0
 11
1027.0757634599011
 21
3703.2595297880039
 31
0.0
  0
LINE
  5
16C
  8
1
 10
527.07576345990128
 20
3663.259529788003
 30
0.0
 11
1027.0757634599011
 21
3663.2595297880039
 31
0.0
  0
LINE
  5
16D
  8
1
 10
527.07576345990128
 20
3283.259529788003
 30
0.0
 11
1222.0757634599011
 21
3283.2595297880039
 31
0.0
  0
TEXT
  5
16E
  8
4
 10
754.03651943363002
 20
4764.638955092687
 30
0.0
 40
107.9999999999999
  1
右回転上向
  0
DIMENSION
  5
16F
  8
3
  2
*D35
 10
451.73182529953368
 20
3703.259529788003
 30
0.0
 11
401.73182529953311
 21
3493.259529788003
 31
0.0
 70
     0
 13
527.07576345990128
 23
3283.259529788003
 33
0.0
 14
527.07576345990128
 24
3703.259529788003
 34
0.0
 50
90.0
1001
ACAD
1000
DSTYLE
1002
{
1070
   287
1070
     3
1070
    40
1040
20.0
1070
   143
1040
0.039
1070
   172
1070
     1
1070
   271
1070
     0
1070
   279
1070
     0
1070
   288
1070
     1
1002
}
  0
LINE
  5
17C
  8
2
 10
682.07576345990117
 20
3589.5902297880039
 30
0.0
 11
682.07576345990117
 21
3212.9415297880041
 31
0.0
  0
LINE
  5
17D
  8
1
 10
582.07576345990117
 20
3289.2595297880039
 30
0.0
 11
582.07576345990117
 21
3584.2595297880039
 31
0.0
  0
LINE
  5
17E
  8
1
 10
782.07576345990117
 20
3411.2595297880039
 30
0.0
 11
782.07576345990117
 21
3289.2595297880039
 31
0.0
  0
LINE
  5
17F
  8
1
 10
605.87576345990146
 20
3218.2595297880039
 30
0.0
 11
758.27576345990155
 21
3218.2595297880039
 31
0.0
  0
LINE
  5
180
  8
1
 10
605.87576345990146
 20
3268.2595297880039
 30
0.0
 11
758.2757634599011
 21
3268.2595297880039
 31
0.0
  0
LINE
  5
181
  8
1
 10
782.07576345990117
 20
3289.2595297880039
 30
0.0
 11
582.07576345990117
 21
3289.2595297880039
 31
0.0
  0
LINE
  5
182
  8
1
 10
527.07576345990128
 20
3323.259529788003
 30
0.0
 11
582.07576345990117
 21
3323.259529788003
 31
0.0
  0
LINE
  5
183
  8
1
 10
532.07576345990117
 20
3188.2595297880039
 30
0.0
 11
532.07576345990117
 21
3310.2595297880039
 31
0.0
  0
LINE
  5
184
  8
1
 10
527.07576345990128
 20
3323.259529788003
 30
0.0
 11
527.07576345990128
 21
3283.259529788003
 31
0.0
  0
POINT
  5
185
  8
1
 10
527.07576345990128
 20
3283.259529788003
 30
0.0
  0
POINT
  5
186
  8
1
 10
527.07576345990128
 20
3283.259529788003
 30
0.0
  0
LINE
  5
187
  8
1
 10
605.87576345990146
 20
3268.2595297880039
 30
0.0
 11
605.87576345990146
 21
3218.2595297880039
 31
0.0
  0
LINE
  5
188
  8
1
 10
645.07576345990117
 20
3283.2595297880039
 30
0.0
 11
719.07576345990117
 21
3283.2595297880039
 31
0.0
  0
LINE
  5
189
  8
1
 10
642.07576345990128
 20
3289.2595297880039
 30
0.0
 11
642.07576345990128
 21
3286.2595297880039
 31
0.0
  0
ARC
  5
18A
  8
1
 10
645.07576345990117
 20
3286.2595297880039
 30
0.0
 40
2.9998999999999989
 50
179.99879999999999
 51
270.00119999999998
  0
LINE
  5
18B
  8
1
 10
696.67576345990165
 20
3283.2595297880039
 30
0.0
 11
696.67576345990165
 21
3278.259529788003
 31
0.0
  0
LINE
  5
18C
  8
1
 10
667.47586345990146
 20
3283.2595297880039
 30
0.0
 11
667.47586345990146
 21
3278.259529788003
 31
0.0
  0
LINE
  5
18D
  8
1
 10
696.67576345990165
 20
3278.259529788003
 30
0.0
 11
667.47586345990146
 21
3278.259529788003
 31
0.0
  0
LINE
  5
18E
  8
1
 10
696.07576345990117
 20
3278.259529788003
 30
0.0
 11
696.07576345990117
 21
3268.2595297880039
 31
0.0
  0
LINE
  5
18F
  8
1
 10
668.07576345990128
 20
3278.259529788003
 30
0.0
 11
668.07576345990128
 21
3268.2595297880039
 31
0.0
  0
LINE
  5
190
  8
1
 10
722.07576345990128
 20
3289.2595297880039
 30
0.0
 11
722.07576345990128
 21
3286.2595297880039
 31
0.0
  0
ARC
  5
191
  8
1
 10
719.07586345990137
 20
3286.2595297880039
 30
0.0
 40
2.9998999999999989
 50
269.99880000000002
 51
0.0012000000000121
  0
LINE
  5
192
  8
1
 10
758.27576345990155
 20
3268.2595297880039
 30
0.0
 11
758.27576345990155
 21
3218.2595297880039
 31
0.0
  0
LINE
  5
193
  8
1
 10
582.07576345990117
 20
3584.2595297880039
 30
0.0
 11
782.07576345990117
 21
3584.2595297880039
 31
0.0
  0
LINE
  5
194
  8
1
 10
584.07576345990128
 20
3663.259529788003
 30
0.0
 11
584.07576345990128
 21
3584.2595297880039
 31
0.0
  0
LINE
  5
195
  8
1
 10
527.07576345990128
 20
3703.259529788003
 30
0.0
 11
527.07576345990128
 21
3663.259529788003
 31
0.0
  0
LINE
  5
196
  8
1
 10
780.07576345990128
 20
3663.259529788003
 30
0.0
 11
780.07576345990128
 21
3584.2595297880039
 31
0.0
  0
LINE
  5
197
  8
1
 10
624.07576345990117
 20
3663.259529788003
 30
0.0
 11
624.07576345990117
 21
3584.2595297880039
 31
0.0
  0
LINE
  5
198
  8
1
 10
740.07576345990117
 20
3663.259529788003
 30
0.0
 11
740.07576345990117
 21
3584.2595297880039
 31
0.0
  0
LINE
  5
199
  8
1
 10
782.07576345990117
 20
3411.2595297880039
 30
0.0
 11
782.07576345990117
 21
3584.2595297880039
 31
0.0
  0
LINE
  5
19A
  8
4
 10
500.0
 20
5338.8175085296098
 30
0.0
 11
500.0
 21
4938.8175085296089
 31
0.0
  0
DIMENSION
  5
19B
  8
3
  2
*D36
 10
1027.0757634599011
 20
4258.0099711966886
 30
0.0
 11
1242.0757634599011
 21
4308.0099711966886
 31
0.0
 70
     0
 13
1457.0757634599011
 23
4143.2595297880043
 33
0.0
 14
1027.0757634599011
 24
4143.2595297880043
 34
0.0
1001
ACAD
1000
DSTYLE
1002
{
1070
   287
1070
     3
1070
    40
1040
20.0
1070
   143
1040
0.039
1070
   172
1070
     1
1070
   271
1070
     0
1070
   279
1070
     0
1070
   288
1070
     1
1002
}
  0
LINE
  5
1A8
  8
1
 10
1262.0757634599011
 20
3283.2595297880039
 30
0.0
 11
1457.0757634599011
 21
3283.259529788003
 31
0.0
  0
LINE
  5
1A9
  8
1
 10
1432.0757634599011
 20
3323.259529788003
 30
0.0
 11
1457.0757634599011
 21
3323.259529788003
 31
0.0
  0
LINE
  5
1AA
  8
1
 10
1257.08094614733
 20
3796.2595297880039
 30
0.0
 11
1524.0834804219171
 21
3796.2595297880039
 31
0.0
  0
LINE
  5
1AB
  8
1
 10
1257.08094614733
 20
4100.2595297880043
 30
0.0
 11
1524.0834804219171
 21
4100.2595297880043
 31
0.0
  0
LINE
  5
1AC
  8
1
 10
1417.0757634599011
 20
4143.2595297880043
 30
0.0
 11
1457.0757634599011
 21
4143.2595297880043
 31
0.0
  0
LINE
  5
1AD
  8
2
 10
1242.0757634599011
 20
4198.2448249437111
 30
0.0
 11
1242.0757634599011
 21
3198.3114354626118
 31
0.0
  0
LINE
  5
1AE
  8
1
 10
816.08094614733
 20
4100.2595297880043
 30
0.0
 11
1232.08094614733
 21
3796.2595297880039
 31
0.0
  0
LINE
  5
1AF
  8
1
 10
1232.08094614733
 20
4100.2595297880043
 30
0.0
 11
816.08094614733
 21
3796.259529788003
 31
0.0
  0
LINE
  5
1B0
  8
1
 10
816.08094614733
 20
3796.259529788003
 30
0.0
 11
816.08094614733
 21
4100.2595297880043
 31
0.0
  0
LINE
  5
1B1
  8
1
 10
791.08094614732988
 20
3771.259529788003
 30
0.0
 11
791.08094614732988
 21
4125.2595297880043
 31
0.0
  0
LINE
  5
1B2
  8
1
 10
1232.08094614733
 20
3796.2595297880039
 30
0.0
 11
1232.08094614733
 21
4100.2595297880043
 31
0.0
  0
LINE
  5
1B3
  8
1
 10
1257.08094614733
 20
3771.259529788003
 30
0.0
 11
1257.08094614733
 21
4125.2595297880043
 31
0.0
  0
LINE
  5
1B4
  8
1
 10
816.08094614733
 20
3796.259529788003
 30
0.0
 11
1232.08094614733
 21
3796.2595297880039
 31
0.0
  0
LINE
  5
1B5
  8
1
 10
791.08094614732988
 20
3771.2595297880039
 30
0.0
 11
1257.08094614733
 21
3771.2595297880039
 31
0.0
  0
LINE
  5
1B6
  8
1
 10
1052.0757634599011
 20
3308.2595297880039
 30
0.0
 11
1222.0757634599011
 21
3308.2595297880039
 31
0.0
  0
LINE
  5
1B7
  8
1
 10
1052.0757634599011
 20
3733.259529788003
 30
0.0
 11
1432.0757634599011
 21
3733.2595297880039
 31
0.0
  0
LINE
  5
1B8
  8
1
 10
1052.0757634599011
 20
3733.259529788003
 30
0.0
 11
1052.0757634599011
 21
3308.2595297880039
 31
0.0
  0
LINE
  5
1B9
  8
1
 10
1027.0757634599011
 20
3771.2595297880039
 30
0.0
 11
1027.0757634599011
 21
3323.259529788003
 31
0.0
  0
LINE
  5
1BA
  8
1
 10
1067.0757634599011
 20
3771.2595297880039
 30
0.0
 11
1067.0757634599011
 21
3740.5368923334499
 31
0.0
  0
LINE
  5
1BB
  8
1
 10
1067.0757634599011
 20
3756.2595297880039
 30
0.0
 11
1067.0757634599011
 21
3733.259529788003
 31
0.0
  0
LINE
  5
1BC
  8
1
 10
1432.0757634599011
 20
3733.2595297880039
 30
0.0
 11
1432.0757634599011
 21
3308.259529788003
 31
0.0
  0
LINE
  5
1BD
  8
1
 10
1222.0757634599011
 20
3663.659529788004
 30
0.0
 11
1222.0757634599011
 21
3377.8595297880029
 31
0.0
  0
LINE
  5
1BE
  8
1
 10
1262.0757634599011
 20
3663.659529788004
 30
0.0
 11
1262.0757634599011
 21
3377.8595297880029
 31
0.0
  0
LINE
  5
1BF
  8
1
 10
1178.5757634599011
 20
3218.2595297880039
 30
0.0
 11
1305.5757634599011
 21
3218.259529788003
 31
0.0
  0
LINE
  5
1C0
  8
1
 10
1262.0757634599011
 20
3308.259529788003
 30
0.0
 11
1432.0757634599011
 21
3308.259529788003
 31
0.0
  0
LINE
  5
1C1
  8
1
 10
1262.0757634599011
 20
3320.7595297880039
 30
0.0
 11
1342.0757634599011
 21
3320.7595297880039
 31
0.0
  0
LINE
  5
1C2
  8
1
 10
1262.0757634599011
 20
3385.759529788003
 30
0.0
 11
1342.0757634599011
 21
3385.759529788003
 31
0.0
  0
LINE
  5
1C3
  8
1
 10
1178.5757634599011
 20
3268.2595297880039
 30
0.0
 11
1305.5757634599011
 21
3268.2595297880039
 31
0.0
  0
LINE
  5
1C4
  8
1
 10
1150.0757634598999
 20
3328.6595297880031
 30
0.0
 11
1334.0757634599011
 21
3328.6595297880031
 31
0.0
  0
LINE
  5
1C5
  8
1
 10
1150.0757634598999
 20
3377.8595297880029
 30
0.0
 11
1334.0757634599011
 21
3377.8595297880029
 31
0.0
  0
LINE
  5
1C6
  8
1
 10
1134.1685323901779
 20
3353.259529788003
 30
0.0
 11
1349.982994529624
 21
3353.259529788003
 31
0.0
  0
LINE
  5
1C7
  8
1
 10
1142.0757634599011
 20
3320.7595297880039
 30
0.0
 11
1222.0757634599011
 21
3320.7595297880039
 31
0.0
  0
LINE
  5
1C8
  8
1
 10
1142.0757634599011
 20
3385.759529788003
 30
0.0
 11
1222.0757634599011
 21
3385.759529788003
 31
0.0
  0
LINE
  5
1C9
  8
1
 10
1178.5757634599011
 20
3268.2595297880039
 30
0.0
 11
1178.5757634599011
 21
3218.2595297880039
 31
0.0
  0
LINE
  5
1CA
  8
1
 10
1150.0757634598999
 20
3377.8595297880029
 30
0.0
 11
1150.0757634598999
 21
3328.6595297880031
 31
0.0
  0
LINE
  5
1CB
  8
1
 10
1142.0757634599011
 20
3385.759529788003
 30
0.0
 11
1142.0757634599011
 21
3320.7595297880039
 31
0.0
  0
LINE
  5
1CC
  8
1
 10
1222.0757634599011
 20
3328.6595297880031
 30
0.0
 11
1222.0757634599011
 21
3268.2595297880039
 31
0.0
  0
LINE
  5
1CD
  8
1
 10
1262.0757634599011
 20
3328.6595297880031
 30
0.0
 11
1262.0757634599011
 21
3268.2595297880039
 31
0.0
  0
LINE
  5
1CE
  8
1
 10
1305.5757634599011
 20
3268.2595297880039
 30
0.0
 11
1305.5757634599011
 21
3218.259529788003
 31
0.0
  0
LINE
  5
1CF
  8
1
 10
1334.0757634599011
 20
3377.8595297880029
 30
0.0
 11
1334.0757634599011
 21
3328.6595297880031
 31
0.0
  0
LINE
  5
1D0
  8
1
 10
1342.0757634599011
 20
3385.759529788003
 30
0.0
 11
1342.0757634599011
 21
3320.7595297880039
 31
0.0
  0
LINE
  5
1D1
  8
1
 10
1392.0757634599011
 20
3188.259529788003
 30
0.0
 11
1392.0757634599011
 21
3310.259529788003
 31
0.0
  0
LINE
  5
1D2
  8
1
 10
1262.0757634599011
 20
3655.7595297880039
 30
0.0
 11
1342.0757634599011
 21
3655.7595297880039
 31
0.0
  0
LINE
  5
1D3
  8
1
 10
1262.0757634599011
 20
3720.7595297880039
 30
0.0
 11
1342.0757634599011
 21
3720.7595297880039
 31
0.0
  0
LINE
  5
1D4
  8
1
 10
1150.0757634599011
 20
3663.659529788004
 30
0.0
 11
1334.0757634599011
 21
3663.659529788004
 31
0.0
  0
LINE
  5
1D5
  8
1
 10
1150.0757634599011
 20
3712.8595297880038
 30
0.0
 11
1334.0757634599011
 21
3712.8595297880038
 31
0.0
  0
LINE
  5
1D6
  8
1
 10
1134.1685323901779
 20
3688.2595297880039
 30
0.0
 11
1349.982994529624
 21
3688.2595297880039
 31
0.0
  0
LINE
  5
1D7
  8
1
 10
1142.0757634599011
 20
3655.7595297880039
 30
0.0
 11
1222.0757634599011
 21
3655.7595297880039
 31
0.0
  0
LINE
  5
1D8
  8
1
 10
1142.0757634599011
 20
3720.7595297880039
 30
0.0
 11
1222.0757634599011
 21
3720.7595297880039
 31
0.0
  0
LINE
  5
1D9
  8
1
 10
1150.0757634599011
 20
3712.8595297880038
 30
0.0
 11
1150.0757634599011
 21
3663.659529788004
 31
0.0
  0
LINE
  5
1DA
  8
1
 10
1142.0757634599011
 20
3720.7595297880039
 30
0.0
 11
1142.0757634599011
 21
3655.7595297880039
 31
0.0
  0
LINE
  5
1DB
  8
1
 10
1262.0757634599011
 20
3796.2595297880039
 30
0.0
 11
1262.0757634599011
 21
3712.8595297880038
 31
0.0
  0
LINE
  5
1DC
  8
1
 10
1222.0757634599011
 20
3771.259529788003
 30
0.0
 11
1222.0757634599011
 21
3712.8595297880038
 31
0.0
  0
LINE
  5
1DD
  8
1
 10
1334.0757634599011
 20
3712.8595297880038
 30
0.0
 11
1334.0757634599011
 21
3663.659529788004
 31
0.0
  0
LINE
  5
1DE
  8
1
 10
1342.0757634599011
 20
3720.7595297880039
 30
0.0
 11
1342.0757634599011
 21
3655.7595297880039
 31
0.0
  0
LINE
  5
1DF
  8
1
 10
1417.0757634599011
 20
3798.2595297880039
 30
0.0
 11
1417.0757634599011
 21
3747.631633021409
 31
0.0
  0
LINE
  5
1E0
  8
1
 10
1417.0757634599011
 20
3756.2595297880039
 30
0.0
 11
1417.0757634599011
 21
3733.2595297880039
 31
0.0
  0
LINE
  5
1E1
  8
1
 10
816.08094614733
 20
4100.2595297880043
 30
0.0
 11
1232.08094614733
 21
4100.2595297880043
 31
0.0
  0
LINE
  5
1E2
  8
1
 10
791.08094614732988
 20
4125.2595297880043
 30
0.0
 11
1257.08094614733
 21
4125.2595297880043
 31
0.0
  0
LINE
  5
1E3
  8
1
 10
1067.0757634599011
 20
4141.2595297880043
 30
0.0
 11
1417.0757634599011
 21
4141.2595297880043
 31
0.0
  0
LINE
  5
1E4
  8
1
 10
1027.0757634599011
 20
4143.2595297880043
 30
0.0
 11
1067.0757634599011
 21
4143.2595297880043
 31
0.0
  0
POINT
  5
1E5
  8
1
 10
1027.0757634599011
 20
4143.2595297880043
 30
0.0
  0
LINE
  5
1E6
  8
1
 10
1027.0757634599011
 20
4143.2595297880043
 30
0.0
 11
1027.0757634599011
 21
4125.2595297880043
 31
0.0
  0
LINE
  5
1E7
  8
1
 10
1067.0757634599011
 20
4143.2595297880043
 30
0.0
 11
1067.0757634599011
 21
4125.2595297880043
 31
0.0
  0
LINE
  5
1E8
  8
1
 10
1257.08094614733
 20
4101.2595297880052
 30
0.0
 11
1417.0757634599011
 21
4101.2595297880052
 31
0.0
  0
LINE
  5
1E9
  8
1
 10
1417.0757634599011
 20
4143.2595297880043
 30
0.0
 11
1417.0757634599011
 21
4100.2595297880043
 31
0.0
  0
DIMENSION
  5
1EA
  8
3
  2
*D37
 10
1743.2182386019281
 20
4143.2595297880043
 30
0.0
 11
1693.2182386019269
 21
3713.2595297880039
 31
0.0
 70
     0
 13
1457.0757634599011
 23
3283.259529788003
 33
0.0
 14
1457.0757634599011
 24
4143.2595297880043
 34
0.0
 50
90.0
1001
ACAD
1000
DSTYLE
1002
{
1070
   287
1070
     3
1070
    40
1040
20.0
1070
   143
1040
0.039
1070
   172
1070
     1
1070
   271
1070
     0
1070
   279
1070
     0
1070
   288
1070
     1
1002
}
  0
LINE
  5
1F7
  8
1
 10
1524.0834804219171
 20
3796.2595297880039
 30
0.0
 11
1524.083480421916
 21
4100.2595297880043
 31
0.0
  0
LINE
  5
1F8
  8
1
 10
1457.0757634599011
 20
3798.2595297880039
 30
0.0
 11
1457.0757634599011
 21
3283.259529788003
 31
0.0
  0
LINE
  5
1F9
  8
1
 10
1457.0757634599011
 20
4143.2595297880043
 30
0.0
 11
1457.0757634599011
 21
4100.2595297880043
 31
0.0
  0
POINT
  5
1FA
  8
1
 10
1457.0757634599011
 20
4143.2595297880043
 30
0.0
  0
POINT
  5
1FB
  8
1
 10
1457.0757634599011
 20
4143.2595297880043
 30
0.0
  0
LINE
  5
1FC
  8
4
 10
4200.0
 20
5900.0
 30
0.0
 11
4200.0
 21
0.0
 31
0.0
  0
DIMENSION
  5
1FD
  8
3
  2
*D38
 10
3472.9209028191131
 20
1912.0744641198719
 30
0.0
 11
3422.9209028191121
 21
2112.074464119873
 31
0.0
 70
     0
 13
3301.8796986894099
 23
2312.0744641198721
 33
0.0
 14
3301.8796986894099
 24
1912.0744641198719
 34
0.0
 50
90.0
1001
ACAD
1000
DSTYLE
1002
{
1070
   287
1070
     3
1070
     3
1000
φ<>
1070
    40
1040
20.0
1070
   143
1040
0.039
1070
   172
1070
     1
1070
   271
1070
     0
1070
   279
1070
     0
1070
   288
1070
     1
1002
}
  0
TEXT
  5
20A
  8
4
 10
2311.7486801772702
 20
844.3746047138942
 30
0.0
 40
90.0
  1
ミツヤリミットロードファン
  0
TEXT
  5
20C
  8
4
 10
2373.3089911709608
 20
634.31916855988675
 30
0.0
 40
100.0
  1
LL#2 1/2-1
  0
LINE
  5
20D
  8
4
 10
2300.0
 20
1000.0
 30
0.0
 11
2300.0
 21
600.0
 31
0.0
  0
LINE
  5
20E
  8
2
 10
2376.868922085785
 20
2112.0744641198721
 30
0.0
 11
3343.096924463121
 21
2112.0744641198721
 31
0.0
  0
DIMENSION
  5
20F
  8
3
  2
*D39
 10
3123.8796986894099
 20
2621.3266003479398
 30
0.0
 11
2743.879698689409
 21
2671.3266003479398
 31
0.0
 70
     0
 13
2363.8796986894081
 23
2262.0744641198721
 33
0.0
 14
3123.8796986894099
 24
2591.3534097697279
 34
0.0
1001
ACAD
1000
DSTYLE
1002
{
1070
   287
1070
     3
1070
    40
1040
20.0
1070
   143
1040
0.039
1070
   172
1070
     1
1070
   271
1070
     0
1070
   279
1070
     0
1070
   288
1070
     1
1002
}
  0
DIMENSION
  5
21C
  8
3
  2
*D40
 10
3123.8796986894099
 20
1418.275956030488
 30
0.0
 11
2791.379698689409
 21
1468.275956030488
 31
0.0
 70
     0
 13
2458.8796986894081
 23
1576.0744641198719
 33
0.0
 14
3123.8796986894099
 24
1538.1292964408501
 34
0.0
1001
ACAD
1000
DSTYLE
1002
{
1070
   287
1070
     3
1070
    40
1040
20.0
1070
   143
1040
0.039
1070
   172
1070
     1
1070
   271
1070
     0
1070
   279
1070
     0
1070
   288
1070
     1
1002
}
  0
LINE
  5
229
  8
1
 10
2458.8796986894081
 20
1651.0744641198719
 30
0.0
 11
3318.8796986894099
 21
1651.0744641198719
 31
0.0
  0
LINE
  5
22A
  8
1
 10
2458.8796986894081
 20
1576.0744641198719
 30
0.0
 11
3318.8796986894099
 21
1576.0744641198719
 31
0.0
  0
LINE
  5
22B
  8
1
 10
2458.8796986894081
 20
1687.074464119873
 30
0.0
 11
3318.8796986894099
 21
1687.074464119873
 31
0.0
  0
LINE
  5
22C
  8
1
 10
2498.879698689409
 20
1687.074464119873
 30
0.0
 11
3318.8796986894099
 21
1687.074464119873
 31
0.0
  0
LINE
  5
22D
  8
1
 10
2458.8796986894081
 20
1762.074464119873
 30
0.0
 11
3318.8796986894099
 21
1762.074464119873
 31
0.0
  0
LINE
  5
22E
  8
1
 10
2563.7796986894082
 20
2092.0744641198721
 30
0.0
 11
2828.979698689408
 21
2092.0744641198721
 31
0.0
  0
LINE
  5
22F
  8
1
 10
2563.7796986894082
 20
2132.0744641198721
 30
0.0
 11
2828.979698689408
 21
2132.074464119873
 31
0.0
  0
LINE
  5
230
  8
1
 10
2483.8796986894081
 20
2053.6744641198729
 30
0.0
 11
2908.8796986894081
 21
2053.6744641198729
 31
0.0
  0
LINE
  5
231
  8
1
 10
2483.8796986894081
 20
2056.8744641198718
 30
0.0
 11
2908.8796986894081
 21
2056.8744641198718
 31
0.0
  0
LINE
  5
232
  8
2
 10
2528.8796986894081
 20
2210.1678000393572
 30
0.0
 11
2528.8796986894081
 21
1998.1981031506671
 31
0.0
  0
LINE
  5
233
  8
1
 10
2497.0796986894088
 20
2053.6744641198729
 30
0.0
 11
2497.0796986894088
 21
1762.074464119873
 31
0.0
  0
LINE
  5
234
  8
1
 10
2493.8796986894081
 20
2053.6744641198729
 30
0.0
 11
2493.8796986894081
 21
1762.074464119873
 31
0.0
  0
LINE
  5
235
  8
1
 10
2485.8796986894081
 20
2262.0744641198721
 30
0.0
 11
2485.8796986894081
 21
1782.0744641198719
 31
0.0
  0
LINE
  5
236
  8
1
 10
2363.8796986894081
 20
2262.0744641198721
 30
0.0
 11
2363.879698689409
 21
1782.0744641198719
 31
0.0
  0
LINE
  5
237
  8
1
 10
2443.8796986894081
 20
2175.5744641198721
 30
0.0
 11
2443.8796986894081
 21
1855.874464119873
 31
0.0
  0
LINE
  5
238
  8
1
 10
2393.8796986894081
 20
2175.5744641198721
 30
0.0
 11
2393.8796986894081
 21
1855.874464119873
 31
0.0
  0
LINE
  5
239
  8
2
 10
2382.915586048302
 20
1932.0744641198719
 30
0.0
 11
2505.8463986344191
 21
1932.0744641198719
 31
0.0
  0
LINE
  5
23A
  8
1
 10
2363.879698689409
 20
1782.0744641198719
 30
0.0
 11
2485.8796986894081
 21
1782.0744641198719
 31
0.0
  0
LINE
  5
23B
  8
1
 10
2393.8796986894081
 20
1855.874464119873
 30
0.0
 11
2443.8796986894081
 21
1855.874464119873
 31
0.0
  0
LINE
  5
23C
  8
1
 10
2393.8796986894081
 20
1998.574464119873
 30
0.0
 11
2443.8796986894081
 21
1998.574464119873
 31
0.0
  0
LINE
  5
23D
  8
1
 10
2458.8796986894081
 20
1651.0744641198719
 30
0.0
 11
2458.8796986894081
 21
1576.0744641198719
 31
0.0
  0
LINE
  5
23E
  8
1
 10
2458.8796986894081
 20
1762.074464119873
 30
0.0
 11
2458.8796986894081
 21
1687.074464119873
 31
0.0
  0
LINE
  5
23F
  8
1
 10
2443.879698689409
 20
1918.074464119873
 30
0.0
 11
2493.8796986894081
 21
1918.074464119873
 31
0.0
  0
LINE
  5
240
  8
1
 10
2443.879698689409
 20
1946.0744641198719
 30
0.0
 11
2493.8796986894081
 21
1946.0744641198719
 31
0.0
  0
LINE
  5
241
  8
1
 10
2363.8796986894081
 20
2262.0744641198721
 30
0.0
 11
2485.879698689409
 21
2262.0744641198721
 31
0.0
  0
LINE
  5
242
  8
1
 10
2393.8796986894081
 20
2175.5744641198721
 30
0.0
 11
2443.8796986894081
 21
2175.574464119873
 31
0.0
  0
ARC
  5
243
  8
1
 10
2318.2308001074512
 20
2147.0837205529128
 30
0.0
 40
194.8824391137272
 50
340.45128723118921
 51
3.1049539645776858
  0
LINE
  5
244
  8
1
 10
2501.8796986894081
 20
2081.8744641198718
 30
0.0
 11
2555.879698689409
 21
2081.8744641198718
 31
0.0
  0
LINE
  5
245
  8
1
 10
2513.0488496431758
 20
2142.0744641198721
 30
0.0
 11
2507.479698689408
 21
2142.0744641198721
 31
0.0
  0
LINE
  5
246
  8
1
 10
2555.879698689409
 20
2062.8744641198732
 30
0.0
 11
2501.8796986894081
 21
2062.8744641198732
 31
0.0
  0
POLYLINE
  5
247
  8
1
 66
     1
 10
0.0
 20
0.0
 30
0.0
 70
     1
  0
VERTEX
  5
408
  8
1
 10
2496.3796986894081
 20
2056.8744641198718
 30
0.0
  0
VERTEX
  5
409
  8
1
 10
2561.379698689409
 20
2056.8744641198718
 30
0.0
  0
VERTEX
  5
40A
  8
1
 10
2561.379698689409
 20
2062.8744641198732
 30
0.0
  0
VERTEX
  5
40B
  8
1
 10
2496.3796986894081
 20
2062.8744641198732
 30
0.0
  0
SEQEND
  5
40C
  8
1
  0
LINE
  5
24D
  8
1
 10
2443.879698689409
 20
2092.0744641198721
 30
0.0
 11
2505.1884070176802
 21
2092.0744641198721
 31
0.0
  0
LINE
  5
24E
  8
1
 10
2443.879698689409
 20
2132.0744641198721
 30
0.0
 11
2507.479698689408
 21
2132.0744641198721
 31
0.0
  0
LINE
  5
24F
  8
1
 10
2501.8796986894081
 20
2062.8744641198732
 30
0.0
 11
2501.8796986894081
 21
2081.8744641198718
 31
0.0
  0
LINE
  5
250
  8
1
 10
2483.8796986894081
 20
2056.8744641198718
 30
0.0
 11
2483.8796986894081
 21
2053.6744641198729
 31
0.0
  0
LINE
  5
251
  8
1
 10
2507.479698689408
 20
2142.0744641198721
 30
0.0
 11
2507.479698689408
 21
2100.5646979875992
 31
0.0
  0
ARC
  5
252
  8
1
 10
2739.528597271365
 20
2147.0837205529128
 30
0.0
 40
194.8824391137272
 50
176.8950460354223
 51
199.54871276881059
  0
LINE
  5
253
  8
1
 10
2563.7796986894082
 20
2142.0744641198721
 30
0.0
 11
2544.7105477356408
 21
2142.0744641198721
 31
0.0
  0
LINE
  5
254
  8
1
 10
2563.7796986894082
 20
2142.0744641198721
 30
0.0
 11
2563.7796986894082
 21
2082.0744641198721
 31
0.0
  0
LINE
  5
255
  8
1
 10
2563.7796986894082
 20
2082.0744641198721
 30
0.0
 11
2555.8088061411249
 21
2082.0744641198721
 31
0.0
  0
LINE
  5
256
  8
1
 10
2555.879698689409
 20
2062.8744641198732
 30
0.0
 11
2555.879698689409
 21
2081.8744641198718
 31
0.0
  0
POLYLINE
  5
257
  8
1
 66
     1
 10
0.0
 20
0.0
 30
0.0
 70
     1
  0
VERTEX
  5
40D
  8
1
 10
2534.583782190598
 20
2169.9401206828288
 30
0.0
  0
VERTEX
  5
40E
  8
1
 10
2529.8410610772498
 20
2169.9401206828288
 30
0.0
  0
VERTEX
  5
40F
  8
1
 10
2529.8410610772498
 20
2162.8744641198732
 30
0.0
  0
VERTEX
  5
410
  8
1
 10
2534.583782190598
 20
2162.8744641198732
 30
0.0
  0
SEQEND
  5
411
  8
1
  0
ARC
  5
25D
  8
1
 10
2515.8227459756372
 20
2157.802052401772
 30
0.0
 40
3.0
 50
108.0376136626346
 51
183.10495396457819
  0
ARC
  5
25E
  8
1
 10
2541.9366514031799
 20
2157.802052401772
 30
0.0
 40
3.0
 50
356.89504603542167
 51
71.962386337365331
  0
ARC
  5
25F
  8
1
 10
2528.8796986894081
 20
2117.706466570809
 30
0.0
 40
45.167997549063401
 50
71.962386337365885
 51
108.0376136626341
  0
LINE
  5
260
  8
2
 10
2863.8796986894081
 20
2210.1678000393572
 30
0.0
 11
2863.8796986894081
 21
1994.8946793030509
 31
0.0
  0
LINE
  5
261
  8
2
 10
3123.8796986894099
 20
2501.4677115031191
 30
0.0
 11
3123.8796986894099
 21
1538.1292964408501
 31
0.0
  0
LINE
  5
262
  8
1
 10
3275.8796986894099
 20
2417.0744641198721
 30
0.0
 11
3275.8796986894099
 21
1760.066747157857
 31
0.0
  0
LINE
  5
263
  8
1
 10
2971.8796986894099
 20
2417.0744641198721
 30
0.0
 11
2971.8796986894099
 21
1760.066747157857
 31
0.0
  0
LINE
  5
264
  8
1
 10
2973.8796986894099
 20
2417.0744641198721
 30
0.0
 11
2973.8796986894099
 21
1760.066747157857
 31
0.0
  0
LINE
  5
265
  8
1
 10
3273.8796986894099
 20
2417.0744641198721
 30
0.0
 11
3273.8796986894099
 21
1760.066747157857
 31
0.0
  0
LINE
  5
266
  8
1
 10
2898.879698689409
 20
2053.6744641198711
 30
0.0
 11
2898.879698689409
 21
1762.074464119873
 31
0.0
  0
POLYLINE
  5
267
  8
1
 66
     1
 10
0.0
 20
0.0
 30
0.0
 70
     1
  0
VERTEX
  5
412
  8
1
 10
2898.879698689409
 20
2013.674464119872
 30
0.0
  0
VERTEX
  5
413
  8
1
 10
2938.8796986894081
 20
2013.674464119872
 30
0.0
  0
VERTEX
  5
414
  8
1
 10
2938.8796986894081
 20
2015.674464119872
 30
0.0
 42
0.4142135623730951
  0
VERTEX
  5
415
  8
1
 10
2935.8796986894081
 20
2018.674464119872
 30
0.0
  0
VERTEX
  5
416
  8
1
 10
2908.3796986894081
 20
2018.674464119872
 30
0.0
 42
-0.4142135623730951
  0
VERTEX
  5
417
  8
1
 10
2903.8796986894081
 20
2023.174464119872
 30
0.0
  0
VERTEX
  5
418
  8
1
 10
2903.8796986894081
 20
2050.674464119872
 30
0.0
 42
0.4142135623730951
  0
VERTEX
  5
419
  8
1
 10
2900.8796986894081
 20
2053.6744641198711
 30
0.0
  0
VERTEX
  5
41A
  8
1
 10
2898.879698689409
 20
2053.6744641198711
 30
0.0
  0
SEQEND
  5
41B
  8
1
  0
LINE
  5
272
  8
1
 10
3301.8796986894099
 20
2312.0744641198721
 30
0.0
 11
3301.8796986894099
 21
1912.0744641198719
 31
0.0
  0
LINE
  5
273
  8
1
 10
2973.879698689409
 20
1770.066747157857
 30
0.0
 11
3273.8796986894108
 21
1770.066747157857
 31
0.0
  0
POLYLINE
  5
274
  8
1
 66
     1
 10
0.0
 20
0.0
 30
0.0
 70
     1
  0
VERTEX
  5
41C
  8
1
 10
2971.879698689409
 20
1762.074464119873
 30
0.0
  0
VERTEX
  5
41D
  8
1
 10
2931.879698689409
 20
1762.074464119873
 30
0.0
  0
VERTEX
  5
41E
  8
1
 10
2931.879698689409
 20
1764.074464119873
 30
0.0
 42
-0.4142135623730951
  0
VERTEX
  5
41F
  8
1
 10
2934.879698689409
 20
1767.0744641198719
 30
0.0
  0
VERTEX
  5
420
  8
1
 10
2962.379698689409
 20
1767.0744641198719
 30
0.0
 42
0.4142135623730951
  0
VERTEX
  5
421
  8
1
 10
2966.879698689409
 20
1771.5744641198719
 30
0.0
  0
VERTEX
  5
422
  8
1
 10
2966.879698689409
 20
1799.0744641198719
 30
0.0
 42
-0.4142135623730951
  0
VERTEX
  5
423
  8
1
 10
2969.879698689409
 20
1802.0744641198719
 30
0.0
  0
VERTEX
  5
424
  8
1
 10
2971.879698689409
 20
1802.0744641198719
 30
0.0
  0
SEQEND
  5
425
  8
1
  0
LINE
  5
27F
  8
1
 10
2971.879698689409
 20
1760.066747157857
 30
0.0
 11
2973.8796986894099
 21
1760.066747157857
 31
0.0
  0
LINE
  5
280
  8
1
 10
2921.879698689409
 20
2009.174464119872
 30
0.0
 11
2971.8796986894081
 21
2009.174464119872
 31
0.0
  0
LINE
  5
281
  8
1
 10
2921.879698689409
 20
2013.674464119872
 30
0.0
 11
2971.8796986894081
 21
2013.674464119872
 31
0.0
  0
LINE
  5
282
  8
1
 10
2921.879698689409
 20
2013.674464119872
 30
0.0
 11
2921.879698689409
 21
2009.174464119872
 31
0.0
  0
DIMENSION
  5
283
  8
3
  2
*D16
 10
3318.8796986894099
 20
1418.275956030488
 30
0.0
 11
3221.3796986894099
 21
1476.0187337650091
 31
0.0
 70
   128
 13
3123.8796986894099
 23
1538.1292964408501
 33
0.0
 14
3318.8796986894099
 24
1576.0744641198719
 34
0.0
1001
ACAD
1000
DSTYLE
1002
{
1070
   288
1070
     1
1070
   172
1070
     1
1070
    40
1040
20.0
1070
   271
1070
     0
1070
   143
1040
0.039
1002
}
  0
POLYLINE
  5
290
  8
1
 66
     1
 10
0.0
 20
0.0
 30
0.0
  0
VERTEX
  5
426
  8
1
 10
3280.8796986894099
 20
1784.0744641198719
 30
0.0
  0
VERTEX
  5
427
  8
1
 10
3280.8796986894099
 20
1799.0744641198719
 30
0.0
 42
0.4142135623730951
  0
VERTEX
  5
428
  8
1
 10
3277.8796986894099
 20
1802.0744641198719
 30
0.0
  0
VERTEX
  5
429
  8
1
 10
3275.8796986894099
 20
1802.0744641198719
 30
0.0
  0
VERTEX
  5
42A
  8
1
 10
3275.8796986894099
 20
1784.0744641198719
 30
0.0
  0
SEQEND
  5
42B
  8
1
  0
LINE
  5
297
  8
1
 10
3318.8796986894099
 20
1651.074464119873
 30
0.0
 11
3318.8796986894099
 21
1576.0744641198719
 31
0.0
  0
POLYLINE
  5
298
  8
1
 66
     1
 10
0.0
 20
0.0
 30
0.0
  0
VERTEX
  5
42C
  8
1
 10
3275.8796986894099
 20
1762.074464119873
 30
0.0
  0
VERTEX
  5
42D
  8
1
 10
3315.8796986894099
 20
1762.074464119873
 30
0.0
  0
VERTEX
  5
42E
  8
1
 10
3315.8796986894099
 20
1764.074464119873
 30
0.0
 42
0.4142135623730951
  0
VERTEX
  5
42F
  8
1
 10
3312.8796986894099
 20
1767.0744641198719
 30
0.0
  0
VERTEX
  5
430
  8
1
 10
3285.3796986894099
 20
1767.0744641198719
 30
0.0
 42
-0.4142135623730951
  0
VERTEX
  5
431
  8
1
 10
3280.8796986894099
 20
1771.5744641198719
 30
0.0
  0
VERTEX
  5
432
  8
1
 10
3280.8796986894099
 20
1784.0744641198719
 30
0.0
 42
0.4142135623730951
  0
SEQEND
  5
433
  8
1
  0
LINE
  5
2A1
  8
1
 10
3273.8796986894108
 20
1760.066747157857
 30
0.0
 11
3275.8796986894099
 21
1760.066747157857
 31
0.0
  0
POLYLINE
  5
2A2
  8
1
 66
     1
 10
0.0
 20
0.0
 30
0.0
  0
VERTEX
  5
434
  8
1
 10
3275.8796986894099
 20
1789.074464119873
 30
0.0
  0
VERTEX
  5
435
  8
1
 10
3275.8796986894099
 20
1783.8667471578569
 30
0.0
  0
SEQEND
  5
436
  8
1
  0
LINE
  5
2A6
  8
1
 10
3318.8796986894099
 20
1762.074464119873
 30
0.0
 11
3318.8796986894099
 21
1687.074464119873
 31
0.0
  0
DIMENSION
  5
2B5
  8
3
  2
*D41
 10
3273.8796986894099
 20
2488.7488576603582
 30
0.0
 11
3123.8796986894099
 21
2538.7488576603569
 31
0.0
 70
     0
 13
2973.8796986894099
 23
2417.0744641198721
 33
0.0
 14
3273.8796986894099
 24
2417.0744641198721
 34
0.0
1001
ACAD
1000
DSTYLE
1002
{
1070
   287
1070
     3
1070
    40
1040
20.0
1070
   143
1040
0.039
1070
   172
1070
     1
1070
   271
1070
     0
1070
   279
1070
     0
1070
   288
1070
     1
1002
}
  0
LINE
  5
2C2
  8
1
 10
2971.8796986894099
 20
2392.0744641198721
 30
0.0
 11
3275.8796986894099
 21
2392.0744641198721
 31
0.0
  0
LINE
  5
2C3
  8
1
 10
2955.1422067707622
 20
2414.0744641198721
 30
0.0
 11
3290.9791165946208
 21
2414.0744641198721
 31
0.0
  0
LINE
  5
2C4
  8
1
 10
2955.1422067707622
 20
2417.0744641198721
 30
0.0
 11
3290.9791165946208
 21
2417.0744641198721
 31
0.0
  0
LINE
  5
2C5
  8
1
 10
2888.4101035429721
 20
2092.0744641198721
 30
0.0
 11
2971.8796986894081
 21
2092.0744641198721
 31
0.0
  0
LINE
  5
2C6
  8
1
 10
2885.2796986894091
 20
2132.074464119873
 30
0.0
 11
2971.8796986894099
 21
2132.074464119873
 31
0.0
  0
ARC
  5
2C7
  8
1
 10
2653.2308001074521
 20
2147.0837205529128
 30
0.0
 40
194.8824391137272
 50
340.45128723118921
 51
3.1049539645776889
  0
LINE
  5
2C8
  8
1
 10
2836.8796986894081
 20
2062.8744641198732
 30
0.0
 11
2890.8796986894081
 21
2062.8744641198732
 31
0.0
  0
LINE
  5
2C9
  8
1
 10
2890.8796986894081
 20
2081.8744641198718
 30
0.0
 11
2836.8796986894081
 21
2081.8744641198718
 31
0.0
  0
LINE
  5
2CA
  8
1
 10
2828.979698689408
 20
2142.0744641198721
 30
0.0
 11
2848.0488496431758
 21
2142.0744641198721
 31
0.0
  0
POLYLINE
  5
2CB
  8
1
 66
     1
 10
0.0
 20
0.0
 30
0.0
 70
     1
  0
VERTEX
  5
443
  8
1
 10
2831.3796986894081
 20
2056.8744641198718
 30
0.0
  0
VERTEX
  5
444
  8
1
 10
2896.3796986894081
 20
2056.8744641198718
 30
0.0
  0
VERTEX
  5
445
  8
1
 10
2896.3796986894081
 20
2062.8744641198732
 30
0.0
  0
VERTEX
  5
446
  8
1
 10
2831.3796986894081
 20
2062.8744641198732
 30
0.0
  0
SEQEND
  5
447
  8
1
  0
LINE
  5
2D1
  8
1
 10
2828.979698689408
 20
2142.0744641198721
 30
0.0
 11
2828.979698689408
 21
2082.0744641198721
 31
0.0
  0
LINE
  5
2D2
  8
1
 10
2836.8796986894081
 20
2062.8744641198732
 30
0.0
 11
2836.8796986894081
 21
2081.8744641198718
 31
0.0
  0
LINE
  5
2D3
  8
1
 10
2828.979698689408
 20
2082.0744641198721
 30
0.0
 11
2836.9505912376908
 21
2082.0744641198721
 31
0.0
  0
ARC
  5
2D4
  8
1
 10
3074.528597271365
 20
2147.0837205529128
 30
0.0
 40
194.8824391137272
 50
176.8950460354223
 51
199.54871276881059
  0
LINE
  5
2D5
  8
1
 10
2890.8796986894081
 20
2062.8744641198732
 30
0.0
 11
2890.8796986894081
 21
2081.8744641198718
 31
0.0
  0
LINE
  5
2D6
  8
1
 10
2908.8796986894081
 20
2056.8744641198718
 30
0.0
 11
2908.8796986894081
 21
2053.6744641198711
 31
0.0
  0
LINE
  5
2D7
  8
1
 10
2885.2796986894091
 20
2142.0744641198721
 30
0.0
 11
2885.2796986894091
 21
2100.5646979875992
 31
0.0
  0
LINE
  5
2D8
  8
1
 10
2879.7105477356408
 20
2142.0744641198721
 30
0.0
 11
2885.2796986894091
 21
2142.0744641198721
 31
0.0
  0
ARC
  5
2D9
  8
1
 10
2876.9366514031799
 20
2157.802052401772
 30
0.0
 40
3.0
 50
356.89504603542167
 51
71.962386337365317
  0
ARC
  5
2DA
  8
1
 10
2863.8796986894081
 20
2117.706466570809
 30
0.0
 40
45.167997549063401
 50
71.962386337365871
 51
108.0376136626341
  0
ARC
  5
2DB
  8
1
 10
2850.8227459756372
 20
2157.802052401772
 30
0.0
 40
3.0
 50
108.0376136626346
 51
183.10495396457819
  0
POLYLINE
  5
2DC
  8
1
 66
     1
 10
0.0
 20
0.0
 30
0.0
 70
     1
  0
VERTEX
  5
448
  8
1
 10
2858.1756151882182
 20
2169.9401206828288
 30
0.0
  0
VERTEX
  5
449
  8
1
 10
2862.9183363015682
 20
2169.9401206828288
 30
0.0
  0
VERTEX
  5
44A
  8
1
 10
2862.9183363015682
 20
2162.8744641198732
 30
0.0
  0
VERTEX
  5
44B
  8
1
 10
2858.1756151882182
 20
2162.8744641198732
 30
0.0
  0
SEQEND
  5
44C
  8
1
  0
DIMENSION
  5
2E3
  8
3
  2
*D19
 10
3276.8796986894099
 20
2621.3266003479398
 30
0.0
 11
3200.3796986894099
 21
2701.3266003479412
 31
0.0
 13
3123.8796986894099
 23
2591.3534097697279
 33
0.0
 14
3276.8796986894099
 24
2337.0744641198721
 34
0.0
1001
ACAD
1000
DSTYLE
1002
{
1070
   288
1070
     1
1070
   172
1070
     1
1070
    40
1040
20.0
1070
   271
1070
     0
1070
   143
1040
0.039
1002
}
  0
LINE
  5
2F1
  8
1
 10
3302.479698689408
 20
2312.0744641198721
 30
0.0
 11
3300.8796986894099
 21
2312.0744641198721
 31
0.0
  0
LINE
  5
2F3
  8
4
 10
3700.0
 20
1000.0
 30
0.0
 11
3700.0
 21
600.0
 31
0.0
  0
LINE
  5
2F4
  8
4
 10
3700.0
 20
5362.5271662508021
 30
0.0
 11
2881.2348447197292
 21
5362.5271662508021
 31
0.0
  0
LINE
  5
2F5
  8
4
 10
2881.2348447197292
 20
5573.3045230995049
 30
0.0
 11
3700.0
 21
5573.3045230995049
 31
0.0
  0
TEXT
  5
2F6
  8
4
 10
2622.5921252000262
 20
4766.8576826650306
 30
0.0
 40
107.9999999999999
  1
縮尺：1/15
  0
TEXT
  5
2F7
  8
4
 10
2937.9391184985789
 20
5412.1221629906177
 30
0.0
 40
112.0
  1
No.
  0
LINE
  5
2F8
  8
4
 10
2881.2348447197292
 20
5362.5271662508021
 30
0.0
 11
2881.2348447197292
 21
5573.3045230995049
 31
0.0
  0
LINE
  5
2F9
  8
4
 10
3700.0
 20
5338.8175085296098
 30
0.0
 11
3700.0
 21
4938.8175085296089
 31
0.0
  0
LINE
  5
2FA
  8
4
 10
3700.0
 20
5573.3045230995049
 30
0.0
 11
3700.0
 21
5362.5271662508021
 31
0.0
  0
LINE
  5
2FB
  8
4
 10
4200.0
 20
5900.0
 30
0.0
 11
4200.0
 21
5900.0
 31
0.0
  0
ENDSEC
  0
EOF
