  0
SECTION
  2
HEADER
  9
$ACADVER
  1
AC1009
  9
$INSBASE
 10
0.0
 20
0.0
 30
0.0
  9
$EXTMIN
 10
0.0
 20
0.0
 30
0.0
  9
$EXTMAX
 10
4200.0
 20
5900.0
 30
0.0
  9
$LIMMIN
 10
0.0
 20
0.0
  9
$LIMMAX
 10
297.0
 20
210.0
  9
$ORTHOMODE
 70
     0
  9
$REGENMODE
 70
     1
  9
$FILLMODE
 70
     0
  9
$QTEXTMODE
 70
     0
  9
$MIRRTEXT
 70
     1
  9
$DRAGMODE
 70
     2
  9
$LTSCALE
 40
100.0
  9
$OSMODE
 70
    37
  9
$ATTMODE
 70
     1
  9
$TEXTSIZE
 40
180.0
  9
$TRACEWID
 40
0.05
  9
$TEXTSTYLE
  7
STANDARD
  9
$CLAYER
  8
3
  9
$CELTYPE
  6
BYLAYER
  9
$CECOLOR
 62
   256
  9
$DIMSCALE
 40
20.0
  9
$DIMASZ
 40
2.0
  9
$DIMEXO
 40
0.5
  9
$DIMDLI
 40
10.0
  9
$DIMRND
 40
0.0
  9
$DIMDLE
 40
0.0
  9
$DIMEXE
 40
1.0
  9
$DIMTP
 40
1.0
  9
$DIMTM
 40
1.0
  9
$DIMTXT
 40
3.0
  9
$DIMCEN
 40
0.0
  9
$DIMTSZ
 40
0.0
  9
$DIMTOL
 70
     0
  9
$DIMLIM
 70
     0
  9
$DIMTIH
 70
     0
  9
$DIMTOH
 70
     0
  9
$DIMSE1
 70
     0
  9
$DIMSE2
 70
     0
  9
$DIMTAD
 70
     1
  9
$DIMZIN
 70
     8
  9
$DIMBLK
  1

  9
$DIMASO
 70
     1
  9
$DIMSHO
 70
     1
  9
$DIMPOST
  1

  9
$DIMAPOST
  1

  9
$DIMALT
 70
     0
  9
$DIMALTD
 70
     2
  9
$DIMALTF
 40
0.039
  9
$DIMLFAC
 40
1.0
  9
$DIMTOFL
 70
     1
  9
$DIMTVP
 40
0.0
  9
$DIMTIX
 70
     0
  9
$DIMSOXD
 70
     0
  9
$DIMSAH
 70
     1
  9
$DIMBLK1
  1
OPEN
  9
$DIMBLK2
  1
OPEN
  9
$DIMSTYLE
  2
IGA
  9
$DIMCLRD
 70
     0
  9
$DIMCLRE
 70
     0
  9
$DIMCLRT
 70
     0
  9
$DIMTFAC
 40
10.0
  9
$DIMGAP
 40
1.0
  9
$LUNITS
 70
     2
  9
$LUPREC
 70
     3
  9
$SKETCHINC
 40
0.1
  9
$FILLETRAD
 40
50.0
  9
$AUNITS
 70
     0
  9
$AUPREC
 70
     0
  9
$MENU
  1
acad
  9
$ELEVATION
 40
0.0
  9
$PELEVATION
 40
0.0
  9
$THICKNESS
 40
0.0
  9
$LIMCHECK
 70
     0
  9
$BLIPMODE
 70
     0
  9
$CHAMFERA
 40
0.5
  9
$CHAMFERB
 40
0.5
  9
$SKPOLY
 70
     0
  9
$TDCREATE
 40
2451019.6248771991
  9
$TDUPDATE
 40
2454953.639018368
  9
$TDINDWG
 40
0.0129022917
  9
$TDUSRTIMER
 40
0.0129022917
  9
$USRTIMER
 70
     1
  9
$ANGBASE
 50
0.0
  9
$ANGDIR
 70
     0
  9
$PDMODE
 70
     0
  9
$PDSIZE
 40
0.0
  9
$PLINEWID
 40
0.0
  9
$COORDS
 70
     1
  9
$SPLFRAME
 70
     0
  9
$SPLINETYPE
 70
     6
  9
$SPLINESEGS
 70
     8
  9
$ATTDIA
 70
     0
  9
$ATTREQ
 70
     1
  9
$HANDLING
 70
 10241
  9
$HANDSEED
  5
8311
  9
$SURFTAB1
 70
     6
  9
$SURFTAB2
 70
     6
  9
$SURFTYPE
 70
     6
  9
$SURFU
 70
     6
  9
$SURFV
 70
     6
  9
$UCSNAME
  2

  9
$UCSORG
 10
0.0
 20
0.0
 30
0.0
  9
$UCSXDIR
 10
1.0
 20
0.0
 30
0.0
  9
$UCSYDIR
 10
0.0
 20
1.0
 30
0.0
  9
$PUCSNAME
  2

  9
$PUCSORG
 10
0.0
 20
0.0
 30
0.0
  9
$PUCSXDIR
 10
1.0
 20
0.0
 30
0.0
  9
$PUCSYDIR
 10
0.0
 20
1.0
 30
0.0
  9
$USERI1
 70
     0
  9
$USERI2
 70
     0
  9
$USERI3
 70
     0
  9
$USERI4
 70
     0
  9
$USERI5
 70
     0
  9
$USERR1
 40
0.0
  9
$USERR2
 40
0.0
  9
$USERR3
 40
0.0
  9
$USERR4
 40
0.0
  9
$USERR5
 40
0.0
  9
$WORLDVIEW
 70
     1
  9
$SHADEDGE
 70
     3
  9
$SHADEDIF
 70
    70
  9
$TILEMODE
 70
     1
  9
$MAXACTVP
 70
    16
  9
$PLIMCHECK
 70
     0
  9
$PEXTMIN
 10
1.0000000000000000E+020
 20
1.0000000000000000E+020
 30
1.0000000000000000E+020
  9
$PEXTMAX
 10
-1.0000000000000000E+020
 20
-1.0000000000000000E+020
 30
-1.0000000000000000E+020
  9
$PLIMMIN
 10
0.0
 20
0.0
  9
$PLIMMAX
 10
12.0
 20
9.0
  9
$UNITMODE
 70
     0
  9
$VISRETAIN
 70
     0
  9
$PLINEGEN
 70
     0
  9
$PSLTSCALE
 70
     1
  0
ENDSEC
  0
SECTION
  2
TABLES
  0
TABLE
  2
VPORT
 70
     2
  0
VPORT
  2
*ACTIVE
 70
     0
 10
0.0
 20
0.0
 11
1.0
 21
1.0
 12
3910.9197069563329
 22
709.78686562169241
 13
0.0
 23
0.0
 14
10.0
 24
10.0
 15
10.0
 25
10.0
 16
0.0
 26
0.0
 36
1.0
 17
0.0
 27
0.0
 37
0.0
 40
1708.5199846887151
 41
3.1666666666666661
 42
50.0
 43
0.0
 44
0.0
 50
0.0
 51
0.0
 71
     0
 72
   100
 73
     1
 74
     0
 75
     0
 76
     0
 77
     0
 78
     0
  0
ENDTAB
  0
TABLE
  2
LTYPE
 70
     2
  0
LTYPE
  2
CONTINUOUS
 70
     0
  3
Solid line
 72
    65
 73
     0
 40
0.0
  0
LTYPE
  2
CENTER
 70
     0
  3
____ _ ____ _ ____ _ ____ _ ____ _ ____ _ ____ 
 72
    65
 73
     4
 40
2.0
 49
1.25
 49
-0.25
 49
0.25
 49
-0.25
  0
ENDTAB
  0
TABLE
  2
LAYER
 70
     7
  0
LAYER
  2
0
 70
     0
 62
     7
  6
CONTINUOUS
  0
LAYER
  2
3
 70
     0
 62
     2
  6
CONTINUOUS
  0
LAYER
  2
2
 70
     0
 62
     3
  6
CENTER
  0
LAYER
  2
1
 70
     0
 62
     4
  6
CONTINUOUS
  0
LAYER
  2
4
 70
     0
 62
     7
  6
CONTINUOUS
  0
LAYER
  2
SUNPOU
 70
     0
 62
     2
  6
CONTINUOUS
  0
LAYER
  2
DEFPOINTS
 70
     0
 62
     7
  6
CONTINUOUS
  0
ENDTAB
  0
TABLE
  2
STYLE
 70
     1
  0
STYLE
  2
STANDARD
 70
     0
 40
0.0
 41
1.0
 50
0.0
 71
     0
 42
180.0
  3
simplex.shx
  4
extfont.shx
  0
ENDTAB
  0
TABLE
  2
VIEW
 70
     0
  0
ENDTAB
  0
TABLE
  2
UCS
 70
     0
  0
ENDTAB
  0
TABLE
  2
APPID
 70
     1
  0
APPID
  2
ACAD
 70
     0
  0
ENDTAB
  0
TABLE
  2
DIMSTYLE
 70
     1
  0
DIMSTYLE
  2
IGA
 70
     0
  3

  4

  5

  6
OPEN
  7
OPEN
 40
2.0
 41
2.0
 42
0.5
 43
10.0
 44
1.0
 45
0.0
 46
0.0
 47
1.0
 48
1.0
140
3.0
141
0.0
142
0.0
143
0.03937
144
1.0
145
0.0
146
10.0
147
1.0
 71
     0
 72
     0
 73
     0
 74
     0
 75
     0
 76
     0
 77
     1
 78
     8
170
     0
171
     2
172
     0
173
     1
174
     0
175
     0
176
     0
177
     0
178
     0
  0
ENDTAB
  0
ENDSEC
  0
SECTION
  2
BLOCKS
  0
BLOCK
  8
0
  2
$MODEL_SPACE
 70
     0
 10
0.0
 20
0.0
 30
0.0
  3
$MODEL_SPACE
  1

  0
ENDBLK
  5
1B
  8
0
  0
BLOCK
 67
     1
  8
0
  2
$PAPER_SPACE
 70
     0
 10
0.0
 20
0.0
 30
0.0
  3
$PAPER_SPACE
  1

  0
ENDBLK
  5
18
 67
     1
  8
0
  0
BLOCK
  8
0
  2
L02503
 70
     0
 10
0.0
 20
0.0
 30
0.0
  3
L02503
  1

  0
LINE
  5
7A03
  8
0
 10
81.202663485604475
 20
85.280529856043884
 30
0.0
 11
106.2026634856044
 21
85.280529856043884
 31
0.0
  0
LINE
  5
7A04
  8
0
 10
106.2026634856044
 20
85.280529856043884
 30
0.0
 11
106.2026634856044
 21
86.28052985604387
 31
0.0
  0
LINE
  5
7A05
  8
0
 10
88.202663485604475
 20
88.280529856043856
 30
0.0
 11
104.2026634856044
 21
88.28052985604387
 31
0.0
  0
ARC
  5
7A06
  8
0
 10
104.2026634856044
 20
86.28052985604387
 30
0.0
 40
2.0
 50
359.9999999999992
 51
89.999999999999588
  0
LINE
  5
7A07
  8
0
 10
81.202663485604475
 20
85.280529856043884
 30
0.0
 11
81.202663485604475
 21
110.2805298560438
 31
0.0
  0
LINE
  5
7A08
  8
0
 10
84.202663485604504
 20
92.280529856043856
 30
0.0
 11
84.202663485604504
 21
108.2805298560438
 31
0.0
  0
LINE
  5
7A09
  8
0
 10
81.202663485604475
 20
110.2805298560438
 30
0.0
 11
82.202663485604475
 21
110.2805298560438
 31
0.0
  0
ARC
  5
7A0A
  8
0
 10
82.202663485604475
 20
108.2805298560438
 30
0.0
 40
2.0
 50
0.0
 51
90.00000000000081
  0
ARC
  5
7A0B
  8
0
 10
88.202663485604475
 20
92.280529856043856
 30
0.0
 40
4.0
 50
180.0
 51
270.0
  0
ENDBLK
  5
7A0D
  8
0
  0
BLOCK
  8
0
  2
*D1
 70
     1
 10
0.0
 20
0.0
 30
0.0
  3
*D1
  1

  0
LINE
  5
81E4
  8
3
 62
     0
 10
1022.679005781835
 20
2467.0330900100348
 30
0.0
 11
1022.679005781835
 21
2603.779390425821
 31
0.0
  0
LINE
  5
81E5
  8
3
 62
     0
 10
740.67128881982035
 20
2097.8740985030149
 30
0.0
 11
740.67128881982035
 21
2603.779390425821
 31
0.0
  0
LINE
  5
81E6
  8
3
 62
     0
 10
982.67900578183571
 20
2583.779390425821
 30
0.0
 11
780.67128881982035
 21
2583.779390425821
 31
0.0
  0
INSERT
  5
81E7
  8
3
 62
     0
  2
_OPEN
 10
1022.679005781835
 20
2583.779390425821
 30
0.0
 41
40.0
 42
40.0
 43
40.0
  0
INSERT
  5
81E8
  8
3
 62
     0
  2
_OPEN
 10
740.67128881982035
 20
2583.779390425821
 30
0.0
 41
40.0
 42
40.0
 43
40.0
 50
180.0
  0
TEXT
  8
3
  40
60
  5
82FC
  62
0
  72
0
  71
0
 10
761.675
 20
2527.58
 30
0.000000
  1
282
  0
POINT
  5
81EA
  8
DEFPOINTS
 62
     0
 10
1022.679005781835
 20
2457.0330900100348
 30
0.0
  0
POINT
  5
81EB
  8
DEFPOINTS
 62
     0
 10
740.67128881982035
 20
2087.874098503014
 30
0.0
  0
POINT
  5
81EC
  8
DEFPOINTS
 62
     0
 10
740.67128881982035
 20
2583.779390425821
 30
0.0
  0
ENDBLK
  5
807D
  8
0
  0
BLOCK
  8
0
  2
*D2
 70
     1
 10
0.0
 20
0.0
 30
0.0
  3
*D2
  1

  0
LINE
  5
81ED
  8
3
 62
     0
 10
997.67900578183571
 20
2422.8740985030149
 30
0.0
 11
560.78157075660022
 21
2422.8740985030149
 31
0.0
  0
LINE
  5
81EE
  8
3
 62
     0
 10
695.30123614255854
 20
2117.8740985030149
 30
0.0
 11
560.78157075659999
 21
2117.8740985030149
 31
0.0
  0
LINE
  5
81EF
  8
3
 62
     0
 10
580.7815707566001
 20
2382.874098503014
 30
0.0
 11
580.7815707566001
 21
2157.874098503014
 31
0.0
  0
INSERT
  5
81F0
  8
3
 62
     0
  2
_OPEN
 10
580.7815707566001
 20
2422.8740985030149
 30
0.0
 41
40.0
 42
40.0
 43
40.0
 50
90.0
  0
INSERT
  5
81F1
  8
3
 62
     0
  2
_OPEN
 10
580.7815707566001
 20
2117.8740985030149
 30
0.0
 41
40.0
 42
40.0
 43
40.0
 50
270.0
  0
TEXT
  8
3
  40
60
  5
82FD
  62
0
  72
0
  71
0
 10
410.782
 20
2164.17
 30
0.000000
  1
305
  0
POINT
  5
81F3
  8
DEFPOINTS
 62
     0
 10
1007.679005781835
 20
2422.8740985030149
 30
0.0
  0
POINT
  5
81F4
  8
DEFPOINTS
 62
     0
 10
705.30123614255854
 20
2117.8740985030149
 30
0.0
  0
POINT
  5
81F5
  8
DEFPOINTS
 62
     0
 10
580.7815707566001
 20
2117.8740985030149
 30
0.0
  0
ENDBLK
  5
8042
  8
0
  0
BLOCK
  8
0
  2
*D3
 70
     1
 10
0.0
 20
0.0
 30
0.0
  3
*D3
  1

  0
LINE
  5
81F6
  8
3
 62
     0
 10
695.30123614255854
 20
2117.8740985030149
 30
0.0
 11
560.78157075660022
 21
2117.8740985030149
 31
0.0
  0
LINE
  5
81F7
  8
3
 62
     0
 10
797.67900578183571
 20
1692.8740985030149
 30
0.0
 11
560.78157075659999
 21
1692.8740985030149
 31
0.0
  0
LINE
  5
81F8
  8
3
 62
     0
 10
580.7815707566001
 20
2077.8740985030149
 30
0.0
 11
580.7815707566001
 21
1732.874098503014
 31
0.0
  0
INSERT
  5
81F9
  8
3
 62
     0
  2
_OPEN
 10
580.7815707566001
 20
2117.8740985030149
 30
0.0
 41
40.0
 42
40.0
 43
40.0
 50
90.0
  0
INSERT
  5
81FA
  8
3
 62
     0
  2
_OPEN
 10
580.7815707566001
 20
1692.8740985030149
 30
0.0
 41
40.0
 42
40.0
 43
40.0
 50
270.0
  0
TEXT
  8
3
  40
60
  5
82FE
  62
0
  72
0
  71
0
 10
410.782
 20
1799.17
 30
0.000000
  1
425
  0
POINT
  5
81FC
  8
DEFPOINTS
 62
     0
 10
705.30123614255854
 20
2117.8740985030149
 30
0.0
  0
POINT
  5
81FD
  8
DEFPOINTS
 62
     0
 10
807.67900578183571
 20
1692.8740985030149
 30
0.0
  0
POINT
  5
81FE
  8
DEFPOINTS
 62
     0
 10
580.7815707566001
 20
1692.8740985030149
 30
0.0
  0
ENDBLK
  5
8072
  8
0
  0
BLOCK
  8
0
  2
*D4
 70
     1
 10
0.0
 20
0.0
 30
0.0
  3
*D4
  1

  0
LINE
  5
81FF
  8
3
 62
     0
 10
1737.679005781835
 20
1571.8740985030149
 30
0.0
 11
1737.679005781835
 21
1403.7221061395201
 31
0.0
  0
LINE
  5
8200
  8
3
 62
     0
 10
1022.679005781835
 20
1533.9289308239911
 30
0.0
 11
1022.679005781835
 21
1403.7221061395201
 31
0.0
  0
LINE
  5
8201
  8
3
 62
     0
 10
1697.679005781835
 20
1423.7221061395201
 30
0.0
 11
1062.679005781835
 21
1423.7221061395201
 31
0.0
  0
INSERT
  5
8202
  8
3
 62
     0
  2
_OPEN
 10
1737.679005781835
 20
1423.7221061395201
 30
0.0
 41
40.0
 42
40.0
 43
40.0
  0
INSERT
  5
8203
  8
3
 62
     0
  2
_OPEN
 10
1022.679005781835
 20
1423.7221061395201
 30
0.0
 41
40.0
 42
40.0
 43
40.0
 50
180.0
  0
TEXT
  8
3
  40
60
  5
82FF
  62
0
  72
0
  71
0
 10
1260.18
 20
1367.52
 30
0.000000
  1
715
  0
POINT
  5
8205
  8
DEFPOINTS
 62
     0
 10
1737.679005781835
 20
1581.8740985030149
 30
0.0
  0
POINT
  5
8206
  8
DEFPOINTS
 62
     0
 10
1022.679005781835
 20
1543.9289308239911
 30
0.0
  0
POINT
  5
8207
  8
DEFPOINTS
 62
     0
 10
1022.679005781835
 20
1423.7221061395201
 30
0.0
  0
ENDBLK
  5
809E
  8
0
  0
BLOCK
  8
0
  2
*D5
 70
     1
 10
0.0
 20
0.0
 30
0.0
  3
*D5
  1

  0
LINE
  5
8208
  8
3
 62
     0
 10
1022.679005781835
 20
1533.9289308239911
 30
0.0
 11
1022.679005781835
 21
1403.7221061395201
 31
0.0
  0
LINE
  5
8209
  8
3
 62
     0
 10
807.67900578183571
 20
1571.8740985030149
 30
0.0
 11
807.67900578183571
 21
1403.7221061395201
 31
0.0
  0
LINE
  5
820A
  8
3
 62
     0
 10
982.67900578183571
 20
1423.7221061395201
 30
0.0
 11
847.67900578183571
 21
1423.7221061395201
 31
0.0
  0
INSERT
  5
820B
  8
3
 62
     0
  2
_OPEN
 10
1022.679005781835
 20
1423.7221061395201
 30
0.0
 41
40.0
 42
40.0
 43
40.0
  0
INSERT
  5
820C
  8
3
 62
     0
  2
_OPEN
 10
807.67900578183571
 20
1423.7221061395201
 30
0.0
 41
40.0
 42
40.0
 43
40.0
 50
180.0
  0
TEXT
  8
3
  40
60
  5
8300
  62
0
  72
0
  71
0
 10
795.179
 20
1367.52
 30
0.000000
  1
215
  0
POINT
  5
820E
  8
DEFPOINTS
 62
     0
 10
1022.679005781835
 20
1543.9289308239911
 30
0.0
  0
POINT
  5
820F
  8
DEFPOINTS
 62
     0
 10
807.67900578183571
 20
1581.8740985030149
 30
0.0
  0
POINT
  5
8210
  8
DEFPOINTS
 62
     0
 10
807.67900578183571
 20
1423.7221061395201
 30
0.0
  0
ENDBLK
  5
80AB
  8
0
  0
BLOCK
  8
0
  2
*D6
 70
     1
 10
0.0
 20
0.0
 30
0.0
  3
*D6
  1

  0
LINE
  5
8211
  8
3
 62
     0
 10
1446.679005781835
 20
2432.8740985030149
 30
0.0
 11
1446.679005781835
 21
2514.598006365024
 31
0.0
  0
LINE
  5
8212
  8
3
 62
     0
 10
1034.679005781835
 20
2432.8740985030149
 30
0.0
 11
1034.679005781835
 21
2514.598006365024
 31
0.0
  0
LINE
  5
8213
  8
3
 62
     0
 10
1406.679005781835
 20
2494.598006365024
 30
0.0
 11
1074.679005781835
 21
2494.598006365024
 31
0.0
  0
INSERT
  5
8214
  8
3
 62
     0
  2
_OPEN
 10
1446.679005781835
 20
2494.598006365024
 30
0.0
 41
40.0
 42
40.0
 43
40.0
  0
INSERT
  5
8215
  8
3
 62
     0
  2
_OPEN
 10
1034.679005781835
 20
2494.598006365024
 30
0.0
 41
40.0
 42
40.0
 43
40.0
 50
180.0
  0
TEXT
  8
3
  40
60
  5
8301
  62
0
  72
0
  71
0
 10
1120.68
 20
2438.40
 30
0.000000
  1
412
  0
POINT
  5
8217
  8
DEFPOINTS
 62
     0
 10
1446.679005781835
 20
2422.8740985030149
 30
0.0
  0
POINT
  5
8218
  8
DEFPOINTS
 62
     0
 10
1034.679005781835
 20
2422.8740985030149
 30
0.0
  0
POINT
  5
8219
  8
DEFPOINTS
 62
     0
 10
1034.679005781835
 20
2494.598006365024
 30
0.0
  0
ENDBLK
  5
8093
  8
0
  0
BLOCK
  8
0
  2
*D7
 70
     1
 10
0.0
 20
0.0
 30
0.0
  3
*D7
  1

  0
LINE
  5
821A
  8
3
 62
     0
 10
1446.679005781835
 20
2432.8740985030149
 30
0.0
 11
1446.679005781835
 21
2603.779390425821
 31
0.0
  0
LINE
  5
821B
  8
3
 62
     0
 10
1022.679005781835
 20
2467.0330900100348
 30
0.0
 11
1022.679005781835
 21
2603.779390425821
 31
0.0
  0
LINE
  5
821C
  8
3
 62
     0
 10
1406.679005781835
 20
2583.779390425821
 30
0.0
 11
1062.679005781835
 21
2583.779390425821
 31
0.0
  0
INSERT
  5
821D
  8
3
 62
     0
  2
_OPEN
 10
1446.679005781835
 20
2583.779390425821
 30
0.0
 41
40.0
 42
40.0
 43
40.0
  0
INSERT
  5
821E
  8
3
 62
     0
  2
_OPEN
 10
1022.679005781835
 20
2583.779390425821
 30
0.0
 41
40.0
 42
40.0
 43
40.0
 50
180.0
  0
TEXT
  8
3
  40
60
  5
8302
  62
0
  72
0
  71
0
 10
1114.68
 20
2527.58
 30
0.000000
  1
424
  0
POINT
  5
8220
  8
DEFPOINTS
 62
     0
 10
1446.679005781835
 20
2422.8740985030149
 30
0.0
  0
POINT
  5
8221
  8
DEFPOINTS
 62
     0
 10
1022.679005781835
 20
2457.0330900100348
 30
0.0
  0
POINT
  5
8222
  8
DEFPOINTS
 62
     0
 10
1022.679005781835
 20
2583.779390425821
 30
0.0
  0
ENDBLK
  5
8088
  8
0
  0
BLOCK
  8
0
  2
*D8
 70
     1
 10
0.0
 20
0.0
 30
0.0
  3
*D8
  1

  0
LINE
  5
823A
  8
3
 62
     0
 10
797.67900578183571
 20
3289.0591641711449
 30
0.0
 11
501.53653063980818
 21
3289.0591641711449
 31
0.0
  0
LINE
  5
823B
  8
3
 62
     0
 10
797.67900578183571
 20
4149.0591641711462
 30
0.0
 11
501.5365306398084
 21
4149.0591641711462
 31
0.0
  0
LINE
  5
823C
  8
3
 62
     0
 10
521.53653063980835
 20
3329.0591641711449
 30
0.0
 11
521.53653063980835
 21
4109.0591641711462
 31
0.0
  0
INSERT
  5
823D
  8
3
 62
     0
  2
_OPEN
 10
521.53653063980823
 20
3289.0591641711449
 30
0.0
 41
40.0
 42
40.0
 43
40.0
 50
270.0
  0
INSERT
  5
823E
  8
3
 62
     0
  2
_OPEN
 10
521.53653063980835
 20
4149.0591641711462
 30
0.0
 41
40.0
 42
40.0
 43
40.0
 50
90.0
  0
TEXT
  8
3
  40
60
  5
8303
  62
0
  72
0
  71
0
 10
351.537
 20
3612.86
 30
0.000000
  1
860
  0
POINT
  5
8240
  8
DEFPOINTS
 62
     0
 10
807.67900578183571
 20
3289.0591641711449
 30
0.0
  0
POINT
  5
8241
  8
DEFPOINTS
 62
     0
 10
807.67900578183571
 20
4149.0591641711462
 30
0.0
  0
POINT
  5
8242
  8
DEFPOINTS
 62
     0
 10
521.53653063980835
 20
4149.0591641711462
 30
0.0
  0
ENDBLK
  5
80B6
  8
0
  0
BLOCK
  8
0
  2
*D9
 70
     1
 10
0.0
 20
0.0
 30
0.0
  3
*D9
  1

  0
LINE
  5
8243
  8
3
 62
     0
 10
1237.679005781835
 20
4159.0591641711462
 30
0.0
 11
1237.679005781835
 21
4283.8096055798324
 31
0.0
  0
LINE
  5
8244
  8
3
 62
     0
 10
1737.679005781835
 20
3719.0591641711449
 30
0.0
 11
1737.679005781835
 21
4283.8096055798324
 31
0.0
  0
LINE
  5
8245
  8
3
 62
     0
 10
1277.679005781835
 20
4263.8096055798314
 30
0.0
 11
1697.679005781835
 21
4263.8096055798314
 31
0.0
  0
INSERT
  5
8246
  8
3
 62
     0
  2
_OPEN
 10
1237.679005781835
 20
4263.8096055798314
 30
0.0
 41
40.0
 42
40.0
 43
40.0
 50
180.0
  0
INSERT
  5
8247
  8
3
 62
     0
  2
_OPEN
 10
1737.679005781835
 20
4263.8096055798314
 30
0.0
 41
40.0
 42
40.0
 43
40.0
  0
TEXT
  8
3
  40
60
  5
8304
  62
0
  72
0
  71
0
 10
1367.68
 20
4207.61
 30
0.000000
  1
500
  0
POINT
  5
8249
  8
DEFPOINTS
 62
     0
 10
1237.679005781835
 20
4149.0591641711462
 30
0.0
  0
POINT
  5
824A
  8
DEFPOINTS
 62
     0
 10
1737.679005781835
 20
3709.0591641711449
 30
0.0
  0
POINT
  5
824B
  8
DEFPOINTS
 62
     0
 10
1737.679005781835
 20
4263.8096055798314
 30
0.0
  0
ENDBLK
  5
80CC
  8
0
  0
BLOCK
  8
0
  2
*D10
 70
     1
 10
0.0
 20
0.0
 30
0.0
  3
*D10
  1

  0
LINE
  5
824C
  8
3
 62
     0
 10
1737.679005781835
 20
3279.0591641711449
 30
0.0
 11
1737.679005781835
 21
3050.8840099469162
 31
0.0
  0
LINE
  5
824D
  8
3
 62
     0
 10
807.67900578183571
 20
3279.0591641711449
 30
0.0
 11
807.67900578183571
 21
3050.8840099469162
 31
0.0
  0
LINE
  5
824E
  8
3
 62
     0
 10
1697.679005781835
 20
3070.8840099469171
 30
0.0
 11
847.67900578183571
 21
3070.8840099469171
 31
0.0
  0
INSERT
  5
824F
  8
3
 62
     0
  2
_OPEN
 10
1737.679005781835
 20
3070.8840099469171
 30
0.0
 41
40.0
 42
40.0
 43
40.0
  0
INSERT
  5
8250
  8
3
 62
     0
  2
_OPEN
 10
807.67900578183571
 20
3070.8840099469171
 30
0.0
 41
40.0
 42
40.0
 43
40.0
 50
180.0
  0
TEXT
  8
3
  40
60
  5
8305
  62
0
  72
0
  71
0
 10
1152.68
 20
3014.68
 30
0.000000
  1
930
  0
POINT
  5
8252
  8
DEFPOINTS
 62
     0
 10
1737.679005781835
 20
3289.0591641711449
 30
0.0
  0
POINT
  5
8253
  8
DEFPOINTS
 62
     0
 10
807.67900578183571
 20
3289.0591641711449
 30
0.0
  0
POINT
  5
8254
  8
DEFPOINTS
 62
     0
 10
807.67900578183571
 20
3070.8840099469171
 30
0.0
  0
ENDBLK
  5
80C1
  8
0
  0
BLOCK
  8
0
  2
*D11
 70
     1
 10
0.0
 20
0.0
 30
0.0
  3
*D11
  1

  0
LINE
  5
8255
  8
3
 62
     0
 10
1747.6790057818359
 20
3289.0591641711449
 30
0.0
 11
1833.022943942203
 21
3289.0591641711449
 31
0.0
  0
LINE
  5
8256
  8
3
 62
     0
 10
1747.6790057818359
 20
3709.0591641711449
 30
0.0
 11
1833.022943942203
 21
3709.0591641711449
 31
0.0
  0
LINE
  5
8257
  8
3
 62
     0
 10
1813.022943942203
 20
3329.0591641711449
 30
0.0
 11
1813.022943942203
 21
3669.0591641711449
 31
0.0
  0
INSERT
  5
8258
  8
3
 62
     0
  2
_OPEN
 10
1813.022943942203
 20
3289.0591641711449
 30
0.0
 41
40.0
 42
40.0
 43
40.0
 50
270.0
  0
INSERT
  5
8259
  8
3
 62
     0
  2
_OPEN
 10
1813.022943942203
 20
3709.0591641711449
 30
0.0
 41
40.0
 42
40.0
 43
40.0
 50
90.0
  0
TEXT
  8
3
  40
60
  5
8306
  62
0
  72
0
  71
0
 10
1643.02
 20
3392.86
 30
0.000000
  1
420
  0
POINT
  5
825B
  8
DEFPOINTS
 62
     0
 10
1737.679005781835
 20
3289.0591641711449
 30
0.0
  0
POINT
  5
825C
  8
DEFPOINTS
 62
     0
 10
1737.679005781835
 20
3709.0591641711449
 30
0.0
  0
POINT
  5
825D
  8
DEFPOINTS
 62
     0
 10
1813.022943942203
 20
3709.0591641711449
 30
0.0
  0
ENDBLK
  5
80E2
  8
0
  0
BLOCK
  8
0
  2
*D12
 70
     1
 10
0.0
 20
0.0
 30
0.0
  3
*D12
  1

  0
LINE
  5
825E
  8
3
 62
     0
 10
807.67900578183571
 20
4159.0591641711462
 30
0.0
 11
807.67900578183571
 21
4283.8096055798324
 31
0.0
  0
LINE
  5
825F
  8
3
 62
     0
 10
1237.679005781835
 20
4159.0591641711462
 30
0.0
 11
1237.679005781835
 21
4283.8096055798324
 31
0.0
  0
LINE
  5
8260
  8
3
 62
     0
 10
847.67900578183571
 20
4263.8096055798314
 30
0.0
 11
1197.679005781835
 21
4263.8096055798314
 31
0.0
  0
INSERT
  5
8261
  8
3
 62
     0
  2
_OPEN
 10
807.67900578183571
 20
4263.8096055798314
 30
0.0
 41
40.0
 42
40.0
 43
40.0
 50
180.0
  0
INSERT
  5
8262
  8
3
 62
     0
  2
_OPEN
 10
1237.679005781835
 20
4263.8096055798314
 30
0.0
 41
40.0
 42
40.0
 43
40.0
  0
TEXT
  8
3
  40
60
  5
8307
  62
0
  72
0
  71
0
 10
902.679
 20
4207.61
 30
0.000000
  1
430
  0
POINT
  5
8264
  8
DEFPOINTS
 62
     0
 10
807.67900578183571
 20
4149.0591641711462
 30
0.0
  0
POINT
  5
8265
  8
DEFPOINTS
 62
     0
 10
1237.679005781835
 20
4149.0591641711462
 30
0.0
  0
POINT
  5
8266
  8
DEFPOINTS
 62
     0
 10
1237.679005781835
 20
4263.8096055798314
 30
0.0
  0
ENDBLK
  5
80D7
  8
0
  0
BLOCK
  8
0
  2
*D13
 70
     1
 10
0.0
 20
0.0
 30
0.0
  3
*D13
  1

  0
LINE
  5
8279
  8
3
 62
     0
 10
2275.5949296519238
 20
1571.8740985030149
 30
0.0
 11
2275.5949296519238
 21
1404.0755904136299
 31
0.0
  0
LINE
  5
827A
  8
3
 62
     0
 10
2940.5949296519261
 20
1533.9289308239911
 30
0.0
 11
2940.5949296519261
 21
1404.0755904136299
 31
0.0
  0
LINE
  5
827B
  8
3
 62
     0
 10
2315.5949296519238
 20
1424.0755904136311
 30
0.0
 11
2900.5949296519261
 21
1424.0755904136311
 31
0.0
  0
INSERT
  5
827C
  8
3
 62
     0
  2
_OPEN
 10
2275.5949296519238
 20
1424.0755904136311
 30
0.0
 41
40.0
 42
40.0
 43
40.0
 50
180.0
  0
INSERT
  5
827D
  8
3
 62
     0
  2
_OPEN
 10
2940.5949296519261
 20
1424.0755904136311
 30
0.0
 41
40.0
 42
40.0
 43
40.0
  0
TEXT
  8
3
  40
60
  5
8308
  62
0
  72
0
  71
0
 10
2488.09
 20
1367.88
 30
0.000000
  1
665
  0
POINT
  5
827F
  8
DEFPOINTS
 62
     0
 10
2275.5949296519238
 20
1581.8740985030149
 30
0.0
  0
POINT
  5
8280
  8
DEFPOINTS
 62
     0
 10
2940.5949296519261
 20
1543.9289308239911
 30
0.0
  0
POINT
  5
8281
  8
DEFPOINTS
 62
     0
 10
2940.5949296519261
 20
1424.0755904136311
 30
0.0
  0
ENDBLK
  5
80ED
  8
0
  0
BLOCK
  8
0
  2
*D14
 70
     1
 10
0.0
 20
0.0
 30
0.0
  3
*D14
  1

  0
LINE
  5
8282
  8
3
 62
     0
 10
2940.5949296519261
 20
1533.9289308239911
 30
0.0
 11
2940.5949296519261
 21
1404.0755904136299
 31
0.0
  0
LINE
  5
8283
  8
3
 62
     0
 10
3135.5949296519261
 20
1571.8740985030149
 30
0.0
 11
3135.5949296519261
 21
1404.0755904136299
 31
0.0
  0
LINE
  5
8284
  8
3
 62
     0
 10
2980.5949296519261
 20
1424.0755904136311
 30
0.0
 11
3095.5949296519261
 21
1424.0755904136311
 31
0.0
  0
INSERT
  5
8285
  8
3
 62
     0
  2
_OPEN
 10
2940.5949296519261
 20
1424.0755904136311
 30
0.0
 41
40.0
 42
40.0
 43
40.0
 50
180.0
  0
INSERT
  5
8286
  8
3
 62
     0
  2
_OPEN
 10
3135.5949296519261
 20
1424.0755904136311
 30
0.0
 41
40.0
 42
40.0
 43
40.0
  0
TEXT
  8
3
  40
60
  5
8309
  62
0
  72
0
  71
0
 10
2918.09
 20
1367.88
 30
0.000000
  1
195
  0
POINT
  5
8288
  8
DEFPOINTS
 62
     0
 10
2940.5949296519261
 20
1543.9289308239911
 30
0.0
  0
POINT
  5
8289
  8
DEFPOINTS
 62
     0
 10
3135.5949296519261
 20
1581.8740985030149
 30
0.0
  0
POINT
  5
828A
  8
DEFPOINTS
 62
     0
 10
3135.5949296519261
 20
1424.0755904136311
 30
0.0
  0
ENDBLK
  5
8110
  8
0
  0
BLOCK
  8
0
  2
*D15
 70
     1
 10
0.0
 20
0.0
 30
0.0
  3
*D15
  1

  0
LINE
  5
828B
  8
3
 62
     0
 10
2180.5949296519238
 20
2277.8740985030149
 30
0.0
 11
2180.5949296519238
 21
2664.3313427042299
 31
0.0
  0
LINE
  5
828C
  8
3
 62
     0
 10
2940.5949296519261
 20
2614.2452415851358
 30
0.0
 11
2940.5949296519261
 21
2664.3313427042299
 31
0.0
  0
LINE
  5
828D
  8
3
 62
     0
 10
2220.5949296519238
 20
2644.3313427042299
 30
0.0
 11
2900.5949296519261
 21
2644.3313427042299
 31
0.0
  0
INSERT
  5
828E
  8
3
 62
     0
  2
_OPEN
 10
2180.5949296519238
 20
2644.3313427042299
 30
0.0
 41
40.0
 42
40.0
 43
40.0
 50
180.0
  0
INSERT
  5
828F
  8
3
 62
     0
  2
_OPEN
 10
2940.5949296519261
 20
2644.3313427042299
 30
0.0
 41
40.0
 42
40.0
 43
40.0
  0
TEXT
  8
3
  40
60
  5
830A
  62
0
  72
0
  71
0
 10
2440.59
 20
2588.13
 30
0.000000
  1
760
  0
POINT
  5
8291
  8
DEFPOINTS
 62
     0
 10
2180.5949296519238
 20
2267.8740985030149
 30
0.0
  0
POINT
  5
8292
  8
DEFPOINTS
 62
     0
 10
2940.5949296519261
 20
2604.2452415851358
 30
0.0
  0
POINT
  5
8293
  8
DEFPOINTS
 62
     0
 10
2940.5949296519261
 20
2644.3313427042299
 30
0.0
  0
ENDBLK
  5
8149
  8
0
  0
BLOCK
  8
0
  2
*D16
 70
     1
 10
0.0
 20
0.0
 30
0.0
  3
*D16
  1

  0
LINE
  5
82B2
  8
3
 62
     0
 10
3128.5949296519261
 20
2317.874098503014
 30
0.0
 11
3309.6361337816279
 21
2317.874098503014
 31
0.0
  0
LINE
  5
82B3
  8
3
 62
     0
 10
3128.5949296519261
 20
1917.874098503014
 30
0.0
 11
3309.6361337816279
 21
1917.874098503014
 31
0.0
  0
LINE
  5
82B4
  8
3
 62
     0
 10
3289.6361337816288
 20
2277.8740985030149
 30
0.0
 11
3289.6361337816288
 21
1957.874098503014
 31
0.0
  0
INSERT
  5
82B5
  8
3
 62
     0
  2
_OPEN
 10
3289.6361337816288
 20
2317.874098503014
 30
0.0
 41
40.0
 42
40.0
 43
40.0
 50
90.0
  0
INSERT
  5
82B6
  8
3
 62
     0
  2
_OPEN
 10
3289.6361337816288
 20
1917.874098503014
 30
0.0
 41
40.0
 42
40.0
 43
40.0
 50
270.0
  0
TEXT
  8
3
  40
60
  5
830B
  62
0
  72
0
  71
0
 10
3119.64
 20
2011.67
 30
0.000000
  1
400
  0
POINT
  5
82B8
  8
DEFPOINTS
 62
     0
 10
3118.5949296519261
 20
2317.874098503014
 30
0.0
  0
POINT
  5
82B9
  8
DEFPOINTS
 62
     0
 10
3118.5949296519261
 20
1917.874098503014
 30
0.0
  0
POINT
  5
82BA
  8
DEFPOINTS
 62
     0
 10
3289.6361337816288
 20
1917.874098503014
 30
0.0
  0
ENDBLK
  5
8103
  8
0
  0
BLOCK
  8
0
  2
*D17
 70
     1
 10
0.0
 20
0.0
 30
0.0
  3
*D17
  1

  0
LINE
  5
82C4
  8
3
 62
     0
 10
2940.5949296519261
 20
2614.2452415851358
 30
0.0
 11
2940.5949296519261
 21
2664.3313427042299
 31
0.0
  0
LINE
  5
82C5
  8
3
 62
     0
 10
3093.5949296519261
 20
2352.874098503014
 30
0.0
 11
3093.5949296519261
 21
2664.3313427042299
 31
0.0
  0
LINE
  5
82C6
  8
3
 62
     0
 10
2980.5949296519261
 20
2644.3313427042299
 30
0.0
 11
3053.5949296519261
 21
2644.3313427042299
 31
0.0
  0
LINE
  5
82C7
  8
3
 62
     0
 10
3093.5949296519261
 20
2644.3313427042299
 30
0.0
 11
3316.4520725090679
 21
2644.3313427042299
 31
0.0
  0
INSERT
  5
82C8
  8
3
 62
     0
  2
_OPEN
 10
2940.5949296519261
 20
2644.3313427042299
 30
0.0
 41
40.0
 42
40.0
 43
40.0
 50
180.0
  0
INSERT
  5
82C9
  8
3
 62
     0
  2
_OPEN
 10
3093.5949296519261
 20
2644.3313427042299
 30
0.0
 41
40.0
 42
40.0
 43
40.0
  0
TEXT
  8
3
  40
60
  5
830C
  62
0
  72
0
  71
0
 10
3105.02
 20
2588.13
 30
0.000000
  1
153
  0
POINT
  5
82CB
  8
DEFPOINTS
 62
     0
 10
2940.5949296519261
 20
2604.2452415851358
 30
0.0
  0
POINT
  5
82CC
  8
DEFPOINTS
 62
     0
 10
3093.5949296519261
 20
2342.8740985030149
 30
0.0
  0
POINT
  5
82CD
  8
DEFPOINTS
 62
     0
 10
3093.5949296519261
 20
2644.3313427042299
 30
0.0
  0
ENDBLK
  5
8155
  8
0
  0
BLOCK
  8
0
  2
*D18
 70
     1
 10
0.0
 20
0.0
 30
0.0
  3
*D18
  1

  0
LINE
  5
82CE
  8
3
 62
     0
 10
2790.5949296519261
 20
2432.8740985030149
 30
0.0
 11
2790.5949296519261
 21
2514.5484920434992
 31
0.0
  0
LINE
  5
82CF
  8
3
 62
     0
 10
3090.5949296519252
 20
2432.8740985030149
 30
0.0
 11
3090.5949296519252
 21
2514.5484920434992
 31
0.0
  0
LINE
  5
82D0
  8
3
 62
     0
 10
2830.5949296519261
 20
2494.5484920434992
 30
0.0
 11
3050.5949296519252
 21
2494.5484920434992
 31
0.0
  0
INSERT
  5
82D1
  8
3
 62
     0
  2
_OPEN
 10
2790.5949296519261
 20
2494.5484920434992
 30
0.0
 41
40.0
 42
40.0
 43
40.0
 50
180.0
  0
INSERT
  5
82D2
  8
3
 62
     0
  2
_OPEN
 10
3090.5949296519252
 20
2494.5484920434992
 30
0.0
 41
40.0
 42
40.0
 43
40.0
  0
TEXT
  8
3
  40
60
  5
830D
  62
0
  72
0
  71
0
 10
2820.59
 20
2438.35
 30
0.000000
  1
300
  0
POINT
  5
82D4
  8
DEFPOINTS
 62
     0
 10
2790.5949296519261
 20
2422.8740985030149
 30
0.0
  0
POINT
  5
82D5
  8
DEFPOINTS
 62
     0
 10
3090.5949296519252
 20
2422.8740985030149
 30
0.0
  0
POINT
  5
82D6
  8
DEFPOINTS
 62
     0
 10
3090.5949296519252
 20
2494.5484920434992
 30
0.0
  0
ENDBLK
  5
811B
  8
0
  0
BLOCK
  8
0
  2
_OPEN
 70
     0
 10
0.0
 20
0.0
 30
0.0
  3
_OPEN
  1

  0
LINE
  5
8034
  8
0
  6
BYBLOCK
 62
     0
 10
-1.0
 20
0.1666666666666666
 30
0.0
 11
0.0
 21
0.0
 31
0.0
  0
LINE
  5
8035
  8
0
  6
BYBLOCK
 62
     0
 10
0.0
 20
0.0
 30
0.0
 11
-1.0
 21
-0.1666666666666666
 31
0.0
  0
LINE
  5
8036
  8
0
  6
BYBLOCK
 62
     0
 10
0.0
 20
0.0
 30
0.0
 11
-1.0
 21
0.0
 31
0.0
  0
ENDBLK
  5
8037
  8
0
  0
BLOCK
  8
0
  2
_DOT
 70
     0
 10
0.0
 20
0.0
 30
0.0
  3
_DOT
  1

  0
POLYLINE
  5
8189
  8
0
  6
BYBLOCK
 62
     0
 66
     1
 10
0.0
 20
0.0
 30
0.0
 70
     1
 40
0.5
 41
0.5
  0
VERTEX
  5
82D7
  8
0
  6
BYBLOCK
 62
     0
 10
-0.25
 20
0.0
 30
0.0
 42
1.0
  0
VERTEX
  5
82D8
  8
0
  6
BYBLOCK
 62
     0
 10
0.25
 20
0.0
 30
0.0
 42
1.0
  0
SEQEND
  5
82D9
  8
0
  6
BYBLOCK
 62
     0
  0
LINE
  5
818D
  8
0
  6
BYBLOCK
 62
     0
 10
-0.5
 20
0.0
 30
0.0
 11
-1.0
 21
0.0
 31
0.0
  0
ENDBLK
  5
818E
  8
0
  0
BLOCK
  8
0
  2
*D21
 70
     1
 10
0.0
 20
0.0
 30
0.0
  3
*D21
  1

  0
LINE
  5
82DA
  8
3
 62
     0
 10
797.67900578183571
 20
1656.874098503014
 30
0.0
 11
560.91735854205388
 21
1656.874098503014
 31
0.0
  0
LINE
  5
82DB
  8
3
 62
     0
 10
797.67900578183571
 20
1581.8740985030149
 30
0.0
 11
560.91735854205388
 21
1581.8740985030149
 31
0.0
  0
LINE
  5
82DC
  8
3
 62
     0
 10
580.91735854205388
 20
1696.874098503014
 30
0.0
 11
580.91735854205388
 21
1736.8740985030149
 31
0.0
  0
LINE
  5
82DD
  8
3
 62
     0
 10
580.91735854205388
 20
1541.8740985030149
 30
0.0
 11
580.91735854205388
 21
1364.7312413601569
 31
0.0
  0
LINE
  5
82DE
  8
3
 62
     0
 10
580.91735854205388
 20
1656.874098503014
 30
0.0
 11
580.91735854205388
 21
1581.8740985030149
 31
0.0
  0
INSERT
  5
82DF
  8
3
 62
     0
  2
_DOT
 10
580.91735854205388
 20
1656.874098503014
 30
0.0
 41
40.0
 42
40.0
 43
40.0
 50
270.0
  0
INSERT
  5
82E0
  8
3
 62
     0
  2
_OPEN
 10
580.91735854205388
 20
1581.8740985030149
 30
0.0
 41
40.0
 42
40.0
 43
40.0
 50
90.0
  0
TEXT
  8
3
  40
60
  5
830E
  62
0
  72
0
  71
0
 10
410.917
 20
1327.10
 30
0.000000
  1
75
  0
POINT
  5
82E2
  8
DEFPOINTS
 62
     0
 10
807.67900578183571
 20
1656.874098503014
 30
0.0
  0
POINT
  5
82E3
  8
DEFPOINTS
 62
     0
 10
807.67900578183571
 20
1581.8740985030149
 30
0.0
  0
POINT
  5
82E4
  8
DEFPOINTS
 62
     0
 10
580.91735854205388
 20
1581.8740985030149
 30
0.0
  0
ENDBLK
  5
81AB
  8
0
  0
BLOCK
  8
0
  2
*D22
 70
     1
 10
0.0
 20
0.0
 30
0.0
  3
*D22
  1

  0
LINE
  5
82E5
  8
3
 62
     0
 10
797.67900578183571
 20
1656.874098503014
 30
0.0
 11
560.91735854205388
 21
1656.874098503014
 31
0.0
  0
LINE
  5
82E6
  8
3
 62
     0
 10
797.67900578183571
 20
1692.8740985030149
 30
0.0
 11
560.91735854205388
 21
1692.8740985030149
 31
0.0
  0
LINE
  5
82E7
  8
3
 62
     0
 10
580.91735854205388
 20
1616.874098503014
 30
0.0
 11
580.91735854205388
 21
1576.874098503014
 31
0.0
  0
LINE
  5
82E8
  8
3
 62
     0
 10
580.91735854205388
 20
1732.874098503014
 30
0.0
 11
580.91735854205388
 21
1772.8740985030149
 31
0.0
  0
LINE
  5
82E9
  8
3
 62
     0
 10
580.91735854205388
 20
1674.8740985030149
 30
0.0
 11
485.20307282776832
 21
1703.5883842173009
 31
0.0
  0
LINE
  5
82EA
  8
3
 62
     0
 10
485.20307282776832
 20
1703.5883842173009
 30
0.0
 11
485.20307282776832
 21
1917.8740985030149
 31
0.0
  0
TEXT
  8
3
  40
60
  5
830F
  62
0
  72
0
  71
0
 10
299.489
 20
1704.53
 30
0.000000
  1
(36)
  0
LINE
  5
82EC
  8
3
 62
     0
 10
580.91735854205388
 20
1656.874098503014
 30
0.0
 11
580.91735854205388
 21
1692.8740985030149
 31
0.0
  0
LINE
  5
82ED
  8
3
 62
     0
 10
580.91735854205388
 20
1656.874098503014
 30
0.0
 11
580.91735854205388
 21
1692.8740985030149
 31
0.0
  0
INSERT
  5
82EE
  8
3
 62
     0
  2
_DOT
 10
580.91735854205388
 20
1656.874098503014
 30
0.0
 41
40.0
 42
40.0
 43
40.0
 50
90.0
  0
INSERT
  5
82EF
  8
3
 62
     0
  2
_OPEN
 10
580.91735854205388
 20
1692.8740985030149
 30
0.0
 41
40.0
 42
40.0
 43
40.0
 50
270.0
  0
POINT
  5
82F0
  8
DEFPOINTS
 62
     0
 10
807.67900578183571
 20
1656.874098503014
 30
0.0
  0
POINT
  5
82F1
  8
DEFPOINTS
 62
     0
 10
807.67900578183571
 20
1692.8740985030149
 30
0.0
  0
POINT
  5
82F2
  8
DEFPOINTS
 62
     0
 10
580.91735854205388
 20
1692.8740985030149
 30
0.0
  0
ENDBLK
  5
81BC
  8
0
  0
BLOCK
  8
0
  2
*D23
 70
     1
 10
0.0
 20
0.0
 30
0.0
  3
*D23
  1

  0
LINE
  5
82F3
  8
3
 62
     0
 10
997.67900578183571
 20
2422.8740985030149
 30
0.0
 11
318.36137939382041
 21
2422.8740985030149
 31
0.0
  0
LINE
  5
82F4
  8
3
 62
     0
 10
797.67900578183571
 20
1581.8740985030149
 30
0.0
 11
318.36137939382019
 21
1581.8740985030149
 31
0.0
  0
LINE
  5
82F5
  8
3
 62
     0
 10
338.36137939382041
 20
2382.874098503014
 30
0.0
 11
338.36137939382019
 21
1621.8740985030149
 31
0.0
  0
INSERT
  5
82F6
  8
3
 62
     0
  2
_OPEN
 10
338.36137939382041
 20
2422.8740985030149
 30
0.0
 41
40.0
 42
40.0
 43
40.0
 50
90.0
  0
INSERT
  5
82F7
  8
3
 62
     0
  2
_OPEN
 10
338.36137939382019
 20
1581.8740985030149
 30
0.0
 41
40.0
 42
40.0
 43
40.0
 50
270.0
  0
TEXT
  8
3
  40
60
  5
8310
  62
0
  72
0
  71
0
 10
168.361
 20
1896.17
 30
0.000000
  1
841
  0
POINT
  5
82F9
  8
DEFPOINTS
 62
     0
 10
1007.679005781835
 20
2422.8740985030149
 30
0.0
  0
POINT
  5
82FA
  8
DEFPOINTS
 62
     0
 10
807.67900578183571
 20
1581.8740985030149
 30
0.0
  0
POINT
  5
82FB
  8
DEFPOINTS
 62
     0
 10
338.36137939382019
 20
1581.8740985030149
 30
0.0
  0
ENDBLK
  5
81C9
  8
0
  0
ENDSEC
  0
SECTION
  2
ENTITIES
  0
LINE
  5
7CB2
  8
1
 10
837.67900578183571
 20
2019.4740985030139
 30
0.0
 11
736.79189255339361
 21
2019.4740985030151
 31
0.0
  0
LINE
  5
7CB3
  8
1
 10
837.67900578183571
 20
2013.4740985030139
 30
0.0
 11
738.15099700710243
 21
2013.4740985030151
 31
0.0
  0
ARC
  5
7CB4
  8
1
 10
1052.679005781835
 20
2087.8740985030149
 30
0.0
 40
323.2077169620157
 50
172.47617956136091
 51
228.3018006668218
  0
ARC
  5
7CB5
  8
1
 10
999.67900578183651
 20
2094.874098503014
 30
0.0
 40
258.54745134352208
 50
90.000000000000256
 51
172.4761795613604
  0
ARC
  5
7CB6
  8
1
 10
999.67900578183708
 20
2094.8740985030149
 30
0.0
 40
269.74745134352202
 50
90.000000000000298
 51
172.47617956136091
  0
DIMENSION
  5
7CB7
  8
3
  2
*D1
 10
740.67128881982035
 20
2583.779390425821
 30
0.0
 11
881.67514730082792
 21
2633.779390425821
 31
0.0
 70
     0
 13
1022.679005781835
 23
2457.0330900100348
 33
0.0
 14
740.67128881982035
 24
2087.874098503014
 34
0.0
1001
ACAD
1000
DSTYLE
1002
{
1070
   287
1070
     3
1070
    40
1040
20.0
1070
   143
1040
0.039
1070
   172
1070
     1
1070
   271
1070
     0
1070
   279
1070
     0
1070
   288
1070
     1
1002
}
  0
DIMENSION
  5
7CB8
  8
3
  2
*D2
 10
580.7815707566001
 20
2117.8740985030149
 30
0.0
 11
530.78157075659965
 21
2270.374098503014
 31
0.0
 70
     0
 13
1007.679005781835
 23
2422.8740985030149
 33
0.0
 14
705.30123614255854
 24
2117.8740985030149
 34
0.0
 50
270.0
1001
ACAD
1000
DSTYLE
1002
{
1070
   287
1070
     3
1070
    40
1040
20.0
1070
   143
1040
0.039
1070
   172
1070
     1
1070
   271
1070
     0
1070
   279
1070
     0
1070
   288
1070
     1
1002
}
  0
ARC
  5
7CBA
  8
1
 10
1052.679005781835
 20
2087.874098503014
 30
0.0
 40
312.00771696201508
 50
172.4761795613604
 51
269.99999999999932
  0
DIMENSION
  5
7CBB
  8
3
  2
*D3
 10
580.7815707566001
 20
1692.8740985030149
 30
0.0
 11
530.78157075659988
 21
1905.374098503014
 31
0.0
 70
     0
 13
705.30123614255854
 23
2117.8740985030149
 33
0.0
 14
807.67900578183571
 24
1692.8740985030149
 34
0.0
 50
270.0
1001
ACAD
1000
DSTYLE
1002
{
1070
   287
1070
     3
1070
    40
1040
20.0
1070
   143
1040
0.039
1070
   172
1070
     1
1070
   271
1070
     0
1070
   279
1070
     0
1070
   288
1070
     1
1002
}
  0
LINE
  5
7CBE
  8
2
 10
1461.9220894985531
 20
2117.8740985030149
 30
0.0
 11
705.30123614255854
 21
2117.8740985030149
 31
0.0
  0
LINE
  5
7CBF
  8
1
 10
837.67900578183571
 20
2059.4740985030139
 30
0.0
 11
837.67900578183571
 21
1767.8740985030149
 31
0.0
  0
LINE
  5
7CC0
  8
1
 10
817.6790057818356
 20
1807.874098503014
 30
0.0
 11
817.6790057818356
 21
1767.8740985030149
 31
0.0
  0
LINE
  5
7CC1
  8
2
 10
1022.679005781835
 20
2457.0330900100348
 30
0.0
 11
1022.679005781835
 21
1543.9289308239911
 31
0.0
  0
LINE
  5
7CC2
  8
1
 10
1207.679005781835
 20
2059.4740985030139
 30
0.0
 11
1207.679005781835
 21
1767.8740985030149
 31
0.0
  0
LINE
  5
7CC3
  8
1
 10
1227.679005781835
 20
1807.874098503014
 30
0.0
 11
1227.679005781835
 21
1767.8740985030149
 31
0.0
  0
ARC
  5
7CC4
  8
1
 10
1582.679005781835
 20
1937.874098503014
 30
0.0
 40
150.0
 50
252.1811110854772
 51
72.181111085477184
  0
LINE
  5
7CC5
  8
1
 10
1732.679005781835
 20
1797.874098503014
 30
0.0
 11
1732.679005781835
 21
1767.8740985030149
 31
0.0
  0
LINE
  5
7CC6
  8
1
 10
1432.679005781835
 20
1797.874098503014
 30
0.0
 11
1432.679005781835
 21
1767.8740985030149
 31
0.0
  0
ARC
  5
7CC7
  8
1
 10
1052.6790057818359
 20
2147.874098503014
 30
0.0
 40
372.00771696201542
 50
269.9999999999992
 51
355.38856909003903
  0
ARC
  5
7CC8
  8
1
 10
1052.6790057818359
 20
2147.874098503014
 30
0.0
 40
383.20771696201541
 50
297.17252594151131
 51
355.39572050401358
  0
LINE
  5
7CC9
  8
1
 10
1737.679005781835
 20
1692.8740985030149
 30
0.0
 11
807.67900578183571
 21
1692.8740985030149
 31
0.0
  0
LINE
  5
7CCA
  8
1
 10
1737.679005781835
 20
1767.8740985030149
 30
0.0
 11
807.67900578183571
 21
1767.8740985030149
 31
0.0
  0
LINE
  5
7CCB
  8
1
 10
1737.679005781835
 20
1692.874098503014
 30
0.0
 11
807.67900578183571
 21
1692.8740985030149
 31
0.0
  0
LINE
  5
7CCC
  8
1
 10
1737.679005781835
 20
1656.874098503014
 30
0.0
 11
807.67900578183571
 21
1656.874098503014
 31
0.0
  0
LINE
  5
7CCD
  8
1
 10
1737.679005781835
 20
1581.8740985030149
 30
0.0
 11
807.67900578183571
 21
1581.8740985030149
 31
0.0
  0
DIMENSION
  5
7CCE
  8
3
  2
*D4
 10
1022.679005781835
 20
1423.7221061395201
 30
0.0
 11
1380.179005781835
 21
1473.7221061395201
 31
0.0
 70
     0
 13
1737.679005781835
 23
1581.8740985030149
 33
0.0
 14
1022.679005781835
 24
1543.9289308239911
 34
0.0
1001
ACAD
1000
DSTYLE
1002
{
1070
   287
1070
     3
1070
    40
1040
20.0
1070
   143
1040
0.039
1070
   172
1070
     1
1070
   271
1070
     0
1070
   279
1070
     0
1070
   288
1070
     1
1002
}
  0
DIMENSION
  5
7CCF
  8
3
  2
*D5
 10
807.67900578183571
 20
1423.7221061395201
 30
0.0
 11
915.17900578183583
 21
1473.7221061395201
 31
0.0
 70
     0
 13
1022.679005781835
 23
1543.9289308239911
 33
0.0
 14
807.67900578183571
 24
1581.8740985030149
 34
0.0
1001
ACAD
1000
DSTYLE
1002
{
1070
   287
1070
     3
1070
    40
1040
20.0
1070
   143
1040
0.039
1070
   172
1070
     1
1070
   271
1070
     0
1070
   279
1070
     0
1070
   288
1070
     1
1002
}
  0
LINE
  5
7CD0
  8
1
 10
807.67900578183571
 20
1656.874098503014
 30
0.0
 11
807.67900578183571
 21
1581.8740985030149
 31
0.0
  0
LINE
  5
7CD1
  8
1
 10
807.67900578183571
 20
1767.8740985030149
 30
0.0
 11
807.67900578183571
 21
1692.8740985030149
 31
0.0
  0
LINE
  5
7CD2
  8
1
 10
837.67900578183571
 20
1772.8740985030149
 30
0.0
 11
817.6790057818356
 21
1772.8740985030149
 31
0.0
  0
LINE
  5
7CD3
  8
1
 10
1227.679005781835
 20
1772.8740985030149
 30
0.0
 11
1207.679005781835
 21
1772.8740985030149
 31
0.0
  0
LINE
  5
7CD4
  8
1
 10
1737.679005781835
 20
1656.874098503014
 30
0.0
 11
1737.679005781835
 21
1581.8740985030149
 31
0.0
  0
LINE
  5
7CD5
  8
1
 10
1737.679005781835
 20
1767.8740985030149
 30
0.0
 11
1737.679005781835
 21
1692.874098503014
 31
0.0
  0
LINE
  5
7CD6
  8
1
 10
1423.482481076931
 20
2117.9655012712651
 30
0.0
 11
1446.679005781835
 21
2422.8740985030149
 31
0.0
  0
LINE
  5
7CD7
  8
1
 10
1007.679005781835
 20
2422.8740985030149
 30
0.0
 11
1473.673823094407
 21
2422.8740985030149
 31
0.0
  0
LINE
  5
7CD8
  8
1
 10
1032.679005781835
 20
2397.874098503014
 30
0.0
 11
1449.673823094407
 21
2397.874098503014
 31
0.0
  0
LINE
  5
7CD9
  8
1
 10
1007.679005781835
 20
2419.8740985030149
 30
0.0
 11
1469.1197278794871
 21
2419.8740985030149
 31
0.0
  0
DIMENSION
  5
7CDA
  8
3
  2
*D6
 10
1034.679005781835
 20
2494.598006365024
 30
0.0
 11
1240.679005781835
 21
2544.598006365024
 31
0.0
 70
     0
 13
1446.679005781835
 23
2422.8740985030149
 33
0.0
 14
1034.679005781835
 24
2422.8740985030149
 34
0.0
1001
ACAD
1000
DSTYLE
1002
{
1070
   287
1070
     3
1070
    40
1040
20.0
1070
   143
1040
0.039
1070
   172
1070
     1
1070
   271
1070
     0
1070
   279
1070
     0
1070
   288
1070
     1
1002
}
  0
DIMENSION
  5
7CDB
  8
3
  2
*D7
 10
1022.679005781835
 20
2583.779390425821
 30
0.0
 11
1234.679005781835
 21
2633.779390425821
 31
0.0
 70
     0
 13
1446.679005781835
 23
2422.8740985030149
 33
0.0
 14
1022.679005781835
 24
2457.0330900100348
 34
0.0
1001
ACAD
1000
DSTYLE
1002
{
1070
   287
1070
     3
1070
    40
1040
20.0
1070
   143
1040
0.039
1070
   172
1070
     1
1070
   271
1070
     0
1070
   279
1070
     0
1070
   288
1070
     1
1002
}
  0
LINE
  5
7CDC
  8
1
 10
1604.4251854125271
 20
2010.9052129096131
 30
0.0
 11
1040.800822140746
 21
2178.7333605085132
 31
0.0
  0
LINE
  5
7CDD
  8
1
 10
1557.800257365016
 20
1865.8498812062419
 30
0.0
 11
1001.946715434486
 21
2057.853917422372
 31
0.0
  0
LINE
  5
7CDE
  8
1
 10
1628.5803828438029
 20
2080.678382695804
 30
0.0
 11
1068.5803828438029
 21
2260.678382695804
 31
0.0
  0
LINE
  5
7CDF
  8
1
 10
1536.7776287198669
 20
1795.069814310225
 30
0.0
 11
976.77762871986795
 21
1975.069814310225
 31
0.0
  0
LINE
  5
7CE0
  8
1
 10
1247.679005781835
 20
2059.4740985030148
 30
0.0
 11
797.67900578183571
 21
2059.4740985030139
 31
0.0
  0
LINE
  5
7CE1
  8
1
 10
1212.679005781835
 20
2062.6740985030142
 30
0.0
 11
832.67900578183571
 21
2062.6740985030142
 31
0.0
  0
ARC
  5
7CE2
  8
1
 10
1022.679005781835
 20
2117.8740985030149
 30
0.0
 40
150.0
 50
72.181111085477156
 51
252.1811110854772
  0
LINE
  5
7CE3
  8
1
 10
797.67900578183571
 20
2059.4740985030139
 30
0.0
 11
797.67900578183571
 21
2019.4740985030139
 31
0.0
  0
LINE
  5
7CE4
  8
1
 10
837.67900578183571
 20
1807.874098503014
 30
0.0
 11
817.6790057818356
 21
1807.874098503014
 31
0.0
  0
LINE
  5
7CE5
  8
1
 10
832.67900578183571
 20
2062.6740985030142
 30
0.0
 11
832.67900578183571
 21
2059.4740985030139
 31
0.0
  0
CIRCLE
  5
7CE6
  8
1
 10
1022.679005781835
 20
2117.8740985030149
 30
0.0
 40
63.5
  0
LINE
  5
7CE7
  8
1
 10
1247.679005781835
 20
2059.4740985030139
 30
0.0
 11
1247.679005781835
 21
2019.4740985030139
 31
0.0
  0
LINE
  5
7CE8
  8
1
 10
1411.544989596463
 20
2013.4740985030139
 30
0.0
 11
1207.679005781835
 21
2013.4740985030139
 31
0.0
  0
LINE
  5
7CE9
  8
1
 10
1411.544989596463
 20
2013.4740985030151
 30
0.0
 11
1207.679005781835
 21
2013.4740985030139
 31
0.0
  0
LINE
  5
7CEA
  8
1
 10
1413.7352262506711
 20
2019.4740985030151
 30
0.0
 11
1207.679005781835
 21
2019.4740985030139
 31
0.0
  0
LINE
  5
7CEB
  8
1
 10
1227.679005781835
 20
1807.874098503014
 30
0.0
 11
1207.679005781835
 21
1807.874098503014
 31
0.0
  0
LINE
  5
7CEC
  8
1
 10
1212.679005781835
 20
2062.6740985030142
 30
0.0
 11
1212.679005781835
 21
2059.4740985030139
 31
0.0
  0
ARC
  5
7CED
  8
1
 10
999.67900578183207
 20
2140.8740985030149
 30
0.0
 40
212.5474513435226
 50
55.880382368050519
 51
89.999999999999034
  0
LINE
  5
7CEE
  8
1
 10
1032.679005781835
 20
2351.7365488251398
 30
0.0
 11
1032.679005781835
 21
2422.8740985030149
 31
0.0
  0
LINE
  5
7CEF
  8
1
 10
1034.679005781835
 20
2351.7365488251398
 30
0.0
 11
1034.679005781835
 21
2422.8740985030149
 31
0.0
  0
LINE
  5
7CF0
  8
1
 10
1024.679005781835
 20
2363.220499379488
 30
0.0
 11
1024.679005781835
 21
2397.874098503014
 31
0.0
  0
ARC
  5
7CF1
  8
1
 10
999.67900578182025
 20
2140.8740985030149
 30
0.0
 40
223.74745134352219
 50
83.584768215554249
 51
89.999999999996035
  0
POLYLINE
  5
7CF2
  8
1
 66
     1
 10
0.0
 20
0.0
 30
0.0
 70
     1
  0
VERTEX
  5
8223
  8
1
 10
1032.679005781835
 20
2422.8740985030149
 30
0.0
  0
VERTEX
  5
8224
  8
1
 10
1007.679005781835
 20
2422.8740985030149
 30
0.0
  0
VERTEX
  5
8225
  8
1
 10
1007.679005781835
 20
2421.874098503014
 30
0.0
 42
0.4142135623730951
  0
VERTEX
  5
8226
  8
1
 10
1009.679005781835
 20
2419.8740985030149
 30
0.0
  0
VERTEX
  5
8227
  8
1
 10
1025.679005781835
 20
2419.8740985030149
 30
0.0
 42
-0.4142135623730951
  0
VERTEX
  5
8228
  8
1
 10
1029.679005781835
 20
2415.8740985030149
 30
0.0
  0
VERTEX
  5
8229
  8
1
 10
1029.679005781835
 20
2399.8740985030149
 30
0.0
 42
0.4142135623730951
  0
VERTEX
  5
822A
  8
1
 10
1031.679005781835
 20
2397.874098503014
 30
0.0
  0
VERTEX
  5
822B
  8
1
 10
1032.679005781835
 20
2397.874098503014
 30
0.0
  0
SEQEND
  5
822C
  8
1
  0
LINE
  5
7CFD
  8
1
 10
1024.679005781835
 20
2397.874098503014
 30
0.0
 11
1032.679005781835
 21
2397.874098503014
 31
0.0
  0
LINE
  5
7CFE
  8
1
 10
1164.679005781835
 20
2417.874098503014
 30
0.0
 11
1177.301832086828
 21
2337.6951470501922
 31
0.0
  0
ARC
  5
7CFF
  8
1
 10
1146.679005781835
 20
2332.874098503014
 30
0.0
 40
31.0
 50
209.03414805150371
 51
8.9468220946248689
  0
POLYLINE
  5
7D00
  8
1
 66
     1
 10
0.0
 20
0.0
 30
0.0
  0
VERTEX
  5
822D
  8
1
 10
1448.684201934281
 20
2422.8740985030149
 30
0.0
  0
VERTEX
  5
822E
  8
1
 10
1435.6070776943329
 20
2241.5776033582829
 30
0.0
 42
-0.3908423130543746
  0
SEQEND
  5
822F
  8
1
  0
LINE
  5
7D04
  8
1
 10
1454.9017078555389
 20
2397.874098503014
 30
0.0
 11
1434.6500675694119
 21
2117.1127218089969
 31
0.0
  0
LINE
  5
7D05
  8
2
 10
1582.679005781835
 20
2039.0989985030139
 30
0.0
 11
1582.679005781835
 21
1836.3856985030141
 31
0.0
  0
ARC
  5
7D06
  8
1
 10
1582.679005781835
 20
1937.874098503014
 30
0.0
 40
97.0
 50
278.34679999999992
 51
180.0
  0
ARC
  5
7D07
  8
1
 10
1582.679005781835
 20
1937.874098503014
 30
0.0
 40
100.8
 50
285.4276999999999
 51
180.0
  0
LINE
  5
7D08
  8
1
 10
1597.387605781835
 20
1841.874098503014
 30
0.0
 11
1567.906605781835
 21
1841.874098503014
 31
0.0
  0
LINE
  5
7D09
  8
1
 10
1555.061305781835
 20
1840.874098503014
 30
0.0
 11
1609.9484057818349
 21
1840.874098503014
 31
0.0
  0
LINE
  5
7D0A
  8
2
 10
1683.2944057818349
 20
1937.874098503014
 30
0.0
 11
1474.633505781836
 21
1937.874098503014
 31
0.0
  0
LINE
  5
7D0B
  8
1
 10
1732.679005781835
 20
1797.8740985030149
 30
0.0
 11
1432.679005781835
 21
1797.874098503014
 31
0.0
  0
LINE
  5
7D0C
  8
1
 10
1704.2915176230249
 20
1837.874098503014
 30
0.0
 11
1461.0664939406449
 21
1837.874098503014
 31
0.0
  0
CIRCLE
  5
7D0D
  8
1
 10
1582.679005781835
 20
1937.874098503014
 30
0.0
 40
76.200000000000003
  0
ARC
  5
7D0E
  8
1
 10
1582.679005781835
 20
1937.874098503014
 30
0.0
 40
97.0
 50
180.0
 51
261.61590000000001
  0
ARC
  5
7D0F
  8
1
 10
1582.679005781835
 20
1937.874098503014
 30
0.0
 40
100.8
 50
180.0
 51
254.20289999999989
  0
LINE
  5
7D10
  8
1
 10
1484.679005781835
 20
1849.874098503014
 30
0.0
 11
1520.679005781835
 21
1849.874098503014
 31
0.0
  0
LINE
  5
7D11
  8
1
 10
1482.679005781835
 20
1837.874098503014
 30
0.0
 11
1522.679005781835
 21
1837.874098503014
 31
0.0
  0
LINE
  5
7D12
  8
1
 10
1496.679005781835
 20
1849.874098503014
 30
0.0
 11
1496.679005781835
 21
1837.874098503014
 31
0.0
  0
LINE
  5
7D13
  8
1
 10
1502.679005781835
 20
1851.254598503014
 30
0.0
 11
1502.679005781835
 21
1833.907498503014
 31
0.0
  0
LINE
  5
7D14
  8
1
 10
1482.679005781835
 20
1837.874098503014
 30
0.0
 11
1482.679005781835
 21
1847.874098503014
 31
0.0
  0
LINE
  5
7D15
  8
1
 10
1450.179005781835
 20
1797.8740985030149
 30
0.0
 11
1461.0664939406449
 21
1837.874098503014
 31
0.0
  0
ARC
  5
7D16
  8
1
 10
1484.679005781835
 20
1847.874098503014
 30
0.0
 40
2.0
 50
90.0
 51
180.0
  0
LINE
  5
7D17
  8
1
 10
1483.769805781835
 20
1849.9135985030141
 30
0.0
 11
1499.888505781835
 21
1880.047898503014
 31
0.0
  0
LINE
  5
7D18
  8
1
 10
1528.9324057818351
 20
1852.127598503014
 30
0.0
 11
1522.679005781835
 21
1845.874098503014
 31
0.0
  0
LINE
  5
7D19
  8
1
 10
1522.679005781835
 20
1837.874098503014
 30
0.0
 11
1522.679005781835
 21
1847.874098503014
 31
0.0
  0
LINE
  5
7D1A
  8
1
 10
1508.679005781835
 20
1837.874098503014
 30
0.0
 11
1508.679005781835
 21
1849.874098503014
 31
0.0
  0
ARC
  5
7D1B
  8
1
 10
1520.679005781835
 20
1847.874098503014
 30
0.0
 40
2.0
 50
0.0
 51
90.0
  0
LINE
  5
7D1C
  8
1
 10
1680.679005781835
 20
1849.874098503014
 30
0.0
 11
1644.679005781835
 21
1849.874098503014
 31
0.0
  0
LINE
  5
7D1D
  8
1
 10
1681.786805781835
 20
1849.5421985030141
 30
0.0
 11
1665.3860057818349
 21
1880.2041985030139
 31
0.0
  0
LINE
  5
7D1E
  8
1
 10
1682.679005781835
 20
1837.874098503014
 30
0.0
 11
1642.679005781835
 21
1837.874098503014
 31
0.0
  0
LINE
  5
7D1F
  8
1
 10
1668.679005781835
 20
1849.874098503014
 30
0.0
 11
1668.679005781835
 21
1837.874098503014
 31
0.0
  0
LINE
  5
7D20
  8
1
 10
1656.679005781835
 20
1837.874098503014
 30
0.0
 11
1656.679005781835
 21
1849.874098503014
 31
0.0
  0
LINE
  5
7D21
  8
1
 10
1662.679005781835
 20
1851.254598503014
 30
0.0
 11
1662.679005781835
 21
1833.907498503014
 31
0.0
  0
LINE
  5
7D22
  8
1
 10
1642.679005781835
 20
1837.874098503014
 30
0.0
 11
1642.679005781835
 21
1847.874098503014
 31
0.0
  0
LINE
  5
7D23
  8
1
 10
1636.1294057818361
 20
1852.423798503014
 30
0.0
 11
1642.679005781835
 21
1845.874098503014
 31
0.0
  0
ARC
  5
7D24
  8
1
 10
1644.679005781835
 20
1847.874098503014
 30
0.0
 40
2.0
 50
90.0
 51
180.0
  0
LINE
  5
7D25
  8
1
 10
1682.679005781835
 20
1837.874098503014
 30
0.0
 11
1682.679005781835
 21
1847.874098503014
 31
0.0
  0
LINE
  5
7D26
  8
1
 10
1715.179005781835
 20
1797.8740985030149
 30
0.0
 11
1704.2915176230249
 21
1837.874098503014
 31
0.0
  0
ARC
  5
7D27
  8
1
 10
1680.679005781835
 20
1847.874098503014
 30
0.0
 40
2.0
 50
0.0
 51
90.0
  0
POLYLINE
  5
7D28
  8
1
 66
     1
 10
0.0
 20
0.0
 30
0.0
 70
     1
  0
VERTEX
  5
8230
  8
1
 10
1448.673823094407
 20
2422.8740985030149
 30
0.0
  0
VERTEX
  5
8231
  8
1
 10
1473.673823094407
 20
2422.8740985030149
 30
0.0
  0
VERTEX
  5
8232
  8
1
 10
1473.673823094407
 20
2421.874098503014
 30
0.0
 42
-0.4142135623730951
  0
VERTEX
  5
8233
  8
1
 10
1471.673823094407
 20
2419.8740985030149
 30
0.0
  0
VERTEX
  5
8234
  8
1
 10
1455.673823094407
 20
2419.8740985030149
 30
0.0
 42
0.4142135623730951
  0
VERTEX
  5
8235
  8
1
 10
1451.673823094407
 20
2415.8740985030149
 30
0.0
  0
VERTEX
  5
8236
  8
1
 10
1451.673823094407
 20
2399.8740985030149
 30
0.0
 42
-0.4142135623730951
  0
VERTEX
  5
8237
  8
1
 10
1449.673823094407
 20
2397.874098503014
 30
0.0
  0
VERTEX
  5
8238
  8
1
 10
1448.673823094407
 20
2397.874098503014
 30
0.0
  0
SEQEND
  5
8239
  8
1
  0
LINE
  5
7D33
  8
1
 10
1454.9017078555389
 20
2397.874098503014
 30
0.0
 11
1448.673823094407
 21
2397.874098503014
 31
0.0
  0
LINE
  5
7D34
  8
1
 10
1007.673823094407
 20
4106.0591641711462
 30
0.0
 11
740.67128881982035
 21
4106.0591641711462
 31
0.0
  0
LINE
  5
7D35
  8
1
 10
1007.673823094407
 20
3802.0591641711462
 30
0.0
 11
740.67128881982035
 21
3802.0591641711462
 31
0.0
  0
DIMENSION
  5
7D36
  8
3
  2
*D8
 10
521.53653063980835
 20
4149.0591641711462
 30
0.0
 11
471.53653063980772
 21
3719.0591641711449
 31
0.0
 70
     0
 13
807.67900578183571
 23
3289.0591641711449
 33
0.0
 14
807.67900578183571
 24
4149.0591641711462
 34
0.0
 50
270.0
1001
ACAD
1000
DSTYLE
1002
{
1070
   287
1070
     3
1070
    40
1040
20.0
1070
   143
1040
0.039
1070
   172
1070
     1
1070
   271
1070
     0
1070
   279
1070
     0
1070
   288
1070
     1
1002
}
  0
LINE
  5
7D37
  8
2
 10
1504.433291081446
 20
3954.0591641711462
 30
0.0
 11
614.57453192296225
 21
3954.0591641711462
 31
0.0
  0
LINE
  5
7D38
  8
1
 10
740.67128881982035
 20
3802.0591641711462
 30
0.0
 11
740.67128881982035
 21
4106.0591641711462
 31
0.0
  0
LINE
  5
7D39
  8
2
 10
1022.679005781835
 20
4204.044459326853
 30
0.0
 11
1022.679005781835
 21
3204.1110698457542
 31
0.0
  0
LINE
  5
7D3A
  8
1
 10
807.67900578183571
 20
3804.0591641711462
 30
0.0
 11
807.67900578183571
 21
3289.0591641711449
 31
0.0
  0
LINE
  5
7D3B
  8
1
 10
1237.679005781835
 20
3777.0591641711462
 30
0.0
 11
1237.679005781835
 21
3329.0591641711449
 31
0.0
  0
LINE
  5
7D3C
  8
1
 10
1212.679005781835
 20
3739.0591641711449
 30
0.0
 11
1212.679005781835
 21
3314.0591641711462
 31
0.0
  0
LINE
  5
7D3D
  8
1
 10
832.67900578183571
 20
3739.0591641711462
 30
0.0
 11
832.67900578183571
 21
3314.0591641711449
 31
0.0
  0
LINE
  5
7D3E
  8
1
 10
1042.6790057818359
 20
3777.0591641711449
 30
0.0
 11
1042.679005781835
 21
3718.6591641711461
 31
0.0
  0
LINE
  5
7D3F
  8
1
 10
1002.679005781835
 20
3802.0591641711462
 30
0.0
 11
1002.679005781835
 21
3718.6591641711461
 31
0.0
  0
DIMENSION
  5
7D40
  8
3
  2
*D9
 10
1737.679005781835
 20
4263.8096055798314
 30
0.0
 11
1487.679005781835
 21
4313.8096055798314
 31
0.0
 70
     0
 13
1237.679005781835
 23
4149.0591641711462
 33
0.0
 14
1737.679005781835
 24
3709.0591641711449
 34
0.0
1001
ACAD
1000
DSTYLE
1002
{
1070
   287
1070
     3
1070
    40
1040
20.0
1070
   143
1040
0.039
1070
   172
1070
     1
1070
   271
1070
     0
1070
   279
1070
     0
1070
   288
1070
     1
1002
}
  0
LINE
  5
7D41
  8
1
 10
1732.679005781835
 20
3316.0591641711462
 30
0.0
 11
872.67900578183571
 21
3316.0591641711449
 31
0.0
  0
LINE
  5
7D42
  8
1
 10
1732.679005781835
 20
3194.0591641711462
 30
0.0
 11
872.67900578183571
 21
3194.0591641711449
 31
0.0
  0
LINE
  5
7D43
  8
1
 10
1737.679005781835
 20
3289.0591641711449
 30
0.0
 11
1042.679005781835
 21
3289.0591641711449
 31
0.0
  0
LINE
  5
7D44
  8
1
 10
1737.679005781835
 20
3669.0591641711449
 30
0.0
 11
1237.679005781835
 21
3669.0591641711462
 31
0.0
  0
LINE
  5
7D45
  8
1
 10
1737.679005781835
 20
3709.0591641711449
 30
0.0
 11
1237.679005781835
 21
3709.0591641711462
 31
0.0
  0
LINE
  5
7D46
  8
1
 10
1482.679005781835
 20
3329.0591641711449
 30
0.0
 11
1212.679005781835
 21
3329.0591641711449
 31
0.0
  0
LINE
  5
7D47
  8
1
 10
1506.479005781835
 20
3224.0591641711462
 30
0.0
 11
1086.179005781835
 21
3224.0591641711462
 31
0.0
  0
LINE
  5
7D48
  8
1
 10
1086.179005781835
 20
3274.0591641711462
 30
0.0
 11
1506.479005781835
 21
3274.0591641711462
 31
0.0
  0
DIMENSION
  5
7D49
  8
3
  2
*D10
 10
807.67900578183571
 20
3070.8840099469171
 30
0.0
 11
1272.679005781835
 21
3120.8840099469162
 31
0.0
 70
     0
 13
1737.679005781835
 23
3289.0591641711449
 33
0.0
 14
807.67900578183571
 24
3289.0591641711449
 34
0.0
1001
ACAD
1000
DSTYLE
1002
{
1070
   287
1070
     3
1070
    40
1040
20.0
1070
   143
1040
0.039
1070
   172
1070
     1
1070
   271
1070
     0
1070
   279
1070
     0
1070
   288
1070
     1
1002
}
  0
LINE
  5
7D4A
  8
1
 10
872.67900578183571
 20
3194.0591641711462
 30
0.0
 11
872.67900578183571
 21
3316.0591641711462
 31
0.0
  0
LINE
  5
7D4B
  8
1
 10
1086.179005781835
 20
3274.0591641711462
 30
0.0
 11
1086.179005781835
 21
3224.0591641711462
 31
0.0
  0
LINE
  5
7D4C
  8
1
 10
959.17900578183571
 20
3274.0591641711462
 30
0.0
 11
959.17900578183571
 21
3224.0591641711462
 31
0.0
  0
LINE
  5
7D4D
  8
1
 10
1086.179005781835
 20
3224.0591641711462
 30
0.0
 11
959.17900578183571
 21
3224.0591641711449
 31
0.0
  0
LINE
  5
7D4E
  8
1
 10
1122.679005781835
 20
3726.5591641711449
 30
0.0
 11
1042.679005781835
 21
3726.5591641711449
 31
0.0
  0
LINE
  5
7D4F
  8
1
 10
1122.679005781835
 20
3661.5591641711462
 30
0.0
 11
1042.679005781835
 21
3661.5591641711462
 31
0.0
  0
LINE
  5
7D50
  8
1
 10
1122.6790057818359
 20
3391.5591641711462
 30
0.0
 11
1042.679005781835
 21
3391.5591641711462
 31
0.0
  0
LINE
  5
7D51
  8
1
 10
1122.6790057818359
 20
3326.5591641711462
 30
0.0
 11
1042.679005781835
 21
3326.5591641711462
 31
0.0
  0
LINE
  5
7D52
  8
1
 10
1212.679005781835
 20
3314.0591641711462
 30
0.0
 11
1042.679005781835
 21
3314.0591641711462
 31
0.0
  0
LINE
  5
7D53
  8
2
 10
1130.5862368515579
 20
3694.0591641711462
 30
0.0
 11
914.77177471211269
 21
3694.0591641711462
 31
0.0
  0
LINE
  5
7D54
  8
2
 10
1130.5862368515591
 20
3359.0591641711449
 30
0.0
 11
914.77177471211326
 21
3359.0591641711449
 31
0.0
  0
LINE
  5
7D55
  8
1
 10
1114.679005781835
 20
3718.6591641711461
 30
0.0
 11
930.67900578183571
 21
3718.6591641711461
 31
0.0
  0
LINE
  5
7D56
  8
1
 10
1114.679005781835
 20
3669.4591641711459
 30
0.0
 11
930.67900578183571
 21
3669.4591641711459
 31
0.0
  0
LINE
  5
7D57
  8
1
 10
1114.6790057818359
 20
3383.6591641711452
 30
0.0
 11
930.67900578183605
 21
3383.6591641711452
 31
0.0
  0
LINE
  5
7D58
  8
1
 10
1114.6790057818359
 20
3334.4591641711449
 30
0.0
 11
930.67900578183605
 21
3334.4591641711449
 31
0.0
  0
LINE
  5
7D59
  8
1
 10
1002.679005781835
 20
3669.4591641711459
 30
0.0
 11
1002.679005781835
 21
3383.6591641711452
 31
0.0
  0
LINE
  5
7D5A
  8
1
 10
1042.679005781835
 20
3669.4591641711459
 30
0.0
 11
1042.679005781835
 21
3383.6591641711452
 31
0.0
  0
LINE
  5
7D5B
  8
1
 10
1002.679005781835
 20
3391.5591641711462
 30
0.0
 11
922.67900578183571
 21
3391.5591641711462
 31
0.0
  0
LINE
  5
7D5C
  8
1
 10
1002.679005781835
 20
3326.5591641711462
 30
0.0
 11
922.67900578183571
 21
3326.5591641711462
 31
0.0
  0
LINE
  5
7D5D
  8
1
 10
1002.679005781835
 20
3314.0591641711449
 30
0.0
 11
832.67900578183571
 21
3314.0591641711449
 31
0.0
  0
LINE
  5
7D5E
  8
1
 10
1002.679005781835
 20
3289.0591641711449
 30
0.0
 11
807.67900578183571
 21
3289.0591641711449
 31
0.0
  0
LINE
  5
7D5F
  8
1
 10
922.67900578183605
 20
3391.5591641711462
 30
0.0
 11
922.67900578183571
 21
3326.5591641711462
 31
0.0
  0
LINE
  5
7D60
  8
1
 10
930.67900578183605
 20
3383.6591641711452
 30
0.0
 11
930.67900578183571
 21
3334.4591641711449
 31
0.0
  0
LINE
  5
7D61
  8
1
 10
832.67900578183571
 20
3329.0591641711462
 30
0.0
 11
807.67900578183571
 21
3329.0591641711449
 31
0.0
  0
LINE
  5
7D62
  8
1
 10
1086.179005781835
 20
3274.0591641711462
 30
0.0
 11
959.17900578183571
 21
3274.0591641711462
 31
0.0
  0
LINE
  5
7D63
  8
1
 10
1002.679005781835
 20
3334.4591641711449
 30
0.0
 11
1002.679005781835
 21
3274.0591641711462
 31
0.0
  0
LINE
  5
7D64
  8
1
 10
1042.679005781835
 20
3334.4591641711449
 30
0.0
 11
1042.679005781835
 21
3274.0591641711462
 31
0.0
  0
LINE
  5
7D65
  8
1
 10
1002.679005781835
 20
3726.5591641711449
 30
0.0
 11
922.67900578183571
 21
3726.5591641711449
 31
0.0
  0
LINE
  5
7D66
  8
1
 10
1002.679005781835
 20
3661.5591641711462
 30
0.0
 11
922.67900578183571
 21
3661.5591641711462
 31
0.0
  0
LINE
  5
7D67
  8
1
 10
922.67900578183571
 20
3726.5591641711449
 30
0.0
 11
922.67900578183571
 21
3661.5591641711462
 31
0.0
  0
LINE
  5
7D68
  8
1
 10
930.67900578183571
 20
3718.6591641711461
 30
0.0
 11
930.67900578183571
 21
3669.4591641711459
 31
0.0
  0
LINE
  5
7D69
  8
1
 10
1122.6790057818359
 20
3391.5591641711462
 30
0.0
 11
1122.6790057818359
 21
3326.5591641711462
 31
0.0
  0
LINE
  5
7D6A
  8
1
 10
1114.6790057818359
 20
3383.6591641711452
 30
0.0
 11
1114.6790057818359
 21
3334.4591641711449
 31
0.0
  0
LINE
  5
7D6B
  8
1
 10
1122.679005781835
 20
3726.5591641711449
 30
0.0
 11
1122.679005781835
 21
3661.5591641711462
 31
0.0
  0
LINE
  5
7D6C
  8
1
 10
1114.679005781835
 20
3718.6591641711461
 30
0.0
 11
1114.679005781835
 21
3669.4591641711459
 31
0.0
  0
LINE
  5
7D6D
  8
1
 10
1732.679005781835
 20
3194.0591641711462
 30
0.0
 11
1732.679005781835
 21
3316.0591641711462
 31
0.0
  0
LINE
  5
7D6E
  8
2
 10
1582.679005781835
 20
3595.3898641711471
 30
0.0
 11
1582.679005781835
 21
3218.741164171146
 31
0.0
  0
LINE
  5
7D6F
  8
1
 10
1658.879005781836
 20
3274.0591641711462
 30
0.0
 11
1658.879005781836
 21
3224.0591641711462
 31
0.0
  0
LINE
  5
7D70
  8
1
 10
1506.479005781835
 20
3274.0591641711462
 30
0.0
 11
1506.479005781835
 21
3224.0591641711462
 31
0.0
  0
LINE
  5
7D71
  8
1
 10
1658.879005781836
 20
3224.0591641711462
 30
0.0
 11
1506.479005781835
 21
3224.0591641711462
 31
0.0
  0
DIMENSION
  5
7D72
  8
3
  2
*D11
 10
1813.022943942203
 20
3709.0591641711449
 30
0.0
 11
1763.0229439422019
 21
3499.0591641711449
 31
0.0
 70
     0
 13
1737.679005781835
 23
3289.0591641711449
 33
0.0
 14
1737.679005781835
 24
3709.0591641711449
 34
0.0
 50
270.0
1001
ACAD
1000
DSTYLE
1002
{
1070
   287
1070
     3
1070
    40
1040
20.0
1070
   143
1040
0.039
1070
   172
1070
     1
1070
   271
1070
     0
1070
   279
1070
     0
1070
   288
1070
     1
1002
}
  0
LINE
  5
7D73
  8
1
 10
1482.679005781835
 20
3417.0591641711462
 30
0.0
 11
1482.679005781835
 21
3590.0591641711462
 31
0.0
  0
LINE
  5
7D74
  8
1
 10
1682.679005781835
 20
3295.0591641711449
 30
0.0
 11
1682.679005781835
 21
3590.0591641711462
 31
0.0
  0
LINE
  5
7D75
  8
1
 10
1568.0790057818349
 20
3284.0591641711449
 30
0.0
 11
1597.278905781835
 21
3284.0591641711449
 31
0.0
  0
LINE
  5
7D76
  8
1
 10
1619.679005781835
 20
3289.0591641711449
 30
0.0
 11
1545.679005781835
 21
3289.0591641711449
 31
0.0
  0
LINE
  5
7D77
  8
1
 10
1482.679005781835
 20
3295.0591641711449
 30
0.0
 11
1682.679005781835
 21
3295.0591641711449
 31
0.0
  0
LINE
  5
7D78
  8
1
 10
1658.879005781836
 20
3274.0591641711462
 30
0.0
 11
1506.4790057818359
 21
3274.0591641711462
 31
0.0
  0
LINE
  5
7D79
  8
1
 10
1482.679005781835
 20
3417.0591641711462
 30
0.0
 11
1482.679005781835
 21
3295.0591641711449
 31
0.0
  0
ARC
  5
7D7A
  8
1
 10
1545.678905781836
 20
3292.0591641711462
 30
0.0
 40
2.9998999999999989
 50
179.9987999999999
 51
270.00119999999998
  0
LINE
  5
7D7B
  8
1
 10
1542.679005781835
 20
3295.0591641711449
 30
0.0
 11
1542.679005781835
 21
3292.0591641711462
 31
0.0
  0
LINE
  5
7D7C
  8
1
 10
1568.679005781835
 20
3284.0591641711449
 30
0.0
 11
1568.679005781835
 21
3274.0591641711462
 31
0.0
  0
LINE
  5
7D7D
  8
1
 10
1568.0790057818349
 20
3289.0591641711449
 30
0.0
 11
1568.0790057818349
 21
3284.0591641711449
 31
0.0
  0
LINE
  5
7D7E
  8
1
 10
1596.679005781835
 20
3284.0591641711449
 30
0.0
 11
1596.679005781835
 21
3274.0591641711462
 31
0.0
  0
LINE
  5
7D7F
  8
1
 10
1597.278905781835
 20
3289.0591641711449
 30
0.0
 11
1597.278905781835
 21
3284.0591641711449
 31
0.0
  0
ARC
  5
7D80
  8
1
 10
1619.679005781835
 20
3292.0591641711462
 30
0.0
 40
2.9998999999999989
 50
269.9987999999999
 51
0.0011999999999613
  0
LINE
  5
7D81
  8
1
 10
1622.679005781835
 20
3295.0591641711449
 30
0.0
 11
1622.679005781835
 21
3292.0591641711462
 31
0.0
  0
LINE
  5
7D82
  8
1
 10
1737.679005781835
 20
3329.0591641711449
 30
0.0
 11
1737.679005781835
 21
3289.0591641711449
 31
0.0
  0
POINT
  5
7D83
  8
1
 10
1737.679005781835
 20
3289.0591641711449
 30
0.0
  0
POINT
  5
7D84
  8
1
 10
1737.679005781835
 20
3289.0591641711449
 30
0.0
  0
LINE
  5
7D85
  8
1
 10
1737.679005781835
 20
3329.0591641711449
 30
0.0
 11
1682.679005781835
 21
3329.0591641711449
 31
0.0
  0
LINE
  5
7D86
  8
1
 10
1682.679005781835
 20
3590.0591641711462
 30
0.0
 11
1482.679005781835
 21
3590.0591641711462
 31
0.0
  0
LINE
  5
7D87
  8
1
 10
1524.679005781835
 20
3669.0591641711449
 30
0.0
 11
1524.679005781835
 21
3590.0591641711462
 31
0.0
  0
LINE
  5
7D88
  8
1
 10
1484.679005781835
 20
3669.0591641711449
 30
0.0
 11
1484.679005781835
 21
3590.0591641711462
 31
0.0
  0
LINE
  5
7D89
  8
1
 10
1640.679005781835
 20
3669.0591641711449
 30
0.0
 11
1640.679005781835
 21
3590.0591641711462
 31
0.0
  0
LINE
  5
7D8A
  8
1
 10
1680.679005781835
 20
3669.0591641711449
 30
0.0
 11
1680.679005781835
 21
3590.0591641711462
 31
0.0
  0
LINE
  5
7D8B
  8
1
 10
1737.679005781835
 20
3709.0591641711449
 30
0.0
 11
1737.679005781835
 21
3669.0591641711449
 31
0.0
  0
LINE
  5
7D8C
  8
1
 10
1473.673823094407
 20
4131.0591641711462
 30
0.0
 11
1007.673823094407
 21
4131.0591641711462
 31
0.0
  0
LINE
  5
7D8D
  8
1
 10
1473.673823094407
 20
3777.0591641711462
 30
0.0
 11
1007.673823094407
 21
3777.0591641711462
 31
0.0
  0
LINE
  5
7D8E
  8
1
 10
1448.673823094407
 20
4106.0591641711462
 30
0.0
 11
1032.673823094407
 21
4106.0591641711462
 31
0.0
  0
LINE
  5
7D8F
  8
1
 10
1448.673823094407
 20
3802.0591641711449
 30
0.0
 11
1032.673823094407
 21
3802.0591641711462
 31
0.0
  0
LINE
  5
7D90
  8
1
 10
1032.673823094407
 20
4106.0591641711462
 30
0.0
 11
1448.673823094407
 21
3802.0591641711449
 31
0.0
  0
LINE
  5
7D91
  8
1
 10
1448.673823094407
 20
4106.0591641711462
 30
0.0
 11
1032.673823094407
 21
3802.0591641711462
 31
0.0
  0
DIMENSION
  5
7D92
  8
3
  2
*D12
 10
1237.679005781835
 20
4263.8096055798314
 30
0.0
 11
1022.679005781835
 21
4313.8096055798314
 31
0.0
 70
     0
 13
807.67900578183571
 23
4149.0591641711462
 33
0.0
 14
1237.679005781835
 24
4149.0591641711462
 34
0.0
1001
ACAD
1000
DSTYLE
1002
{
1070
   287
1070
     3
1070
    40
1040
20.0
1070
   143
1040
0.039
1070
   172
1070
     1
1070
   271
1070
     0
1070
   279
1070
     0
1070
   288
1070
     1
1002
}
  0
LINE
  5
7D93
  8
1
 10
1197.679005781835
 20
4147.0591641711462
 30
0.0
 11
847.67900578183571
 21
4147.0591641711462
 31
0.0
  0
LINE
  5
7D94
  8
1
 10
1212.679005781835
 20
3739.0591641711449
 30
0.0
 11
832.67900578183571
 21
3739.0591641711462
 31
0.0
  0
LINE
  5
7D95
  8
1
 10
1007.673823094407
 20
3777.0591641711449
 30
0.0
 11
1007.673823094407
 21
4131.0591641711462
 31
0.0
  0
LINE
  5
7D96
  8
1
 10
1032.673823094407
 20
3802.0591641711462
 30
0.0
 11
1032.673823094407
 21
4106.0591641711462
 31
0.0
  0
LINE
  5
7D97
  8
1
 10
847.67900578183571
 20
3804.0591641711462
 30
0.0
 11
847.67900578183571
 21
3753.43126740455
 31
0.0
  0
LINE
  5
7D98
  8
1
 10
847.67900578183571
 20
3762.0591641711462
 30
0.0
 11
847.67900578183571
 21
3739.0591641711462
 31
0.0
  0
LINE
  5
7D99
  8
1
 10
1007.673823094407
 20
4107.0591641711462
 30
0.0
 11
847.67900578183571
 21
4107.0591641711462
 31
0.0
  0
LINE
  5
7D9A
  8
1
 10
847.67900578183571
 20
4149.0591641711462
 30
0.0
 11
807.67900578183571
 21
4149.0591641711462
 31
0.0
  0
LINE
  5
7D9B
  8
1
 10
807.67900578183571
 20
4149.0591641711462
 30
0.0
 11
807.67900578183571
 21
4106.0591641711462
 31
0.0
  0
POINT
  5
7D9C
  8
1
 10
807.67900578183571
 20
4149.0591641711462
 30
0.0
  0
POINT
  5
7D9D
  8
1
 10
807.67900578183571
 20
4149.0591641711462
 30
0.0
  0
LINE
  5
7D9E
  8
1
 10
847.67900578183571
 20
4149.0591641711462
 30
0.0
 11
847.67900578183571
 21
4106.0591641711462
 31
0.0
  0
LINE
  5
7D9F
  8
1
 10
1197.679005781835
 20
3762.0591641711462
 30
0.0
 11
1197.679005781835
 21
3739.0591641711449
 31
0.0
  0
LINE
  5
7DA0
  8
1
 10
1197.679005781835
 20
3777.0591641711462
 30
0.0
 11
1197.679005781835
 21
3746.3365267165918
 31
0.0
  0
LINE
  5
7DA1
  8
1
 10
1237.679005781835
 20
4149.0591641711462
 30
0.0
 11
1197.679005781835
 21
4149.0591641711462
 31
0.0
  0
LINE
  5
7DA2
  8
1
 10
1197.679005781835
 20
4149.0591641711462
 30
0.0
 11
1197.679005781835
 21
4131.0591641711462
 31
0.0
  0
LINE
  5
7DA3
  8
1
 10
1237.679005781835
 20
4149.0591641711462
 30
0.0
 11
1237.679005781835
 21
4131.0591641711462
 31
0.0
  0
POINT
  5
7DA4
  8
1
 10
1237.679005781835
 20
4149.0591641711462
 30
0.0
  0
LINE
  5
7DA5
  8
1
 10
1473.673823094407
 20
3777.0591641711449
 30
0.0
 11
1473.673823094407
 21
4131.0591641711462
 31
0.0
  0
LINE
  5
7DA6
  8
1
 10
1448.673823094407
 20
3802.0591641711449
 30
0.0
 11
1448.673823094407
 21
4106.0591641711462
 31
0.0
  0
LINE
  5
7DA7
  8
1
 10
3092.5949296519252
 20
2422.8740985030149
 30
0.0
 11
3092.5949296519252
 21
1765.8663815409991
 31
0.0
  0
LINE
  5
7DA8
  8
1
 10
2788.5949296519261
 20
2422.8740985030149
 30
0.0
 11
2788.5949296519252
 21
1765.8663815409991
 31
0.0
  0
LINE
  5
7DA9
  8
1
 10
2790.5949296519261
 20
2422.8740985030149
 30
0.0
 11
2790.5949296519261
 21
1765.8663815409991
 31
0.0
  0
LINE
  5
7DAA
  8
1
 10
3090.5949296519252
 20
2422.8740985030149
 30
0.0
 11
3090.5949296519252
 21
1765.8663815409991
 31
0.0
  0
POLYLINE
  5
7DAB
  8
1
 66
     1
 10
0.0
 20
0.0
 30
0.0
 70
     1
  0
VERTEX
  5
8267
  8
1
 10
2788.5949296519252
 20
1767.8740985030149
 30
0.0
  0
VERTEX
  5
8268
  8
1
 10
2748.5949296519252
 20
1767.8740985030149
 30
0.0
  0
VERTEX
  5
8269
  8
1
 10
2748.5949296519252
 20
1769.8740985030149
 30
0.0
 42
-0.4142135623730951
  0
VERTEX
  5
826A
  8
1
 10
2751.5949296519252
 20
1772.8740985030149
 30
0.0
  0
VERTEX
  5
826B
  8
1
 10
2779.0949296519252
 20
1772.8740985030149
 30
0.0
 42
0.4142135623730951
  0
VERTEX
  5
826C
  8
1
 10
2783.5949296519252
 20
1777.374098503014
 30
0.0
  0
VERTEX
  5
826D
  8
1
 10
2783.5949296519252
 20
1804.8740985030149
 30
0.0
 42
-0.4142135623730951
  0
VERTEX
  5
826E
  8
1
 10
2786.5949296519252
 20
1807.874098503014
 30
0.0
  0
VERTEX
  5
826F
  8
1
 10
2788.5949296519252
 20
1807.874098503014
 30
0.0
  0
SEQEND
  5
8270
  8
1
  0
POLYLINE
  5
7DB6
  8
1
 66
     1
 10
0.0
 20
0.0
 30
0.0
  0
VERTEX
  5
8271
  8
1
 10
3092.5949296519261
 20
1767.8740985030149
 30
0.0
  0
VERTEX
  5
8272
  8
1
 10
3132.5949296519261
 20
1767.8740985030149
 30
0.0
  0
VERTEX
  5
8273
  8
1
 10
3132.5949296519261
 20
1769.8740985030149
 30
0.0
 42
0.4142135623730951
  0
VERTEX
  5
8274
  8
1
 10
3129.5949296519261
 20
1772.8740985030149
 30
0.0
  0
VERTEX
  5
8275
  8
1
 10
3102.0949296519261
 20
1772.8740985030149
 30
0.0
 42
-0.4142135623730951
  0
VERTEX
  5
8276
  8
1
 10
3097.5949296519261
 20
1777.374098503014
 30
0.0
  0
VERTEX
  5
8277
  8
1
 10
3097.5949296519261
 20
1789.874098503014
 30
0.0
 42
0.4142135623730951
  0
SEQEND
  5
8278
  8
1
  0
LINE
  5
7DBF
  8
1
 10
2715.5949296519238
 20
2059.4740985030139
 30
0.0
 11
2715.5949296519238
 21
1767.8740985030149
 31
0.0
  0
LINE
  5
7DC0
  8
1
 10
2313.7949296519241
 20
2059.4740985030139
 30
0.0
 11
2313.7949296519241
 21
1767.8740985030149
 31
0.0
  0
LINE
  5
7DC1
  8
2
 10
2940.5949296519261
 20
2506.328606727835
 30
0.0
 11
2940.5949296519261
 21
1543.9289308239911
 31
0.0
  0
LINE
  5
7DC2
  8
1
 10
2310.5949296519238
 20
2059.4740985030139
 30
0.0
 11
2310.5949296519238
 21
1767.8740985030149
 31
0.0
  0
DIMENSION
  5
7DC3
  8
3
  2
*D13
 10
2940.5949296519261
 20
1424.0755904136311
 30
0.0
 11
2608.0949296519252
 21
1474.0755904136299
 31
0.0
 70
     0
 13
2275.5949296519238
 23
1581.8740985030149
 33
0.0
 14
2940.5949296519261
 24
1543.9289308239911
 34
0.0
1001
ACAD
1000
DSTYLE
1002
{
1070
   287
1070
     3
1070
    40
1040
20.0
1070
   143
1040
0.039
1070
   172
1070
     1
1070
   271
1070
     0
1070
   279
1070
     0
1070
   288
1070
     1
1002
}
  0
LINE
  5
7DC4
  8
1
 10
2275.5949296519238
 20
1656.874098503014
 30
0.0
 11
3135.5949296519261
 21
1656.874098503014
 31
0.0
  0
LINE
  5
7DC5
  8
1
 10
2275.5949296519238
 20
1581.8740985030149
 30
0.0
 11
3135.5949296519261
 21
1581.8740985030149
 31
0.0
  0
LINE
  5
7DC6
  8
1
 10
2275.5949296519238
 20
1692.8740985030149
 30
0.0
 11
3135.5949296519261
 21
1692.8740985030149
 31
0.0
  0
LINE
  5
7DC7
  8
1
 10
2315.5949296519238
 20
1692.8740985030149
 30
0.0
 11
3135.5949296519261
 21
1692.8740985030149
 31
0.0
  0
LINE
  5
7DC8
  8
1
 10
2275.5949296519238
 20
1767.8740985030149
 30
0.0
 11
3135.5949296519261
 21
1767.8740985030149
 31
0.0
  0
LINE
  5
7DC9
  8
1
 10
2275.5949296519238
 20
1656.874098503014
 30
0.0
 11
2275.5949296519238
 21
1581.8740985030149
 31
0.0
  0
LINE
  5
7DCA
  8
1
 10
2275.5949296519238
 20
1767.8740985030149
 30
0.0
 11
2275.5949296519238
 21
1692.8740985030149
 31
0.0
  0
DIMENSION
  5
7DCB
  8
3
  2
*D14
 10
3135.5949296519261
 20
1424.0755904136311
 30
0.0
 11
3038.0949296519261
 21
1474.0755904136299
 31
0.0
 70
     0
 13
2940.5949296519261
 23
1543.9289308239911
 33
0.0
 14
3135.5949296519261
 24
1581.8740985030149
 34
0.0
1001
ACAD
1000
DSTYLE
1002
{
1070
   287
1070
     3
1070
    40
1040
20.0
1070
   143
1040
0.039
1070
   172
1070
     1
1070
   271
1070
     0
1070
   279
1070
     0
1070
   288
1070
     1
1002
}
  0
LINE
  5
7DCC
  8
1
 10
2790.5949296519252
 20
1775.8663815409991
 30
0.0
 11
3090.5949296519261
 21
1775.8663815409991
 31
0.0
  0
LINE
  5
7DCD
  8
1
 10
2788.5949296519252
 20
1765.8663815409991
 30
0.0
 11
2790.5949296519252
 21
1765.8663815409991
 31
0.0
  0
LINE
  5
7DCE
  8
1
 10
3135.5949296519261
 20
1656.874098503014
 30
0.0
 11
3135.5949296519261
 21
1581.8740985030149
 31
0.0
  0
LINE
  5
7DCF
  8
1
 10
3135.5949296519261
 20
1767.8740985030149
 30
0.0
 11
3135.5949296519261
 21
1692.8740985030149
 31
0.0
  0
LINE
  5
7DD0
  8
1
 10
3090.594929651927
 20
1765.8663815409991
 30
0.0
 11
3092.5949296519261
 21
1765.8663815409991
 31
0.0
  0
DIMENSION
  5
7DD1
  8
3
  2
*D15
 10
2940.5949296519261
 20
2644.3313427042299
 30
0.0
 11
2560.5949296519252
 21
2694.3313427042308
 31
0.0
 70
     0
 13
2180.5949296519238
 23
2267.8740985030149
 33
0.0
 14
2940.5949296519261
 24
2604.2452415851358
 34
0.0
1001
ACAD
1000
DSTYLE
1002
{
1070
   287
1070
     3
1070
    40
1040
20.0
1070
   143
1040
0.039
1070
   172
1070
     1
1070
   271
1070
     0
1070
   279
1070
     0
1070
   288
1070
     1
1002
}
  0
LINE
  5
7DD2
  8
1
 10
2705.125334505487
 20
2097.8740985030149
 30
0.0
 11
2788.5949296519238
 21
2097.8740985030149
 31
0.0
  0
LINE
  5
7DD3
  8
1
 10
2701.9949296519248
 20
2137.8740985030149
 30
0.0
 11
2788.5949296519261
 21
2137.8740985030149
 31
0.0
  0
LINE
  5
7DD4
  8
2
 10
2193.5841530482999
 20
2117.8740985030149
 30
0.0
 11
3159.8121554256368
 21
2117.8740985030149
 31
0.0
  0
POLYLINE
  5
7DD5
  8
1
 66
     1
 10
0.0
 20
0.0
 30
0.0
 70
     1
  0
VERTEX
  5
8294
  8
1
 10
2715.5949296519238
 20
2019.4740985030139
 30
0.0
  0
VERTEX
  5
8295
  8
1
 10
2755.5949296519238
 20
2019.4740985030139
 30
0.0
  0
VERTEX
  5
8296
  8
1
 10
2755.5949296519238
 20
2021.4740985030139
 30
0.0
 42
0.4142135623730951
  0
VERTEX
  5
8297
  8
1
 10
2752.5949296519238
 20
2024.4740985030139
 30
0.0
  0
VERTEX
  5
8298
  8
1
 10
2725.0949296519238
 20
2024.4740985030139
 30
0.0
 42
-0.4142135623730951
  0
VERTEX
  5
8299
  8
1
 10
2720.5949296519238
 20
2028.9740985030139
 30
0.0
  0
VERTEX
  5
829A
  8
1
 10
2720.5949296519238
 20
2056.4740985030139
 30
0.0
 42
0.4142135623730951
  0
VERTEX
  5
829B
  8
1
 10
2717.5949296519238
 20
2059.4740985030139
 30
0.0
  0
VERTEX
  5
829C
  8
1
 10
2715.5949296519238
 20
2059.4740985030139
 30
0.0
  0
SEQEND
  5
829D
  8
1
  0
LINE
  5
7DE0
  8
1
 10
2380.494929651923
 20
2097.8740985030149
 30
0.0
 11
2645.6949296519242
 21
2097.8740985030149
 31
0.0
  0
LINE
  5
7DE1
  8
1
 10
2380.494929651923
 20
2137.8740985030149
 30
0.0
 11
2645.6949296519242
 21
2137.8740985030149
 31
0.0
  0
LINE
  5
7DE2
  8
1
 10
2300.5949296519238
 20
2059.4740985030139
 30
0.0
 11
2725.5949296519238
 21
2059.4740985030139
 31
0.0
  0
LINE
  5
7DE3
  8
1
 10
2300.5949296519238
 20
2062.6740985030142
 30
0.0
 11
2725.5949296519238
 21
2062.6740985030142
 31
0.0
  0
LINE
  5
7DE4
  8
1
 10
2302.5949296519238
 20
2267.8740985030149
 30
0.0
 11
2302.5949296519238
 21
1787.8740985030149
 31
0.0
  0
LINE
  5
7DE5
  8
1
 10
2180.5949296519238
 20
2267.8740985030149
 30
0.0
 11
2180.5949296519238
 21
1787.8740985030149
 31
0.0
  0
LINE
  5
7DE6
  8
1
 10
2260.5949296519238
 20
2181.3740985030149
 30
0.0
 11
2260.5949296519238
 21
1861.674098503014
 31
0.0
  0
LINE
  5
7DE7
  8
1
 10
2210.5949296519238
 20
2181.3740985030149
 30
0.0
 11
2210.5949296519238
 21
1861.674098503014
 31
0.0
  0
LINE
  5
7DE8
  8
2
 10
2345.5949296519238
 20
2215.9674344225
 30
0.0
 11
2345.5949296519238
 21
2003.997737533809
 31
0.0
  0
LINE
  5
7DE9
  8
1
 10
2180.5949296519238
 20
1787.8740985030149
 30
0.0
 11
2302.5949296519238
 21
1787.8740985030149
 31
0.0
  0
LINE
  5
7DEA
  8
1
 10
2210.5949296519238
 20
1861.674098503014
 30
0.0
 11
2260.5949296519238
 21
1861.674098503014
 31
0.0
  0
LINE
  5
7DEB
  8
2
 10
2199.6308170108182
 20
1937.874098503014
 30
0.0
 11
2322.5616295969348
 21
1937.874098503014
 31
0.0
  0
LINE
  5
7DEC
  8
1
 10
2210.5949296519238
 20
2004.3740985030149
 30
0.0
 11
2260.5949296519238
 21
2004.3740985030149
 31
0.0
  0
LINE
  5
7DED
  8
1
 10
2260.5949296519238
 20
1923.874098503014
 30
0.0
 11
2310.5949296519238
 21
1923.874098503014
 31
0.0
  0
LINE
  5
7DEE
  8
1
 10
2260.5949296519238
 20
1951.874098503014
 30
0.0
 11
2310.5949296519238
 21
1951.874098503014
 31
0.0
  0
LINE
  5
7DEF
  8
1
 10
2180.5949296519238
 20
2267.8740985030149
 30
0.0
 11
2302.5949296519238
 21
2267.8740985030149
 31
0.0
  0
LINE
  5
7DF0
  8
1
 10
2210.5949296519238
 20
2181.3740985030149
 30
0.0
 11
2260.5949296519238
 21
2181.3740985030149
 31
0.0
  0
ARC
  5
7DF1
  8
1
 10
2556.2438282338799
 20
2152.8833549360538
 30
0.0
 40
194.8824391137272
 50
176.8950460354223
 51
199.54871276881059
  0
ARC
  5
7DF2
  8
1
 10
2134.9460310699669
 20
2152.8833549360538
 30
0.0
 40
194.8824391137272
 50
340.45128723118921
 51
3.1049539645776858
  0
LINE
  5
7DF3
  8
1
 10
2318.5949296519238
 20
2087.6740985030142
 30
0.0
 11
2372.5949296519238
 21
2087.6740985030142
 31
0.0
  0
LINE
  5
7DF4
  8
1
 10
2329.7640806056911
 20
2147.874098503014
 30
0.0
 11
2324.1949296519228
 21
2147.874098503014
 31
0.0
  0
LINE
  5
7DF5
  8
1
 10
2372.5949296519238
 20
2068.6740985030142
 30
0.0
 11
2318.5949296519238
 21
2068.6740985030142
 31
0.0
  0
POLYLINE
  5
7DF6
  8
1
 66
     1
 10
0.0
 20
0.0
 30
0.0
 70
     1
  0
VERTEX
  5
829E
  8
1
 10
2313.0949296519238
 20
2062.6740985030142
 30
0.0
  0
VERTEX
  5
829F
  8
1
 10
2378.0949296519238
 20
2062.6740985030142
 30
0.0
  0
VERTEX
  5
82A0
  8
1
 10
2378.0949296519238
 20
2068.6740985030142
 30
0.0
  0
VERTEX
  5
82A1
  8
1
 10
2313.0949296519238
 20
2068.6740985030142
 30
0.0
  0
SEQEND
  5
82A2
  8
1
  0
LINE
  5
7DFC
  8
1
 10
2318.5949296519238
 20
2068.6740985030142
 30
0.0
 11
2318.5949296519238
 21
2087.6740985030142
 31
0.0
  0
LINE
  5
7DFD
  8
1
 10
2300.5949296519238
 20
2062.6740985030142
 30
0.0
 11
2300.5949296519238
 21
2059.4740985030139
 31
0.0
  0
LINE
  5
7DFE
  8
1
 10
2260.5949296519238
 20
2097.8740985030149
 30
0.0
 11
2321.903637980196
 21
2097.8740985030149
 31
0.0
  0
LINE
  5
7DFF
  8
1
 10
2260.5949296519238
 20
2137.874098503014
 30
0.0
 11
2324.1949296519228
 21
2137.8740985030149
 31
0.0
  0
LINE
  5
7E00
  8
1
 10
2324.1949296519228
 20
2147.874098503014
 30
0.0
 11
2324.1949296519228
 21
2106.3643323707411
 31
0.0
  0
LINE
  5
7E01
  8
1
 10
2380.494929651923
 20
2147.874098503014
 30
0.0
 11
2380.494929651923
 21
2087.874098503014
 31
0.0
  0
LINE
  5
7E02
  8
1
 10
2380.494929651923
 20
2087.874098503014
 30
0.0
 11
2372.5240371036411
 21
2087.874098503014
 31
0.0
  0
LINE
  5
7E03
  8
1
 10
2372.5949296519238
 20
2068.6740985030142
 30
0.0
 11
2372.5949296519238
 21
2087.6740985030142
 31
0.0
  0
LINE
  5
7E04
  8
1
 10
2380.494929651923
 20
2147.874098503014
 30
0.0
 11
2361.425778698157
 21
2147.874098503014
 31
0.0
  0
POLYLINE
  5
7E05
  8
1
 66
     1
 10
0.0
 20
0.0
 30
0.0
 70
     1
  0
VERTEX
  5
82A3
  8
1
 10
2351.2990131531142
 20
2175.7397550659698
 30
0.0
  0
VERTEX
  5
82A4
  8
1
 10
2346.5562920397651
 20
2175.7397550659698
 30
0.0
  0
VERTEX
  5
82A5
  8
1
 10
2346.5562920397651
 20
2168.6740985030142
 30
0.0
  0
VERTEX
  5
82A6
  8
1
 10
2351.2990131531142
 20
2168.6740985030142
 30
0.0
  0
SEQEND
  5
82A7
  8
1
  0
ARC
  5
7E0B
  8
1
 10
2332.537976938153
 20
2163.6016867849139
 30
0.0
 40
3.0
 50
108.0376136626346
 51
183.10495396457819
  0
ARC
  5
7E0C
  8
1
 10
2358.6518823656952
 20
2163.6016867849139
 30
0.0
 40
3.0
 50
356.89504603542167
 51
71.962386337365331
  0
ARC
  5
7E0D
  8
1
 10
2345.5949296519238
 20
2123.5061009539509
 30
0.0
 40
45.167997549063401
 50
71.962386337365885
 51
108.0376136626341
  0
LINE
  5
7E0E
  8
2
 10
2680.5949296519238
 20
2215.9674344225
 30
0.0
 11
2680.5949296519238
 21
2000.694313686193
 31
0.0
  0
ARC
  5
7E0F
  8
1
 10
2891.2438282338808
 20
2152.8833549360538
 30
0.0
 40
194.8824391137272
 50
176.8950460354223
 51
199.54871276881059
  0
ARC
  5
7E10
  8
1
 10
2469.9460310699678
 20
2152.8833549360538
 30
0.0
 40
194.8824391137272
 50
340.45128723118921
 51
3.1049539645776889
  0
LINE
  5
7E11
  8
1
 10
2653.5949296519238
 20
2068.6740985030142
 30
0.0
 11
2707.5949296519238
 21
2068.6740985030142
 31
0.0
  0
LINE
  5
7E12
  8
1
 10
2707.5949296519238
 20
2087.6740985030142
 30
0.0
 11
2653.5949296519238
 21
2087.6740985030142
 31
0.0
  0
LINE
  5
7E13
  8
1
 10
2645.6949296519242
 20
2147.874098503014
 30
0.0
 11
2664.7640806056911
 21
2147.874098503014
 31
0.0
  0
POLYLINE
  5
7E14
  8
1
 66
     1
 10
0.0
 20
0.0
 30
0.0
 70
     1
  0
VERTEX
  5
82A8
  8
1
 10
2648.0949296519238
 20
2062.6740985030142
 30
0.0
  0
VERTEX
  5
82A9
  8
1
 10
2713.0949296519238
 20
2062.6740985030142
 30
0.0
  0
VERTEX
  5
82AA
  8
1
 10
2713.0949296519238
 20
2068.6740985030142
 30
0.0
  0
VERTEX
  5
82AB
  8
1
 10
2648.0949296519238
 20
2068.6740985030142
 30
0.0
  0
SEQEND
  5
82AC
  8
1
  0
LINE
  5
7E1A
  8
1
 10
2645.6949296519242
 20
2147.874098503014
 30
0.0
 11
2645.6949296519242
 21
2087.874098503014
 31
0.0
  0
LINE
  5
7E1B
  8
1
 10
2653.5949296519238
 20
2068.6740985030142
 30
0.0
 11
2653.5949296519238
 21
2087.6740985030142
 31
0.0
  0
LINE
  5
7E1C
  8
1
 10
2645.6949296519242
 20
2087.874098503014
 30
0.0
 11
2653.665822200207
 21
2087.874098503014
 31
0.0
  0
LINE
  5
7E1D
  8
1
 10
2707.5949296519238
 20
2068.6740985030142
 30
0.0
 11
2707.5949296519238
 21
2087.6740985030142
 31
0.0
  0
LINE
  5
7E1E
  8
1
 10
2725.5949296519238
 20
2062.6740985030142
 30
0.0
 11
2725.5949296519238
 21
2059.4740985030139
 31
0.0
  0
LINE
  5
7E1F
  8
1
 10
2701.9949296519248
 20
2147.874098503014
 30
0.0
 11
2701.9949296519248
 21
2106.3643323707411
 31
0.0
  0
LINE
  5
7E20
  8
1
 10
2696.425778698157
 20
2147.874098503014
 30
0.0
 11
2701.9949296519248
 21
2147.874098503014
 31
0.0
  0
ARC
  5
7E21
  8
1
 10
2693.6518823656961
 20
2163.6016867849139
 30
0.0
 40
3.0
 50
356.89504603542167
 51
71.962386337365317
  0
ARC
  5
7E22
  8
1
 10
2680.5949296519238
 20
2123.5061009539509
 30
0.0
 40
45.167997549063401
 50
71.962386337365871
 51
108.0376136626341
  0
ARC
  5
7E23
  8
1
 10
2667.537976938152
 20
2163.6016867849139
 30
0.0
 40
3.0
 50
108.0376136626346
 51
183.10495396457819
  0
POLYLINE
  5
7E24
  8
1
 66
     1
 10
0.0
 20
0.0
 30
0.0
 70
     1
  0
VERTEX
  5
82AD
  8
1
 10
2674.890846150734
 20
2175.7397550659698
 30
0.0
  0
VERTEX
  5
82AE
  8
1
 10
2679.633567264083
 20
2175.7397550659698
 30
0.0
  0
VERTEX
  5
82AF
  8
1
 10
2679.633567264083
 20
2168.6740985030142
 30
0.0
  0
VERTEX
  5
82B0
  8
1
 10
2674.890846150734
 20
2168.6740985030142
 30
0.0
  0
SEQEND
  5
82B1
  8
1
  0
DIMENSION
  5
7E2A
  8
3
  2
*D16
 10
3289.6361337816288
 20
1917.874098503014
 30
0.0
 11
3239.6361337816279
 21
2117.8740985030158
 31
0.0
 70
     0
 13
3118.5949296519261
 23
2317.874098503014
 33
0.0
 14
3118.5949296519261
 24
1917.874098503014
 34
0.0
 50
90.0
1001
ACAD
1000
DSTYLE
1002
{
1070
   287
1070
     3
1070
    40
1040
20.0
1070
   143
1040
0.039
1070
   172
1070
     1
1070
   271
1070
     0
1070
   279
1070
     0
1070
   288
1070
     1
1002
}
  0
LINE
  5
7E2B
  8
1
 10
3118.5949296519261
 20
2317.874098503014
 30
0.0
 11
3118.5949296519261
 21
1917.874098503014
 31
0.0
  0
LINE
  5
7E2C
  8
1
 10
2738.5949296519238
 20
2014.9740985030151
 30
0.0
 11
2788.5949296519238
 21
2014.9740985030151
 31
0.0
  0
LINE
  5
7E2D
  8
1
 10
2738.5949296519238
 20
2019.4740985030139
 30
0.0
 11
2788.5949296519238
 21
2019.4740985030139
 31
0.0
  0
LINE
  5
7E2E
  8
1
 10
2738.5949296519238
 20
2019.4740985030139
 30
0.0
 11
2738.5949296519238
 21
2014.9740985030151
 31
0.0
  0
INSERT
  5
7E2F
  8
1
  2
L02503
 10
3012.392266166321
 20
2003.1546283590581
 30
0.0
 41
-1.0
 50
180.0
  0
POLYLINE
  5
7E30
  8
1
 66
     1
 10
0.0
 20
0.0
 30
0.0
  0
VERTEX
  5
82BB
  8
1
 10
3092.5949296519261
 20
1794.874098503014
 30
0.0
  0
VERTEX
  5
82BC
  8
1
 10
3092.5949296519261
 20
1789.6663815409991
 30
0.0
  0
SEQEND
  5
82BD
  8
1
  0
POLYLINE
  5
7E34
  8
1
 66
     1
 10
0.0
 20
0.0
 30
0.0
  0
VERTEX
  5
82BE
  8
1
 10
3097.5949296519261
 20
1789.874098503014
 30
0.0
  0
VERTEX
  5
82BF
  8
1
 10
3097.5949296519261
 20
1804.8740985030149
 30
0.0
 42
0.4142135623730951
  0
VERTEX
  5
82C0
  8
1
 10
3094.5949296519261
 20
1807.874098503014
 30
0.0
  0
VERTEX
  5
82C1
  8
1
 10
3092.5949296519261
 20
1807.874098503014
 30
0.0
  0
VERTEX
  5
82C2
  8
1
 10
3092.5949296519261
 20
1789.874098503014
 30
0.0
  0
SEQEND
  5
82C3
  8
1
  0
DIMENSION
  5
7E3B
  8
3
  2
*D17
 10
3093.5949296519261
 20
2644.3313427042299
 30
0.0
 11
3225.0235010804981
 21
2694.3313427042308
 31
0.0
 70
     0
 13
2940.5949296519261
 23
2604.2452415851358
 33
0.0
 14
3093.5949296519261
 24
2342.8740985030149
 34
0.0
1001
ACAD
1000
DSTYLE
1002
{
1070
   287
1070
     3
1070
    40
1040
20.0
1070
   143
1040
0.039
1070
   172
1070
     1
1070
   271
1070
     0
1070
   279
1070
     0
1070
   288
1070
     1
1002
}
  0
DIMENSION
  5
7E3C
  8
3
  2
*D18
 10
3090.5949296519252
 20
2494.5484920434992
 30
0.0
 11
2940.5949296519261
 21
2544.5484920434992
 31
0.0
 70
     0
 13
2790.5949296519261
 23
2422.8740985030149
 33
0.0
 14
3090.5949296519252
 24
2422.8740985030149
 34
0.0
1001
ACAD
1000
DSTYLE
1002
{
1070
   287
1070
     3
1070
    40
1040
20.0
1070
   143
1040
0.039
1070
   172
1070
     1
1070
   271
1070
     0
1070
   279
1070
     0
1070
   288
1070
     1
1002
}
  0
LINE
  5
7E3D
  8
1
 10
2788.5949296519261
 20
2397.874098503014
 30
0.0
 11
3092.5949296519261
 21
2397.874098503014
 31
0.0
  0
LINE
  5
7E3E
  8
1
 10
2771.8574377332779
 20
2419.8740985030149
 30
0.0
 11
3107.6943475571361
 21
2419.8740985030149
 31
0.0
  0
LINE
  5
7E3F
  8
1
 10
2771.8574377332779
 20
2422.8740985030149
 30
0.0
 11
3107.6943475571361
 21
2422.8740985030149
 31
0.0
  0
INSERT
  5
7E40
  8
1
  2
L02503
 10
2869.7975931375308
 20
2508.1546283590578
 30
0.0
 50
180.0
  0
INSERT
  5
7E41
  8
1
  2
L02503
 10
3012.392266166321
 20
2232.5935686469711
 30
0.0
  0
LINE
  5
7E42
  8
1
 10
3119.1949296519251
 20
2317.874098503014
 30
0.0
 11
3117.5949296519261
 21
2317.874098503014
 31
0.0
  0
INSERT
  5
7E43
  8
1
  2
L02503
 10
3011.392266166321
 20
2508.1546283590578
 30
0.0
 41
-1.0
 50
180.0
  0
LINE
  5
8156
  8
4
 10
3700.0
 20
1000.0
 30
0.0
 11
3700.0
 21
600.0
 31
0.0
  0
LINE
  5
8157
  8
4
 10
2300.0
 20
1000.0
 30
0.0
 11
2300.0
 21
600.0
 31
0.0
  0
LINE
  5
8158
  8
4
 10
1300.0
 20
1000.0
 30
0.0
 11
1300.0
 21
600.0
 31
0.0
  0
LINE
  5
815B
  8
4
 10
1300.0
 20
600.0
 30
0.0
 11
3700.0
 21
600.0
 31
0.0
  0
LINE
  5
815C
  8
4
 10
1300.0
 20
800.0
 30
0.0
 11
3700.0
 21
800.0
 31
0.0
  0
TEXT
  5
815D
  8
4
 10
1377.0041616938031
 20
863.08605173322564
 30
0.0
 40
100.0
  1
機器名称
  0
TEXT
  5
815E
  8
4
 10
1372.516212049595
 20
643.29031346402189
 30
0.0
 40
100.0
  1
機器型番
  0
TEXT
  5
815F
  8
4
 10
2353.918537293383
 20
844.3746047138942
 30
0.0
 40
90.0
  1
ミツヤリミトロードファン
  0
TEXT
  5
8160
  8
4
 10
2373.3089911709608
 20
634.31916855988675
 30
0.0
 40
100.0
  1
LL#2 1/2-1
  0
TEXT
  5
8162
  8
4
 10
1604.128616167181
 20
4766.8576826650306
 30
0.0
 40
107.9999999999999
  1
床置防振ベット
  0
TEXT
  5
8163
  8
4
 10
632.33518665889278
 20
5067.7619523985959
 30
0.0
 40
144.0
  1
遠心式片吸込片持リミットロードファン
  0
LINE
  5
8164
  8
4
 10
500.0
 20
4938.8175085296089
 30
0.0
 11
3700.0
 21
4938.8175085296089
 31
0.0
  0
LINE
  5
8165
  8
4
 10
500.0
 20
5338.8175085296098
 30
0.0
 11
3700.0
 21
5338.8175085296098
 31
0.0
  0
LINE
  5
8166
  8
4
 10
1300.0
 20
1000.0
 30
0.0
 11
3700.0
 21
1000.0
 31
0.0
  0
LINE
  5
8167
  8
4
 10
500.0
 20
5338.8175085296098
 30
0.0
 11
500.0
 21
4938.8175085296089
 31
0.0
  0
TEXT
  5
8168
  8
4
 10
732.41095168177696
 20
4764.638955092687
 30
0.0
 40
107.9999999999999
  1
左回転上向
  0
TEXT
  5
8169
  8
4
 10
2937.9391184985789
 20
5412.1221629906177
 30
0.0
 40
112.0
  1
No.
  0
TEXT
  5
816A
  8
4
 10
2622.5921252000262
 20
4766.8576826650306
 30
0.0
 40
107.9999999999999
  1
縮尺：1/20
  0
LINE
  5
816B
  8
4
 10
3700.0
 20
5338.8175085296098
 30
0.0
 11
3700.0
 21
4938.8175085296089
 31
0.0
  0
LINE
  5
816C
  8
4
 10
4200.0
 20
5900.0
 30
0.0
 11
4200.0
 21
5900.0
 31
0.0
  0
LINE
  5
816D
  8
4
 10
2881.2348447197292
 20
5362.5271662508021
 30
0.0
 11
2881.2348447197292
 21
5573.3045230995049
 31
0.0
  0
LINE
  5
816E
  8
4
 10
2881.2348447197292
 20
5573.3045230995049
 30
0.0
 11
3700.0
 21
5573.3045230995049
 31
0.0
  0
LINE
  5
816F
  8
4
 10
3700.0
 20
5573.3045230995049
 30
0.0
 11
3700.0
 21
5362.5271662508021
 31
0.0
  0
LINE
  5
8170
  8
4
 10
3700.0
 20
5362.5271662508021
 30
0.0
 11
2881.2348447197292
 21
5362.5271662508021
 31
0.0
  0
LINE
  5
8171
  8
4
 10
0.0
 20
0.0
 30
0.0
 11
0.0
 21
5900.0
 31
0.0
  0
LINE
  5
8172
  8
4
 10
0.0
 20
5900.0
 30
0.0
 11
4200.0
 21
5900.0
 31
0.0
  0
LINE
  5
8173
  8
4
 10
4200.0
 20
5900.0
 30
0.0
 11
4200.0
 21
0.0
 31
0.0
  0
LINE
  5
8174
  8
4
 10
4200.0
 20
0.0
 30
0.0
 11
0.0
 21
0.0
 31
0.0
  0
DIMENSION
  5
81AC
  8
3
  2
*D21
 10
580.91735854205388
 20
1581.8740985030149
 30
0.0
 11
530.91735854205365
 21
1433.302669931586
 31
0.0
 70
     0
 13
807.67900578183571
 23
1656.874098503014
 33
0.0
 14
807.67900578183571
 24
1581.8740985030149
 34
0.0
 50
90.0
1001
ACAD
1000
DSTYLE
1002
{
1070
   287
1070
     3
1070
    40
1040
20.0
1070
   143
1040
0.039
1070
   172
1070
     1
1070
   271
1070
     0
1070
   279
1070
     0
1070
     6
1000
DOT
1002
}
  0
DIMENSION
  5
81BD
  8
3
  2
*D22
 10
580.91735854205388
 20
1692.8740985030149
 30
0.0
 11
419.48878711348232
 21
1723.5883842173
 31
0.0
 70
     0
 13
807.67900578183571
 23
1656.874098503014
 33
0.0
 14
807.67900578183571
 24
1692.8740985030149
 34
0.0
 50
90.0
1001
ACAD
1000
DSTYLE
1002
{
1070
   287
1070
     4
1070
     3
1000
(<>)
1070
    40
1040
20.0
1070
   143
1040
0.039
1070
   172
1070
     1
1070
   271
1070
     0
1070
   279
1070
     1
1070
     6
1000
DOT
1002
}
  0
DIMENSION
  5
81CA
  8
3
  2
*D23
 10
338.36137939382019
 20
1581.8740985030149
 30
0.0
 11
288.36137939382002
 21
2002.374098503014
 31
0.0
 70
     0
 13
1007.679005781835
 23
2422.8740985030149
 33
0.0
 14
807.67900578183571
 24
1581.8740985030149
 34
0.0
 50
90.0
1001
ACAD
1000
DSTYLE
1002
{
1070
   287
1070
     3
1070
    40
1040
20.0
1070
   143
1040
0.039
1070
   172
1070
     1
1070
   271
1070
     0
1070
   279
1070
     0
1002
}
  0
ENDSEC
  0
EOF
