  0
SECTION
  2
HEADER
  9
$ACADVER
  1
AC1009
  9
$INSBASE
 10
0.0
 20
0.0
 30
0.0
  9
$EXTMIN
 10
0.0
 20
0.0
 30
0.0
  9
$EXTMAX
 10
4200.0
 20
5900.0
 30
0.0
  9
$LIMMIN
 10
0.0
 20
0.0
  9
$LIMMAX
 10
297.0
 20
210.0
  9
$ORTHOMODE
 70
     0
  9
$REGENMODE
 70
     1
  9
$FILLMODE
 70
     0
  9
$QTEXTMODE
 70
     0
  9
$MIRRTEXT
 70
     1
  9
$DRAGMODE
 70
     2
  9
$LTSCALE
 40
100.0
  9
$OSMODE
 70
    37
  9
$ATTMODE
 70
     1
  9
$TEXTSIZE
 40
180.0
  9
$TRACEWID
 40
0.05
  9
$TEXTSTYLE
  7
STANDARD
  9
$CLAYER
  8
3
  9
$CELTYPE
  6
BYLAYER
  9
$CECOLOR
 62
   256
  9
$DIMSCALE
 40
20.0
  9
$DIMASZ
 40
2.0
  9
$DIMEXO
 40
0.5
  9
$DIMDLI
 40
10.0
  9
$DIMRND
 40
0.0
  9
$DIMDLE
 40
0.0
  9
$DIMEXE
 40
1.0
  9
$DIMTP
 40
1.0
  9
$DIMTM
 40
1.0
  9
$DIMTXT
 40
3.0
  9
$DIMCEN
 40
0.0
  9
$DIMTSZ
 40
0.0
  9
$DIMTOL
 70
     0
  9
$DIMLIM
 70
     0
  9
$DIMTIH
 70
     0
  9
$DIMTOH
 70
     0
  9
$DIMSE1
 70
     0
  9
$DIMSE2
 70
     0
  9
$DIMTAD
 70
     1
  9
$DIMZIN
 70
     8
  9
$DIMBLK
  1

  9
$DIMASO
 70
     1
  9
$DIMSHO
 70
     1
  9
$DIMPOST
  1

  9
$DIMAPOST
  1

  9
$DIMALT
 70
     0
  9
$DIMALTD
 70
     2
  9
$DIMALTF
 40
0.039
  9
$DIMLFAC
 40
1.0
  9
$DIMTOFL
 70
     1
  9
$DIMTVP
 40
0.0
  9
$DIMTIX
 70
     0
  9
$DIMSOXD
 70
     0
  9
$DIMSAH
 70
     1
  9
$DIMBLK1
  1
OPEN
  9
$DIMBLK2
  1
OPEN
  9
$DIMSTYLE
  2
IGA
  9
$DIMCLRD
 70
     0
  9
$DIMCLRE
 70
     0
  9
$DIMCLRT
 70
     0
  9
$DIMTFAC
 40
10.0
  9
$DIMGAP
 40
1.0
  9
$LUNITS
 70
     2
  9
$LUPREC
 70
     3
  9
$SKETCHINC
 40
0.1
  9
$FILLETRAD
 40
50.0
  9
$AUNITS
 70
     0
  9
$AUPREC
 70
     0
  9
$MENU
  1
acad
  9
$ELEVATION
 40
0.0
  9
$PELEVATION
 40
0.0
  9
$THICKNESS
 40
0.0
  9
$LIMCHECK
 70
     0
  9
$BLIPMODE
 70
     0
  9
$CHAMFERA
 40
0.5
  9
$CHAMFERB
 40
0.5
  9
$SKPOLY
 70
     0
  9
$TDCREATE
 40
2451019.6205143509
  9
$TDUPDATE
 40
2454953.63896647
  9
$TDINDWG
 40
0.0062202778
  9
$TDUSRTIMER
 40
0.0062202778
  9
$USRTIMER
 70
     1
  9
$ANGBASE
 50
0.0
  9
$ANGDIR
 70
     0
  9
$PDMODE
 70
     0
  9
$PDSIZE
 40
0.0
  9
$PLINEWID
 40
0.0
  9
$COORDS
 70
     1
  9
$SPLFRAME
 70
     0
  9
$SPLINETYPE
 70
     6
  9
$SPLINESEGS
 70
     8
  9
$ATTDIA
 70
     0
  9
$ATTREQ
 70
     1
  9
$HANDLING
 70
 10241
  9
$HANDSEED
  5
836C
  9
$SURFTAB1
 70
     6
  9
$SURFTAB2
 70
     6
  9
$SURFTYPE
 70
     6
  9
$SURFU
 70
     6
  9
$SURFV
 70
     6
  9
$UCSNAME
  2

  9
$UCSORG
 10
0.0
 20
0.0
 30
0.0
  9
$UCSXDIR
 10
1.0
 20
0.0
 30
0.0
  9
$UCSYDIR
 10
0.0
 20
1.0
 30
0.0
  9
$PUCSNAME
  2

  9
$PUCSORG
 10
0.0
 20
0.0
 30
0.0
  9
$PUCSXDIR
 10
1.0
 20
0.0
 30
0.0
  9
$PUCSYDIR
 10
0.0
 20
1.0
 30
0.0
  9
$USERI1
 70
     0
  9
$USERI2
 70
     0
  9
$USERI3
 70
     0
  9
$USERI4
 70
     0
  9
$USERI5
 70
     0
  9
$USERR1
 40
0.0
  9
$USERR2
 40
0.0
  9
$USERR3
 40
0.0
  9
$USERR4
 40
0.0
  9
$USERR5
 40
0.0
  9
$WORLDVIEW
 70
     1
  9
$SHADEDGE
 70
     3
  9
$SHADEDIF
 70
    70
  9
$TILEMODE
 70
     1
  9
$MAXACTVP
 70
    16
  9
$PLIMCHECK
 70
     0
  9
$PEXTMIN
 10
1.0000000000000000E+020
 20
1.0000000000000000E+020
 30
1.0000000000000000E+020
  9
$PEXTMAX
 10
-1.0000000000000000E+020
 20
-1.0000000000000000E+020
 30
-1.0000000000000000E+020
  9
$PLIMMIN
 10
0.0
 20
0.0
  9
$PLIMMAX
 10
12.0
 20
9.0
  9
$UNITMODE
 70
     0
  9
$VISRETAIN
 70
     0
  9
$PLINEGEN
 70
     0
  9
$PSLTSCALE
 70
     1
  0
ENDSEC
  0
SECTION
  2
TABLES
  0
TABLE
  2
VPORT
 70
     2
  0
VPORT
  2
*ACTIVE
 70
     0
 10
0.0
 20
0.0
 11
1.0
 21
1.0
 12
3860.1910999403849
 22
690.73218510202889
 13
0.0
 23
0.0
 14
10.0
 24
10.0
 15
10.0
 25
10.0
 16
0.0
 26
0.0
 36
1.0
 17
0.0
 27
0.0
 37
0.0
 40
1652.4007174321121
 41
3.1666666666666661
 42
50.0
 43
0.0
 44
0.0
 50
0.0
 51
0.0
 71
     0
 72
   100
 73
     1
 74
     0
 75
     0
 76
     0
 77
     0
 78
     0
  0
ENDTAB
  0
TABLE
  2
LTYPE
 70
     2
  0
LTYPE
  2
CONTINUOUS
 70
     0
  3
Solid line
 72
    65
 73
     0
 40
0.0
  0
LTYPE
  2
CENTER
 70
     0
  3
____ _ ____ _ ____ _ ____ _ ____ _ ____ _ ____ 
 72
    65
 73
     4
 40
2.0
 49
1.25
 49
-0.25
 49
0.25
 49
-0.25
  0
ENDTAB
  0
TABLE
  2
LAYER
 70
     6
  0
LAYER
  2
0
 70
     0
 62
     7
  6
CONTINUOUS
  0
LAYER
  2
3
 70
     0
 62
     2
  6
CONTINUOUS
  0
LAYER
  2
2
 70
     0
 62
     3
  6
CENTER
  0
LAYER
  2
1
 70
     0
 62
     4
  6
CONTINUOUS
  0
LAYER
  2
4
 70
     0
 62
     7
  6
CONTINUOUS
  0
LAYER
  2
DEFPOINTS
 70
     0
 62
     7
  6
CONTINUOUS
  0
ENDTAB
  0
TABLE
  2
STYLE
 70
     1
  0
STYLE
  2
STANDARD
 70
     0
 40
0.0
 41
1.0
 50
0.0
 71
     0
 42
180.0
  3
simplex.shx
  4
extfont.shx
  0
ENDTAB
  0
TABLE
  2
VIEW
 70
     0
  0
ENDTAB
  0
TABLE
  2
UCS
 70
     0
  0
ENDTAB
  0
TABLE
  2
APPID
 70
     1
  0
APPID
  2
ACAD
 70
     0
  0
ENDTAB
  0
TABLE
  2
DIMSTYLE
 70
     1
  0
DIMSTYLE
  2
IGA
 70
     0
  3

  4

  5

  6
OPEN
  7
OPEN
 40
2.0
 41
2.0
 42
0.5
 43
10.0
 44
1.0
 45
0.0
 46
0.0
 47
1.0
 48
1.0
140
3.0
141
0.0
142
0.0
143
0.03937
144
1.0
145
0.0
146
10.0
147
1.0
 71
     0
 72
     0
 73
     0
 74
     0
 75
     0
 76
     0
 77
     1
 78
     8
170
     0
171
     2
172
     0
173
     1
174
     0
175
     0
176
     0
177
     0
178
     0
  0
ENDTAB
  0
ENDSEC
  0
SECTION
  2
BLOCKS
  0
BLOCK
  8
0
  2
$MODEL_SPACE
 70
     0
 10
0.0
 20
0.0
 30
0.0
  3
$MODEL_SPACE
  1

  0
ENDBLK
  5
1B
  8
0
  0
BLOCK
 67
     1
  8
0
  2
$PAPER_SPACE
 70
     0
 10
0.0
 20
0.0
 30
0.0
  3
$PAPER_SPACE
  1

  0
ENDBLK
  5
18
 67
     1
  8
0
  0
BLOCK
  8
0
  2
_OPEN
 70
     0
 10
0.0
 20
0.0
 30
0.0
  3
_OPEN
  1

  0
LINE
  5
7A06
  8
0
  6
BYBLOCK
 62
     0
 10
-1.0
 20
0.1666666666666666
 30
0.0
 11
0.0
 21
0.0
 31
0.0
  0
LINE
  5
7A07
  8
0
  6
BYBLOCK
 62
     0
 10
0.0
 20
0.0
 30
0.0
 11
-1.0
 21
-0.1666666666666666
 31
0.0
  0
LINE
  5
7A08
  8
0
  6
BYBLOCK
 62
     0
 10
0.0
 20
0.0
 30
0.0
 11
-1.0
 21
0.0
 31
0.0
  0
ENDBLK
  5
7A0A
  8
0
  0
BLOCK
  8
0
  2
*D1
 70
     1
 10
0.0
 20
0.0
 30
0.0
  3
*D1
  1

  0
LINE
  5
821D
  8
3
 62
     0
 10
795.75952027605263
 20
2565.780277887789
 30
0.0
 11
795.75952027605263
 21
2751.6233763480768
 31
0.0
  0
LINE
  5
821E
  8
3
 62
     0
 10
1815.7595202760519
 20
1814.785460575217
 30
0.0
 11
1815.7595202760519
 21
2751.6233763480768
 31
0.0
  0
LINE
  5
821F
  8
3
 62
     0
 10
835.75952027605263
 20
2731.6233763480768
 30
0.0
 11
1775.7595202760519
 21
2731.6233763480768
 31
0.0
  0
INSERT
  5
8220
  8
3
 62
     0
  2
_OPEN
 10
795.75952027605263
 20
2731.6233763480768
 30
0.0
 41
40.0
 42
40.0
 43
40.0
 50
180.0
  0
INSERT
  5
8221
  8
3
 62
     0
  2
_OPEN
 10
1815.7595202760519
 20
2731.6233763480768
 30
0.0
 41
40.0
 42
40.0
 43
40.0
  0
TEXT
  8
3
  40
60
  5
8356
  62
0
  72
0
  71
0
 10
1185.76
 20
2675.42
 30
0.000000
  1
1020
  0
POINT
  5
8223
  8
DEFPOINTS
 62
     0
 10
795.75952027605263
 20
2555.780277887789
 30
0.0
  0
POINT
  5
8224
  8
DEFPOINTS
 62
     0
 10
1815.7595202760519
 20
1804.785460575217
 30
0.0
  0
POINT
  5
8225
  8
DEFPOINTS
 62
     0
 10
1815.7595202760519
 20
2731.6233763480768
 30
0.0
  0
ENDBLK
  5
80C9
  8
0
  0
BLOCK
  8
0
  2
*D2
 70
     1
 10
0.0
 20
0.0
 30
0.0
  3
*D2
  1

  0
LINE
  5
8226
  8
3
 62
     0
 10
785.75952027605263
 20
2528.7854605752168
 30
0.0
 11
651.78097816487173
 21
2528.7854605752168
 31
0.0
  0
LINE
  5
8227
  8
3
 62
     0
 10
785.75952027605263
 20
2116.7854605752168
 30
0.0
 11
651.78097816487161
 21
2116.7854605752168
 31
0.0
  0
LINE
  5
8228
  8
3
 62
     0
 10
671.78097816487173
 20
2488.7854605752168
 30
0.0
 11
671.78097816487161
 21
2156.7854605752168
 31
0.0
  0
INSERT
  5
8229
  8
3
 62
     0
  2
_OPEN
 10
671.78097816487173
 20
2528.7854605752168
 30
0.0
 41
40.0
 42
40.0
 43
40.0
 50
90.0
  0
INSERT
  5
822A
  8
3
 62
     0
  2
_OPEN
 10
671.78097816487161
 20
2116.7854605752168
 30
0.0
 41
40.0
 42
40.0
 43
40.0
 50
270.0
  0
TEXT
  8
3
  40
60
  5
8357
  62
0
  72
0
  71
0
 10
501.781
 20
2216.59
 30
0.000000
  1
412
  0
POINT
  5
822C
  8
DEFPOINTS
 62
     0
 10
795.75952027605263
 20
2528.7854605752168
 30
0.0
  0
POINT
  5
822D
  8
DEFPOINTS
 62
     0
 10
795.75952027605263
 20
2116.7854605752168
 30
0.0
  0
POINT
  5
822E
  8
DEFPOINTS
 62
     0
 10
671.78097816487161
 20
2116.7854605752168
 30
0.0
  0
ENDBLK
  5
8083
  8
0
  0
BLOCK
  8
0
  2
*D3
 70
     1
 10
0.0
 20
0.0
 30
0.0
  3
*D3
  1

  0
LINE
  5
822F
  8
3
 62
     0
 10
785.75952027605263
 20
2528.7854605752168
 30
0.0
 11
558.80095338310241
 21
2528.7854605752168
 31
0.0
  0
LINE
  5
8230
  8
3
 62
     0
 10
773.38175063677545
 20
2104.7854605752168
 30
0.0
 11
558.8009533831023
 21
2104.7854605752168
 31
0.0
  0
LINE
  5
8231
  8
3
 62
     0
 10
578.80095338310241
 20
2488.7854605752168
 30
0.0
 11
578.80095338310218
 21
2144.7854605752168
 31
0.0
  0
INSERT
  5
8232
  8
3
 62
     0
  2
_OPEN
 10
578.80095338310241
 20
2528.7854605752168
 30
0.0
 41
40.0
 42
40.0
 43
40.0
 50
90.0
  0
INSERT
  5
8233
  8
3
 62
     0
  2
_OPEN
 10
578.80095338310218
 20
2104.7854605752168
 30
0.0
 41
40.0
 42
40.0
 43
40.0
 50
270.0
  0
TEXT
  8
3
  40
60
  5
8358
  62
0
  72
0
  71
0
 10
408.801
 20
2210.59
 30
0.000000
  1
424
  0
POINT
  5
8235
  8
DEFPOINTS
 62
     0
 10
795.75952027605263
 20
2528.7854605752168
 30
0.0
  0
POINT
  5
8236
  8
DEFPOINTS
 62
     0
 10
783.38175063677545
 20
2104.7854605752168
 30
0.0
  0
POINT
  5
8237
  8
DEFPOINTS
 62
     0
 10
578.80095338310218
 20
2104.7854605752168
 30
0.0
  0
ENDBLK
  5
808E
  8
0
  0
BLOCK
  8
0
  2
*D4
 70
     1
 10
0.0
 20
0.0
 30
0.0
  3
*D4
  1

  0
LINE
  5
8238
  8
3
 62
     0
 10
773.38175063677545
 20
2104.7854605752168
 30
0.0
 11
558.80095338310241
 21
2104.7854605752168
 31
0.0
  0
LINE
  5
8239
  8
3
 62
     0
 10
875.75952027605263
 20
1729.785460575217
 30
0.0
 11
558.8009533831023
 21
1729.785460575217
 31
0.0
  0
LINE
  5
823A
  8
3
 62
     0
 10
578.80095338310241
 20
2064.7854605752168
 30
0.0
 11
578.80095338310218
 21
1769.785460575217
 31
0.0
  0
INSERT
  5
823B
  8
3
 62
     0
  2
_OPEN
 10
578.80095338310241
 20
2104.7854605752168
 30
0.0
 41
40.0
 42
40.0
 43
40.0
 50
90.0
  0
INSERT
  5
823C
  8
3
 62
     0
  2
_OPEN
 10
578.80095338310218
 20
1729.785460575217
 30
0.0
 41
40.0
 42
40.0
 43
40.0
 50
270.0
  0
TEXT
  8
3
  40
60
  5
8359
  62
0
  72
0
  71
0
 10
408.801
 20
1811.09
 30
0.000000
  1
375
  0
POINT
  5
823E
  8
DEFPOINTS
 62
     0
 10
783.38175063677545
 20
2104.7854605752168
 30
0.0
  0
POINT
  5
823F
  8
DEFPOINTS
 62
     0
 10
885.75952027605263
 20
1729.785460575217
 30
0.0
  0
POINT
  5
8240
  8
DEFPOINTS
 62
     0
 10
578.80095338310218
 20
1729.785460575217
 30
0.0
  0
ENDBLK
  5
80A6
  8
0
  0
BLOCK
  8
0
  2
*D5
 70
     1
 10
0.0
 20
0.0
 30
0.0
  3
*D5
  1

  0
LINE
  5
8241
  8
3
 62
     0
 10
1815.7595202760519
 20
1608.785460575217
 30
0.0
 11
1815.7595202760519
 21
1467.110127504965
 31
0.0
  0
LINE
  5
8242
  8
3
 62
     0
 10
1100.7595202760519
 20
1574.3456911390999
 30
0.0
 11
1100.7595202760519
 21
1467.110127504965
 31
0.0
  0
LINE
  5
8243
  8
3
 62
     0
 10
1775.7595202760519
 20
1487.110127504965
 30
0.0
 11
1140.7595202760519
 21
1487.110127504965
 31
0.0
  0
INSERT
  5
8244
  8
3
 62
     0
  2
_OPEN
 10
1815.7595202760519
 20
1487.110127504965
 30
0.0
 41
40.0
 42
40.0
 43
40.0
  0
INSERT
  5
8245
  8
3
 62
     0
  2
_OPEN
 10
1100.7595202760519
 20
1487.110127504965
 30
0.0
 41
40.0
 42
40.0
 43
40.0
 50
180.0
  0
TEXT
  8
3
  40
60
  5
835A
  62
0
  72
0
  71
0
 10
1338.26
 20
1430.91
 30
0.000000
  1
715
  0
POINT
  5
8247
  8
DEFPOINTS
 62
     0
 10
1815.7595202760519
 20
1618.785460575217
 30
0.0
  0
POINT
  5
8248
  8
DEFPOINTS
 62
     0
 10
1100.7595202760519
 20
1584.3456911390999
 30
0.0
  0
POINT
  5
8249
  8
DEFPOINTS
 62
     0
 10
1100.7595202760519
 20
1487.110127504965
 30
0.0
  0
ENDBLK
  5
80BE
  8
0
  0
BLOCK
  8
0
  2
*D6
 70
     1
 10
0.0
 20
0.0
 30
0.0
  3
*D6
  1

  0
LINE
  5
824A
  8
3
 62
     0
 10
1100.7595202760519
 20
1574.3456911390999
 30
0.0
 11
1100.7595202760519
 21
1467.110127504965
 31
0.0
  0
LINE
  5
824B
  8
3
 62
     0
 10
885.75952027605263
 20
1608.785460575217
 30
0.0
 11
885.75952027605263
 21
1467.110127504965
 31
0.0
  0
LINE
  5
824C
  8
3
 62
     0
 10
1060.7595202760519
 20
1487.110127504965
 30
0.0
 11
925.75952027605263
 21
1487.110127504965
 31
0.0
  0
INSERT
  5
824D
  8
3
 62
     0
  2
_OPEN
 10
1100.7595202760519
 20
1487.110127504965
 30
0.0
 41
40.0
 42
40.0
 43
40.0
  0
INSERT
  5
824E
  8
3
 62
     0
  2
_OPEN
 10
885.75952027605263
 20
1487.110127504965
 30
0.0
 41
40.0
 42
40.0
 43
40.0
 50
180.0
  0
TEXT
  8
3
  40
60
  5
835B
  62
0
  72
0
  71
0
 10
873.260
 20
1430.91
 30
0.000000
  1
215
  0
POINT
  5
8250
  8
DEFPOINTS
 62
     0
 10
1100.7595202760519
 20
1584.3456911390999
 30
0.0
  0
POINT
  5
8251
  8
DEFPOINTS
 62
     0
 10
885.75952027605263
 20
1618.785460575217
 30
0.0
  0
POINT
  5
8252
  8
DEFPOINTS
 62
     0
 10
885.75952027605263
 20
1487.110127504965
 30
0.0
  0
ENDBLK
  5
80D6
  8
0
  0
BLOCK
  8
0
  2
*D7
 70
     1
 10
0.0
 20
0.0
 30
0.0
  3
*D7
  1

  0
LINE
  5
8253
  8
3
 62
     0
 10
1100.7595202760519
 20
2577.3253133445291
 30
0.0
 11
1100.7595202760519
 21
2659.438777547643
 31
0.0
  0
LINE
  5
8254
  8
3
 62
     0
 10
1442.7672372380671
 20
2144.7854605752168
 30
0.0
 11
1442.7672372380671
 21
2659.438777547643
 31
0.0
  0
LINE
  5
8255
  8
3
 62
     0
 10
1140.7595202760519
 20
2639.4387775476439
 30
0.0
 11
1402.7672372380671
 21
2639.4387775476439
 31
0.0
  0
INSERT
  5
8256
  8
3
 62
     0
  2
_OPEN
 10
1100.7595202760519
 20
2639.4387775476439
 30
0.0
 41
40.0
 42
40.0
 43
40.0
 50
180.0
  0
INSERT
  5
8257
  8
3
 62
     0
  2
_OPEN
 10
1442.7672372380671
 20
2639.4387775476439
 30
0.0
 41
40.0
 42
40.0
 43
40.0
  0
TEXT
  8
3
  40
60
  5
835C
  62
0
  72
0
  71
0
 10
1151.76
 20
2583.24
 30
0.000000
  1
342
  0
POINT
  5
8259
  8
DEFPOINTS
 62
     0
 10
1100.7595202760519
 20
2567.3253133445291
 30
0.0
  0
POINT
  5
825A
  8
DEFPOINTS
 62
     0
 10
1442.7672372380671
 20
2134.7854605752168
 30
0.0
  0
POINT
  5
825B
  8
DEFPOINTS
 62
     0
 10
1442.7672372380671
 20
2639.4387775476439
 30
0.0
  0
ENDBLK
  5
80E1
  8
0
  0
BLOCK
  8
0
  2
*D8
 70
     1
 10
0.0
 20
0.0
 30
0.0
  3
*D8
  1

  0
LINE
  5
8272
  8
3
 62
     0
 10
795.75952027605263
 20
2565.780277887789
 30
0.0
 11
795.75952027605263
 21
2659.438777547643
 31
0.0
  0
LINE
  5
8273
  8
3
 62
     0
 10
1100.7595202760519
 20
2577.3253133445291
 30
0.0
 11
1100.7595202760519
 21
2659.438777547643
 31
0.0
  0
LINE
  5
8274
  8
3
 62
     0
 10
835.75952027605263
 20
2639.4387775476439
 30
0.0
 11
1060.7595202760519
 21
2639.4387775476439
 31
0.0
  0
INSERT
  5
8275
  8
3
 62
     0
  2
_OPEN
 10
795.75952027605263
 20
2639.4387775476439
 30
0.0
 41
40.0
 42
40.0
 43
40.0
 50
180.0
  0
INSERT
  5
8276
  8
3
 62
     0
  2
_OPEN
 10
1100.7595202760519
 20
2639.4387775476439
 30
0.0
 41
40.0
 42
40.0
 43
40.0
  0
TEXT
  8
3
  40
60
  5
835D
  62
0
  72
0
  71
0
 10
828.260
 20
2583.24
 30
0.000000
  1
305
  0
POINT
  5
8278
  8
DEFPOINTS
 62
     0
 10
795.75952027605263
 20
2555.780277887789
 30
0.0
  0
POINT
  5
8279
  8
DEFPOINTS
 62
     0
 10
1100.7595202760519
 20
2567.3253133445291
 30
0.0
  0
POINT
  5
827A
  8
DEFPOINTS
 62
     0
 10
1100.7595202760519
 20
2639.4387775476439
 30
0.0
  0
ENDBLK
  5
80EC
  8
0
  0
BLOCK
  8
0
  2
*D9
 70
     1
 10
0.0
 20
0.0
 30
0.0
  3
*D9
  1

  0
LINE
  5
8285
  8
3
 62
     0
 10
875.75952027605263
 20
3275.9705262433481
 30
0.0
 11
579.61704513402515
 21
3275.9705262433481
 31
0.0
  0
LINE
  5
8286
  8
3
 62
     0
 10
875.75952027605263
 20
4135.9705262433472
 30
0.0
 11
579.61704513402537
 21
4135.9705262433472
 31
0.0
  0
LINE
  5
8287
  8
3
 62
     0
 10
599.61704513402515
 20
3315.9705262433481
 30
0.0
 11
599.61704513402537
 21
4095.9705262433472
 31
0.0
  0
INSERT
  5
8288
  8
3
 62
     0
  2
_OPEN
 10
599.61704513402515
 20
3275.9705262433481
 30
0.0
 41
40.0
 42
40.0
 43
40.0
 50
270.0
  0
INSERT
  5
8289
  8
3
 62
     0
  2
_OPEN
 10
599.61704513402537
 20
4135.9705262433472
 30
0.0
 41
40.0
 42
40.0
 43
40.0
 50
90.0
  0
TEXT
  8
3
  40
60
  5
835E
  62
0
  72
0
  71
0
 10
429.617
 20
3599.77
 30
0.000000
  1
860
  0
POINT
  5
828B
  8
DEFPOINTS
 62
     0
 10
885.75952027605263
 20
3275.9705262433481
 30
0.0
  0
POINT
  5
828C
  8
DEFPOINTS
 62
     0
 10
885.75952027605263
 20
4135.9705262433472
 30
0.0
  0
POINT
  5
828D
  8
DEFPOINTS
 62
     0
 10
599.61704513402537
 20
4135.9705262433472
 30
0.0
  0
ENDBLK
  5
80F7
  8
0
  0
BLOCK
  8
0
  2
*D10
 70
     1
 10
0.0
 20
0.0
 30
0.0
  3
*D10
  1

  0
LINE
  5
828E
  8
3
 62
     0
 10
1315.7595202760519
 20
4145.9705262433481
 30
0.0
 11
1315.7595202760519
 21
4270.7209676520333
 31
0.0
  0
LINE
  5
828F
  8
3
 62
     0
 10
1815.7595202760519
 20
3705.9705262433472
 30
0.0
 11
1815.7595202760519
 21
4270.7209676520333
 31
0.0
  0
LINE
  5
8290
  8
3
 62
     0
 10
1355.7595202760519
 20
4250.7209676520333
 30
0.0
 11
1775.7595202760519
 21
4250.7209676520333
 31
0.0
  0
INSERT
  5
8291
  8
3
 62
     0
  2
_OPEN
 10
1315.7595202760519
 20
4250.7209676520333
 30
0.0
 41
40.0
 42
40.0
 43
40.0
 50
180.0
  0
INSERT
  5
8292
  8
3
 62
     0
  2
_OPEN
 10
1815.7595202760519
 20
4250.7209676520333
 30
0.0
 41
40.0
 42
40.0
 43
40.0
  0
TEXT
  8
3
  40
60
  5
835F
  62
0
  72
0
  71
0
 10
1445.76
 20
4194.52
 30
0.000000
  1
500
  0
POINT
  5
8294
  8
DEFPOINTS
 62
     0
 10
1315.7595202760519
 20
4135.9705262433472
 30
0.0
  0
POINT
  5
8295
  8
DEFPOINTS
 62
     0
 10
1815.7595202760519
 20
3695.9705262433472
 30
0.0
  0
POINT
  5
8296
  8
DEFPOINTS
 62
     0
 10
1815.7595202760519
 20
4250.7209676520333
 30
0.0
  0
ENDBLK
  5
810D
  8
0
  0
BLOCK
  8
0
  2
*D11
 70
     1
 10
0.0
 20
0.0
 30
0.0
  3
*D11
  1

  0
LINE
  5
8297
  8
3
 62
     0
 10
1815.7595202760519
 20
3265.9705262433472
 30
0.0
 11
1815.7595202760519
 21
3037.795372019119
 31
0.0
  0
LINE
  5
8298
  8
3
 62
     0
 10
885.75952027605263
 20
3265.9705262433481
 30
0.0
 11
885.75952027605263
 21
3037.795372019119
 31
0.0
  0
LINE
  5
8299
  8
3
 62
     0
 10
1775.7595202760519
 20
3057.795372019119
 30
0.0
 11
925.75952027605263
 21
3057.795372019119
 31
0.0
  0
INSERT
  5
829A
  8
3
 62
     0
  2
_OPEN
 10
1815.7595202760519
 20
3057.795372019119
 30
0.0
 41
40.0
 42
40.0
 43
40.0
  0
INSERT
  5
829B
  8
3
 62
     0
  2
_OPEN
 10
885.75952027605263
 20
3057.795372019119
 30
0.0
 41
40.0
 42
40.0
 43
40.0
 50
180.0
  0
TEXT
  8
3
  40
60
  5
8360
  62
0
  72
0
  71
0
 10
1230.76
 20
3001.60
 30
0.000000
  1
930
  0
POINT
  5
829D
  8
DEFPOINTS
 62
     0
 10
1815.7595202760519
 20
3275.9705262433481
 30
0.0
  0
POINT
  5
829E
  8
DEFPOINTS
 62
     0
 10
885.75952027605263
 20
3275.9705262433481
 30
0.0
  0
POINT
  5
829F
  8
DEFPOINTS
 62
     0
 10
885.75952027605263
 20
3057.795372019119
 30
0.0
  0
ENDBLK
  5
8102
  8
0
  0
BLOCK
  8
0
  2
*D12
 70
     1
 10
0.0
 20
0.0
 30
0.0
  3
*D12
  1

  0
LINE
  5
82A0
  8
3
 62
     0
 10
1825.7595202760519
 20
3275.9705262433481
 30
0.0
 11
1911.1034584364199
 21
3275.9705262433481
 31
0.0
  0
LINE
  5
82A1
  8
3
 62
     0
 10
1825.7595202760519
 20
3695.9705262433472
 30
0.0
 11
1911.1034584364199
 21
3695.9705262433472
 31
0.0
  0
LINE
  5
82A2
  8
3
 62
     0
 10
1891.103458436419
 20
3315.9705262433472
 30
0.0
 11
1891.1034584364199
 21
3655.9705262433472
 31
0.0
  0
INSERT
  5
82A3
  8
3
 62
     0
  2
_OPEN
 10
1891.103458436419
 20
3275.9705262433481
 30
0.0
 41
40.0
 42
40.0
 43
40.0
 50
270.0
  0
INSERT
  5
82A4
  8
3
 62
     0
  2
_OPEN
 10
1891.1034584364199
 20
3695.9705262433472
 30
0.0
 41
40.0
 42
40.0
 43
40.0
 50
90.0
  0
TEXT
  8
3
  40
60
  5
8361
  62
0
  72
0
  71
0
 10
1721.10
 20
3379.77
 30
0.000000
  1
420
  0
POINT
  5
82A6
  8
DEFPOINTS
 62
     0
 10
1815.7595202760519
 20
3275.9705262433481
 30
0.0
  0
POINT
  5
82A7
  8
DEFPOINTS
 62
     0
 10
1815.7595202760519
 20
3695.9705262433472
 30
0.0
  0
POINT
  5
82A8
  8
DEFPOINTS
 62
     0
 10
1891.1034584364199
 20
3695.9705262433472
 30
0.0
  0
ENDBLK
  5
8123
  8
0
  0
BLOCK
  8
0
  2
*D13
 70
     1
 10
0.0
 20
0.0
 30
0.0
  3
*D13
  1

  0
LINE
  5
82A9
  8
3
 62
     0
 10
885.75952027605263
 20
4145.9705262433481
 30
0.0
 11
885.75952027605263
 21
4270.7209676520333
 31
0.0
  0
LINE
  5
82AA
  8
3
 62
     0
 10
1315.7595202760519
 20
4145.9705262433481
 30
0.0
 11
1315.7595202760519
 21
4270.7209676520333
 31
0.0
  0
LINE
  5
82AB
  8
3
 62
     0
 10
925.75952027605263
 20
4250.7209676520333
 30
0.0
 11
1275.7595202760519
 21
4250.7209676520333
 31
0.0
  0
INSERT
  5
82AC
  8
3
 62
     0
  2
_OPEN
 10
885.75952027605263
 20
4250.7209676520333
 30
0.0
 41
40.0
 42
40.0
 43
40.0
 50
180.0
  0
INSERT
  5
82AD
  8
3
 62
     0
  2
_OPEN
 10
1315.7595202760519
 20
4250.7209676520333
 30
0.0
 41
40.0
 42
40.0
 43
40.0
  0
TEXT
  8
3
  40
60
  5
8362
  62
0
  72
0
  71
0
 10
980.760
 20
4194.52
 30
0.000000
  1
430
  0
POINT
  5
82AF
  8
DEFPOINTS
 62
     0
 10
885.75952027605263
 20
4135.9705262433472
 30
0.0
  0
POINT
  5
82B0
  8
DEFPOINTS
 62
     0
 10
1315.7595202760519
 20
4135.9705262433472
 30
0.0
  0
POINT
  5
82B1
  8
DEFPOINTS
 62
     0
 10
1315.7595202760519
 20
4250.7209676520333
 30
0.0
  0
ENDBLK
  5
8118
  8
0
  0
BLOCK
  8
0
  2
*D14
 70
     1
 10
0.0
 20
0.0
 30
0.0
  3
*D14
  1

  0
LINE
  5
82B2
  8
3
 62
     0
 10
2959.6229986188459
 20
2742.152686526395
 30
0.0
 11
2959.6229986188459
 21
2797.8536368385171
 31
0.0
  0
LINE
  5
82B3
  8
3
 62
     0
 10
3112.6229986188441
 20
2352.485460575218
 30
0.0
 11
3112.6229986188441
 21
2797.8536368385171
 31
0.0
  0
LINE
  5
82B4
  8
3
 62
     0
 10
2999.6229986188459
 20
2777.8536368385171
 30
0.0
 11
3072.6229986188441
 21
2777.8536368385171
 31
0.0
  0
LINE
  5
82B5
  8
3
 62
     0
 10
3112.6229986188441
 20
2777.8536368385171
 30
0.0
 11
3335.4801414759868
 21
2777.8536368385171
 31
0.0
  0
INSERT
  5
82B6
  8
3
 62
     0
  2
_OPEN
 10
2959.6229986188459
 20
2777.8536368385171
 30
0.0
 41
40.0
 42
40.0
 43
40.0
 50
180.0
  0
INSERT
  5
82B7
  8
3
 62
     0
  2
_OPEN
 10
3112.6229986188441
 20
2777.8536368385171
 30
0.0
 41
40.0
 42
40.0
 43
40.0
  0
TEXT
  8
3
  40
60
  5
8363
  62
0
  72
0
  71
0
 10
3124.05
 20
2721.65
 30
0.000000
  1
153
  0
POINT
  5
82B9
  8
DEFPOINTS
 62
     0
 10
2959.6229986188459
 20
2732.152686526395
 30
0.0
  0
POINT
  5
82BA
  8
DEFPOINTS
 62
     0
 10
3112.6229986188441
 20
2342.485460575218
 30
0.0
  0
POINT
  5
82BB
  8
DEFPOINTS
 62
     0
 10
3112.6229986188441
 20
2777.8536368385171
 30
0.0
  0
ENDBLK
  5
8196
  8
0
  0
BLOCK
  8
0
  2
*D15
 70
     1
 10
0.0
 20
0.0
 30
0.0
  3
*D15
  1

  0
LINE
  5
82BC
  8
3
 62
     0
 10
2199.6229986188441
 20
2264.7854605752168
 30
0.0
 11
2199.6229986188441
 21
2797.8536368385171
 31
0.0
  0
LINE
  5
82BD
  8
3
 62
     0
 10
2959.6229986188459
 20
2742.152686526395
 30
0.0
 11
2959.6229986188459
 21
2797.8536368385171
 31
0.0
  0
LINE
  5
82BE
  8
3
 62
     0
 10
2239.6229986188441
 20
2777.8536368385171
 30
0.0
 11
2919.6229986188459
 21
2777.8536368385171
 31
0.0
  0
INSERT
  5
82BF
  8
3
 62
     0
  2
_OPEN
 10
2199.6229986188441
 20
2777.8536368385171
 30
0.0
 41
40.0
 42
40.0
 43
40.0
 50
180.0
  0
INSERT
  5
82C0
  8
3
 62
     0
  2
_OPEN
 10
2959.6229986188459
 20
2777.8536368385171
 30
0.0
 41
40.0
 42
40.0
 43
40.0
  0
TEXT
  8
3
  40
60
  5
8364
  62
0
  72
0
  71
0
 10
2459.62
 20
2721.65
 30
0.000000
  1
760
  0
POINT
  5
82C2
  8
DEFPOINTS
 62
     0
 10
2199.6229986188441
 20
2254.7854605752168
 30
0.0
  0
POINT
  5
82C3
  8
DEFPOINTS
 62
     0
 10
2959.6229986188459
 20
2732.152686526395
 30
0.0
  0
POINT
  5
82C4
  8
DEFPOINTS
 62
     0
 10
2959.6229986188459
 20
2777.8536368385171
 30
0.0
  0
ENDBLK
  5
818A
  8
0
  0
BLOCK
  8
0
  2
*D16
 70
     1
 10
0.0
 20
0.0
 30
0.0
  3
*D16
  1

  0
LINE
  5
82C5
  8
3
 62
     0
 10
2294.6229986188441
 20
1608.785460575217
 30
0.0
 11
2294.6229986188441
 21
1461.3526470698371
 31
0.0
  0
LINE
  5
82C6
  8
3
 62
     0
 10
2959.6229986188459
 20
1574.3456911390999
 30
0.0
 11
2959.6229986188459
 21
1461.3526470698371
 31
0.0
  0
LINE
  5
82C7
  8
3
 62
     0
 10
2334.6229986188441
 20
1481.3526470698371
 30
0.0
 11
2919.6229986188459
 21
1481.3526470698371
 31
0.0
  0
INSERT
  5
82C8
  8
3
 62
     0
  2
_OPEN
 10
2294.6229986188441
 20
1481.3526470698371
 30
0.0
 41
40.0
 42
40.0
 43
40.0
 50
180.0
  0
INSERT
  5
82C9
  8
3
 62
     0
  2
_OPEN
 10
2959.6229986188459
 20
1481.3526470698371
 30
0.0
 41
40.0
 42
40.0
 43
40.0
  0
TEXT
  8
3
  40
60
  5
8365
  62
0
  72
0
  71
0
 10
2507.12
 20
1425.15
 30
0.000000
  1
665
  0
POINT
  5
82CB
  8
DEFPOINTS
 62
     0
 10
2294.6229986188441
 20
1618.785460575217
 30
0.0
  0
POINT
  5
82CC
  8
DEFPOINTS
 62
     0
 10
2959.6229986188459
 20
1584.3456911390999
 30
0.0
  0
POINT
  5
82CD
  8
DEFPOINTS
 62
     0
 10
2959.6229986188459
 20
1481.3526470698371
 30
0.0
  0
ENDBLK
  5
812E
  8
0
  0
BLOCK
  8
0
  2
*D17
 70
     1
 10
0.0
 20
0.0
 30
0.0
  3
*D17
  1

  0
LINE
  5
82CE
  8
3
 62
     0
 10
2959.6229986188459
 20
1574.3456911390999
 30
0.0
 11
2959.6229986188459
 21
1461.3526470698371
 31
0.0
  0
LINE
  5
82CF
  8
3
 62
     0
 10
3154.6229986188459
 20
1608.785460575217
 30
0.0
 11
3154.6229986188459
 21
1461.3526470698371
 31
0.0
  0
LINE
  5
82D0
  8
3
 62
     0
 10
2999.6229986188459
 20
1481.3526470698371
 30
0.0
 11
3114.6229986188459
 21
1481.3526470698371
 31
0.0
  0
INSERT
  5
82D1
  8
3
 62
     0
  2
_OPEN
 10
2959.6229986188459
 20
1481.3526470698371
 30
0.0
 41
40.0
 42
40.0
 43
40.0
 50
180.0
  0
INSERT
  5
82D2
  8
3
 62
     0
  2
_OPEN
 10
3154.6229986188459
 20
1481.3526470698371
 30
0.0
 41
40.0
 42
40.0
 43
40.0
  0
TEXT
  8
3
  40
60
  5
8366
  62
0
  72
0
  71
0
 10
2937.12
 20
1425.15
 30
0.000000
  1
195
  0
POINT
  5
82D4
  8
DEFPOINTS
 62
     0
 10
2959.6229986188459
 20
1584.3456911390999
 30
0.0
  0
POINT
  5
82D5
  8
DEFPOINTS
 62
     0
 10
3154.6229986188459
 20
1618.785460575217
 30
0.0
  0
POINT
  5
82D6
  8
DEFPOINTS
 62
     0
 10
3154.6229986188459
 20
1481.3526470698371
 30
0.0
  0
ENDBLK
  5
8151
  8
0
  0
BLOCK
  8
0
  2
*D18
 70
     1
 10
0.0
 20
0.0
 30
0.0
  3
*D18
  1

  0
LINE
  5
82F0
  8
3
 62
     0
 10
3147.6229986188441
 20
2304.7854605752168
 30
0.0
 11
3274.8404767488059
 21
2304.7854605752168
 31
0.0
  0
LINE
  5
82F1
  8
3
 62
     0
 10
3147.6229986188441
 20
1904.785460575217
 30
0.0
 11
3274.8404767488059
 21
1904.785460575217
 31
0.0
  0
LINE
  5
82F2
  8
3
 62
     0
 10
3254.8404767488059
 20
2264.7854605752168
 30
0.0
 11
3254.8404767488059
 21
1944.785460575217
 31
0.0
  0
INSERT
  5
82F3
  8
3
 62
     0
  2
_OPEN
 10
3254.8404767488059
 20
2304.7854605752168
 30
0.0
 41
40.0
 42
40.0
 43
40.0
 50
90.0
  0
INSERT
  5
82F4
  8
3
 62
     0
  2
_OPEN
 10
3254.8404767488059
 20
1904.785460575217
 30
0.0
 41
40.0
 42
40.0
 43
40.0
 50
270.0
  0
TEXT
  8
3
  40
60
  5
8367
  62
0
  72
0
  71
0
 10
3084.84
 20
1998.59
 30
0.000000
  1
400
  0
POINT
  5
82F6
  8
DEFPOINTS
 62
     0
 10
3137.6229986188441
 20
2304.7854605752168
 30
0.0
  0
POINT
  5
82F7
  8
DEFPOINTS
 62
     0
 10
3137.6229986188441
 20
1904.785460575217
 30
0.0
  0
POINT
  5
82F8
  8
DEFPOINTS
 62
     0
 10
3254.8404767488059
 20
1904.785460575217
 30
0.0
  0
ENDBLK
  5
8144
  8
0
  0
BLOCK
  8
0
  2
*D19
 70
     1
 10
0.0
 20
0.0
 30
0.0
  3
*D19
  1

  0
LINE
  5
831E
  8
3
 62
     0
 10
2809.6229986188441
 20
2540.7854605752168
 30
0.0
 11
2809.6229986188441
 21
2658.3303606829918
 31
0.0
  0
LINE
  5
831F
  8
3
 62
     0
 10
3109.6229986188459
 20
2540.7854605752168
 30
0.0
 11
3109.6229986188459
 21
2658.3303606829918
 31
0.0
  0
LINE
  5
8320
  8
3
 62
     0
 10
2849.6229986188441
 20
2638.3303606829918
 30
0.0
 11
3069.6229986188459
 21
2638.3303606829918
 31
0.0
  0
INSERT
  5
8321
  8
3
 62
     0
  2
_OPEN
 10
2809.6229986188441
 20
2638.3303606829918
 30
0.0
 41
40.0
 42
40.0
 43
40.0
 50
180.0
  0
INSERT
  5
8322
  8
3
 62
     0
  2
_OPEN
 10
3109.6229986188459
 20
2638.3303606829918
 30
0.0
 41
40.0
 42
40.0
 43
40.0
  0
TEXT
  8
3
  40
60
  5
8368
  62
0
  72
0
  71
0
 10
2839.62
 20
2582.13
 30
0.000000
  1
300
  0
POINT
  5
8324
  8
DEFPOINTS
 62
     0
 10
2809.6229986188441
 20
2530.7854605752168
 30
0.0
  0
POINT
  5
8325
  8
DEFPOINTS
 62
     0
 10
3109.6229986188459
 20
2530.7854605752168
 30
0.0
  0
POINT
  5
8326
  8
DEFPOINTS
 62
     0
 10
3109.6229986188459
 20
2638.3303606829918
 30
0.0
  0
ENDBLK
  5
815C
  8
0
  0
BLOCK
  8
0
  2
_DOT
 70
     0
 10
0.0
 20
0.0
 30
0.0
  3
_DOT
  1

  0
POLYLINE
  5
81C2
  8
0
  6
BYBLOCK
 62
     0
 66
     1
 10
0.0
 20
0.0
 30
0.0
 70
     1
 40
0.5
 41
0.5
  0
VERTEX
  5
8331
  8
0
  6
BYBLOCK
 62
     0
 10
-0.25
 20
0.0
 30
0.0
 42
1.0
  0
VERTEX
  5
8332
  8
0
  6
BYBLOCK
 62
     0
 10
0.25
 20
0.0
 30
0.0
 42
1.0
  0
SEQEND
  5
8333
  8
0
  6
BYBLOCK
 62
     0
  0
LINE
  5
81C6
  8
0
  6
BYBLOCK
 62
     0
 10
-0.5
 20
0.0
 30
0.0
 11
-1.0
 21
0.0
 31
0.0
  0
ENDBLK
  5
81C7
  8
0
  0
BLOCK
  8
0
  2
*D21
 70
     1
 10
0.0
 20
0.0
 30
0.0
  3
*D21
  1

  0
LINE
  5
8334
  8
3
 62
     0
 10
875.75952027605263
 20
1693.785460575217
 30
0.0
 11
558.85974732921375
 21
1693.785460575217
 31
0.0
  0
LINE
  5
8335
  8
3
 62
     0
 10
875.75952027605263
 20
1618.785460575217
 30
0.0
 11
558.85974732921375
 21
1618.785460575217
 31
0.0
  0
LINE
  5
8336
  8
3
 62
     0
 10
578.85974732921386
 20
1733.785460575217
 30
0.0
 11
578.85974732921386
 21
1773.785460575217
 31
0.0
  0
LINE
  5
8337
  8
3
 62
     0
 10
578.85974732921386
 20
1578.785460575217
 30
0.0
 11
578.85974732921386
 21
1401.6426034323599
 31
0.0
  0
LINE
  5
8338
  8
3
 62
     0
 10
578.85974732921386
 20
1693.785460575217
 30
0.0
 11
578.85974732921386
 21
1618.785460575217
 31
0.0
  0
INSERT
  5
8339
  8
3
 62
     0
  2
_DOT
 10
578.85974732921386
 20
1693.785460575217
 30
0.0
 41
40.0
 42
40.0
 43
40.0
 50
270.0
  0
INSERT
  5
833A
  8
3
 62
     0
  2
_OPEN
 10
578.85974732921386
 20
1618.785460575217
 30
0.0
 41
40.0
 42
40.0
 43
40.0
 50
90.0
  0
TEXT
  8
3
  40
60
  5
8369
  62
0
  72
0
  71
0
 10
408.860
 20
1364.01
 30
0.000000
  1
75
  0
POINT
  5
833C
  8
DEFPOINTS
 62
     0
 10
885.75952027605263
 20
1693.785460575217
 30
0.0
  0
POINT
  5
833D
  8
DEFPOINTS
 62
     0
 10
885.75952027605263
 20
1618.785460575217
 30
0.0
  0
POINT
  5
833E
  8
DEFPOINTS
 62
     0
 10
578.85974732921386
 20
1618.785460575217
 30
0.0
  0
ENDBLK
  5
81E4
  8
0
  0
BLOCK
  8
0
  2
*D22
 70
     1
 10
0.0
 20
0.0
 30
0.0
  3
*D22
  1

  0
LINE
  5
833F
  8
3
 62
     0
 10
875.75952027605263
 20
1693.785460575217
 30
0.0
 11
558.85974732921375
 21
1693.785460575217
 31
0.0
  0
LINE
  5
8340
  8
3
 62
     0
 10
875.75952027605263
 20
1729.785460575217
 30
0.0
 11
558.85974732921375
 21
1729.785460575217
 31
0.0
  0
LINE
  5
8341
  8
3
 62
     0
 10
578.85974732921386
 20
1653.785460575217
 30
0.0
 11
578.85974732921386
 21
1613.785460575217
 31
0.0
  0
LINE
  5
8342
  8
3
 62
     0
 10
578.85974732921386
 20
1769.785460575217
 30
0.0
 11
578.85974732921386
 21
1809.785460575217
 31
0.0
  0
LINE
  5
8343
  8
3
 62
     0
 10
578.85974732921386
 20
1711.785460575217
 30
0.0
 11
483.14546161492808
 21
1740.499746289503
 31
0.0
  0
LINE
  5
8344
  8
3
 62
     0
 10
483.14546161492808
 20
1740.499746289503
 30
0.0
 11
483.14546161492819
 21
1954.7854605752179
 31
0.0
  0
TEXT
  8
3
  40
60
  5
836A
  62
0
  72
0
  71
0
 10
297.431
 20
1741.44
 30
0.000000
  1
(36)
  0
LINE
  5
8346
  8
3
 62
     0
 10
578.85974732921386
 20
1693.785460575217
 30
0.0
 11
578.85974732921386
 21
1729.785460575217
 31
0.0
  0
LINE
  5
8347
  8
3
 62
     0
 10
578.85974732921386
 20
1693.785460575217
 30
0.0
 11
578.85974732921386
 21
1729.785460575217
 31
0.0
  0
INSERT
  5
8348
  8
3
 62
     0
  2
_DOT
 10
578.85974732921386
 20
1693.785460575217
 30
0.0
 41
40.0
 42
40.0
 43
40.0
 50
90.0
  0
INSERT
  5
8349
  8
3
 62
     0
  2
_OPEN
 10
578.85974732921386
 20
1729.785460575217
 30
0.0
 41
40.0
 42
40.0
 43
40.0
 50
270.0
  0
POINT
  5
834A
  8
DEFPOINTS
 62
     0
 10
885.75952027605263
 20
1693.785460575217
 30
0.0
  0
POINT
  5
834B
  8
DEFPOINTS
 62
     0
 10
885.75952027605263
 20
1729.785460575217
 30
0.0
  0
POINT
  5
834C
  8
DEFPOINTS
 62
     0
 10
578.85974732921386
 20
1729.785460575217
 30
0.0
  0
ENDBLK
  5
81F5
  8
0
  0
BLOCK
  8
0
  2
*D23
 70
     1
 10
0.0
 20
0.0
 30
0.0
  3
*D23
  1

  0
LINE
  5
834D
  8
3
 62
     0
 10
785.75952027605263
 20
2555.780277887789
 30
0.0
 11
319.42870080729352
 21
2555.780277887789
 31
0.0
  0
LINE
  5
834E
  8
3
 62
     0
 10
875.75952027605263
 20
1618.785460575217
 30
0.0
 11
319.4287008072933
 21
1618.785460575217
 31
0.0
  0
LINE
  5
834F
  8
3
 62
     0
 10
339.42870080729352
 20
2515.780277887789
 30
0.0
 11
339.4287008072933
 21
1658.785460575217
 31
0.0
  0
INSERT
  5
8350
  8
3
 62
     0
  2
_OPEN
 10
339.42870080729352
 20
2555.780277887789
 30
0.0
 41
40.0
 42
40.0
 43
40.0
 50
90.0
  0
INSERT
  5
8351
  8
3
 62
     0
  2
_OPEN
 10
339.4287008072933
 20
1618.785460575217
 30
0.0
 41
40.0
 42
40.0
 43
40.0
 50
270.0
  0
TEXT
  8
3
  40
60
  5
836B
  62
0
  72
0
  71
0
 10
169.429
 20
1981.08
 30
0.000000
  1
937
  0
POINT
  5
8353
  8
DEFPOINTS
 62
     0
 10
795.75952027605263
 20
2555.780277887789
 30
0.0
  0
POINT
  5
8354
  8
DEFPOINTS
 62
     0
 10
885.75952027605263
 20
1618.785460575217
 30
0.0
  0
POINT
  5
8355
  8
DEFPOINTS
 62
     0
 10
339.4287008072933
 20
1618.785460575217
 30
0.0
  0
ENDBLK
  5
8202
  8
0
  0
ENDSEC
  0
SECTION
  2
ENTITIES
  0
DIMENSION
  5
7CD4
  8
3
  2
*D1
 10
1815.7595202760519
 20
2731.6233763480768
 30
0.0
 11
1305.7595202760519
 21
2781.6233763480768
 31
0.0
 70
     0
 13
795.75952027605263
 23
2555.780277887789
 33
0.0
 14
1815.7595202760519
 24
1804.785460575217
 34
0.0
1001
ACAD
1000
DSTYLE
1002
{
1070
   287
1070
     3
1070
    40
1040
20.0
1070
   143
1040
0.039
1070
   172
1070
     1
1070
   271
1070
     0
1070
   279
1070
     0
1070
   288
1070
     1
1002
}
  0
DIMENSION
  5
7CD5
  8
3
  2
*D2
 10
671.78097816487161
 20
2116.7854605752168
 30
0.0
 11
621.78097816487116
 21
2322.7854605752168
 31
0.0
 70
     0
 13
795.75952027605263
 23
2528.7854605752168
 33
0.0
 14
795.75952027605263
 24
2116.7854605752168
 34
0.0
 50
270.0
1001
ACAD
1000
DSTYLE
1002
{
1070
   287
1070
     3
1070
    40
1040
20.0
1070
   143
1040
0.039
1070
   172
1070
     1
1070
   271
1070
     0
1070
   279
1070
     0
1070
   288
1070
     1
1002
}
  0
DIMENSION
  5
7CD6
  8
3
  2
*D3
 10
578.80095338310218
 20
2104.7854605752168
 30
0.0
 11
528.80095338310196
 21
2316.7854605752168
 31
0.0
 70
     0
 13
795.75952027605263
 23
2528.7854605752168
 33
0.0
 14
783.38175063677545
 24
2104.7854605752168
 34
0.0
 50
270.0
1001
ACAD
1000
DSTYLE
1002
{
1070
   287
1070
     3
1070
    40
1040
20.0
1070
   143
1040
0.039
1070
   172
1070
     1
1070
   271
1070
     0
1070
   279
1070
     0
1070
   288
1070
     1
1002
}
  0
DIMENSION
  5
7CD7
  8
3
  2
*D4
 10
578.80095338310218
 20
1729.785460575217
 30
0.0
 11
528.80095338310196
 21
1917.285460575217
 31
0.0
 70
     0
 13
783.38175063677545
 23
2104.7854605752168
 33
0.0
 14
885.75952027605263
 24
1729.785460575217
 34
0.0
 50
270.0
1001
ACAD
1000
DSTYLE
1002
{
1070
   287
1070
     3
1070
    40
1040
20.0
1070
   143
1040
0.039
1070
   172
1070
     1
1070
   271
1070
     0
1070
   279
1070
     0
1070
   288
1070
     1
1002
}
  0
LINE
  5
7CDA
  8
2
 10
1461.975414800884
 20
2104.7854605752168
 30
0.0
 11
783.38175063677545
 21
2104.7854605752168
 31
0.0
  0
LINE
  5
7CDC
  8
1
 10
885.75952027605263
 20
1804.785460575217
 30
0.0
 11
885.75952027605263
 21
1729.785460575217
 31
0.0
  0
ARC
  5
7CDD
  8
1
 10
1130.7595202760519
 20
2134.7854605752168
 30
0.0
 40
312.00771696201508
 50
262.47617956136042
 51
359.99999999999932
  0
LINE
  5
7CDE
  8
1
 10
1815.7595202760519
 20
1804.785460575217
 30
0.0
 11
1815.7595202760519
 21
1729.785460575217
 31
0.0
  0
LINE
  5
7CDF
  8
2
 10
1100.7595202760519
 20
2567.3253133445291
 30
0.0
 11
1100.7595202760519
 21
1584.3456911390999
 31
0.0
  0
LINE
  5
7CE0
  8
1
 10
1815.7595202760519
 20
1729.785460575217
 30
0.0
 11
885.75952027605263
 21
1729.785460575217
 31
0.0
  0
LINE
  5
7CE1
  8
1
 10
1815.7595202760519
 20
1729.785460575217
 30
0.0
 11
885.75952027605263
 21
1729.785460575217
 31
0.0
  0
LINE
  5
7CE2
  8
1
 10
1815.7595202760519
 20
1693.785460575217
 30
0.0
 11
885.75952027605263
 21
1693.785460575217
 31
0.0
  0
LINE
  5
7CE3
  8
1
 10
1815.7595202760519
 20
1618.785460575217
 30
0.0
 11
885.75952027605263
 21
1618.785460575217
 31
0.0
  0
DIMENSION
  5
7CE4
  8
3
  2
*D5
 10
1100.7595202760519
 20
1487.110127504965
 30
0.0
 11
1458.2595202760519
 21
1537.110127504965
 31
0.0
 70
     0
 13
1815.7595202760519
 23
1618.785460575217
 33
0.0
 14
1100.7595202760519
 24
1584.3456911390999
 34
0.0
1001
ACAD
1000
DSTYLE
1002
{
1070
   287
1070
     3
1070
    40
1040
20.0
1070
   143
1040
0.039
1070
   172
1070
     1
1070
   271
1070
     0
1070
   279
1070
     0
1070
   288
1070
     1
1002
}
  0
DIMENSION
  5
7CE5
  8
3
  2
*D6
 10
885.75952027605263
 20
1487.110127504965
 30
0.0
 11
993.25952027605251
 21
1537.110127504965
 31
0.0
 70
     0
 13
1100.7595202760519
 23
1584.3456911390999
 33
0.0
 14
885.75952027605263
 24
1618.785460575217
 34
0.0
1001
ACAD
1000
DSTYLE
1002
{
1070
   287
1070
     3
1070
    40
1040
20.0
1070
   143
1040
0.039
1070
   172
1070
     1
1070
   271
1070
     0
1070
   279
1070
     0
1070
   288
1070
     1
1002
}
  0
LINE
  5
7CE6
  8
1
 10
885.75952027605263
 20
1693.785460575217
 30
0.0
 11
885.75952027605263
 21
1618.785460575217
 31
0.0
  0
LINE
  5
7CE7
  8
1
 10
1815.7595202760519
 20
1693.785460575217
 30
0.0
 11
1815.7595202760519
 21
1618.785460575217
 31
0.0
  0
LINE
  5
7CE8
  8
1
 10
1676.346657912228
 20
2049.3742073156659
 30
0.0
 11
1113.7488016395321
 21
2166.9427495255918
 31
0.0
  0
LINE
  5
7CE9
  8
1
 10
1641.8929006429021
 20
1900.9580221554941
 30
0.0
 11
1085.0373372484271
 21
2043.2625952254471
 31
0.0
  0
LINE
  5
7CEA
  8
1
 10
1626.84006419615
 20
1828.6708805387141
 30
0.0
 11
1066.8400641961489
 21
1958.6708805387141
 31
0.0
  0
LINE
  5
7CEB
  8
1
 10
1694.678976355955
 20
2120.9000406117202
 30
0.0
 11
1134.678976355955
 21
2250.9000406117202
 31
0.0
  0
ARC
  5
7CEC
  8
1
 10
1070.7595202760519
 20
2134.7854605752182
 30
0.0
 40
372.00771696201542
 50
359.9999999999992
 51
85.388569090039113
  0
LINE
  5
7CED
  8
1
 10
1815.7595202760519
 20
1804.785460575217
 30
0.0
 11
885.75952027605263
 21
1804.785460575217
 31
0.0
  0
DIMENSION
  5
7CEE
  8
3
  2
*D7
 10
1442.7672372380671
 20
2639.4387775476439
 30
0.0
 11
1271.7633787570601
 21
2689.4387775476439
 31
0.0
 70
     0
 13
1100.7595202760519
 23
2567.3253133445291
 33
0.0
 14
1442.7672372380671
 24
2134.7854605752168
 34
0.0
1001
ACAD
1000
DSTYLE
1002
{
1070
   287
1070
     3
1070
    40
1040
20.0
1070
   143
1040
0.039
1070
   172
1070
     1
1070
   271
1070
     0
1070
   279
1070
     0
1070
   288
1070
     1
1002
}
  0
POLYLINE
  5
7CEF
  8
1
 66
     1
 10
0.0
 20
0.0
 30
0.0
  0
VERTEX
  5
825C
  8
1
 10
820.75952027605263
 20
2537.00816264892
 30
0.0
  0
VERTEX
  5
825D
  8
1
 10
1101.52089697007
 20
2516.7565223627939
 30
0.0
 42
-0.3908678423645363
  0
VERTEX
  5
825E
  8
1
 10
1453.9672372380669
 20
2134.7854605752168
 30
0.0
 42
-0.2742389869207948
  0
VERTEX
  5
825F
  8
1
 10
1285.7595202760519
 20
1851.1691205949569
 30
0.0
 42
-0.3762546939936961
  0
SEQEND
  5
8260
  8
1
  0
LINE
  5
7CF5
  8
1
 10
795.75952027605263
 20
2089.7854605752168
 30
0.0
 11
795.75952027605263
 21
2555.780277887789
 31
0.0
  0
LINE
  5
7CF6
  8
1
 10
820.75952027605217
 20
2114.7854605752168
 30
0.0
 11
820.75952027605263
 21
2531.780277887789
 31
0.0
  0
LINE
  5
7CF7
  8
1
 10
798.75952027605263
 20
2089.7854605752168
 30
0.0
 11
798.75952027605263
 21
2551.2261826728682
 31
0.0
  0
ARC
  5
7CF8
  8
1
 10
885.75952027605263
 20
2228.7854605752168
 30
0.0
 40
31.0
 50
299.03414805150368
 51
98.946822094624864
  0
ARC
  5
7CF9
  8
1
 10
1100.7595202760519
 20
2104.7854605752168
 30
0.0
 40
150.0
 50
76.930682103717828
 51
256.9306821037178
  0
CIRCLE
  5
7CFA
  8
1
 10
1100.7595202760519
 20
2104.7854605752168
 30
0.0
 40
63.5
  0
LINE
  5
7CFB
  8
1
 10
1325.7595202760519
 20
2046.3854605752169
 30
0.0
 11
875.75952027605263
 21
2046.3854605752169
 31
0.0
  0
LINE
  5
7CFC
  8
1
 10
1290.7595202760519
 20
2049.585460575217
 30
0.0
 11
910.75952027605263
 21
2049.585460575217
 31
0.0
  0
LINE
  5
7CFD
  8
1
 10
875.75952027605263
 20
2046.3854605752169
 30
0.0
 11
875.75952027605263
 21
2006.3854605752169
 31
0.0
  0
POLYLINE
  5
7CFE
  8
1
 66
     1
 10
0.0
 20
0.0
 30
0.0
  0
VERTEX
  5
8261
  8
1
 10
915.75952027605274
 20
1910.0307299087069
 30
0.0
 42
-0.1742940674201054
  0
VERTEX
  5
8262
  8
1
 10
854.01206893252981
 20
2081.7854605752168
 30
0.0
 42
-0.027999042372295
  0
VERTEX
  5
8263
  8
1
 10
855.4131193995795
 20
2106.7854605752168
 30
0.0
 42
-0.1344533035351137
  0
SEQEND
  5
8264
  8
1
  0
LINE
  5
7D03
  8
1
 10
915.75952027605274
 20
2046.3854605752169
 30
0.0
 11
915.75952027605274
 21
1804.785460575217
 31
0.0
  0
ARC
  5
7D04
  8
1
 10
1123.7595202760519
 20
2081.7854605752182
 30
0.0
 40
258.54745134352208
 50
180.0000000000002
 51
262.47617956136042
  0
LINE
  5
7D05
  8
1
 10
895.75952027605263
 20
1844.785460575217
 30
0.0
 11
895.75952027605263
 21
1804.785460575217
 31
0.0
  0
LINE
  5
7D06
  8
1
 10
915.75952027605274
 20
1809.785460575217
 30
0.0
 11
895.75952027605263
 21
1809.785460575217
 31
0.0
  0
LINE
  5
7D07
  8
1
 10
915.75952027605274
 20
1844.785460575217
 30
0.0
 11
895.75952027605263
 21
1844.785460575217
 31
0.0
  0
LINE
  5
7D08
  8
1
 10
915.75952027605274
 20
2006.3854605752169
 30
0.0
 11
864.76429347384828
 21
2006.3854605752169
 31
0.0
  0
LINE
  5
7D09
  8
1
 10
915.75952027605274
 20
2000.3854605752169
 30
0.0
 11
866.58695660269905
 21
2000.3854605752169
 31
0.0
  0
ARC
  5
7D0A
  8
1
 10
1077.7595202760519
 20
2081.7854605752132
 30
0.0
 40
212.5474513435226
 50
145.8803823680505
 51
179.99999999999901
  0
LINE
  5
7D0B
  8
1
 10
866.89706995392714
 20
2114.7854605752168
 30
0.0
 11
795.75952027605263
 21
2114.7854605752168
 31
0.0
  0
LINE
  5
7D0C
  8
1
 10
866.89706995392714
 20
2116.7854605752168
 30
0.0
 11
795.75952027605263
 21
2116.7854605752168
 31
0.0
  0
LINE
  5
7D0D
  8
1
 10
855.4131193995795
 20
2106.7854605752168
 30
0.0
 11
820.75952027605263
 21
2106.7854605752168
 31
0.0
  0
POLYLINE
  5
7D0E
  8
1
 66
     1
 10
0.0
 20
0.0
 30
0.0
 70
     1
  0
VERTEX
  5
8265
  8
1
 10
795.75952027605263
 20
2114.7854605752168
 30
0.0
  0
VERTEX
  5
8266
  8
1
 10
795.75952027605263
 20
2089.7854605752168
 30
0.0
  0
VERTEX
  5
8267
  8
1
 10
796.75952027605263
 20
2089.7854605752168
 30
0.0
 42
0.4142135623730951
  0
VERTEX
  5
8268
  8
1
 10
798.75952027605263
 20
2091.7854605752168
 30
0.0
  0
VERTEX
  5
8269
  8
1
 10
798.75952027605263
 20
2107.7854605752168
 30
0.0
 42
-0.4142135623730951
  0
VERTEX
  5
826A
  8
1
 10
802.75952027605263
 20
2111.7854605752168
 30
0.0
  0
VERTEX
  5
826B
  8
1
 10
818.75952027605263
 20
2111.7854605752168
 30
0.0
 42
0.4142135623730951
  0
VERTEX
  5
826C
  8
1
 10
820.75952027605263
 20
2113.7854605752168
 30
0.0
  0
VERTEX
  5
826D
  8
1
 10
820.75952027605263
 20
2114.7854605752168
 30
0.0
  0
SEQEND
  5
826E
  8
1
  0
LINE
  5
7D19
  8
1
 10
820.75952027605263
 20
2106.7854605752168
 30
0.0
 11
820.75952027605217
 21
2114.7854605752168
 31
0.0
  0
LINE
  5
7D1A
  8
1
 10
910.75952027605263
 20
2049.585460575217
 30
0.0
 11
910.75952027605263
 21
2046.3854605752169
 31
0.0
  0
LINE
  5
7D1B
  8
1
 10
800.75952027605263
 20
2246.7854605752168
 30
0.0
 11
880.93847172887536
 21
2259.4082868802102
 31
0.0
  0
LINE
  5
7D1C
  8
1
 10
1325.7595202760519
 20
2046.3854605752169
 30
0.0
 11
1325.7595202760519
 21
2006.3854605752169
 31
0.0
  0
LINE
  5
7D1D
  8
1
 10
1285.7595202760519
 20
2046.3854605752169
 30
0.0
 11
1285.7595202760519
 21
1804.785460575217
 31
0.0
  0
LINE
  5
7D1E
  8
1
 10
1305.7595202760519
 20
1844.785460575217
 30
0.0
 11
1305.7595202760519
 21
1804.785460575217
 31
0.0
  0
LINE
  5
7D1F
  8
1
 10
1305.7595202760519
 20
1809.785460575217
 30
0.0
 11
1285.7595202760519
 21
1809.785460575217
 31
0.0
  0
LINE
  5
7D20
  8
1
 10
1305.7595202760519
 20
1844.785460575217
 30
0.0
 11
1285.7595202760519
 21
1844.785460575217
 31
0.0
  0
LINE
  5
7D21
  8
1
 10
1424.6980653901601
 20
2000.3854605752181
 30
0.0
 11
1285.7595202760519
 21
2000.3854605752169
 31
0.0
  0
LINE
  5
7D22
  8
1
 10
1427.3681315869831
 20
2006.3854605752181
 30
0.0
 11
1285.7595202760519
 21
2006.3854605752169
 31
0.0
  0
LINE
  5
7D23
  8
1
 10
1290.7595202760519
 20
2049.585460575217
 30
0.0
 11
1290.7595202760519
 21
2046.3854605752169
 31
0.0
  0
POLYLINE
  5
7D24
  8
1
 66
     1
 10
0.0
 20
0.0
 30
0.0
  0
VERTEX
  5
826F
  8
1
 10
795.75952027605263
 20
2530.7906567276632
 30
0.0
  0
VERTEX
  5
8270
  8
1
 10
977.05601542078455
 20
2517.7135324877149
 30
0.0
 42
-0.3908423130543746
  0
SEQEND
  5
8271
  8
1
  0
DIMENSION
  5
7D28
  8
3
  2
*D8
 10
1100.7595202760519
 20
2639.4387775476439
 30
0.0
 11
948.25952027605263
 21
2689.4387775476439
 31
0.0
 70
     0
 13
795.75952027605263
 23
2555.780277887789
 33
0.0
 14
1100.7595202760519
 24
2567.3253133445291
 34
0.0
1001
ACAD
1000
DSTYLE
1002
{
1070
   287
1070
     3
1070
    40
1040
20.0
1070
   143
1040
0.039
1070
   172
1070
     1
1070
   271
1070
     0
1070
   279
1070
     0
1070
   288
1070
     1
1002
}
  0
LINE
  5
7D29
  8
1
 10
1100.668117507802
 20
2505.5889358703121
 30
0.0
 11
795.75952027605263
 21
2528.7854605752168
 31
0.0
  0
POLYLINE
  5
7D2A
  8
1
 66
     1
 10
0.0
 20
0.0
 30
0.0
 70
     1
  0
VERTEX
  5
827B
  8
1
 10
795.75952027605263
 20
2530.780277887789
 30
0.0
  0
VERTEX
  5
827C
  8
1
 10
795.75952027605263
 20
2555.780277887789
 30
0.0
  0
VERTEX
  5
827D
  8
1
 10
796.75952027605263
 20
2555.780277887789
 30
0.0
 42
-0.4142135623730951
  0
VERTEX
  5
827E
  8
1
 10
798.75952027605263
 20
2553.7802778877881
 30
0.0
  0
VERTEX
  5
827F
  8
1
 10
798.75952027605263
 20
2537.7802778877881
 30
0.0
 42
0.4142135623730951
  0
VERTEX
  5
8280
  8
1
 10
802.75952027605263
 20
2533.780277887789
 30
0.0
  0
VERTEX
  5
8281
  8
1
 10
818.75952027605263
 20
2533.780277887789
 30
0.0
 42
-0.4142135623730951
  0
VERTEX
  5
8282
  8
1
 10
820.75952027605263
 20
2531.780277887789
 30
0.0
  0
VERTEX
  5
8283
  8
1
 10
820.75952027605263
 20
2530.780277887789
 30
0.0
  0
SEQEND
  5
8284
  8
1
  0
LINE
  5
7D35
  8
1
 10
820.75952027605263
 20
2537.00816264892
 30
0.0
 11
820.75952027605263
 21
2530.780277887789
 31
0.0
  0
LINE
  5
7D36
  8
1
 10
1810.7595202760519
 20
1834.785460575217
 30
0.0
 11
1510.7595202760519
 21
1834.785460575217
 31
0.0
  0
LINE
  5
7D37
  8
1
 10
1782.372032117242
 20
1874.785460575217
 30
0.0
 11
1539.1470084348621
 21
1874.785460575217
 31
0.0
  0
ARC
  5
7D38
  8
1
 10
1660.7595202760531
 20
1974.785460575217
 30
0.0
 40
150.0
 50
256.93068210371769
 51
76.930682103717814
  0
LINE
  5
7D39
  8
2
 10
1660.7595202760531
 20
2076.010360575217
 30
0.0
 11
1660.7595202760531
 21
1873.2970605752171
 31
0.0
  0
ARC
  5
7D3A
  8
1
 10
1660.7595202760531
 20
1974.785460575217
 30
0.0
 40
97.0
 50
278.34679999999992
 51
180.0
  0
ARC
  5
7D3B
  8
1
 10
1660.7595202760531
 20
1974.785460575217
 30
0.0
 40
100.8
 50
285.4276999999999
 51
180.0
  0
CIRCLE
  5
7D3C
  8
1
 10
1660.7595202760531
 20
1974.785460575217
 30
0.0
 40
76.200000000000003
  0
LINE
  5
7D3D
  8
1
 10
1607.012920276052
 20
1889.0389605752171
 30
0.0
 11
1600.7595202760519
 21
1882.785460575217
 31
0.0
  0
ARC
  5
7D3E
  8
1
 10
1660.7595202760531
 20
1974.785460575217
 30
0.0
 40
97.0
 50
180.0
 51
261.61590000000001
  0
ARC
  5
7D3F
  8
1
 10
1660.7595202760531
 20
1974.785460575217
 30
0.0
 40
100.8
 50
180.0
 51
254.20289999999989
  0
LINE
  5
7D40
  8
2
 10
1761.3749202760521
 20
1974.785460575217
 30
0.0
 11
1552.714020276052
 21
1974.785460575217
 31
0.0
  0
LINE
  5
7D41
  8
1
 10
1561.8503202760519
 20
1886.8249605752169
 30
0.0
 11
1577.9690202760521
 21
1916.9592605752171
 31
0.0
  0
LINE
  5
7D42
  8
1
 10
1510.7595202760519
 20
1834.785460575217
 30
0.0
 11
1510.7595202760519
 21
1804.785460575217
 31
0.0
  0
LINE
  5
7D43
  8
1
 10
1560.7595202760519
 20
1874.785460575217
 30
0.0
 11
1600.7595202760519
 21
1874.785460575217
 31
0.0
  0
LINE
  5
7D44
  8
1
 10
1562.7595202760519
 20
1886.785460575217
 30
0.0
 11
1598.7595202760519
 21
1886.785460575217
 31
0.0
  0
ARC
  5
7D45
  8
1
 10
1562.7595202760519
 20
1884.785460575217
 30
0.0
 40
2.0
 50
90.0
 51
180.0
  0
LINE
  5
7D46
  8
1
 10
1560.7595202760519
 20
1874.785460575217
 30
0.0
 11
1560.7595202760519
 21
1884.785460575217
 31
0.0
  0
LINE
  5
7D47
  8
1
 10
1528.2595202760519
 20
1834.785460575217
 30
0.0
 11
1539.1470084348621
 21
1874.785460575217
 31
0.0
  0
ARC
  5
7D48
  8
1
 10
1598.7595202760519
 20
1884.785460575217
 30
0.0
 40
2.0
 50
0.0
 51
90.0
  0
LINE
  5
7D49
  8
1
 10
1600.7595202760519
 20
1874.785460575217
 30
0.0
 11
1600.7595202760519
 21
1884.785460575217
 31
0.0
  0
LINE
  5
7D4A
  8
1
 10
1586.7595202760519
 20
1874.785460575217
 30
0.0
 11
1586.7595202760519
 21
1886.785460575217
 31
0.0
  0
LINE
  5
7D4B
  8
1
 10
1574.7595202760519
 20
1886.785460575217
 30
0.0
 11
1574.7595202760519
 21
1874.785460575217
 31
0.0
  0
LINE
  5
7D4C
  8
1
 10
1580.7595202760519
 20
1888.165960575217
 30
0.0
 11
1580.7595202760519
 21
1870.8188605752171
 31
0.0
  0
LINE
  5
7D4D
  8
1
 10
1759.8673202760531
 20
1886.4535605752169
 30
0.0
 11
1743.4665202760521
 21
1917.1155605752169
 31
0.0
  0
LINE
  5
7D4E
  8
1
 10
1633.1418202760519
 20
1877.785460575217
 30
0.0
 11
1688.0289202760521
 21
1877.785460575217
 31
0.0
  0
LINE
  5
7D4F
  8
1
 10
1675.4681202760521
 20
1878.785460575217
 30
0.0
 11
1645.9871202760521
 21
1878.785460575217
 31
0.0
  0
LINE
  5
7D50
  8
1
 10
1758.7595202760519
 20
1886.785460575217
 30
0.0
 11
1722.7595202760519
 21
1886.785460575217
 31
0.0
  0
LINE
  5
7D51
  8
1
 10
1760.7595202760519
 20
1874.785460575217
 30
0.0
 11
1720.7595202760519
 21
1874.785460575217
 31
0.0
  0
LINE
  5
7D52
  8
1
 10
1714.209920276053
 20
1889.3351605752171
 30
0.0
 11
1720.7595202760519
 21
1882.785460575217
 31
0.0
  0
LINE
  5
7D53
  8
1
 10
1720.7595202760519
 20
1874.785460575217
 30
0.0
 11
1720.7595202760519
 21
1884.785460575217
 31
0.0
  0
ARC
  5
7D54
  8
1
 10
1722.7595202760519
 20
1884.785460575217
 30
0.0
 40
2.0
 50
90.0
 51
180.0
  0
ARC
  5
7D55
  8
1
 10
1758.7595202760519
 20
1884.785460575217
 30
0.0
 40
2.0
 50
0.0
 51
90.0
  0
LINE
  5
7D56
  8
1
 10
1760.7595202760519
 20
1874.785460575217
 30
0.0
 11
1760.7595202760519
 21
1884.785460575217
 31
0.0
  0
LINE
  5
7D57
  8
1
 10
1746.7595202760519
 20
1886.785460575217
 30
0.0
 11
1746.7595202760519
 21
1874.785460575217
 31
0.0
  0
LINE
  5
7D58
  8
1
 10
1734.7595202760519
 20
1874.785460575217
 30
0.0
 11
1734.7595202760519
 21
1886.785460575217
 31
0.0
  0
LINE
  5
7D59
  8
1
 10
1740.7595202760519
 20
1888.165960575217
 30
0.0
 11
1740.7595202760519
 21
1870.8188605752171
 31
0.0
  0
LINE
  5
7D5A
  8
1
 10
1810.7595202760519
 20
1834.785460575217
 30
0.0
 11
1810.7595202760519
 21
1804.785460575217
 31
0.0
  0
LINE
  5
7D5B
  8
1
 10
1793.2595202760519
 20
1834.785460575217
 30
0.0
 11
1782.372032117242
 21
1874.785460575217
 31
0.0
  0
LINE
  5
7D5C
  8
2
 10
1477.933623738757
 20
3940.9705262433481
 30
0.0
 11
692.65504641717905
 21
3940.9705262433481
 31
0.0
  0
DIMENSION
  5
7D5D
  8
3
  2
*D9
 10
599.61704513402537
 20
4135.9705262433472
 30
0.0
 11
549.61704513402469
 21
3705.9705262433481
 31
0.0
 70
     0
 13
885.75952027605263
 23
3275.9705262433481
 33
0.0
 14
885.75952027605263
 24
4135.9705262433472
 34
0.0
 50
270.0
1001
ACAD
1000
DSTYLE
1002
{
1070
   287
1070
     3
1070
    40
1040
20.0
1070
   143
1040
0.039
1070
   172
1070
     1
1070
   271
1070
     0
1070
   279
1070
     0
1070
   288
1070
     1
1002
}
  0
LINE
  5
7D5E
  8
1
 10
1080.7595202760519
 20
3790.9705262433481
 30
0.0
 11
1080.7595202760519
 21
3705.570526243348
 31
0.0
  0
LINE
  5
7D5F
  8
1
 10
1120.7595202760519
 20
3790.9705262433481
 30
0.0
 11
1120.7595202760519
 21
3705.570526243348
 31
0.0
  0
DIMENSION
  5
7D60
  8
3
  2
*D10
 10
1815.7595202760519
 20
4250.7209676520333
 30
0.0
 11
1565.7595202760519
 21
4300.7209676520333
 31
0.0
 70
     0
 13
1315.7595202760519
 23
4135.9705262433472
 33
0.0
 14
1815.7595202760519
 24
3695.9705262433472
 34
0.0
1001
ACAD
1000
DSTYLE
1002
{
1070
   287
1070
     3
1070
    40
1040
20.0
1070
   143
1040
0.039
1070
   172
1070
     1
1070
   271
1070
     0
1070
   279
1070
     0
1070
   288
1070
     1
1002
}
  0
LINE
  5
7D61
  8
2
 10
1100.7595202760519
 20
4190.9558213990549
 30
0.0
 11
1100.7595202760519
 21
3191.022431917957
 31
0.0
  0
LINE
  5
7D62
  8
1
 10
1290.7595202760519
 20
3725.9705262433481
 30
0.0
 11
1290.7595202760519
 21
3300.9705262433481
 31
0.0
  0
LINE
  5
7D63
  8
1
 10
1315.7595202760519
 20
3790.9705262433481
 30
0.0
 11
1315.7595202760519
 21
3315.9705262433481
 31
0.0
  0
LINE
  5
7D64
  8
1
 10
910.75952027605263
 20
3725.970526243349
 30
0.0
 11
910.75952027605308
 21
3300.9705262433472
 31
0.0
  0
LINE
  5
7D65
  8
1
 10
885.75952027605263
 20
3790.9705262433481
 30
0.0
 11
885.75952027605263
 21
3275.9705262433481
 31
0.0
  0
LINE
  5
7D66
  8
1
 10
1810.7595202760519
 20
3302.970526243349
 30
0.0
 11
950.75952027605263
 21
3302.9705262433481
 31
0.0
  0
LINE
  5
7D67
  8
1
 10
1810.7595202760519
 20
3180.970526243349
 30
0.0
 11
950.75952027605263
 21
3180.9705262433481
 31
0.0
  0
LINE
  5
7D68
  8
1
 10
1560.7595202760519
 20
3315.9705262433472
 30
0.0
 11
1290.7595202760519
 21
3315.9705262433481
 31
0.0
  0
LINE
  5
7D69
  8
1
 10
1164.2595202760519
 20
3260.9705262433481
 30
0.0
 11
1584.5595202760519
 21
3260.970526243349
 31
0.0
  0
LINE
  5
7D6A
  8
1
 10
1584.5595202760519
 20
3210.970526243349
 30
0.0
 11
1164.2595202760519
 21
3210.9705262433481
 31
0.0
  0
DIMENSION
  5
7D6B
  8
3
  2
*D11
 10
885.75952027605263
 20
3057.795372019119
 30
0.0
 11
1350.7595202760519
 21
3107.795372019119
 31
0.0
 70
     0
 13
1815.7595202760519
 23
3275.9705262433481
 33
0.0
 14
885.75952027605263
 24
3275.9705262433481
 34
0.0
1001
ACAD
1000
DSTYLE
1002
{
1070
   287
1070
     3
1070
    40
1040
20.0
1070
   143
1040
0.039
1070
   172
1070
     1
1070
   271
1070
     0
1070
   279
1070
     0
1070
   288
1070
     1
1002
}
  0
LINE
  5
7D6C
  8
1
 10
1815.7595202760519
 20
3275.9705262433481
 30
0.0
 11
1120.7595202760519
 21
3275.9705262433481
 31
0.0
  0
LINE
  5
7D6D
  8
1
 10
1815.7595202760519
 20
3695.9705262433472
 30
0.0
 11
1315.7595202760519
 21
3695.9705262433481
 31
0.0
  0
LINE
  5
7D6E
  8
1
 10
1815.7595202760519
 20
3655.9705262433472
 30
0.0
 11
1315.7595202760519
 21
3655.9705262433481
 31
0.0
  0
LINE
  5
7D6F
  8
1
 10
950.75952027605263
 20
3180.9705262433481
 30
0.0
 11
950.75952027605263
 21
3302.9705262433481
 31
0.0
  0
LINE
  5
7D70
  8
1
 10
1037.2595202760519
 20
3260.9705262433481
 30
0.0
 11
1037.2595202760519
 21
3210.9705262433481
 31
0.0
  0
LINE
  5
7D71
  8
1
 10
1164.2595202760519
 20
3260.9705262433481
 30
0.0
 11
1164.2595202760519
 21
3210.9705262433481
 31
0.0
  0
LINE
  5
7D72
  8
1
 10
1164.2595202760519
 20
3210.9705262433481
 30
0.0
 11
1037.2595202760519
 21
3210.9705262433481
 31
0.0
  0
LINE
  5
7D73
  8
1
 10
1192.7595202760519
 20
3705.570526243348
 30
0.0
 11
1008.7595202760519
 21
3705.570526243348
 31
0.0
  0
LINE
  5
7D74
  8
1
 10
1192.7595202760519
 20
3656.3705262433482
 30
0.0
 11
1008.7595202760519
 21
3656.3705262433482
 31
0.0
  0
LINE
  5
7D75
  8
2
 10
1208.6667513457751
 20
3680.9705262433481
 30
0.0
 11
992.85228920632971
 21
3680.9705262433481
 31
0.0
  0
LINE
  5
7D76
  8
1
 10
1164.2595202760519
 20
3260.9705262433481
 30
0.0
 11
1037.2595202760519
 21
3260.9705262433481
 31
0.0
  0
LINE
  5
7D77
  8
1
 10
1192.7595202760531
 20
3321.3705262433482
 30
0.0
 11
1008.759520276053
 21
3321.3705262433482
 31
0.0
  0
LINE
  5
7D78
  8
1
 10
1192.7595202760531
 20
3370.570526243348
 30
0.0
 11
1008.759520276053
 21
3370.570526243348
 31
0.0
  0
LINE
  5
7D79
  8
2
 10
1208.666751345776
 20
3345.9705262433481
 30
0.0
 11
992.85228920633017
 21
3345.9705262433481
 31
0.0
  0
LINE
  5
7D7A
  8
1
 10
1080.7595202760519
 20
3656.3705262433482
 30
0.0
 11
1080.7595202760519
 21
3370.570526243348
 31
0.0
  0
LINE
  5
7D7B
  8
1
 10
1080.7595202760519
 20
3275.9705262433481
 30
0.0
 11
885.75952027605263
 21
3275.9705262433481
 31
0.0
  0
LINE
  5
7D7C
  8
1
 10
1080.7595202760519
 20
3300.9705262433481
 30
0.0
 11
910.75952027605263
 21
3300.9705262433481
 31
0.0
  0
LINE
  5
7D7D
  8
1
 10
910.75952027605263
 20
3315.9705262433481
 30
0.0
 11
885.75952027605263
 21
3315.9705262433481
 31
0.0
  0
LINE
  5
7D7E
  8
1
 10
1008.759520276053
 20
3370.570526243348
 30
0.0
 11
1008.759520276053
 21
3321.3705262433482
 31
0.0
  0
LINE
  5
7D7F
  8
1
 10
1000.759520276053
 20
3378.4705262433481
 30
0.0
 11
1000.759520276053
 21
3313.4705262433481
 31
0.0
  0
LINE
  5
7D80
  8
1
 10
1080.7595202760519
 20
3313.4705262433481
 30
0.0
 11
1000.7595202760519
 21
3313.4705262433481
 31
0.0
  0
LINE
  5
7D81
  8
1
 10
1080.7595202760519
 20
3321.3705262433482
 30
0.0
 11
1080.7595202760519
 21
3260.9705262433481
 31
0.0
  0
LINE
  5
7D82
  8
1
 10
1080.7595202760519
 20
3378.4705262433481
 30
0.0
 11
1000.7595202760519
 21
3378.4705262433481
 31
0.0
  0
LINE
  5
7D83
  8
1
 10
1080.7595202760519
 20
3713.4705262433481
 30
0.0
 11
1000.7595202760519
 21
3713.4705262433481
 31
0.0
  0
LINE
  5
7D84
  8
1
 10
1080.7595202760519
 20
3648.4705262433481
 30
0.0
 11
1000.7595202760519
 21
3648.4705262433481
 31
0.0
  0
LINE
  5
7D85
  8
1
 10
1008.7595202760519
 20
3705.570526243348
 30
0.0
 11
1008.7595202760519
 21
3656.3705262433482
 31
0.0
  0
LINE
  5
7D86
  8
1
 10
1000.759520276053
 20
3713.4705262433481
 30
0.0
 11
1000.7595202760519
 21
3648.4705262433481
 31
0.0
  0
LINE
  5
7D87
  8
1
 10
1120.7595202760519
 20
3656.3705262433482
 30
0.0
 11
1120.7595202760519
 21
3370.570526243348
 31
0.0
  0
LINE
  5
7D88
  8
1
 10
1290.7595202760519
 20
3300.9705262433481
 30
0.0
 11
1120.7595202760519
 21
3300.9705262433481
 31
0.0
  0
LINE
  5
7D89
  8
1
 10
1192.7595202760531
 20
3370.570526243348
 30
0.0
 11
1192.7595202760531
 21
3321.3705262433482
 31
0.0
  0
LINE
  5
7D8A
  8
1
 10
1200.7595202760531
 20
3378.4705262433481
 30
0.0
 11
1200.7595202760531
 21
3313.4705262433481
 31
0.0
  0
LINE
  5
7D8B
  8
1
 10
1200.7595202760531
 20
3313.4705262433481
 30
0.0
 11
1120.7595202760519
 21
3313.4705262433481
 31
0.0
  0
LINE
  5
7D8C
  8
1
 10
1120.7595202760519
 20
3321.3705262433482
 30
0.0
 11
1120.7595202760519
 21
3260.9705262433481
 31
0.0
  0
LINE
  5
7D8D
  8
1
 10
1200.7595202760531
 20
3378.4705262433481
 30
0.0
 11
1120.7595202760519
 21
3378.4705262433481
 31
0.0
  0
LINE
  5
7D8E
  8
1
 10
1200.7595202760519
 20
3713.4705262433481
 30
0.0
 11
1120.7595202760519
 21
3713.4705262433481
 31
0.0
  0
LINE
  5
7D8F
  8
1
 10
1200.7595202760519
 20
3648.4705262433481
 30
0.0
 11
1120.7595202760519
 21
3648.4705262433481
 31
0.0
  0
LINE
  5
7D90
  8
1
 10
1192.7595202760519
 20
3705.570526243348
 30
0.0
 11
1192.7595202760519
 21
3656.3705262433482
 31
0.0
  0
LINE
  5
7D91
  8
1
 10
1200.7595202760519
 20
3713.4705262433481
 30
0.0
 11
1200.7595202760519
 21
3648.4705262433481
 31
0.0
  0
LINE
  5
7D92
  8
1
 10
1810.7595202760519
 20
3180.970526243349
 30
0.0
 11
1810.7595202760519
 21
3302.970526243349
 31
0.0
  0
LINE
  5
7D93
  8
1
 10
1584.5595202760519
 20
3260.9705262433481
 30
0.0
 11
1584.5595202760519
 21
3210.970526243349
 31
0.0
  0
LINE
  5
7D94
  8
2
 10
1660.7595202760531
 20
3582.3012262433481
 30
0.0
 11
1660.7595202760531
 21
3205.6525262433488
 31
0.0
  0
LINE
  5
7D95
  8
1
 10
1736.9595202760529
 20
3260.9705262433481
 30
0.0
 11
1736.9595202760529
 21
3210.9705262433481
 31
0.0
  0
LINE
  5
7D96
  8
1
 10
1736.9595202760529
 20
3210.9705262433481
 30
0.0
 11
1584.5595202760519
 21
3210.970526243349
 31
0.0
  0
LINE
  5
7D97
  8
1
 10
1815.7595202760519
 20
3315.9705262433472
 30
0.0
 11
1760.7595202760519
 21
3315.9705262433472
 31
0.0
  0
LINE
  5
7D98
  8
1
 10
1560.7595202760519
 20
3403.9705262433481
 30
0.0
 11
1560.7595202760519
 21
3576.9705262433481
 31
0.0
  0
LINE
  5
7D99
  8
1
 10
1760.7595202760519
 20
3281.9705262433481
 30
0.0
 11
1760.7595202760519
 21
3576.9705262433481
 31
0.0
  0
LINE
  5
7D9A
  8
1
 10
1736.9595202760529
 20
3260.9705262433481
 30
0.0
 11
1584.5595202760519
 21
3260.970526243349
 31
0.0
  0
LINE
  5
7D9B
  8
1
 10
1560.7595202760519
 20
3281.9705262433481
 30
0.0
 11
1760.7595202760519
 21
3281.9705262433481
 31
0.0
  0
LINE
  5
7D9C
  8
1
 10
1560.7595202760519
 20
3403.9705262433481
 30
0.0
 11
1560.7595202760519
 21
3281.9705262433481
 31
0.0
  0
LINE
  5
7D9D
  8
1
 10
1697.7595202760519
 20
3275.9705262433481
 30
0.0
 11
1623.7595202760519
 21
3275.9705262433481
 31
0.0
  0
LINE
  5
7D9E
  8
1
 10
1646.159520276052
 20
3270.970526243349
 30
0.0
 11
1675.3594202760521
 21
3270.970526243349
 31
0.0
  0
ARC
  5
7D9F
  8
1
 10
1623.759420276052
 20
3278.9705262433481
 30
0.0
 40
2.9998999999999989
 50
179.9987999999999
 51
270.00119999999998
  0
LINE
  5
7DA0
  8
1
 10
1646.159520276052
 20
3275.9705262433481
 30
0.0
 11
1646.159520276052
 21
3270.970526243349
 31
0.0
  0
LINE
  5
7DA1
  8
1
 10
1620.7595202760519
 20
3281.9705262433481
 30
0.0
 11
1620.7595202760519
 21
3278.9705262433481
 31
0.0
  0
LINE
  5
7DA2
  8
1
 10
1646.7595202760519
 20
3270.970526243349
 30
0.0
 11
1646.7595202760519
 21
3260.9705262433481
 31
0.0
  0
LINE
  5
7DA3
  8
1
 10
1675.3594202760521
 20
3275.9705262433481
 30
0.0
 11
1675.3594202760521
 21
3270.970526243349
 31
0.0
  0
LINE
  5
7DA4
  8
1
 10
1674.7595202760519
 20
3270.970526243349
 30
0.0
 11
1674.7595202760519
 21
3260.9705262433481
 31
0.0
  0
ARC
  5
7DA5
  8
1
 10
1697.7595202760519
 20
3278.9705262433481
 30
0.0
 40
2.9998999999999989
 50
269.9987999999999
 51
0.0011999999999613
  0
LINE
  5
7DA6
  8
1
 10
1700.7595202760519
 20
3281.9705262433481
 30
0.0
 11
1700.7595202760519
 21
3278.9705262433481
 31
0.0
  0
LINE
  5
7DA7
  8
1
 10
1760.7595202760519
 20
3576.9705262433481
 30
0.0
 11
1560.7595202760519
 21
3576.9705262433481
 31
0.0
  0
LINE
  5
7DA8
  8
1
 10
1602.7595202760519
 20
3655.9705262433472
 30
0.0
 11
1602.7595202760519
 21
3576.9705262433481
 31
0.0
  0
LINE
  5
7DA9
  8
1
 10
1562.7595202760519
 20
3655.9705262433472
 30
0.0
 11
1562.7595202760519
 21
3576.9705262433481
 31
0.0
  0
LINE
  5
7DAA
  8
1
 10
1718.7595202760519
 20
3655.9705262433472
 30
0.0
 11
1718.7595202760519
 21
3576.9705262433481
 31
0.0
  0
LINE
  5
7DAB
  8
1
 10
1758.7595202760519
 20
3655.9705262433472
 30
0.0
 11
1758.7595202760519
 21
3576.9705262433481
 31
0.0
  0
DIMENSION
  5
7DAC
  8
3
  2
*D12
 10
1891.1034584364199
 20
3695.9705262433472
 30
0.0
 11
1841.103458436419
 21
3485.9705262433481
 31
0.0
 70
     0
 13
1815.7595202760519
 23
3275.9705262433481
 33
0.0
 14
1815.7595202760519
 24
3695.9705262433472
 34
0.0
 50
270.0
1001
ACAD
1000
DSTYLE
1002
{
1070
   287
1070
     3
1070
    40
1040
20.0
1070
   143
1040
0.039
1070
   172
1070
     1
1070
   271
1070
     0
1070
   279
1070
     0
1070
   288
1070
     1
1002
}
  0
LINE
  5
7DAD
  8
1
 10
1815.7595202760519
 20
3315.9705262433481
 30
0.0
 11
1815.7595202760519
 21
3275.9705262433481
 31
0.0
  0
POINT
  5
7DAE
  8
1
 10
1815.7595202760519
 20
3275.9705262433481
 30
0.0
  0
POINT
  5
7DAF
  8
1
 10
1815.7595202760519
 20
3275.9705262433481
 30
0.0
  0
LINE
  5
7DB0
  8
1
 10
1815.7595202760519
 20
3695.9705262433472
 30
0.0
 11
1815.7595202760519
 21
3655.9705262433472
 31
0.0
  0
LINE
  5
7DB1
  8
1
 10
1453.9672372380669
 20
3790.9705262433481
 30
0.0
 11
798.75952027605297
 21
3790.9705262433481
 31
0.0
  0
LINE
  5
7DB2
  8
1
 10
1453.9672372380669
 20
4090.9705262433481
 30
0.0
 11
798.75952027605297
 21
4090.9705262433481
 31
0.0
  0
DIMENSION
  5
7DB3
  8
3
  2
*D13
 10
1315.7595202760519
 20
4250.7209676520333
 30
0.0
 11
1100.7595202760519
 21
4300.7209676520333
 31
0.0
 70
     0
 13
885.75952027605263
 23
4135.9705262433472
 33
0.0
 14
1315.7595202760519
 24
4135.9705262433472
 34
0.0
1001
ACAD
1000
DSTYLE
1002
{
1070
   287
1070
     3
1070
    40
1040
20.0
1070
   143
1040
0.039
1070
   172
1070
     1
1070
   271
1070
     0
1070
   279
1070
     0
1070
   288
1070
     1
1002
}
  0
LINE
  5
7DB4
  8
1
 10
1290.7595202760519
 20
3725.9705262433481
 30
0.0
 11
910.75952027605308
 21
3725.970526243349
 31
0.0
  0
LINE
  5
7DB5
  8
1
 10
1275.7595202760519
 20
4133.9705262433481
 30
0.0
 11
925.75952027605263
 21
4133.9705262433481
 31
0.0
  0
LINE
  5
7DB6
  8
1
 10
1275.7595202760519
 20
4093.970526243349
 30
0.0
 11
925.75952027605263
 21
4093.970526243349
 31
0.0
  0
LINE
  5
7DB7
  8
1
 10
798.75952027605263
 20
3763.9705262433481
 30
0.0
 11
798.75952027605263
 21
4117.9705262433481
 31
0.0
  0
LINE
  5
7DB8
  8
1
 10
795.75952027605263
 20
3763.9705262433481
 30
0.0
 11
795.75952027605263
 21
4117.9705262433481
 31
0.0
  0
LINE
  5
7DB9
  8
1
 10
798.75952027605263
 20
3763.9705262433481
 30
0.0
 11
795.75952027605263
 21
3763.9705262433481
 31
0.0
  0
LINE
  5
7DBA
  8
1
 10
925.75952027605263
 20
3790.9705262433481
 30
0.0
 11
925.75952027605263
 21
3740.3426294767528
 31
0.0
  0
LINE
  5
7DBB
  8
1
 10
925.75952027605263
 20
3748.9705262433481
 30
0.0
 11
925.75952027605263
 21
3725.9705262433481
 31
0.0
  0
LINE
  5
7DBC
  8
1
 10
885.75952027605263
 20
4135.9705262433472
 30
0.0
 11
885.75952027605263
 21
4090.9705262433481
 31
0.0
  0
LINE
  5
7DBD
  8
1
 10
925.75952027605263
 20
4135.9705262433472
 30
0.0
 11
925.75952027605263
 21
4090.9705262433472
 31
0.0
  0
LINE
  5
7DBE
  8
1
 10
798.75952027605263
 20
4117.9705262433481
 30
0.0
 11
795.75952027605263
 21
4117.9705262433481
 31
0.0
  0
LINE
  5
7DBF
  8
1
 10
925.75952027605263
 20
4135.9705262433472
 30
0.0
 11
885.75952027605263
 21
4135.9705262433472
 31
0.0
  0
POINT
  5
7DC0
  8
1
 10
885.75952027605263
 20
4135.9705262433472
 30
0.0
  0
POINT
  5
7DC1
  8
1
 10
885.75952027605263
 20
4135.9705262433472
 30
0.0
  0
LINE
  5
7DC2
  8
1
 10
1275.7595202760519
 20
3790.9705262433481
 30
0.0
 11
1275.7595202760519
 21
3733.2478887887942
 31
0.0
  0
LINE
  5
7DC3
  8
1
 10
1275.7595202760519
 20
3748.9705262433481
 30
0.0
 11
1275.7595202760519
 21
3725.9705262433481
 31
0.0
  0
LINE
  5
7DC4
  8
1
 10
1315.7595202760519
 20
4135.9705262433472
 30
0.0
 11
1275.7595202760519
 21
4135.9705262433472
 31
0.0
  0
LINE
  5
7DC5
  8
1
 10
1275.7595202760519
 20
4135.9705262433472
 30
0.0
 11
1275.7595202760519
 21
4090.9705262433481
 31
0.0
  0
LINE
  5
7DC6
  8
1
 10
1315.7595202760519
 20
4135.9705262433472
 30
0.0
 11
1315.7595202760519
 21
4090.9705262433481
 31
0.0
  0
POINT
  5
7DC7
  8
1
 10
1315.7595202760519
 20
4135.9705262433472
 30
0.0
  0
LINE
  5
7DC8
  8
1
 10
1453.9672372380669
 20
3790.9705262433481
 30
0.0
 11
1453.9672372380669
 21
4090.9705262433481
 31
0.0
  0
DIMENSION
  5
7DC9
  8
3
  2
*D14
 10
3112.6229986188441
 20
2777.8536368385171
 30
0.0
 11
3244.0515700474161
 21
2827.8536368385171
 31
0.0
 70
     0
 13
2959.6229986188459
 23
2732.152686526395
 33
0.0
 14
3112.6229986188441
 24
2342.485460575218
 34
0.0
1001
ACAD
1000
DSTYLE
1002
{
1070
   287
1070
     3
1070
    40
1040
20.0
1070
   143
1040
0.039
1070
   172
1070
     1
1070
   271
1070
     0
1070
   279
1070
     0
1070
   288
1070
     1
1002
}
  0
DIMENSION
  5
7DCA
  8
3
  2
*D15
 10
2959.6229986188459
 20
2777.8536368385171
 30
0.0
 11
2579.622998618845
 21
2827.8536368385171
 31
0.0
 70
     0
 13
2199.6229986188441
 23
2254.7854605752168
 33
0.0
 14
2959.6229986188459
 24
2732.152686526395
 34
0.0
1001
ACAD
1000
DSTYLE
1002
{
1070
   287
1070
     3
1070
    40
1040
20.0
1070
   143
1040
0.039
1070
   172
1070
     1
1070
   271
1070
     0
1070
   279
1070
     0
1070
   288
1070
     1
1002
}
  0
LINE
  5
7DCB
  8
1
 10
2294.6229986188441
 20
1804.785460575217
 30
0.0
 11
2294.6229986188441
 21
1729.785460575217
 31
0.0
  0
LINE
  5
7DCC
  8
2
 10
2959.6229986188459
 20
2648.0927433567958
 30
0.0
 11
2959.6229986188459
 21
1584.3456911390999
 31
0.0
  0
LINE
  5
7DCD
  8
1
 10
3154.6229986188459
 20
1804.785460575217
 30
0.0
 11
3154.6229986188459
 21
1729.785460575217
 31
0.0
  0
DIMENSION
  5
7DCE
  8
3
  2
*D16
 10
2959.6229986188459
 20
1481.3526470698371
 30
0.0
 11
2627.122998618845
 21
1531.3526470698371
 31
0.0
 70
     0
 13
2294.6229986188441
 23
1618.785460575217
 33
0.0
 14
2959.6229986188459
 24
1584.3456911390999
 34
0.0
1001
ACAD
1000
DSTYLE
1002
{
1070
   287
1070
     3
1070
    40
1040
20.0
1070
   143
1040
0.039
1070
   172
1070
     1
1070
   271
1070
     0
1070
   279
1070
     0
1070
   288
1070
     1
1002
}
  0
LINE
  5
7DCF
  8
1
 10
2294.6229986188441
 20
1693.785460575217
 30
0.0
 11
3154.6229986188459
 21
1693.785460575217
 31
0.0
  0
LINE
  5
7DD0
  8
1
 10
2294.6229986188441
 20
1618.785460575217
 30
0.0
 11
3154.6229986188459
 21
1618.785460575217
 31
0.0
  0
LINE
  5
7DD1
  8
1
 10
2294.6229986188441
 20
1729.785460575217
 30
0.0
 11
3154.6229986188459
 21
1729.785460575217
 31
0.0
  0
LINE
  5
7DD2
  8
1
 10
2334.6229986188441
 20
1729.785460575217
 30
0.0
 11
3154.6229986188459
 21
1729.785460575217
 31
0.0
  0
LINE
  5
7DD3
  8
1
 10
2294.6229986188441
 20
1693.785460575217
 30
0.0
 11
2294.6229986188441
 21
1618.785460575217
 31
0.0
  0
DIMENSION
  5
7DD4
  8
3
  2
*D17
 10
3154.6229986188459
 20
1481.3526470698371
 30
0.0
 11
3057.122998618845
 21
1531.3526470698371
 31
0.0
 70
     0
 13
2959.6229986188459
 23
1584.3456911390999
 33
0.0
 14
3154.6229986188459
 24
1618.785460575217
 34
0.0
1001
ACAD
1000
DSTYLE
1002
{
1070
   287
1070
     3
1070
    40
1040
20.0
1070
   143
1040
0.039
1070
   172
1070
     1
1070
   271
1070
     0
1070
   279
1070
     0
1070
   288
1070
     1
1002
}
  0
LINE
  5
7DD5
  8
1
 10
3154.6229986188459
 20
1693.7854605752179
 30
0.0
 11
3154.6229986188459
 21
1618.785460575217
 31
0.0
  0
LINE
  5
7DD6
  8
1
 10
2724.1534034724068
 20
2084.7854605752168
 30
0.0
 11
2807.6229986188441
 21
2084.7854605752168
 31
0.0
  0
LINE
  5
7DD7
  8
1
 10
2721.0229986188451
 20
2124.7854605752168
 30
0.0
 11
2782.6229986188441
 21
2124.7854605752168
 31
0.0
  0
LINE
  5
7DD8
  8
2
 10
2216.1497355343022
 20
2104.7854605752168
 30
0.0
 11
3164.5214963029689
 21
2104.7854605752168
 31
0.0
  0
POLYLINE
  5
7DD9
  8
1
 66
     1
 10
0.0
 20
0.0
 30
0.0
 70
     1
  0
VERTEX
  5
82D7
  8
1
 10
2734.6229986188441
 20
2006.385460575216
 30
0.0
  0
VERTEX
  5
82D8
  8
1
 10
2774.6229986188441
 20
2006.385460575216
 30
0.0
  0
VERTEX
  5
82D9
  8
1
 10
2774.6229986188441
 20
2008.3854605752169
 30
0.0
 42
0.4142135623730951
  0
VERTEX
  5
82DA
  8
1
 10
2771.6229986188441
 20
2011.3854605752169
 30
0.0
  0
VERTEX
  5
82DB
  8
1
 10
2744.1229986188441
 20
2011.3854605752169
 30
0.0
 42
-0.4142135623730951
  0
VERTEX
  5
82DC
  8
1
 10
2739.6229986188441
 20
2015.8854605752169
 30
0.0
  0
VERTEX
  5
82DD
  8
1
 10
2739.6229986188441
 20
2043.3854605752169
 30
0.0
 42
0.4142135623730951
  0
VERTEX
  5
82DE
  8
1
 10
2736.6229986188441
 20
2046.3854605752169
 30
0.0
  0
VERTEX
  5
82DF
  8
1
 10
2734.6229986188441
 20
2046.3854605752169
 30
0.0
  0
SEQEND
  5
82E0
  8
1
  0
LINE
  5
7DE4
  8
1
 10
2294.6229986188441
 20
1804.785460575217
 30
0.0
 11
3154.6229986188459
 21
1804.785460575217
 31
0.0
  0
LINE
  5
7DE5
  8
2
 10
2600.953698618845
 20
1974.785460575217
 30
0.0
 11
2224.3049986188439
 21
1974.785460575217
 31
0.0
  0
LINE
  5
7DE6
  8
1
 10
2422.6229986188441
 20
2074.7854605752168
 30
0.0
 11
2595.6229986188441
 21
2074.7854605752168
 31
0.0
  0
LINE
  5
7DE7
  8
1
 10
2300.6229986188441
 20
1874.785460575217
 30
0.0
 11
2595.6229986188441
 21
1874.785460575217
 31
0.0
  0
LINE
  5
7DE8
  8
1
 10
2399.5229986188428
 20
2084.7854605752168
 30
0.0
 11
2664.722998618844
 21
2084.7854605752168
 31
0.0
  0
LINE
  5
7DE9
  8
1
 10
2399.5229986188428
 20
2124.7854605752168
 30
0.0
 11
2664.722998618844
 21
2124.7854605752168
 31
0.0
  0
LINE
  5
7DEA
  8
1
 10
2300.6229986188441
 20
2074.7854605752168
 30
0.0
 11
2300.6229986188441
 21
1874.785460575217
 31
0.0
  0
LINE
  5
7DEB
  8
1
 10
2199.6229986188441
 20
2254.7854605752168
 30
0.0
 11
2199.6229986188441
 21
1824.785460575217
 31
0.0
  0
LINE
  5
7DEC
  8
1
 10
2279.6229986188441
 20
2168.2854605752168
 30
0.0
 11
2279.6229986188441
 21
1898.585460575217
 31
0.0
  0
LINE
  5
7DED
  8
1
 10
2229.6229986188441
 20
2168.2854605752168
 30
0.0
 11
2229.6229986188441
 21
1898.585460575217
 31
0.0
  0
LINE
  5
7DEE
  8
2
 10
2364.6229986188441
 20
2202.8787964947019
 30
0.0
 11
2364.6229986188441
 21
1990.9090996060111
 31
0.0
  0
LINE
  5
7DEF
  8
1
 10
2199.6229986188441
 20
1824.785460575217
 30
0.0
 11
2321.6229986188441
 21
1824.785460575217
 31
0.0
  0
LINE
  5
7DF0
  8
1
 10
2229.6229986188441
 20
1898.585460575217
 30
0.0
 11
2279.6229986188441
 21
1898.585460575217
 31
0.0
  0
LINE
  5
7DF1
  8
1
 10
2218.658885977738
 20
1974.785460575217
 30
0.0
 11
2341.5896985638551
 21
1974.785460575217
 31
0.0
  0
LINE
  5
7DF2
  8
1
 10
2321.6229986188441
 20
1874.785460575217
 30
0.0
 11
2321.6229986188441
 21
1824.785460575217
 31
0.0
  0
LINE
  5
7DF3
  8
1
 10
2332.8229986188448
 20
1874.785460575217
 30
0.0
 11
2332.8229986188448
 21
1804.785460575217
 31
0.0
  0
LINE
  5
7DF4
  8
1
 10
2329.6229986188441
 20
1874.785460575217
 30
0.0
 11
2329.6229986188441
 21
1804.785460575217
 31
0.0
  0
LINE
  5
7DF5
  8
1
 10
2294.6229986188441
 20
1937.785460575217
 30
0.0
 11
2294.6229986188441
 21
2011.785460575217
 31
0.0
  0
ARC
  5
7DF6
  8
1
 10
2297.6229986188441
 20
1937.785460575217
 30
0.0
 40
2.9998999999999989
 50
179.9987999999999
 51
270.00119999999998
  0
LINE
  5
7DF7
  8
1
 10
2300.6229986188441
 20
1934.785460575217
 30
0.0
 11
2297.6229986188441
 21
1934.785460575217
 31
0.0
  0
LINE
  5
7DF8
  8
1
 10
2289.6229986188441
 20
1989.3854605752169
 30
0.0
 11
2289.6229986188441
 21
1960.1855605752171
 31
0.0
  0
LINE
  5
7DF9
  8
1
 10
2294.6229986188441
 20
1989.3854605752169
 30
0.0
 11
2289.6229986188441
 21
1989.3854605752169
 31
0.0
  0
LINE
  5
7DFA
  8
1
 10
2294.6229986188441
 20
1960.1855605752171
 30
0.0
 11
2289.6229986188441
 21
1960.1855605752171
 31
0.0
  0
ARC
  5
7DFB
  8
1
 10
2297.6229986188441
 20
2011.785560575217
 30
0.0
 40
2.9998999999999989
 50
89.998799999999989
 51
180.0011999999999
  0
LINE
  5
7DFC
  8
1
 10
2300.6229986188441
 20
2014.785460575217
 30
0.0
 11
2297.6229986188441
 21
2014.785460575217
 31
0.0
  0
LINE
  5
7DFD
  8
1
 10
2289.6229986188441
 20
1988.785460575217
 30
0.0
 11
2279.6229986188441
 21
1988.785460575217
 31
0.0
  0
LINE
  5
7DFE
  8
1
 10
2289.6229986188441
 20
1960.785460575217
 30
0.0
 11
2279.6229986188441
 21
1960.785460575217
 31
0.0
  0
LINE
  5
7DFF
  8
1
 10
2279.6229986188441
 20
2050.9854605752171
 30
0.0
 11
2229.6229986188441
 21
2050.9854605752171
 31
0.0
  0
LINE
  5
7E00
  8
1
 10
2199.6229986188441
 20
2254.7854605752168
 30
0.0
 11
2321.6229986188441
 21
2254.7854605752168
 31
0.0
  0
LINE
  5
7E01
  8
1
 10
2229.6229986188441
 20
2041.285460575217
 30
0.0
 11
2279.6229986188441
 21
2041.285460575217
 31
0.0
  0
LINE
  5
7E02
  8
1
 10
2229.6229986188441
 20
2168.2854605752168
 30
0.0
 11
2279.6229986188441
 21
2168.2854605752168
 31
0.0
  0
LINE
  5
7E03
  8
1
 10
2321.6229986188441
 20
2254.7854605752168
 30
0.0
 11
2321.6229986188441
 21
2074.7854605752168
 31
0.0
  0
ARC
  5
7E04
  8
1
 10
2575.271897200801
 20
2139.7947170082571
 30
0.0
 40
194.8824391137272
 50
176.8950460354223
 51
199.54871276881059
  0
ARC
  5
7E05
  8
1
 10
2153.9741000368872
 20
2139.7947170082571
 30
0.0
 40
194.8824391137272
 50
340.45128723118921
 51
3.1049539645776858
  0
LINE
  5
7E06
  8
1
 10
2422.6229986188441
 20
2074.7854605752168
 30
0.0
 11
2300.6229986188441
 21
2074.7854605752168
 31
0.0
  0
LINE
  5
7E07
  8
1
 10
2337.6229986188441
 20
2074.585460575217
 30
0.0
 11
2391.6229986188432
 21
2074.585460575217
 31
0.0
  0
LINE
  5
7E08
  8
1
 10
2348.7921495726109
 20
2134.7854605752168
 30
0.0
 11
2343.2229986188431
 21
2134.7854605752168
 31
0.0
  0
LINE
  5
7E09
  8
1
 10
2279.6229986188441
 20
2084.7854605752168
 30
0.0
 11
2340.9317069471149
 21
2084.7854605752168
 31
0.0
  0
LINE
  5
7E0A
  8
1
 10
2279.6229986188441
 20
2124.7854605752168
 30
0.0
 11
2343.2229986188431
 21
2124.7854605752168
 31
0.0
  0
LINE
  5
7E0B
  8
1
 10
2343.2229986188431
 20
2134.7854605752168
 30
0.0
 11
2343.2229986188431
 21
2093.2756944429429
 31
0.0
  0
LINE
  5
7E0C
  8
1
 10
2399.5229986188428
 20
2134.7854605752168
 30
0.0
 11
2399.5229986188428
 21
2074.7854605752168
 31
0.0
  0
LINE
  5
7E0D
  8
1
 10
2399.5229986188428
 20
2074.7854605752168
 30
0.0
 11
2391.552106070561
 21
2074.7854605752168
 31
0.0
  0
LINE
  5
7E0E
  8
1
 10
2399.5229986188428
 20
2134.7854605752168
 30
0.0
 11
2380.453847665076
 21
2134.7854605752168
 31
0.0
  0
POLYLINE
  5
7E0F
  8
1
 66
     1
 10
0.0
 20
0.0
 30
0.0
 70
     1
  0
VERTEX
  5
82E1
  8
1
 10
2370.327082120034
 20
2162.651117138173
 30
0.0
  0
VERTEX
  5
82E2
  8
1
 10
2365.584361006685
 20
2162.651117138173
 30
0.0
  0
VERTEX
  5
82E3
  8
1
 10
2365.584361006685
 20
2155.585460575217
 30
0.0
  0
VERTEX
  5
82E4
  8
1
 10
2370.327082120034
 20
2155.585460575217
 30
0.0
  0
SEQEND
  5
82E5
  8
1
  0
ARC
  5
7E15
  8
1
 10
2351.5660459050732
 20
2150.5130488571172
 30
0.0
 40
3.0
 50
108.0376136626346
 51
183.10495396457819
  0
ARC
  5
7E16
  8
1
 10
2377.679951332615
 20
2150.5130488571172
 30
0.0
 40
3.0
 50
356.89504603542167
 51
71.962386337365331
  0
ARC
  5
7E17
  8
1
 10
2364.6229986188441
 20
2110.4174630261532
 30
0.0
 40
45.167997549063401
 50
71.962386337365885
 51
108.0376136626341
  0
LINE
  5
7E18
  8
1
 10
2595.6229986188441
 20
1874.785460575217
 30
0.0
 11
2595.6229986188441
 21
2074.7854605752168
 31
0.0
  0
LINE
  5
7E19
  8
1
 10
2734.6229986188441
 20
2046.3854605752169
 30
0.0
 11
2734.6229986188441
 21
1804.785460575217
 31
0.0
  0
LINE
  5
7E1A
  8
2
 10
2699.6229986188441
 20
2202.8787964947019
 30
0.0
 11
2699.6229986188441
 21
1987.605675758396
 31
0.0
  0
ARC
  5
7E1B
  8
1
 10
2910.2718972008001
 20
2139.7947170082571
 30
0.0
 40
194.8824391137272
 50
176.8950460354223
 51
199.54871276881059
  0
ARC
  5
7E1C
  8
1
 10
2488.9741000368872
 20
2139.7947170082571
 30
0.0
 40
194.8824391137272
 50
340.45128723118921
 51
3.1049539645776889
  0
LINE
  5
7E1D
  8
1
 10
2672.6229986188441
 20
2055.585460575217
 30
0.0
 11
2726.6229986188441
 21
2055.585460575217
 31
0.0
  0
LINE
  5
7E1E
  8
1
 10
2726.6229986188441
 20
2074.585460575217
 30
0.0
 11
2672.6229986188441
 21
2074.585460575217
 31
0.0
  0
LINE
  5
7E1F
  8
1
 10
2664.722998618844
 20
2134.7854605752168
 30
0.0
 11
2683.7921495726109
 21
2134.7854605752168
 31
0.0
  0
LINE
  5
7E20
  8
1
 10
2595.6229986188441
 20
2046.3854605752169
 30
0.0
 11
2744.6229986188441
 21
2046.3854605752169
 31
0.0
  0
LINE
  5
7E21
  8
1
 10
2595.6229986188441
 20
2049.585460575217
 30
0.0
 11
2744.6229986188441
 21
2049.585460575217
 31
0.0
  0
POLYLINE
  5
7E22
  8
1
 66
     1
 10
0.0
 20
0.0
 30
0.0
 70
     1
  0
VERTEX
  5
82E6
  8
1
 10
2667.1229986188441
 20
2049.585460575217
 30
0.0
  0
VERTEX
  5
82E7
  8
1
 10
2732.1229986188441
 20
2049.585460575217
 30
0.0
  0
VERTEX
  5
82E8
  8
1
 10
2732.1229986188441
 20
2055.585460575217
 30
0.0
  0
VERTEX
  5
82E9
  8
1
 10
2667.1229986188441
 20
2055.585460575217
 30
0.0
  0
SEQEND
  5
82EA
  8
1
  0
LINE
  5
7E28
  8
1
 10
2664.722998618844
 20
2134.7854605752168
 30
0.0
 11
2664.722998618844
 21
2074.7854605752168
 31
0.0
  0
LINE
  5
7E29
  8
1
 10
2672.6229986188441
 20
2055.585460575217
 30
0.0
 11
2672.6229986188441
 21
2074.585460575217
 31
0.0
  0
LINE
  5
7E2A
  8
1
 10
2664.722998618844
 20
2074.7854605752168
 30
0.0
 11
2672.6938911671268
 21
2074.7854605752168
 31
0.0
  0
LINE
  5
7E2B
  8
1
 10
2726.6229986188441
 20
2055.585460575217
 30
0.0
 11
2726.6229986188441
 21
2074.585460575217
 31
0.0
  0
LINE
  5
7E2C
  8
1
 10
2744.6229986188441
 20
2049.585460575217
 30
0.0
 11
2744.6229986188441
 21
2046.3854605752169
 31
0.0
  0
LINE
  5
7E2D
  8
1
 10
2721.0229986188451
 20
2134.7854605752168
 30
0.0
 11
2721.0229986188451
 21
2093.2756944429429
 31
0.0
  0
LINE
  5
7E2E
  8
1
 10
2715.4538476650769
 20
2134.7854605752168
 30
0.0
 11
2721.0229986188451
 21
2134.7854605752168
 31
0.0
  0
ARC
  5
7E2F
  8
1
 10
2712.679951332615
 20
2150.5130488571172
 30
0.0
 40
3.0
 50
356.89504603542167
 51
71.962386337365317
  0
ARC
  5
7E30
  8
1
 10
2699.6229986188441
 20
2110.4174630261532
 30
0.0
 40
45.167997549063401
 50
71.962386337365871
 51
108.0376136626341
  0
ARC
  5
7E31
  8
1
 10
2686.5660459050732
 20
2150.5130488571172
 30
0.0
 40
3.0
 50
108.0376136626346
 51
183.10495396457819
  0
POLYLINE
  5
7E32
  8
1
 66
     1
 10
0.0
 20
0.0
 30
0.0
 70
     1
  0
VERTEX
  5
82EB
  8
1
 10
2693.9189151176538
 20
2162.651117138173
 30
0.0
  0
VERTEX
  5
82EC
  8
1
 10
2698.6616362310028
 20
2162.651117138173
 30
0.0
  0
VERTEX
  5
82ED
  8
1
 10
2698.6616362310028
 20
2155.585460575217
 30
0.0
  0
VERTEX
  5
82EE
  8
1
 10
2693.9189151176538
 20
2155.585460575217
 30
0.0
  0
SEQEND
  5
82EF
  8
1
  0
DIMENSION
  5
7E38
  8
3
  2
*D18
 10
3254.8404767488059
 20
1904.785460575217
 30
0.0
 11
3204.8404767488059
 21
2104.7854605752182
 31
0.0
 70
     0
 13
3137.6229986188441
 23
2304.7854605752168
 33
0.0
 14
3137.6229986188441
 24
1904.785460575217
 34
0.0
 50
90.0
1001
ACAD
1000
DSTYLE
1002
{
1070
   287
1070
     3
1070
    40
1040
20.0
1070
   143
1040
0.039
1070
   172
1070
     1
1070
   271
1070
     0
1070
   279
1070
     0
1070
   288
1070
     1
1002
}
  0
LINE
  5
7E39
  8
1
 10
2782.6229986188441
 20
2555.7854605752168
 30
0.0
 11
2782.6229986188441
 21
2089.7854605752168
 31
0.0
  0
LINE
  5
7E3A
  8
1
 10
3137.6229986188441
 20
2304.7854605752168
 30
0.0
 11
3137.6229986188441
 21
1904.785460575217
 31
0.0
  0
LINE
  5
7E3B
  8
1
 10
3112.6229986188441
 20
2342.4854605752171
 30
0.0
 11
3112.6229986188441
 21
2114.7854605752168
 31
0.0
  0
LINE
  5
7E3C
  8
1
 10
3111.6229986188459
 20
2530.7854605752168
 30
0.0
 11
3111.6229986188459
 21
2114.7854605752168
 31
0.0
  0
LINE
  5
7E3D
  8
1
 10
2807.6229986188441
 20
2530.7854605752168
 30
0.0
 11
2807.6229986188441
 21
2114.7854605752168
 31
0.0
  0
LINE
  5
7E3E
  8
1
 10
3109.6229986188459
 20
2530.7854605752168
 30
0.0
 11
3109.6229986188459
 21
2114.7854605752168
 31
0.0
  0
LINE
  5
7E3F
  8
1
 10
2809.6229986188441
 20
2530.7854605752168
 30
0.0
 11
2809.6229986188441
 21
2114.7854605752168
 31
0.0
  0
LINE
  5
7E40
  8
1
 10
2809.6229986188441
 20
1821.5777436132009
 30
0.0
 11
3109.6229986188459
 21
1821.5777436132009
 31
0.0
  0
LINE
  5
7E41
  8
1
 10
2809.6229986188441
 20
2140.7996967415679
 30
0.0
 11
2809.6229986188441
 21
1811.5777436132009
 31
0.0
  0
LINE
  5
7E42
  8
1
 10
2807.6229986188441
 20
2138.4870830271961
 30
0.0
 11
2807.6229986188441
 21
1811.5777436132009
 31
0.0
  0
POLYLINE
  5
7E43
  8
1
 66
     1
 10
0.0
 20
0.0
 30
0.0
 70
     1
  0
VERTEX
  5
82F9
  8
1
 10
2807.6229986188441
 20
1804.785460575217
 30
0.0
  0
VERTEX
  5
82FA
  8
1
 10
2767.6229986188441
 20
1804.785460575217
 30
0.0
  0
VERTEX
  5
82FB
  8
1
 10
2767.6229986188441
 20
1806.785460575217
 30
0.0
 42
-0.4142135623730951
  0
VERTEX
  5
82FC
  8
1
 10
2770.6229986188441
 20
1809.785460575217
 30
0.0
  0
VERTEX
  5
82FD
  8
1
 10
2798.1229986188441
 20
1809.785460575217
 30
0.0
 42
0.4142135623730951
  0
VERTEX
  5
82FE
  8
1
 10
2802.6229986188441
 20
1814.285460575217
 30
0.0
  0
VERTEX
  5
82FF
  8
1
 10
2802.6229986188441
 20
1841.785460575217
 30
0.0
 42
-0.4142135623730951
  0
VERTEX
  5
8300
  8
1
 10
2805.6229986188441
 20
1844.785460575217
 30
0.0
  0
VERTEX
  5
8301
  8
1
 10
2807.6229986188441
 20
1844.785460575217
 30
0.0
  0
SEQEND
  5
8302
  8
1
  0
LINE
  5
7E4E
  8
1
 10
2807.6229986188441
 20
1811.5777436132009
 30
0.0
 11
2809.6229986188441
 21
1811.5777436132009
 31
0.0
  0
LINE
  5
7E4F
  8
1
 10
2757.6229986188441
 20
2001.8854605752169
 30
0.0
 11
2807.6229986188441
 21
2001.8854605752169
 31
0.0
  0
LINE
  5
7E50
  8
1
 10
2757.6229986188441
 20
2006.3854605752169
 30
0.0
 11
2807.6229986188441
 21
2006.3854605752169
 31
0.0
  0
LINE
  5
7E51
  8
1
 10
2757.6229986188441
 20
2006.3854605752169
 30
0.0
 11
2757.6229986188441
 21
2001.8854605752169
 31
0.0
  0
LINE
  5
7E52
  8
1
 10
2782.6229986188441
 20
2089.7854605752168
 30
0.0
 11
2807.6229986188441
 21
2089.7854605752168
 31
0.0
  0
LINE
  5
7E53
  8
1
 10
2809.6229986188441
 20
2116.7854605752168
 30
0.0
 11
2809.6229986188441
 21
2114.7854605752168
 31
0.0
  0
LINE
  5
7E54
  8
1
 10
3112.6229986188441
 20
2118.3800511261211
 30
0.0
 11
3112.6229986188441
 21
1847.085460575217
 31
0.0
  0
LINE
  5
7E55
  8
1
 10
3111.6229986188459
 20
2118.3800511261211
 30
0.0
 11
3111.6229986188459
 21
1804.785460575217
 31
0.0
  0
LINE
  5
7E56
  8
1
 10
3109.6229986188459
 20
2119.9862109861442
 30
0.0
 11
3109.6229986188459
 21
1811.5777436132009
 31
0.0
  0
POLYLINE
  5
7E57
  8
1
 66
     1
 10
0.0
 20
0.0
 30
0.0
 70
     1
  0
VERTEX
  5
8303
  8
1
 10
3112.6229986188441
 20
1904.785460575217
 30
0.0
  0
VERTEX
  5
8304
  8
1
 10
3137.6229986188441
 20
1904.785460575217
 30
0.0
  0
VERTEX
  5
8305
  8
1
 10
3137.6229986188441
 20
1903.785460575217
 30
0.0
 42
-0.4142135623730951
  0
VERTEX
  5
8306
  8
1
 10
3135.6229986188441
 20
1901.785460575217
 30
0.0
  0
VERTEX
  5
8307
  8
1
 10
3119.6229986188441
 20
1901.785460575217
 30
0.0
 42
0.4142135623730951
  0
VERTEX
  5
8308
  8
1
 10
3115.6229986188441
 20
1897.785460575217
 30
0.0
  0
VERTEX
  5
8309
  8
1
 10
3115.6229986188441
 20
1881.785460575217
 30
0.0
 42
-0.4142135623730951
  0
VERTEX
  5
830A
  8
1
 10
3113.6229986188441
 20
1879.785460575217
 30
0.0
  0
VERTEX
  5
830B
  8
1
 10
3112.6229986188441
 20
1879.785460575217
 30
0.0
  0
SEQEND
  5
830C
  8
1
  0
POLYLINE
  5
7E62
  8
1
 66
     1
 10
0.0
 20
0.0
 30
0.0
  0
VERTEX
  5
830D
  8
1
 10
3116.622998618845
 20
1826.785460575217
 30
0.0
  0
VERTEX
  5
830E
  8
1
 10
3116.622998618845
 20
1841.785460575217
 30
0.0
 42
0.4142135623730951
  0
VERTEX
  5
830F
  8
1
 10
3113.6229986188459
 20
1844.785460575217
 30
0.0
  0
VERTEX
  5
8310
  8
1
 10
3111.6229986188459
 20
1844.785460575217
 30
0.0
  0
VERTEX
  5
8311
  8
1
 10
3111.6229986188459
 20
1826.785460575217
 30
0.0
  0
SEQEND
  5
8312
  8
1
  0
POLYLINE
  5
7E69
  8
1
 66
     1
 10
0.0
 20
0.0
 30
0.0
  0
VERTEX
  5
8313
  8
1
 10
3111.6229986188459
 20
1804.785460575217
 30
0.0
  0
VERTEX
  5
8314
  8
1
 10
3151.622998618845
 20
1804.785460575217
 30
0.0
  0
VERTEX
  5
8315
  8
1
 10
3151.622998618845
 20
1806.785460575217
 30
0.0
 42
0.4142135623730951
  0
VERTEX
  5
8316
  8
1
 10
3148.622998618845
 20
1809.785460575217
 30
0.0
  0
VERTEX
  5
8317
  8
1
 10
3121.1229986188459
 20
1809.785460575217
 30
0.0
 42
-0.4142135623730951
  0
VERTEX
  5
8318
  8
1
 10
3116.622998618845
 20
1814.285460575217
 30
0.0
  0
VERTEX
  5
8319
  8
1
 10
3116.622998618845
 20
1826.785460575217
 30
0.0
 42
0.4142135623730951
  0
SEQEND
  5
831A
  8
1
  0
POLYLINE
  5
7E72
  8
1
 66
     1
 10
0.0
 20
0.0
 30
0.0
  0
VERTEX
  5
831B
  8
1
 10
3111.6229986188459
 20
1831.785460575217
 30
0.0
  0
VERTEX
  5
831C
  8
1
 10
3111.6229986188459
 20
1826.5777436132009
 30
0.0
  0
SEQEND
  5
831D
  8
1
  0
LINE
  5
7E76
  8
1
 10
3109.6229986188459
 20
1811.5777436132009
 30
0.0
 11
3111.6229986188459
 21
1811.5777436132009
 31
0.0
  0
LINE
  5
7E77
  8
1
 10
3112.622998618845
 20
1847.085460575217
 30
0.0
 11
3111.6229986188459
 21
1847.085460575217
 31
0.0
  0
LINE
  5
7E78
  8
1
 10
3112.6229986188441
 20
1904.785460575217
 30
0.0
 11
3137.6229986188441
 21
1904.785460575217
 31
0.0
  0
DIMENSION
  5
7E79
  8
3
  2
*D19
 10
3109.6229986188459
 20
2638.3303606829918
 30
0.0
 11
2959.622998618845
 21
2688.3303606829918
 31
0.0
 70
     0
 13
2809.6229986188441
 23
2530.7854605752168
 33
0.0
 14
3109.6229986188459
 24
2530.7854605752168
 34
0.0
1001
ACAD
1000
DSTYLE
1002
{
1070
   287
1070
     3
1070
    40
1040
20.0
1070
   143
1040
0.039
1070
   172
1070
     1
1070
   271
1070
     0
1070
   279
1070
     0
1070
   288
1070
     1
1002
}
  0
LINE
  5
7E7A
  8
1
 10
2807.6229986188441
 20
2530.7854605752168
 30
0.0
 11
3111.6229986188459
 21
2530.7854605752168
 31
0.0
  0
LINE
  5
7E7B
  8
1
 10
2782.6229986188441
 20
2555.7854605752168
 30
0.0
 11
3136.6229986188459
 21
2555.7854605752168
 31
0.0
  0
LINE
  5
7E7C
  8
1
 10
3136.6229986188459
 20
2555.7854605752168
 30
0.0
 11
3136.6229986188459
 21
2307.517511382785
 31
0.0
  0
POLYLINE
  5
7E7D
  8
1
 66
     1
 10
0.0
 20
0.0
 30
0.0
 70
     1
  0
VERTEX
  5
8327
  8
1
 10
3112.6229986188441
 20
2304.7854605752168
 30
0.0
  0
VERTEX
  5
8328
  8
1
 10
3137.6229986188441
 20
2304.7854605752168
 30
0.0
  0
VERTEX
  5
8329
  8
1
 10
3137.6229986188441
 20
2305.7854605752168
 30
0.0
 42
0.4142135623730951
  0
VERTEX
  5
832A
  8
1
 10
3135.6229986188441
 20
2307.7854605752168
 30
0.0
  0
VERTEX
  5
832B
  8
1
 10
3119.6229986188441
 20
2307.7854605752168
 30
0.0
 42
-0.4142135623730951
  0
VERTEX
  5
832C
  8
1
 10
3115.6229986188441
 20
2311.7854605752168
 30
0.0
  0
VERTEX
  5
832D
  8
1
 10
3115.6229986188441
 20
2327.7854605752168
 30
0.0
 42
0.4142135623730951
  0
VERTEX
  5
832E
  8
1
 10
3113.6229986188441
 20
2329.7854605752168
 30
0.0
  0
VERTEX
  5
832F
  8
1
 10
3112.6229986188441
 20
2329.7854605752168
 30
0.0
  0
SEQEND
  5
8330
  8
1
  0
LINE
  5
7E88
  8
1
 10
3112.6229986188441
 20
2304.7854605752168
 30
0.0
 11
3137.6229986188441
 21
2304.7854605752168
 31
0.0
  0
LINE
  5
7E89
  8
1
 10
3137.6229986188441
 20
2304.7854605752168
 30
0.0
 11
3136.022998618846
 21
2304.7854605752168
 31
0.0
  0
LINE
  5
7E8A
  8
1
 10
3112.622998618845
 20
2342.485460575218
 30
0.0
 11
3111.6229986188459
 21
2342.485460575218
 31
0.0
  0
LINE
  5
8197
  8
4
 10
3700.0
 20
1000.0
 30
0.0
 11
3700.0
 21
600.0
 31
0.0
  0
LINE
  5
8198
  8
4
 10
2300.0
 20
1000.0
 30
0.0
 11
2300.0
 21
600.0
 31
0.0
  0
LINE
  5
8199
  8
4
 10
1300.0
 20
1000.0
 30
0.0
 11
1300.0
 21
600.0
 31
0.0
  0
LINE
  5
819C
  8
4
 10
1300.0
 20
600.0
 30
0.0
 11
3700.0
 21
600.0
 31
0.0
  0
LINE
  5
819D
  8
4
 10
1300.0
 20
800.0
 30
0.0
 11
3700.0
 21
800.0
 31
0.0
  0
TEXT
  5
819E
  8
4
 10
1377.0041616938031
 20
863.08605173322564
 30
0.0
 40
100.0
  1
機器名称
  0
TEXT
  5
819F
  8
4
 10
1372.516212049595
 20
643.29031346402189
 30
0.0
 40
100.0
  1
機器型番
  0
TEXT
  5
81A0
  8
4
 10
2299.8546179137529
 20
845.45519073107846
 30
0.0
 40
90.0
  1
ミツヤリミットロードファン
  0
TEXT
  5
81A1
  8
4
 10
2373.3089911709608
 20
634.31916855988675
 30
0.0
 40
100.0
  1
LL#2 1/2-1
  0
TEXT
  5
81A3
  8
4
 10
1582.5030484153281
 20
4766.8576826650306
 30
0.0
 40
107.9999999999999
  1
床置防振ベット
  0
TEXT
  5
81A4
  8
4
 10
632.33518665889278
 20
5067.7619523985959
 30
0.0
 40
144.0
  1
遠心式片吸込片持リミットロードファン
  0
LINE
  5
81A5
  8
4
 10
500.0
 20
4938.8175085296089
 30
0.0
 11
3700.0
 21
4938.8175085296089
 31
0.0
  0
LINE
  5
81A6
  8
4
 10
500.0
 20
5338.8175085296098
 30
0.0
 11
3700.0
 21
5338.8175085296098
 31
0.0
  0
LINE
  5
81A7
  8
4
 10
1300.0
 20
1000.0
 30
0.0
 11
3700.0
 21
1000.0
 31
0.0
  0
LINE
  5
81A8
  8
4
 10
500.0
 20
5338.8175085296098
 30
0.0
 11
500.0
 21
4938.8175085296089
 31
0.0
  0
TEXT
  5
81A9
  8
4
 10
710.78538392992414
 20
4764.638955092687
 30
0.0
 40
107.9999999999999
  1
左回転左横向
  0
TEXT
  5
81AA
  8
4
 10
2937.9391184985789
 20
5412.1221629906177
 30
0.0
 40
112.0
  1
No.
  0
TEXT
  5
81AB
  8
4
 10
2622.5921252000262
 20
4766.8576826650306
 30
0.0
 40
107.9999999999999
  1
縮尺：1/20
  0
LINE
  5
81AC
  8
4
 10
3700.0
 20
5338.8175085296098
 30
0.0
 11
3700.0
 21
4938.8175085296089
 31
0.0
  0
LINE
  5
81AD
  8
4
 10
4200.0
 20
5900.0
 30
0.0
 11
4200.0
 21
5900.0
 31
0.0
  0
LINE
  5
81AE
  8
4
 10
2881.2348447197292
 20
5362.5271662508021
 30
0.0
 11
2881.2348447197292
 21
5573.3045230995049
 31
0.0
  0
LINE
  5
81AF
  8
4
 10
2881.2348447197292
 20
5573.3045230995049
 30
0.0
 11
3700.0
 21
5573.3045230995049
 31
0.0
  0
LINE
  5
81B0
  8
4
 10
3700.0
 20
5573.3045230995049
 30
0.0
 11
3700.0
 21
5362.5271662508021
 31
0.0
  0
LINE
  5
81B1
  8
4
 10
3700.0
 20
5362.5271662508021
 30
0.0
 11
2881.2348447197292
 21
5362.5271662508021
 31
0.0
  0
LINE
  5
81B2
  8
4
 10
0.0
 20
0.0
 30
0.0
 11
0.0
 21
5900.0
 31
0.0
  0
LINE
  5
81B3
  8
4
 10
0.0
 20
5900.0
 30
0.0
 11
4200.0
 21
5900.0
 31
0.0
  0
LINE
  5
81B4
  8
4
 10
4200.0
 20
5900.0
 30
0.0
 11
4200.0
 21
0.0
 31
0.0
  0
LINE
  5
81B5
  8
4
 10
4200.0
 20
0.0
 30
0.0
 11
0.0
 21
0.0
 31
0.0
  0
DIMENSION
  5
81E5
  8
3
  2
*D21
 10
578.85974732921386
 20
1618.785460575217
 30
0.0
 11
528.85974732921363
 21
1470.214032003789
 31
0.0
 70
     0
 13
885.75952027605263
 23
1693.785460575217
 33
0.0
 14
885.75952027605263
 24
1618.785460575217
 34
0.0
 50
90.0
1001
ACAD
1000
DSTYLE
1002
{
1070
   287
1070
     3
1070
    40
1040
20.0
1070
   143
1040
0.039
1070
   172
1070
     1
1070
   271
1070
     0
1070
   279
1070
     0
1070
     6
1000
DOT
1002
}
  0
DIMENSION
  5
81F6
  8
3
  2
*D22
 10
578.85974732921386
 20
1729.785460575217
 30
0.0
 11
417.43117590064207
 21
1760.499746289503
 31
0.0
 70
     0
 13
885.75952027605263
 23
1693.785460575217
 33
0.0
 14
885.75952027605263
 24
1729.785460575217
 34
0.0
 50
90.0
1001
ACAD
1000
DSTYLE
1002
{
1070
   287
1070
     4
1070
     3
1000
(<>)
1070
    40
1040
20.0
1070
   143
1040
0.039
1070
   172
1070
     1
1070
   271
1070
     0
1070
   279
1070
     1
1070
     6
1000
DOT
1002
}
  0
DIMENSION
  5
8203
  8
3
  2
*D23
 10
339.4287008072933
 20
1618.785460575217
 30
0.0
 11
289.42870080729313
 21
2087.2828692315029
 31
0.0
 70
     0
 13
795.75952027605263
 23
2555.780277887789
 33
0.0
 14
885.75952027605263
 24
1618.785460575217
 34
0.0
 50
90.0
1001
ACAD
1000
DSTYLE
1002
{
1070
   287
1070
     3
1070
    40
1040
20.0
1070
   143
1040
0.039
1070
   172
1070
     1
1070
   271
1070
     0
1070
   279
1070
     0
1002
}
  0
ENDSEC
  0
EOF
