  0
SECTION
  2
HEADER
  9
$ACADVER
  1
AC1009
  9
$INSBASE
 10
0.0
 20
0.0
 30
0.0
  9
$EXTMIN
 10
0.0
 20
0.0
 30
0.0
  9
$EXTMAX
 10
4200.0
 20
5900.0
 30
0.0
  9
$LIMMIN
 10
0.0
 20
0.0
  9
$LIMMAX
 10
297.0
 20
210.0
  9
$ORTHOMODE
 70
     0
  9
$REGENMODE
 70
     1
  9
$FILLMODE
 70
     0
  9
$QTEXTMODE
 70
     0
  9
$MIRRTEXT
 70
     1
  9
$DRAGMODE
 70
     2
  9
$LTSCALE
 40
100.0
  9
$OSMODE
 70
    37
  9
$ATTMODE
 70
     1
  9
$TEXTSIZE
 40
180.0
  9
$TRACEWID
 40
0.05
  9
$TEXTSTYLE
  7
STANDARD
  9
$CLAYER
  8
3
  9
$CELTYPE
  6
BYLAYER
  9
$CECOLOR
 62
   256
  9
$DIMSCALE
 40
20.0
  9
$DIMASZ
 40
2.0
  9
$DIMEXO
 40
0.5
  9
$DIMDLI
 40
10.0
  9
$DIMRND
 40
0.0
  9
$DIMDLE
 40
0.0
  9
$DIMEXE
 40
1.0
  9
$DIMTP
 40
1.0
  9
$DIMTM
 40
1.0
  9
$DIMTXT
 40
3.0
  9
$DIMCEN
 40
0.0
  9
$DIMTSZ
 40
0.0
  9
$DIMTOL
 70
     0
  9
$DIMLIM
 70
     0
  9
$DIMTIH
 70
     0
  9
$DIMTOH
 70
     0
  9
$DIMSE1
 70
     0
  9
$DIMSE2
 70
     0
  9
$DIMTAD
 70
     1
  9
$DIMZIN
 70
     8
  9
$DIMBLK
  1

  9
$DIMASO
 70
     1
  9
$DIMSHO
 70
     1
  9
$DIMPOST
  1

  9
$DIMAPOST
  1

  9
$DIMALT
 70
     0
  9
$DIMALTD
 70
     2
  9
$DIMALTF
 40
0.039
  9
$DIMLFAC
 40
1.0
  9
$DIMTOFL
 70
     1
  9
$DIMTVP
 40
0.0
  9
$DIMTIX
 70
     0
  9
$DIMSOXD
 70
     0
  9
$DIMSAH
 70
     1
  9
$DIMBLK1
  1
OPEN
  9
$DIMBLK2
  1
OPEN
  9
$DIMSTYLE
  2
IGA
  9
$DIMCLRD
 70
     0
  9
$DIMCLRE
 70
     0
  9
$DIMCLRT
 70
     0
  9
$DIMTFAC
 40
10.0
  9
$DIMGAP
 40
1.0
  9
$LUNITS
 70
     2
  9
$LUPREC
 70
     3
  9
$SKETCHINC
 40
0.1
  9
$FILLETRAD
 40
50.0
  9
$AUNITS
 70
     0
  9
$AUPREC
 70
     0
  9
$MENU
  1
acad
  9
$ELEVATION
 40
0.0
  9
$PELEVATION
 40
0.0
  9
$THICKNESS
 40
0.0
  9
$LIMCHECK
 70
     0
  9
$BLIPMODE
 70
     0
  9
$CHAMFERA
 40
0.5
  9
$CHAMFERB
 40
0.5
  9
$SKPOLY
 70
     0
  9
$TDCREATE
 40
2451983.497626157
  9
$TDUPDATE
 40
2454953.6389156482
  9
$TDINDWG
 40
0.0866993519
  9
$TDUSRTIMER
 40
0.0866993519
  9
$USRTIMER
 70
     1
  9
$ANGBASE
 50
0.0
  9
$ANGDIR
 70
     0
  9
$PDMODE
 70
     0
  9
$PDSIZE
 40
0.0
  9
$PLINEWID
 40
0.0
  9
$COORDS
 70
     1
  9
$SPLFRAME
 70
     0
  9
$SPLINETYPE
 70
     6
  9
$SPLINESEGS
 70
     8
  9
$ATTDIA
 70
     0
  9
$ATTREQ
 70
     1
  9
$HANDLING
 70
 10241
  9
$HANDSEED
  5
8448
  9
$SURFTAB1
 70
     6
  9
$SURFTAB2
 70
     6
  9
$SURFTYPE
 70
     6
  9
$SURFU
 70
     6
  9
$SURFV
 70
     6
  9
$UCSNAME
  2

  9
$UCSORG
 10
0.0
 20
0.0
 30
0.0
  9
$UCSXDIR
 10
1.0
 20
0.0
 30
0.0
  9
$UCSYDIR
 10
0.0
 20
1.0
 30
0.0
  9
$PUCSNAME
  2

  9
$PUCSORG
 10
0.0
 20
0.0
 30
0.0
  9
$PUCSXDIR
 10
1.0
 20
0.0
 30
0.0
  9
$PUCSYDIR
 10
0.0
 20
1.0
 30
0.0
  9
$USERI1
 70
     0
  9
$USERI2
 70
     0
  9
$USERI3
 70
     0
  9
$USERI4
 70
     0
  9
$USERI5
 70
     0
  9
$USERR1
 40
0.0
  9
$USERR2
 40
0.0
  9
$USERR3
 40
0.0
  9
$USERR4
 40
0.0
  9
$USERR5
 40
0.0
  9
$WORLDVIEW
 70
     1
  9
$SHADEDGE
 70
     3
  9
$SHADEDIF
 70
    70
  9
$TILEMODE
 70
     1
  9
$MAXACTVP
 70
    16
  9
$PLIMCHECK
 70
     0
  9
$PEXTMIN
 10
1.0000000000000000E+020
 20
1.0000000000000000E+020
 30
1.0000000000000000E+020
  9
$PEXTMAX
 10
-1.0000000000000000E+020
 20
-1.0000000000000000E+020
 30
-1.0000000000000000E+020
  9
$PLIMMIN
 10
0.0
 20
0.0
  9
$PLIMMAX
 10
12.0
 20
9.0
  9
$UNITMODE
 70
     0
  9
$VISRETAIN
 70
     0
  9
$PLINEGEN
 70
     0
  9
$PSLTSCALE
 70
     1
  0
ENDSEC
  0
SECTION
  2
TABLES
  0
TABLE
  2
VPORT
 70
     2
  0
VPORT
  2
*ACTIVE
 70
     0
 10
0.0
 20
0.0
 11
1.0
 21
1.0
 12
3921.1336667936871
 22
709.78686562169253
 13
0.0
 23
0.0
 14
10.0
 24
10.0
 15
10.0
 25
10.0
 16
0.0
 26
0.0
 36
1.0
 17
0.0
 27
0.0
 37
0.0
 40
1720.990951502728
 41
3.1666666666666661
 42
50.0
 43
0.0
 44
0.0
 50
0.0
 51
0.0
 71
     0
 72
   100
 73
     1
 74
     0
 75
     0
 76
     0
 77
     0
 78
     0
  0
ENDTAB
  0
TABLE
  2
LTYPE
 70
     2
  0
LTYPE
  2
CONTINUOUS
 70
     0
  3
Solid line
 72
    65
 73
     0
 40
0.0
  0
LTYPE
  2
CENTER
 70
     0
  3
____ _ ____ _ ____ _ ____ _ ____ _ ____ _ ____ 
 72
    65
 73
     4
 40
2.0
 49
1.25
 49
-0.25
 49
0.25
 49
-0.25
  0
ENDTAB
  0
TABLE
  2
LAYER
 70
     6
  0
LAYER
  2
0
 70
     0
 62
     7
  6
CONTINUOUS
  0
LAYER
  2
3
 70
     0
 62
     2
  6
CONTINUOUS
  0
LAYER
  2
2
 70
     0
 62
     3
  6
CENTER
  0
LAYER
  2
1
 70
     0
 62
     4
  6
CONTINUOUS
  0
LAYER
  2
4
 70
     0
 62
     7
  6
CONTINUOUS
  0
LAYER
  2
DEFPOINTS
 70
     0
 62
     7
  6
CONTINUOUS
  0
ENDTAB
  0
TABLE
  2
STYLE
 70
     1
  0
STYLE
  2
STANDARD
 70
     0
 40
0.0
 41
1.0
 50
0.0
 71
     0
 42
180.0
  3
simplex.shx
  4
extfont.shx
  0
ENDTAB
  0
TABLE
  2
VIEW
 70
     0
  0
ENDTAB
  0
TABLE
  2
UCS
 70
     0
  0
ENDTAB
  0
TABLE
  2
APPID
 70
     1
  0
APPID
  2
ACAD
 70
     0
  0
ENDTAB
  0
TABLE
  2
DIMSTYLE
 70
     1
  0
DIMSTYLE
  2
IGA
 70
     0
  3

  4

  5

  6
OPEN
  7
OPEN
 40
2.0
 41
2.0
 42
0.5
 43
10.0
 44
1.0
 45
0.0
 46
0.0
 47
1.0
 48
1.0
140
3.0
141
0.0
142
0.0
143
0.03937
144
1.0
145
0.0
146
10.0
147
1.0
 71
     0
 72
     0
 73
     0
 74
     0
 75
     0
 76
     0
 77
     1
 78
     8
170
     0
171
     2
172
     0
173
     1
174
     0
175
     0
176
     0
177
     0
178
     0
  0
ENDTAB
  0
ENDSEC
  0
SECTION
  2
BLOCKS
  0
BLOCK
  8
0
  2
$MODEL_SPACE
 70
     0
 10
0.0
 20
0.0
 30
0.0
  3
$MODEL_SPACE
  1

  0
ENDBLK
  5
1B
  8
0
  0
BLOCK
 67
     1
  8
0
  2
$PAPER_SPACE
 70
     0
 10
0.0
 20
0.0
 30
0.0
  3
$PAPER_SPACE
  1

  0
ENDBLK
  5
18
 67
     1
  8
0
  0
BLOCK
  8
0
  2
_OPEN
 70
     0
 10
0.0
 20
0.0
 30
0.0
  3
_OPEN
  1

  0
LINE
  5
79FD
  8
0
  6
BYBLOCK
 62
     0
 10
-1.0
 20
0.1666666666666666
 30
0.0
 11
0.0
 21
0.0
 31
0.0
  0
LINE
  5
79FE
  8
0
  6
BYBLOCK
 62
     0
 10
0.0
 20
0.0
 30
0.0
 11
-1.0
 21
-0.1666666666666666
 31
0.0
  0
LINE
  5
79FF
  8
0
  6
BYBLOCK
 62
     0
 10
0.0
 20
0.0
 30
0.0
 11
-1.0
 21
0.0
 31
0.0
  0
ENDBLK
  5
7A01
  8
0
  0
BLOCK
  8
0
  2
YA_N
 70
     0
 10
0.0
 20
0.0
 30
0.0
  3
YA_N
  1

  0
ENDBLK
  5
7A04
  8
0
  0
BLOCK
  8
0
  2
_DOT
 70
     0
 10
0.0
 20
0.0
 30
0.0
  3
_DOT
  1

  0
LINE
  5
8295
  8
0
  6
BYBLOCK
 62
     0
 10
0.0
 20
0.0
 30
0.0
 11
-1.0
 21
-0.0000000000000284
 31
0.0
  0
POLYLINE
  5
8296
  8
0
  6
BYBLOCK
 62
     0
 66
     1
 10
0.0
 20
0.0
 30
0.0
 70
     1
 40
0.1666666666666666
 41
0.1666666666666666
  0
VERTEX
  5
8404
  8
0
  6
BYBLOCK
 62
     0
 10
-0.0833333333333286
 20
-0.0000000000000284
 30
0.0
 42
1.0
  0
VERTEX
  5
8405
  8
0
  6
BYBLOCK
 62
     0
 10
0.0833333333333286
 20
-0.0000000000000284
 30
0.0
 42
1.0
  0
SEQEND
  5
8406
  8
0
  6
BYBLOCK
 62
     0
  0
ENDBLK
  5
7A64
  8
0
  0
BLOCK
  8
0
  2
*D3
 70
     1
 10
0.0
 20
0.0
 30
0.0
  3
*D3
  1

  0
LINE
  5
8377
  8
3
 62
     0
 10
3565.8901646761628
 20
2324.9878606156972
 30
0.0
 11
3733.4806313839722
 21
2324.9878606156972
 31
0.0
  0
LINE
  5
8378
  8
3
 62
     0
 10
3565.8901646761628
 20
1924.9878606156969
 30
0.0
 11
3733.4806313839722
 21
1924.9878606156969
 31
0.0
  0
LINE
  5
8379
  8
3
 62
     0
 10
3713.4806313839722
 20
2284.9878606156981
 30
0.0
 11
3713.4806313839722
 21
1964.9878606156969
 31
0.0
  0
INSERT
  5
837A
  8
3
 62
     0
  2
_OPEN
 10
3713.4806313839722
 20
2324.9878606156972
 30
0.0
 41
40.0
 42
40.0
 43
40.0
 50
90.0
  0
INSERT
  5
837B
  8
3
 62
     0
  2
_OPEN
 10
3713.4806313839722
 20
1924.9878606156969
 30
0.0
 41
40.0
 42
40.0
 43
40.0
 50
270.0
  0
TEXT
  8
3
  40
60
  5
8434
  62
0
  72
0
  71
0
 10
3543.48
 20
2018.79
 30
0.000000
  1
φ400
  0
POINT
  5
837D
  8
DEFPOINTS
 62
     0
 10
3555.8901646761628
 20
2324.9878606156972
 30
0.0
  0
POINT
  5
837E
  8
DEFPOINTS
 62
     0
 10
3555.8901646761628
 20
1924.9878606156969
 30
0.0
  0
POINT
  5
837F
  8
DEFPOINTS
 62
     0
 10
3713.4806313839722
 20
1924.9878606156969
 30
0.0
  0
ENDBLK
  5
8061
  8
0
  0
BLOCK
  8
0
  2
*D4
 70
     1
 10
0.0
 20
0.0
 30
0.0
  3
*D4
  1

  0
LINE
  5
8385
  8
3
 62
     0
 10
3252.5901646761631
 20
2393.1652632077962
 30
0.0
 11
3252.5901646761631
 21
2515.9771144957608
 31
0.0
  0
LINE
  5
8386
  8
3
 62
     0
 10
3552.5901646761631
 20
2393.1652632077962
 30
0.0
 11
3552.5901646761631
 21
2515.9771144957608
 31
0.0
  0
LINE
  5
8387
  8
3
 62
     0
 10
3292.5901646761631
 20
2495.9771144957608
 30
0.0
 11
3512.5901646761631
 21
2495.9771144957608
 31
0.0
  0
INSERT
  5
8388
  8
3
 62
     0
  2
_OPEN
 10
3252.5901646761631
 20
2495.9771144957608
 30
0.0
 41
40.0
 42
40.0
 43
40.0
 50
180.0
  0
INSERT
  5
8389
  8
3
 62
     0
  2
_OPEN
 10
3552.5901646761631
 20
2495.9771144957608
 30
0.0
 41
40.0
 42
40.0
 43
40.0
  0
TEXT
  8
3
  40
60
  5
8435
  62
0
  72
0
  71
0
 10
3295.45
 20
2439.78
 30
0.000000
  1
300
  0
POINT
  5
838B
  8
DEFPOINTS
 62
     0
 10
3252.5901646761631
 20
2383.1652632077962
 30
0.0
  0
POINT
  5
838C
  8
DEFPOINTS
 62
     0
 10
3552.5901646761631
 20
2383.1652632077962
 30
0.0
  0
POINT
  5
838D
  8
DEFPOINTS
 62
     0
 10
3552.5901646761631
 20
2495.9771144957608
 30
0.0
  0
ENDBLK
  5
8056
  8
0
  0
BLOCK
  8
0
  2
*D5
 70
     1
 10
0.0
 20
0.0
 30
0.0
  3
*D5
  1

  0
LINE
  5
838E
  8
3
 62
     0
 10
2665.0901646761631
 20
2261.6435662190138
 30
0.0
 11
2665.0901646761631
 21
2652.0253927092422
 31
0.0
  0
LINE
  5
838F
  8
3
 62
     0
 10
3402.5901646761631
 20
2589.4056994911339
 30
0.0
 11
3402.5901646761631
 21
2652.0253927092422
 31
0.0
  0
LINE
  5
8390
  8
3
 62
     0
 10
2705.090164676164
 20
2632.0253927092408
 30
0.0
 11
3362.5901646761631
 21
2632.0253927092408
 31
0.0
  0
INSERT
  5
8391
  8
3
 62
     0
  2
_OPEN
 10
2665.0901646761631
 20
2632.0253927092408
 30
0.0
 41
40.0
 42
40.0
 43
40.0
 50
180.0
  0
INSERT
  5
8392
  8
3
 62
     0
  2
_OPEN
 10
3402.5901646761631
 20
2632.0253927092408
 30
0.0
 41
40.0
 42
40.0
 43
40.0
  0
TEXT
  8
3
  40
60
  5
8436
  62
0
  72
0
  71
0
 10
2913.84
 20
2625.83
 30
0.000000
  1
MAX
  0
TEXT
  8
3
  40
60
  5
8437
  62
0
  72
0
  71
0
 10
2913.84
 20
2547.83
 30
0.000000
  1
830
  0
POINT
  5
8394
  8
DEFPOINTS
 62
     0
 10
2665.0901646761631
 20
2251.6435662190138
 30
0.0
  0
POINT
  5
8395
  8
DEFPOINTS
 62
     0
 10
3402.5901646761631
 20
2579.4056994911339
 30
0.0
  0
POINT
  5
8396
  8
DEFPOINTS
 62
     0
 10
3402.5901646761631
 20
2632.0253927092408
 30
0.0
  0
ENDBLK
  5
82A8
  8
0
  0
BLOCK
  8
0
  2
*D6
 70
     1
 10
0.0
 20
0.0
 30
0.0
  3
*D6
  1

  0
LINE
  5
812D
  8
0
  6
BYBLOCK
 62
     0
 10
3402.5901646761631
 20
2467.8517873140581
 30
0.0
 11
3402.5901646761631
 21
2530.6505786690541
 31
0.0
  0
LINE
  5
812E
  8
0
  6
BYBLOCK
 62
     0
 10
3554.8901646761628
 20
2269.9439014309569
 30
0.0
 11
3554.8901646761628
 21
2530.6505786690541
 31
0.0
  0
LINE
  5
812F
  8
0
  6
BYBLOCK
 62
     0
 10
3442.5901646761631
 20
2510.6505786690541
 30
0.0
 11
3514.8901646761628
 21
2510.6505786690541
 31
0.0
  0
TEXT
  5
8130
  8
3
 62
     0
 10
3403.1685062393449
 20
2535.8902927711661
 30
0.0
 40
60.0
  1
153
  0
INSERT
  5
8131
  8
0
  6
BYBLOCK
 62
     0
  2
_OPEN
 10
3402.5901646761631
 20
2510.6505786690541
 30
0.0
 41
40.0
 42
40.0
 43
40.0
 50
180.0
  0
INSERT
  5
8132
  8
0
  6
BYBLOCK
 62
     0
  2
_OPEN
 10
3554.8901646761628
 20
2510.6505786690541
 30
0.0
 41
40.0
 42
40.0
 43
40.0
  0
POINT
  5
8133
  8
DEFPOINTS
  6
BYBLOCK
 62
     0
 10
3402.5901646761631
 20
2457.8517873140581
 30
0.0
  0
POINT
  5
8134
  8
DEFPOINTS
  6
BYBLOCK
 62
     0
 10
3554.8901646761628
 20
2259.9439014309569
 30
0.0
  0
POINT
  5
8135
  8
DEFPOINTS
  6
BYBLOCK
 62
     0
 10
3554.8901646761628
 20
2510.6505786690541
 30
0.0
  0
ENDBLK
  5
8136
  8
0
  0
BLOCK
  8
0
  2
*D7
 70
     1
 10
0.0
 20
0.0
 30
0.0
  3
*D7
  1

  0
LINE
  5
839E
  8
3
 62
     0
 10
1051.0716845583661
 20
1701.015197726744
 30
0.0
 11
946.70878535002646
 21
1701.015197726744
 31
0.0
  0
LINE
  5
839F
  8
3
 62
     0
 10
1051.0699470301561
 20
2113.0151977267451
 30
0.0
 11
946.70878535002646
 21
2113.0151977267451
 31
0.0
  0
LINE
  5
83A0
  8
3
 62
     0
 10
966.70878535002635
 20
1741.015197726744
 30
0.0
 11
966.70878535002657
 21
2073.0151977267451
 31
0.0
  0
INSERT
  5
83A1
  8
3
 62
     0
  2
_OPEN
 10
966.70878535002635
 20
1701.015197726744
 30
0.0
 41
40.0
 42
40.0
 43
40.0
 50
270.0
  0
INSERT
  5
83A2
  8
3
 62
     0
  2
_OPEN
 10
966.70878535002657
 20
2113.0151977267451
 30
0.0
 41
40.0
 42
40.0
 43
40.0
 50
90.0
  0
TEXT
  8
3
  40
60
  5
8438
  62
0
  72
0
  71
0
 10
796.709
 20
1800.82
 30
0.000000
  1
412
  0
POINT
  5
83A4
  8
DEFPOINTS
 62
     0
 10
1061.0716845583661
 20
1701.015197726744
 30
0.0
  0
POINT
  5
83A5
  8
DEFPOINTS
 62
     0
 10
1061.0699470301561
 20
2113.0151977267451
 30
0.0
  0
POINT
  5
83A6
  8
DEFPOINTS
 62
     0
 10
966.70878535002657
 20
2113.0151977267451
 30
0.0
  0
ENDBLK
  5
7FF2
  8
0
  0
BLOCK
  8
0
  2
*D8
 70
     1
 10
0.0
 20
0.0
 30
0.0
  3
*D8
  1

  0
LINE
  5
83AB
  8
3
 62
     0
 10
1061.0699398595141
 20
2150.0150712885261
 30
0.0
 11
1061.0699398595141
 21
2589.5514668263422
 31
0.0
  0
LINE
  5
83AC
  8
3
 62
     0
 10
1366.0699438432
 20
2519.0879628806051
 30
0.0
 11
1366.0699438432
 21
2589.5514668263422
 31
0.0
  0
LINE
  5
83AD
  8
3
 62
     0
 10
1101.0699398595141
 20
2569.5514668263422
 30
0.0
 11
1326.0699438432
 21
2569.5514668263422
 31
0.0
  0
INSERT
  5
83AE
  8
3
 62
     0
  2
_OPEN
 10
1061.0699398595141
 20
2569.5514668263422
 30
0.0
 41
40.0
 42
40.0
 43
40.0
 50
180.0
  0
INSERT
  5
83AF
  8
3
 62
     0
  2
_OPEN
 10
1366.0699438432
 20
2569.5514668263422
 30
0.0
 41
40.0
 42
40.0
 43
40.0
  0
TEXT
  8
3
  40
60
  5
8439
  62
0
  72
0
  71
0
 10
1093.57
 20
2513.35
 30
0.000000
  1
305
  0
POINT
  5
83B1
  8
DEFPOINTS
 62
     0
 10
1061.0699398595141
 20
2140.0150712885261
 30
0.0
  0
POINT
  5
83B2
  8
DEFPOINTS
 62
     0
 10
1366.0699438432
 20
2509.0879628806051
 30
0.0
  0
POINT
  5
83B3
  8
DEFPOINTS
 62
     0
 10
1366.0699438432
 20
2569.5514668263422
 30
0.0
  0
ENDBLK
  5
7FD1
  8
0
  0
BLOCK
  8
0
  2
*D9
 70
     1
 10
0.0
 20
0.0
 30
0.0
  3
*D9
  1

  0
LINE
  5
83B4
  8
3
 62
     0
 10
1366.0699438432
 20
2519.0879628806051
 30
0.0
 11
1366.0699438432
 21
2589.5514668263422
 31
0.0
  0
LINE
  5
83B5
  8
3
 62
     0
 10
1708.069921468235
 20
2135.0151977267442
 30
0.0
 11
1708.069921468235
 21
2589.5514668263422
 31
0.0
  0
LINE
  5
83B6
  8
3
 62
     0
 10
1406.0699438432
 20
2569.5514668263422
 30
0.0
 11
1668.069921468235
 21
2569.5514668263422
 31
0.0
  0
INSERT
  5
83B7
  8
3
 62
     0
  2
_OPEN
 10
1366.0699438432
 20
2569.5514668263422
 30
0.0
 41
40.0
 42
40.0
 43
40.0
 50
180.0
  0
INSERT
  5
83B8
  8
3
 62
     0
  2
_OPEN
 10
1708.069921468235
 20
2569.5514668263422
 30
0.0
 41
40.0
 42
40.0
 43
40.0
  0
TEXT
  8
3
  40
60
  5
843A
  62
0
  72
0
  71
0
 10
1417.07
 20
2513.35
 30
0.000000
  1
342
  0
POINT
  5
83BA
  8
DEFPOINTS
 62
     0
 10
1366.0699438432
 20
2509.0879628806051
 30
0.0
  0
POINT
  5
83BB
  8
DEFPOINTS
 62
     0
 10
1708.069921468235
 20
2125.0151977267442
 30
0.0
  0
POINT
  5
83BC
  8
DEFPOINTS
 62
     0
 10
1708.069921468235
 20
2569.5514668263422
 30
0.0
  0
ENDBLK
  5
7FC6
  8
0
  0
BLOCK
  8
0
  2
*D10
 70
     1
 10
0.0
 20
0.0
 30
0.0
  3
*D10
  1

  0
LINE
  5
83BD
  8
3
 62
     0
 10
976.23664984127026
 20
2125.0151977267442
 30
0.0
 11
850.39745713342575
 21
2125.0151977267442
 31
0.0
  0
LINE
  5
83BE
  8
3
 62
     0
 10
1051.0716845583661
 20
1701.015197726744
 30
0.0
 11
850.39745713342552
 21
1701.015197726744
 31
0.0
  0
LINE
  5
83BF
  8
3
 62
     0
 10
870.39745713342563
 20
2085.0151977267451
 30
0.0
 11
870.39745713342563
 21
1741.015197726744
 31
0.0
  0
INSERT
  5
83C0
  8
3
 62
     0
  2
_OPEN
 10
870.39745713342563
 20
2125.0151977267442
 30
0.0
 41
40.0
 42
40.0
 43
40.0
 50
90.0
  0
INSERT
  5
83C1
  8
3
 62
     0
  2
_OPEN
 10
870.39745713342563
 20
1701.015197726744
 30
0.0
 41
40.0
 42
40.0
 43
40.0
 50
270.0
  0
TEXT
  8
3
  40
60
  5
843B
  62
0
  72
0
  71
0
 10
700.397
 20
1806.82
 30
0.000000
  1
424
  0
POINT
  5
83C3
  8
DEFPOINTS
 62
     0
 10
986.23664984127015
 20
2125.0151977267442
 30
0.0
  0
POINT
  5
83C4
  8
DEFPOINTS
 62
     0
 10
1061.0716845583661
 20
1701.015197726744
 30
0.0
  0
POINT
  5
83C5
  8
DEFPOINTS
 62
     0
 10
870.39745713342563
 20
1701.015197726744
 30
0.0
  0
ENDBLK
  5
7FBB
  8
0
  0
BLOCK
  8
0
  2
*D11
 70
     1
 10
0.0
 20
0.0
 30
0.0
  3
*D11
  1

  0
LINE
  5
83C6
  8
3
 62
     0
 10
1356.0699438432
 20
2407.0151977267442
 30
0.0
 11
730.56102876551267
 21
2407.0151977267451
 31
0.0
  0
LINE
  5
83C7
  8
3
 62
     0
 10
976.23664984127026
 20
2125.0151977267442
 30
0.0
 11
730.56102876551256
 21
2125.0151977267442
 31
0.0
  0
LINE
  5
83C8
  8
3
 62
     0
 10
750.56102876551279
 20
2367.0151977267451
 30
0.0
 11
750.56102876551267
 21
2165.0151977267451
 31
0.0
  0
INSERT
  5
83C9
  8
3
 62
     0
  2
_OPEN
 10
750.56102876551279
 20
2407.0151977267451
 30
0.0
 41
40.0
 42
40.0
 43
40.0
 50
90.0
  0
INSERT
  5
83CA
  8
3
 62
     0
  2
_OPEN
 10
750.56102876551267
 20
2125.0151977267442
 30
0.0
 41
40.0
 42
40.0
 43
40.0
 50
270.0
  0
TEXT
  8
3
  40
60
  5
843C
  62
0
  72
0
  71
0
 10
580.561
 20
2159.82
 30
0.000000
  1
282
  0
POINT
  5
83CC
  8
DEFPOINTS
 62
     0
 10
1366.0699438432
 20
2407.0151977267442
 30
0.0
  0
POINT
  5
83CD
  8
DEFPOINTS
 62
     0
 10
986.23664984127015
 20
2125.0151977267442
 30
0.0
  0
POINT
  5
83CE
  8
DEFPOINTS
 62
     0
 10
750.56102876551267
 20
2125.0151977267442
 30
0.0
  0
ENDBLK
  5
80F9
  8
0
  0
BLOCK
  8
0
  2
*D12
 70
     1
 10
0.0
 20
0.0
 30
0.0
  3
*D12
  1

  0
LINE
  5
83CF
  8
3
 62
     0
 10
976.23664984127026
 20
2125.0151977267442
 30
0.0
 11
730.56102876551267
 21
2125.0151977267442
 31
0.0
  0
LINE
  5
83D0
  8
3
 62
     0
 10
1141.069930564187
 20
1595.015197726744
 30
0.0
 11
730.56102876551256
 21
1595.015197726744
 31
0.0
  0
LINE
  5
83D1
  8
3
 62
     0
 10
750.56102876551279
 20
2085.0151977267451
 30
0.0
 11
750.56102876551267
 21
1635.015197726744
 31
0.0
  0
INSERT
  5
83D2
  8
3
 62
     0
  2
_OPEN
 10
750.56102876551279
 20
2125.0151977267442
 30
0.0
 41
40.0
 42
40.0
 43
40.0
 50
90.0
  0
INSERT
  5
83D3
  8
3
 62
     0
  2
_OPEN
 10
750.56102876551267
 20
1595.015197726744
 30
0.0
 41
40.0
 42
40.0
 43
40.0
 50
270.0
  0
TEXT
  8
3
  40
60
  5
843D
  62
0
  72
0
  71
0
 10
580.561
 20
1753.82
 30
0.000000
  1
530
  0
POINT
  5
83D5
  8
DEFPOINTS
 62
     0
 10
986.23664984127015
 20
2125.0151977267442
 30
0.0
  0
POINT
  5
83D6
  8
DEFPOINTS
 62
     0
 10
1151.069930564187
 20
1595.015197726744
 30
0.0
  0
POINT
  5
83D7
  8
DEFPOINTS
 62
     0
 10
750.56102876551267
 20
1595.015197726744
 30
0.0
  0
ENDBLK
  5
8104
  8
0
  0
BLOCK
  8
0
  2
*D13
 70
     1
 10
0.0
 20
0.0
 30
0.0
  3
*D13
  1

  0
LINE
  5
83D8
  8
3
 62
     0
 10
1061.0699398595141
 20
2150.0150712885261
 30
0.0
 11
1061.0699398595141
 21
2721.5667859849509
 31
0.0
  0
LINE
  5
83D9
  8
3
 62
     0
 10
2081.069930564187
 20
1680.015197726744
 30
0.0
 11
2081.069930564187
 21
2721.5667859849509
 31
0.0
  0
LINE
  5
83DA
  8
3
 62
     0
 10
1101.0699398595141
 20
2701.5667859849509
 30
0.0
 11
2041.069930564187
 21
2701.5667859849509
 31
0.0
  0
INSERT
  5
83DB
  8
3
 62
     0
  2
_OPEN
 10
1061.0699398595141
 20
2701.5667859849509
 30
0.0
 41
40.0
 42
40.0
 43
40.0
 50
180.0
  0
INSERT
  5
83DC
  8
3
 62
     0
  2
_OPEN
 10
2081.069930564187
 20
2701.5667859849509
 30
0.0
 41
40.0
 42
40.0
 43
40.0
  0
TEXT
  8
3
  40
60
  5
843E
  62
0
  72
0
  71
0
 10
1465.26
 20
2645.37
 30
0.000000
  1
1020
  0
POINT
  5
83DE
  8
DEFPOINTS
 62
     0
 10
1061.0699398595141
 20
2140.0150712885261
 30
0.0
  0
POINT
  5
83DF
  8
DEFPOINTS
 62
     0
 10
2081.069930564187
 20
1670.015197726744
 30
0.0
  0
POINT
  5
83E0
  8
DEFPOINTS
 62
     0
 10
2081.069930564187
 20
2701.5667859849509
 30
0.0
  0
ENDBLK
  5
8246
  8
0
  0
BLOCK
  8
0
  2
*D14
 70
     1
 10
0.0
 20
0.0
 30
0.0
  3
*D14
  1

  0
LINE
  5
83E1
  8
3
 62
     0
 10
1151.0699438432009
 20
4039.0774508515469
 30
0.0
 11
1151.0699438432009
 21
4192.8985627010306
 31
0.0
  0
LINE
  5
83E2
  8
3
 62
     0
 10
1581.0699438432009
 20
4039.0774508515469
 30
0.0
 11
1581.0699438432009
 21
4192.8985627010306
 31
0.0
  0
LINE
  5
83E3
  8
3
 62
     0
 10
1191.0699438432009
 20
4172.8985627010306
 30
0.0
 11
1541.0699438432009
 21
4172.8985627010306
 31
0.0
  0
INSERT
  5
83E4
  8
3
 62
     0
  2
_OPEN
 10
1151.0699438432009
 20
4172.8985627010306
 30
0.0
 41
40.0
 42
40.0
 43
40.0
 50
180.0
  0
INSERT
  5
83E5
  8
3
 62
     0
  2
_OPEN
 10
1581.0699438432009
 20
4172.8985627010306
 30
0.0
 41
40.0
 42
40.0
 43
40.0
  0
TEXT
  8
3
  40
60
  5
843F
  62
0
  72
0
  71
0
 10
1253.75
 20
4116.70
 30
0.000000
  1
430
  0
POINT
  5
83E7
  8
DEFPOINTS
 62
     0
 10
1151.0699438432009
 20
4029.0774508515478
 30
0.0
  0
POINT
  5
83E8
  8
DEFPOINTS
 62
     0
 10
1581.0699438432009
 20
4029.0774508515478
 30
0.0
  0
POINT
  5
83E9
  8
DEFPOINTS
 62
     0
 10
1581.0699438432009
 20
4172.8985627010306
 30
0.0
  0
ENDBLK
  5
8269
  8
0
  0
BLOCK
  8
0
  2
*D15
 70
     1
 10
0.0
 20
0.0
 30
0.0
  3
*D15
  1

  0
LINE
  5
83EA
  8
3
 62
     0
 10
2081.0699438432011
 20
3599.077450851546
 30
0.0
 11
2081.0699438432011
 21
4192.8985627010306
 31
0.0
  0
LINE
  5
83EB
  8
3
 62
     0
 10
1621.0699438432009
 20
4172.8985627010306
 30
0.0
 11
2041.0699438432009
 21
4172.8985627010306
 31
0.0
  0
INSERT
  5
83EC
  8
3
 62
     0
  2
_OPEN
 10
1581.0699438432009
 20
4172.8985627010306
 30
0.0
 41
40.0
 42
40.0
 43
40.0
 50
180.0
  0
INSERT
  5
83ED
  8
3
 62
     0
  2
_OPEN
 10
2081.0699438432011
 20
4172.8985627010306
 30
0.0
 41
40.0
 42
40.0
 43
40.0
  0
TEXT
  8
3
  40
60
  5
8440
  62
0
  72
0
  71
0
 10
1711.07
 20
4116.70
 30
0.000000
  1
500
  0
POINT
  5
83EF
  8
DEFPOINTS
 62
     0
 10
1581.0699438432009
 20
4029.0774508515478
 30
0.0
  0
POINT
  5
83F0
  8
DEFPOINTS
 62
     0
 10
2081.0699438432011
 20
3589.077450851546
 30
0.0
  0
POINT
  5
83F1
  8
DEFPOINTS
 62
     0
 10
2081.0699438432011
 20
4172.8985627010306
 30
0.0
  0
ENDBLK
  5
8274
  8
0
  0
BLOCK
  8
0
  2
*D16
 70
     1
 10
0.0
 20
0.0
 30
0.0
  3
*D16
  1

  0
LINE
  5
83F2
  8
3
 62
     0
 10
2091.0699438432011
 20
3589.077450851546
 30
0.0
 11
2289.9355726541771
 21
3589.077450851546
 31
0.0
  0
LINE
  5
83F3
  8
3
 62
     0
 10
2091.0699438432011
 20
3169.077450851546
 30
0.0
 11
2289.9355726541771
 21
3169.077450851546
 31
0.0
  0
LINE
  5
83F4
  8
3
 62
     0
 10
2269.9355726541771
 20
3549.077450851546
 30
0.0
 11
2269.9355726541771
 21
3209.077450851546
 31
0.0
  0
INSERT
  5
83F5
  8
3
 62
     0
  2
_OPEN
 10
2269.9355726541771
 20
3589.077450851546
 30
0.0
 41
40.0
 42
40.0
 43
40.0
 50
90.0
  0
INSERT
  5
83F6
  8
3
 62
     0
  2
_OPEN
 10
2269.9355726541771
 20
3169.077450851546
 30
0.0
 41
40.0
 42
40.0
 43
40.0
 50
270.0
  0
TEXT
  8
3
  40
60
  5
8441
  62
0
  72
0
  71
0
 10
2099.94
 20
3274.57
 30
0.000000
  1
420
  0
POINT
  5
83F8
  8
DEFPOINTS
 62
     0
 10
2081.0699438432011
 20
3589.077450851546
 30
0.0
  0
POINT
  5
83F9
  8
DEFPOINTS
 62
     0
 10
2081.0699438432011
 20
3169.077450851546
 30
0.0
  0
POINT
  5
83FA
  8
DEFPOINTS
 62
     0
 10
2269.9355726541771
 20
3169.077450851546
 30
0.0
  0
ENDBLK
  5
8281
  8
0
  0
BLOCK
  8
0
  2
*D17
 70
     1
 10
0.0
 20
0.0
 30
0.0
  3
*D17
  1

  0
LINE
  5
83FB
  8
3
 62
     0
 10
1141.0699438432009
 20
3169.0774508515469
 30
0.0
 11
961.66722685232935
 21
3169.0774508515478
 31
0.0
  0
LINE
  5
83FC
  8
3
 62
     0
 10
1141.0699438432009
 20
4029.0774508515478
 30
0.0
 11
961.66722685232946
 21
4029.0774508515478
 31
0.0
  0
LINE
  5
83FD
  8
3
 62
     0
 10
981.66722685232924
 20
3209.0774508515478
 30
0.0
 11
981.66722685232958
 21
3989.0774508515478
 31
0.0
  0
INSERT
  5
83FE
  8
3
 62
     0
  2
_OPEN
 10
981.66722685232924
 20
3169.0774508515478
 30
0.0
 41
40.0
 42
40.0
 43
40.0
 50
270.0
  0
INSERT
  5
83FF
  8
3
 62
     0
  2
_OPEN
 10
981.66722685232958
 20
4029.0774508515478
 30
0.0
 41
40.0
 42
40.0
 43
40.0
 50
90.0
  0
TEXT
  8
3
  40
60
  5
8442
  62
0
  72
0
  71
0
 10
811.667
 20
3442.47
 30
0.000000
  1
860
  0
POINT
  5
8401
  8
DEFPOINTS
 62
     0
 10
1151.0699438432009
 20
3169.0774508515469
 30
0.0
  0
POINT
  5
8402
  8
DEFPOINTS
 62
     0
 10
1151.0699438432009
 20
4029.0774508515478
 30
0.0
  0
POINT
  5
8403
  8
DEFPOINTS
 62
     0
 10
981.66722685232958
 20
4029.0774508515478
 30
0.0
  0
ENDBLK
  5
828E
  8
0
  0
BLOCK
  8
0
  2
*D18
 70
     1
 10
0.0
 20
0.0
 30
0.0
  3
*D18
  1

  0
LINE
  5
8407
  8
3
 62
     0
 10
1151.069930564187
 20
1585.015197726744
 30
0.0
 11
1151.069930564187
 21
1441.822890901228
 31
0.0
  0
LINE
  5
8408
  8
3
 62
     0
 10
1366.0699438432
 20
1585.015197726744
 30
0.0
 11
1366.0699438432
 21
1441.822890901228
 31
0.0
  0
LINE
  5
8409
  8
3
 62
     0
 10
1191.069930564187
 20
1461.822890901228
 30
0.0
 11
1326.0699438432
 21
1461.822890901228
 31
0.0
  0
INSERT
  5
840A
  8
3
 62
     0
  2
_OPEN
 10
1151.069930564187
 20
1461.822890901228
 30
0.0
 41
40.0
 42
40.0
 43
40.0
 50
180.0
  0
INSERT
  5
840B
  8
3
 62
     0
  2
_OPEN
 10
1366.0699438432
 20
1461.822890901228
 30
0.0
 41
40.0
 42
40.0
 43
40.0
  0
TEXT
  8
3
  40
60
  5
8443
  62
0
  72
0
  71
0
 10
1138.57
 20
1405.62
 30
0.000000
  1
215
  0
POINT
  5
840D
  8
DEFPOINTS
 62
     0
 10
1151.069930564187
 20
1595.015197726744
 30
0.0
  0
POINT
  5
840E
  8
DEFPOINTS
 62
     0
 10
1366.0699438432
 20
1595.015197726744
 30
0.0
  0
POINT
  5
840F
  8
DEFPOINTS
 62
     0
 10
1366.0699438432
 20
1461.822890901228
 30
0.0
  0
ENDBLK
  5
831D
  8
0
  0
BLOCK
  8
0
  2
*D19
 70
     1
 10
0.0
 20
0.0
 30
0.0
  3
*D19
  1

  0
LINE
  5
8410
  8
3
 62
     0
 10
1366.0699438432
 20
1585.015197726744
 30
0.0
 11
1366.0699438432
 21
1441.822890901228
 31
0.0
  0
LINE
  5
8411
  8
3
 62
     0
 10
2081.069930564187
 20
1585.015197726744
 30
0.0
 11
2081.069930564187
 21
1441.822890901228
 31
0.0
  0
LINE
  5
8412
  8
3
 62
     0
 10
1406.0699438432
 20
1461.822890901228
 30
0.0
 11
2041.069930564187
 21
1461.822890901228
 31
0.0
  0
INSERT
  5
8413
  8
3
 62
     0
  2
_OPEN
 10
1366.0699438432
 20
1461.822890901228
 30
0.0
 41
40.0
 42
40.0
 43
40.0
 50
180.0
  0
INSERT
  5
8414
  8
3
 62
     0
  2
_OPEN
 10
2081.069930564187
 20
1461.822890901228
 30
0.0
 41
40.0
 42
40.0
 43
40.0
  0
TEXT
  8
3
  40
60
  5
8444
  62
0
  72
0
  71
0
 10
1603.57
 20
1405.62
 30
0.000000
  1
715
  0
POINT
  5
8416
  8
DEFPOINTS
 62
     0
 10
1366.0699438432
 20
1595.015197726744
 30
0.0
  0
POINT
  5
8417
  8
DEFPOINTS
 62
     0
 10
2081.069930564187
 20
1595.015197726744
 30
0.0
  0
POINT
  5
8418
  8
DEFPOINTS
 62
     0
 10
2081.069930564187
 20
1461.822890901228
 30
0.0
  0
ENDBLK
  5
832A
  8
0
  0
BLOCK
  8
0
  2
*D20
 70
     1
 10
0.0
 20
0.0
 30
0.0
  3
*D20
  1

  0
LINE
  5
8419
  8
3
 62
     0
 10
2737.5901646761631
 20
1584.9878606156981
 30
0.0
 11
2737.5901646761631
 21
1441.822890901228
 31
0.0
  0
LINE
  5
841A
  8
3
 62
     0
 10
3402.5901646761631
 20
1584.9878606156981
 30
0.0
 11
3402.5901646761631
 21
1441.822890901228
 31
0.0
  0
LINE
  5
841B
  8
3
 62
     0
 10
2777.5901646761631
 20
1461.822890901228
 30
0.0
 11
3362.5901646761631
 21
1461.822890901228
 31
0.0
  0
INSERT
  5
841C
  8
3
 62
     0
  2
_OPEN
 10
2737.5901646761631
 20
1461.822890901228
 30
0.0
 41
40.0
 42
40.0
 43
40.0
 50
180.0
  0
INSERT
  5
841D
  8
3
 62
     0
  2
_OPEN
 10
3402.5901646761631
 20
1461.822890901228
 30
0.0
 41
40.0
 42
40.0
 43
40.0
  0
TEXT
  8
3
  40
60
  5
8445
  62
0
  72
0
  71
0
 10
2950.09
 20
1405.62
 30
0.000000
  1
665
  0
POINT
  5
841F
  8
DEFPOINTS
 62
     0
 10
2737.5901646761631
 20
1594.9878606156981
 30
0.0
  0
POINT
  5
8420
  8
DEFPOINTS
 62
     0
 10
3402.5901646761631
 20
1594.9878606156981
 30
0.0
  0
POINT
  5
8421
  8
DEFPOINTS
 62
     0
 10
3402.5901646761631
 20
1461.822890901228
 30
0.0
  0
ENDBLK
  5
8337
  8
0
  0
BLOCK
  8
0
  2
*D21
 70
     1
 10
0.0
 20
0.0
 30
0.0
  3
*D21
  1

  0
LINE
  5
8422
  8
3
 62
     0
 10
3402.5901646761631
 20
1584.9878606156981
 30
0.0
 11
3402.5901646761631
 21
1441.822890901228
 31
0.0
  0
LINE
  5
8423
  8
3
 62
     0
 10
3597.5901646761631
 20
1584.9878606156981
 30
0.0
 11
3597.5901646761631
 21
1441.822890901228
 31
0.0
  0
LINE
  5
8424
  8
3
 62
     0
 10
3442.5901646761631
 20
1461.822890901228
 30
0.0
 11
3557.5901646761631
 21
1461.822890901228
 31
0.0
  0
INSERT
  5
8425
  8
3
 62
     0
  2
_OPEN
 10
3402.5901646761631
 20
1461.822890901228
 30
0.0
 41
40.0
 42
40.0
 43
40.0
 50
180.0
  0
INSERT
  5
8426
  8
3
 62
     0
  2
_OPEN
 10
3597.5901646761631
 20
1461.822890901228
 30
0.0
 41
40.0
 42
40.0
 43
40.0
  0
TEXT
  8
3
  40
60
  5
8446
  62
0
  72
0
  71
0
 10
3380.09
 20
1405.62
 30
0.000000
  1
195
  0
POINT
  5
8428
  8
DEFPOINTS
 62
     0
 10
3402.5901646761631
 20
1594.9878606156981
 30
0.0
  0
POINT
  5
8429
  8
DEFPOINTS
 62
     0
 10
3597.5901646761631
 20
1594.9878606156981
 30
0.0
  0
POINT
  5
842A
  8
DEFPOINTS
 62
     0
 10
3597.5901646761631
 20
1461.822890901228
 30
0.0
  0
ENDBLK
  5
8346
  8
0
  0
BLOCK
  8
0
  2
*D22
 70
     1
 10
0.0
 20
0.0
 30
0.0
  3
*D22
  1

  0
LINE
  5
842B
  8
3
 62
     0
 10
1346.0699438432
 20
2407.0151977267442
 30
0.0
 11
582.19149158537425
 21
2407.0151977267451
 31
0.0
  0
LINE
  5
842C
  8
3
 62
     0
 10
1141.069930564187
 20
1595.015197726744
 30
0.0
 11
582.19149158537391
 21
1595.015197726744
 31
0.0
  0
LINE
  5
842D
  8
3
 62
     0
 10
602.19149158537425
 20
2367.0151977267451
 30
0.0
 11
602.19149158537402
 21
1635.015197726744
 31
0.0
  0
INSERT
  5
842E
  8
3
 62
     0
  2
_OPEN
 10
602.19149158537425
 20
2407.0151977267451
 30
0.0
 41
40.0
 42
40.0
 43
40.0
 50
90.0
  0
INSERT
  5
842F
  8
3
 62
     0
  2
_OPEN
 10
602.19149158537402
 20
1595.015197726744
 30
0.0
 41
40.0
 42
40.0
 43
40.0
 50
270.0
  0
TEXT
  8
3
  40
60
  5
8447
  62
0
  72
0
  71
0
 10
432.191
 20
1894.82
 30
0.000000
  1
812
  0
POINT
  5
8431
  8
DEFPOINTS
 62
     0
 10
1356.0699438432
 20
2407.0151977267442
 30
0.0
  0
POINT
  5
8432
  8
DEFPOINTS
 62
     0
 10
1151.069930564187
 20
1595.015197726744
 30
0.0
  0
POINT
  5
8433
  8
DEFPOINTS
 62
     0
 10
602.19149158537402
 20
1595.015197726744
 30
0.0
  0
ENDBLK
  5
8353
  8
0
  0
ENDSEC
  0
SECTION
  2
ENTITIES
  0
INSERT
  5
7C3D
  8
0
  2
YA_N
 10
6.0
 20
5.0
 30
0.0
  0
INSERT
  5
7C3E
  8
0
  2
YA_N
 10
6.0
 20
5.0
 30
0.0
  0
INSERT
  5
7C3F
  8
0
  2
YA_N
 10
6.0
 20
5.0
 30
0.0
  0
INSERT
  5
7C40
  8
0
  2
YA_N
 10
6.0
 20
5.0
 30
0.0
  0
INSERT
  5
7C41
  8
0
  2
YA_N
 10
6.0
 20
5.0
 30
0.0
  0
INSERT
  5
7C42
  8
0
  2
YA_N
 10
6.0
 20
5.0
 30
0.0
  0
INSERT
  5
7C43
  8
0
  2
YA_N
 10
342.69245559421228
 20
1431.8735170089669
 30
0.0
  0
LINE
  5
7C44
  8
2
 10
2657.5468575894902
 20
2124.9878606156981
 30
0.0
 11
3619.612720125991
 21
2124.9878606156981
 31
0.0
  0
LINE
  5
7C45
  8
1
 10
3250.2901646761629
 20
2386.9878606156981
 30
0.0
 11
3250.2901646761652
 21
2124.9878606156981
 31
0.0
  0
LINE
  5
7C46
  8
1
 10
3554.8901646761628
 20
2386.9878606156981
 30
0.0
 11
3554.8901646761628
 21
2124.9878606156981
 31
0.0
  0
LINE
  5
7C47
  8
1
 10
3554.8901646761628
 20
2349.9878606156972
 30
0.0
 11
3555.8901646761628
 21
2349.9878606156972
 31
0.0
  0
LINE
  5
7C48
  8
1
 10
3554.8901646761628
 20
1899.9878606156981
 30
0.0
 11
3555.8901646761628
 21
1899.9878606156981
 31
0.0
  0
DIMENSION
  5
7C49
  8
3
  2
*D3
 10
3713.4806313839722
 20
1924.9878606156969
 30
0.0
 11
3663.4806313839722
 21
2124.987860615699
 31
0.0
 70
     0
  1
φ400
 13
3555.8901646761628
 23
2324.9878606156972
 33
0.0
 14
3555.8901646761628
 24
1924.9878606156969
 34
0.0
 50
90.0
1001
ACAD
1000
DSTYLE
1002
{
1070
   287
1070
     3
1070
    40
1040
20.0
1070
   143
1040
0.039
1070
   172
1070
     1
1070
   271
1070
     0
1070
   279
1070
     0
1070
   288
1070
     1
1002
}
  0
LINE
  5
7C4A
  8
1
 10
3177.5901646761631
 20
2069.7878606156978
 30
0.0
 11
3177.590164676164
 21
1669.9878606156981
 31
0.0
  0
LINE
  5
7C4B
  8
1
 10
2762.5901646761631
 20
2069.7878606156978
 30
0.0
 11
3177.5901646761631
 21
2069.7878606156978
 31
0.0
  0
LINE
  5
7C4C
  8
1
 10
3597.5901646761631
 20
1669.9878606156981
 30
0.0
 11
2737.5901646761631
 21
1669.9878606156981
 31
0.0
  0
LINE
  5
7C4D
  8
1
 10
3597.5901646761631
 20
1594.9878606156981
 30
0.0
 11
2737.5901646761631
 21
1594.9878606156981
 31
0.0
1001
ACAD
1000
ASC_BOUNDS
1002
{
1070
    19
1002
}
  0
LINE
  5
7C4E
  8
1
 10
3597.5901646761631
 20
1669.9878606156981
 30
0.0
 11
3597.5901646761631
 21
1594.9878606156981
 31
0.0
  0
LINE
  5
7C4F
  8
1
 10
1151.069930564187
 20
1670.015254826553
 30
0.0
 11
1151.069930564187
 21
1595.015197726744
 31
0.0
  0
LINE
  5
7C50
  8
1
 10
2081.069930564187
 20
1670.015197726744
 30
0.0
 11
2081.069930564187
 21
1595.015197726744
 31
0.0
  0
LINE
  5
7C51
  8
1
 10
1171.0699438432
 20
2069.8151977267439
 30
0.0
 11
1561.0699438432
 21
2069.8151977267439
 31
0.0
  0
LINE
  5
7C52
  8
1
 10
1544.2699438432001
 20
2069.8151977267439
 30
0.0
 11
1544.2699438432001
 21
1670.015197726744
 31
0.0
  0
LINE
  5
7C53
  8
1
 10
1187.8699438431991
 20
2069.8151977267439
 30
0.0
 11
1187.8699438431979
 21
1670.015197726744
 31
0.0
  0
LINE
  5
7C54
  8
1
 10
3177.5901646761631
 20
2021.287860615698
 30
0.0
 11
3214.2901646761629
 21
2021.287860615698
 31
0.0
  0
LINE
  5
7C55
  8
1
 10
3177.5901646761631
 20
2027.287860615698
 30
0.0
 11
3214.2901646761629
 21
2027.287860615698
 31
0.0
  0
CIRCLE
  5
7C56
  8
1
 10
1366.0699438432
 20
1965.3151977267439
 30
0.0
 40
65.0
  0
LINE
  5
7C57
  8
1
 10
1701.928276707032
 20
2021.3151977267439
 30
0.0
 11
1544.2699438432001
 21
2021.3151977267439
 31
0.0
  0
LINE
  5
7C58
  8
1
 10
1703.0859083194721
 20
2027.3151977267439
 30
0.0
 11
1544.2699438432001
 21
2027.3151977267439
 31
0.0
  0
LINE
  5
7C59
  8
1
 10
1187.8699438431991
 20
2027.3151977267439
 30
0.0
 11
1086.069931664887
 21
2027.3151977267439
 31
0.0
  0
LINE
  5
7C5A
  8
1
 10
1187.8699438431991
 20
2021.3151977267439
 30
0.0
 11
1086.069931664887
 21
2021.3151977267439
 31
0.0
  0
LINE
  5
7C5B
  8
1
 10
3580.8901646761628
 20
2324.9878606156972
 30
0.0
 11
3580.8901646761628
 21
1923.987860615699
 31
0.0
  0
LINE
  5
7C5C
  8
1
 10
3558.8901646761628
 20
1917.9878606156981
 30
0.0
 11
3558.8901646761628
 21
2324.9878606156972
 31
0.0
  0
LINE
  5
7C5D
  8
1
 10
3580.8901646761628
 20
2324.9878606156972
 30
0.0
 11
3580.8901646761628
 21
2325.9878606156958
 31
0.0
  0
ARC
  5
7C5E
  8
1
 10
3578.8901646761628
 20
2325.9878606156958
 30
0.0
 40
2.0
 50
0.0
 51
90.0
  0
LINE
  5
7C5F
  8
1
 10
3578.8901646761628
 20
2327.9878606156972
 30
0.0
 11
3562.8901646761628
 21
2327.9878606156972
 31
0.0
  0
ARC
  5
7C60
  8
1
 10
3562.8901646761628
 20
2331.9878606156972
 30
0.0
 40
4.0
 50
180.0
 51
270.0
  0
LINE
  5
7C61
  8
1
 10
3558.8901646761628
 20
2331.9878606156972
 30
0.0
 11
3558.8901646761628
 21
2347.9878606156972
 31
0.0
  0
ARC
  5
7C62
  8
1
 10
3556.8901646761628
 20
2347.9878606156972
 30
0.0
 40
2.0
 50
0.0
 51
90.0
  0
LINE
  5
7C63
  8
1
 10
3556.8901646761628
 20
2349.9878606156972
 30
0.0
 11
3555.8901646761628
 21
2349.9878606156972
 31
0.0
  0
LINE
  5
7C64
  8
1
 10
3580.8901646761628
 20
1924.9878606156981
 30
0.0
 11
3580.8901646761628
 21
1923.987860615699
 31
0.0
  0
ARC
  5
7C65
  8
1
 10
3578.8901646761628
 20
1923.987860615699
 30
0.0
 40
2.0
 50
270.0
 51
0.0
  0
LINE
  5
7C66
  8
1
 10
3578.8901646761628
 20
1921.987860615699
 30
0.0
 11
3562.8901646761628
 21
1921.987860615699
 31
0.0
  0
ARC
  5
7C67
  8
1
 10
3562.8901646761628
 20
1917.9878606156981
 30
0.0
 40
4.0
 50
90.0
 51
180.0
  0
LINE
  5
7C68
  8
1
 10
3558.8901646761628
 20
1917.9878606156981
 30
0.0
 11
3558.8901646761628
 21
1901.9878606156981
 31
0.0
  0
ARC
  5
7C69
  8
1
 10
3556.8901646761628
 20
1901.9878606156981
 30
0.0
 40
2.0
 50
270.0
 51
0.0
  0
LINE
  5
7C6A
  8
1
 10
3556.8901646761628
 20
1899.9878606156981
 30
0.0
 11
3555.8901646761628
 21
1899.9878606156981
 31
0.0
  0
LINE
  5
7C6B
  8
1
 10
2769.3901646761619
 20
2069.7878606156978
 30
0.0
 11
2769.3901646761619
 21
1824.015197726744
 31
0.0
  0
POLYLINE
  5
7C6C
  8
1
 66
     1
 10
0.0
 20
0.0
 30
0.0
 70
     1
  0
VERTEX
  5
8380
  8
1
 10
2061.0699438431998
 20
1670.015197726744
 30
0.0
  0
VERTEX
  5
8381
  8
1
 10
1791.0699438432
 20
1670.015197726744
 30
0.0
  0
VERTEX
  5
8382
  8
1
 10
1801.0699438432
 20
1710.015197726744
 30
0.0
  0
VERTEX
  5
8383
  8
1
 10
2051.0699438431998
 20
1710.015197726744
 30
0.0
  0
SEQEND
  5
8384
  8
1
  0
LINE
  5
7C72
  8
1
 10
2026.0699438432
 20
1710.015197726744
 30
0.0
 11
1986.0699438432
 21
1710.015197726744
 31
0.0
  0
LINE
  5
7C73
  8
1
 10
2026.0699438432
 20
1722.015197726744
 30
0.0
 11
2006.604452345045
 21
1749.062815161614
 31
0.0
  0
LINE
  5
7C74
  8
1
 10
1966.7841710874029
 20
1717.5849445630349
 30
0.0
 11
1885.355716598996
 21
1717.5849445630349
 31
0.0
  0
LINE
  5
7C75
  8
1
 10
2026.0699438432
 20
1710.015197726744
 30
0.0
 11
2026.0699438432
 21
1722.015197726744
 31
0.0
  0
LINE
  5
7C76
  8
1
 10
1838.0699438432
 20
1710.015197726744
 30
0.0
 11
1866.0699438432
 21
1710.015197726744
 31
0.0
  0
LINE
  5
7C77
  8
1
 10
1826.0699438432
 20
1710.015197726744
 30
0.0
 11
1826.0699438432
 21
1722.015197726744
 31
0.0
  0
LINE
  5
7C78
  8
1
 10
1826.0699438432
 20
1722.015197726744
 30
0.0
 11
1845.535435341355
 21
1749.062815161614
 31
0.0
  0
LINE
  5
7C79
  8
1
 10
1826.0699438432
 20
1710.015197726744
 30
0.0
 11
1866.0699438432
 21
1710.015197726744
 31
0.0
  0
LINE
  5
7C7A
  8
2
 10
2048.8824684841688
 20
1810.015197726744
 30
0.0
 11
1797.7699438432001
 21
1810.015197726744
 31
0.0
  0
ARC
  5
7C7B
  8
1
 10
1926.0699438432
 20
1810.015197726744
 30
0.0
 40
101.0
 50
293.77281679995468
 51
246.22718320005109
  0
LINE
  5
7C7C
  8
2
 10
1926.0699438432
 20
1651.381120937494
 30
0.0
 11
1926.0699438432
 21
1948.337156375057
 31
0.0
  0
CIRCLE
  5
7C7D
  8
1
 10
1926.0699438432
 20
1810.015197726744
 30
0.0
 40
50.0
  0
CIRCLE
  5
7C7E
  8
1
 10
1366.0699438432
 20
2125.0151977267442
 30
0.0
 40
101.5
  0
ARC
  5
7C7F
  8
1
 10
1926.0699438432
 20
1810.015197726744
 30
0.0
 40
90.0
 50
261.93007657667482
 51
69.997436487472172
  0
ARC
  5
7C80
  8
1
 10
1366.0699438432
 20
2125.0151977267442
 30
0.0
 40
150.0
 50
69.997436487472356
 51
261.93007657667482
  0
LINE
  5
7C81
  8
1
 10
2730.0901646761631
 20
2104.9878606156981
 30
0.0
 11
3250.2901646761629
 21
2104.9878606156981
 31
0.0
  0
LINE
  5
7C82
  8
1
 10
2730.0901646761631
 20
2144.9878606156981
 30
0.0
 11
3250.2901646761652
 21
2144.9878606156981
 31
0.0
  0
DIMENSION
  5
7C83
  8
3
  2
*D4
 10
3552.5901646761631
 20
2495.9771144957608
 30
0.0
 11
3415.4473075333049
 21
2495.9771144957608
 31
0.0
 70
   128
 13
3252.5901646761631
 23
2383.1652632077962
 33
0.0
 14
3552.5901646761631
 24
2383.1652632077962
 34
0.0
1001
ACAD
1000
DSTYLE
1002
{
1070
   287
1070
     3
1070
    40
1040
20.0
1070
   143
1040
0.039
1070
   172
1070
     1
1070
   271
1070
     0
1070
   279
1070
     0
1070
   288
1070
     1
1002
}
  0
LINE
  5
7C87
  8
1
 10
2730.090164676164
 20
2226.4878606156972
 30
0.0
 11
2730.0901646761631
 21
1760.015197726744
 31
0.0
  0
LINE
  5
7C88
  8
1
 10
2695.090164676164
 20
2226.4878606156972
 30
0.0
 11
2730.0901646761631
 21
2226.4878606156972
 31
0.0
  0
LINE
  5
7C89
  8
1
 10
2695.090164676164
 20
2023.4878606156981
 30
0.0
 11
2730.0901646761631
 21
2023.4878606156981
 31
0.0
  0
LINE
  5
7C8A
  8
1
 10
2695.090164676164
 20
2226.4878606156972
 30
0.0
 11
2695.0901646761631
 21
1760.015197726744
 31
0.0
  0
LINE
  5
7C8D
  8
1
 10
2695.090164676164
 20
1860.015197726744
 30
0.0
 11
2730.090164676164
 21
1860.015197726744
 31
0.0
  0
LINE
  5
7C8E
  8
1
 10
2695.090164676164
 20
1760.015197726744
 30
0.0
 11
2730.090164676164
 21
1760.015197726744
 31
0.0
  0
LINE
  5
7C92
  8
1
 10
2665.0901646761631
 20
2274.9878606156981
 30
0.0
 11
2757.090164676164
 21
2274.9878606156981
 31
0.0
  0
LINE
  5
7C93
  8
1
 10
2665.0901646761631
 20
1720.015197726744
 30
0.0
 11
2757.090164676164
 21
1720.015197726744
 31
0.0
  0
LINE
  5
7C94
  8
1
 10
2665.0901646761631
 20
2274.9878606156981
 30
0.0
 11
2665.0901646761631
 21
1720.015197726744
 31
0.0
  0
LINE
  5
7C95
  8
1
 10
2757.090164676164
 20
2274.9878606156981
 30
0.0
 11
2757.090164676164
 21
2208.7094329041302
 31
0.0
  0
DIMENSION
  5
7C96
  8
3
  2
*D5
 10
3402.5901646761631
 20
2632.0253927092408
 30
0.0
 11
3033.8401646761631
 21
2632.0253927092408
 31
0.0
 70
   128
  1
MAX\P830
 13
2665.0901646761631
 23
2251.6435662190138
 33
0.0
 14
3402.5901646761631
 24
2579.4056994911339
 34
0.0
1001
ACAD
1000
DSTYLE
1002
{
1070
   287
1070
     3
1070
    40
1040
20.0
1070
   143
1040
0.039
1070
   172
1070
     1
1070
   271
1070
     0
1070
   279
1070
     0
1070
   288
1070
     1
1002
}
  0
DIMENSION
  5
7C97
  8
3
  2
*D6
 10
3554.8901646761628
 20
2632.2044908461298
 30
0.0
 11
3474.5970776679169
 21
2687.4442049482418
 31
0.0
 12
0.0
 22
121.5539121770762
 32
0.0
 70
   128
  1
153
 13
3402.5901646761631
 23
2579.4056994911339
 33
0.0
 14
3554.8901646761628
 24
2381.4978136080331
 34
0.0
1001
ACAD
1000
DSTYLE
1002
{
1070
   288
1070
     1
1070
   172
1070
     1
1070
    40
1040
20.0
1070
   271
1070
     0
1070
   143
1040
0.039
1002
}
  0
LINE
  5
7C98
  8
2
 10
3402.5901646761631
 20
2507.88590508794
 30
0.0
 11
3402.5901646761631
 21
1594.9878606156981
 31
0.0
1001
ACAD
1000
ASC_BOUNDS
1002
{
1070
    19
1002
}
  0
INSERT
  5
7C9A
  8
0
  2
YA_N
 10
6.0
 20
5.0
 30
0.0
  0
INSERT
  5
7C9B
  8
0
  2
YA_N
 10
96.0
 20
80.0
 30
0.0
 41
16.0
 42
16.0
 43
16.0
  0
INSERT
  5
7C9C
  8
0
  2
YA_N
 10
3261.5724272564862
 20
1521.5703809158081
 30
0.0
  0
INSERT
  5
7C9D
  8
0
  2
YA_N
 10
3261.5724272564862
 20
1521.5703809158081
 30
0.0
  0
INSERT
  5
7C9E
  8
0
  2
YA_N
 10
3598.2648828506981
 20
2948.4438979247761
 30
0.0
  0
INSERT
  5
7C9F
  8
0
  2
YA_N
 10
4266.8004074798646
 20
4391.6121309265727
 30
0.0
  0
INSERT
  5
7CA0
  8
0
  2
YA_N
 10
7315.6595907797891
 20
4128.942743271853
 30
0.0
  0
LINE
  5
7CA1
  8
1
 10
3554.8901646761619
 20
2124.9878606156981
 30
0.0
 11
3554.8901646761619
 21
1669.9878606156981
 31
0.0
  0
LINE
  5
7CA2
  8
1
 10
3250.2901646761629
 20
2124.9878606156981
 30
0.0
 11
3250.2901646761629
 21
1669.9878606156981
 31
0.0
  0
INSERT
  5
7CA3
  8
0
  2
YA_N
 10
96.0
 20
80.0
 30
0.0
 41
16.0
 42
16.0
 43
16.0
  0
INSERT
  5
7CA4
  8
0
  2
YA_N
 10
96.0
 20
80.0
 30
0.0
 41
16.0
 42
16.0
 43
16.0
  0
INSERT
  5
7CA7
  8
0
  2
YA_N
 10
96.0
 20
80.0
 30
0.0
 41
16.0
 42
16.0
 43
16.0
  0
INSERT
  5
7CA8
  8
0
  2
YA_N
 10
96.0
 20
80.0
 30
0.0
 41
16.0
 42
16.0
 43
16.0
  0
LINE
  5
7CAB
  8
1
 10
3214.2901646761629
 20
2027.287860615698
 30
0.0
 11
3250.2901646761629
 21
2027.287860615698
 31
0.0
  0
LINE
  5
7CAC
  8
1
 10
3214.2901646761629
 20
2021.287860615698
 30
0.0
 11
3250.2901646761629
 21
2021.287860615698
 31
0.0
  0
LINE
  5
7CAD
  8
1
 10
1956.855540624656
 20
1894.5861562811419
 30
0.0
 11
1417.379271812295
 21
2265.9667953174062
 31
0.0
  0
LINE
  5
7CAE
  8
1
 10
1913.435607565945
 20
1720.9064240462969
 30
0.0
 11
1345.0127167144419
 21
1976.5005749259981
 31
0.0
  0
LINE
  5
7CAF
  8
1
 10
1944.003372067423
 20
1856.6884465115311
 30
0.0
 11
1402.474803138376
 21
2219.761892759861
 31
0.0
  0
LINE
  5
7CB0
  8
1
 10
1916.6388741095409
 20
1760.9127036589391
 30
0.0
 11
1346.9248722838729
 21
2025.3371347690991
 31
0.0
  0
INSERT
  5
7CB1
  8
0
  2
YA_N
 10
63.111395363473399
 20
-2207.5990737385559
 30
0.0
 41
1.1404799999999991
 42
1.1404799999999991
 43
1.1404799999999991
  0
INSERT
  5
7CB2
  8
0
  2
YA_N
 10
63.111395363473399
 20
-2207.5990737385559
 30
0.0
 41
1.1404799999999991
 42
1.1404799999999991
 43
1.1404799999999991
  0
INSERT
  5
7CB3
  8
0
  2
YA_N
 10
63.111395363473399
 20
-2207.5990737385559
 30
0.0
 41
1.1404799999999991
 42
1.1404799999999991
 43
1.1404799999999991
  0
INSERT
  5
7CB4
  8
0
  2
YA_N
 10
63.111395363473399
 20
-2207.5990737385559
 30
0.0
 41
1.1404799999999991
 42
1.1404799999999991
 43
1.1404799999999991
  0
INSERT
  5
7CB5
  8
0
  2
YA_N
 10
63.111395363473399
 20
-2207.5990737385559
 30
0.0
 41
1.1404799999999991
 42
1.1404799999999991
 43
1.1404799999999991
  0
INSERT
  5
7CB6
  8
0
  2
YA_N
 10
2068.599843633097
 20
-1871.396847612672
 30
0.0
 41
1.1404799999999991
 42
1.1404799999999991
 43
1.1404799999999991
  0
LINE
  5
7CB7
  8
1
 10
2737.5901646761631
 20
1594.9878606156981
 30
0.0
 11
2737.5901646761631
 21
1669.9878606156981
 31
0.0
  0
INSERT
  5
7CCB
  8
0
  2
YA_N
 10
7517.3489782723964
 20
85.078014923515184
 30
0.0
  0
LINE
  5
7CCF
  8
1
 10
1086.069931664887
 20
2140.0150712885261
 30
0.0
 11
1086.069931664887
 21
1674.020253975955
 31
0.0
  0
LINE
  5
7CD0
  8
1
 10
1086.069931664887
 20
2140.0150712885261
 30
0.0
 11
1061.069931664887
 21
2140.0150712885261
 31
0.0
  0
LINE
  5
7CD1
  8
1
 10
1061.069931664887
 20
1674.020253975955
 30
0.0
 11
1086.069931664887
 21
1674.020253975955
 31
0.0
  0
LINE
  5
7CD3
  8
1
 10
3580.8901646761628
 20
2324.9878606156972
 30
0.0
 11
3554.8901646761628
 21
2324.9878606156972
 31
0.0
  0
LINE
  5
7CD4
  8
1
 10
3580.8901646761628
 20
1924.9878606156969
 30
0.0
 11
3554.8901646761619
 21
1924.9878606156969
 31
0.0
  0
LINE
  5
7CD5
  8
1
 10
1086.0699438432
 20
3984.0774508515478
 30
0.0
 11
1366.0699438432009
 21
3984.0774508515478
 31
0.0
  0
LINE
  5
7CD6
  8
1
 10
1086.0699438432009
 20
3684.0774508515469
 30
0.0
 11
1366.0699438432009
 21
3684.0774508515469
 31
0.0
  0
LINE
  5
7CD7
  8
1
 10
1346.0699438432009
 20
3161.5774508515478
 30
0.0
 11
1346.0699438432
 21
3684.0774508515478
 31
0.0
  0
LINE
  5
7CD8
  8
1
 10
1386.0699438432009
 20
3161.5774508515478
 30
0.0
 11
1386.0699438432009
 21
3684.0774508515478
 31
0.0
  0
LINE
  5
7CD9
  8
2
 10
1366.0699438432009
 20
3089.034143764874
 30
0.0
 11
1366.0699438432009
 21
4060.9403519101252
 31
0.0
  0
LINE
  5
7CDB
  8
1
 10
1216.0699438432009
 20
3188.5774508515478
 30
0.0
 11
2016.0699438432
 21
3188.577450851546
 31
0.0
  0
LINE
  5
7CDC
  8
1
 10
1216.0699438432009
 20
3096.5774508515478
 30
0.0
 11
2016.0699438432
 21
3096.577450851546
 31
0.0
  0
LINE
  5
7CDD
  8
1
 10
1264.5699438432009
 20
3126.5774508515478
 30
0.0
 11
1976.0699438432
 21
3126.577450851546
 31
0.0
  0
LINE
  5
7CDE
  8
1
 10
1264.5699438432009
 20
3161.5774508515478
 30
0.0
 11
1976.0699438432
 21
3161.577450851546
 31
0.0
  0
LINE
  5
7CDF
  8
1
 10
1187.8699438431991
 20
3200.877450851543
 30
0.0
 11
1346.0699438432009
 21
3200.877450851543
 31
0.0
  0
LINE
  5
7CE0
  8
1
 10
2016.0699438432
 20
3096.577450851546
 30
0.0
 11
2016.0699438432
 21
3188.577450851546
 31
0.0
  0
LINE
  5
7CE1
  8
1
 10
1976.0699438432
 20
3126.577450851546
 30
0.0
 11
1976.0699438432
 21
3161.577450851546
 31
0.0
  0
LINE
  5
7CEC
  8
1
 10
1216.0699438432009
 20
3096.5774508515478
 30
0.0
 11
1216.0699438432009
 21
3188.5774508515478
 31
0.0
  0
LINE
  5
7CED
  8
1
 10
1264.5699438432009
 20
3126.5774508515478
 30
0.0
 11
1264.5699438432009
 21
3161.5774508515469
 31
0.0
  0
LINE
  5
7CEE
  8
2
 10
1000.456841617526
 20
3834.0774508515478
 30
0.0
 11
1754.647699442211
 21
3834.0774508515469
 31
0.0
1001
ACAD
1000
ASC_BOUNDS
1002
{
1070
    19
1002
}
  0
LINE
  5
7CEF
  8
1
 10
1467.5699438432009
 20
3126.5774508515478
 30
0.0
 11
1467.5699438432009
 21
3161.5774508515469
 31
0.0
  0
LINE
  5
7CF0
  8
1
 10
1876.0699438432
 20
3126.5774508515469
 30
0.0
 11
1876.0699438432
 21
3161.5774508515469
 31
0.0
  0
LINE
  5
7CF1
  8
1
 10
1544.2699438432001
 20
3657.077450851546
 30
0.0
 11
1386.0699438432
 21
3657.077450851546
 31
0.0
  0
LINE
  5
7CF2
  8
1
 10
1187.8699438431991
 20
3200.877450851543
 30
0.0
 11
1187.8699438431991
 21
3657.077450851546
 31
0.0
  0
LINE
  5
7CF3
  8
1
 10
1544.2699438432001
 20
3200.8774508515448
 30
0.0
 11
1544.2699438432001
 21
3657.077450851546
 31
0.0
  0
LINE
  5
7CF4
  8
1
 10
1346.0699438432009
 20
3657.077450851546
 30
0.0
 11
1187.8699438431991
 21
3657.077450851546
 31
0.0
  0
LINE
  5
7CF5
  8
1
 10
1386.0699438432009
 20
3200.877450851543
 30
0.0
 11
1544.2699438432001
 21
3200.8774508515439
 31
0.0
  0
LINE
  5
7CF6
  8
1
 10
1911.4700438432001
 20
3209.0774508515469
 30
0.0
 11
1911.4700438432001
 21
3204.0774508515469
 31
0.0
  0
LINE
  5
7CF7
  8
1
 10
1940.669943843199
 20
3209.0774508515469
 30
0.0
 11
1940.669943843199
 21
3204.0774508515469
 31
0.0
  0
LINE
  5
7CF8
  8
2
 10
1926.0699438432
 20
3572.9912884535611
 30
0.0
 11
1926.0699438432
 21
3083.2644668131588
 31
0.0
  0
LINE
  5
7CF9
  8
1
 10
1912.0699438432
 20
3204.0774508515469
 30
0.0
 11
1912.0699438432
 21
3161.577450851546
 31
0.0
  0
LINE
  5
7CFA
  8
1
 10
1940.0699438432
 20
3204.0774508515469
 30
0.0
 11
1940.0699438432
 21
3161.577450851546
 31
0.0
  0
LINE
  5
7CFB
  8
1
 10
1940.669943843199
 20
3204.0774508515469
 30
0.0
 11
1911.4700438432001
 21
3204.0774508515469
 31
0.0
  0
LINE
  5
7CFC
  8
1
 10
1826.0699438431991
 20
3510.0774508515469
 30
0.0
 11
2026.0699438432
 21
3510.0774508515469
 31
0.0
  0
LINE
  5
7CFD
  8
1
 10
2026.0699438432
 20
3215.0774508515469
 30
0.0
 11
1826.0699438432
 21
3215.0774508515469
 31
0.0
  0
LINE
  5
7CFE
  8
1
 10
1826.0699438432
 20
3337.0774508515469
 30
0.0
 11
1826.0699438431991
 21
3510.0774508515469
 31
0.0
  0
LINE
  5
7CFF
  8
1
 10
1826.0699438432
 20
3337.0774508515469
 30
0.0
 11
1826.0699438432
 21
3215.0774508515469
 31
0.0
  0
LINE
  5
7D00
  8
1
 10
1889.0699438432
 20
3209.0774508515469
 30
0.0
 11
1963.0699438432
 21
3209.0774508515469
 31
0.0
  0
ARC
  5
7D01
  8
1
 10
1889.0699438432
 20
3212.0774508515469
 30
0.0
 40
2.9998999999999989
 50
179.99879999999999
 51
270.00119999999998
  0
LINE
  5
7D02
  8
1
 10
1886.0699438432
 20
3215.0774508515469
 30
0.0
 11
1886.0699438432
 21
3212.0774508515469
 31
0.0
  0
LINE
  5
7D03
  8
1
 10
1966.0699438432
 20
3215.0774508515469
 30
0.0
 11
1966.0699438432
 21
3212.0774508515469
 31
0.0
  0
ARC
  5
7D04
  8
1
 10
1963.0700438431991
 20
3212.0774508515469
 30
0.0
 40
2.9998999999999989
 50
269.99880000000002
 51
0.0012000000000121
  0
LINE
  5
7D05
  8
1
 10
2026.0699438432
 20
3215.0774508515469
 30
0.0
 11
2026.0699438432
 21
3510.0774508515469
 31
0.0
  0
POLYLINE
  5
7D07
  8
1
 66
     1
 10
0.0
 20
0.0
 30
0.0
  0
VERTEX
  5
8397
  8
1
 10
1061.0716845583661
 20
1701.015197726744
 30
0.0
  0
VERTEX
  5
8398
  8
1
 10
1366.0699316648861
 20
1723.0150712885261
 30
0.0
 42
0.4142136619238977
  0
VERTEX
  5
8399
  8
1
 10
1708.069921468235
 20
2125.0151977267442
 30
0.0
 42
0.4425993610286298
  0
SEQEND
  5
839A
  8
1
  0
POLYLINE
  5
7D0C
  8
1
 66
     1
 10
0.0
 20
0.0
 30
0.0
  0
VERTEX
  5
839B
  8
1
 10
1708.1960617943271
 20
2125.0151977267442
 30
0.0
 42
0.4127781407665704
  0
VERTEX
  5
839C
  8
1
 10
1366.0699438432
 20
2407.0151977267442
 30
0.0
  0
SEQEND
  5
839D
  8
1
  0
LINE
  5
7D10
  8
1
 10
1061.0699398595141
 20
2140.0150712885261
 30
0.0
 11
1061.070063618678
 21
1674.020253975955
 31
0.0
  0
LINE
  5
7D11
  8
2
 10
1763.592479796521
 20
2125.0151977267442
 30
0.0
 11
986.23664984127015
 21
2125.0151977267442
 31
0.0
  0
LINE
  5
7D12
  8
1
 10
2081.069930564187
 20
1595.015197726744
 30
0.0
 11
1151.069930564187
 21
1595.015197726744
 31
0.0
  0
LINE
  5
7D13
  8
1
 10
2081.069930564187
 20
1670.015197726744
 30
0.0
 11
1151.069930564187
 21
1670.015197726744
 31
0.0
  0
LINE
  5
7D19
  8
2
 10
1366.0699438432
 20
1595.015197726744
 30
0.0
 11
1366.0699438432
 21
2509.0879628806051
 31
0.0
  0
LINE
  5
7D1A
  8
1
 10
1132.2074603559529
 20
2113.0151977267442
 30
0.0
 11
1061.0699470301561
 21
2113.0151977267451
 31
0.0
  0
DIMENSION
  5
7D1B
  8
3
  2
*D7
 10
966.70878535002657
 20
2113.0151977267451
 30
0.0
 11
916.70878535002623
 21
1907.0151977267451
 31
0.0
 70
     0
 13
1061.0716845583661
 23
1701.015197726744
 33
0.0
 14
1061.0699470301561
 24
2113.0151977267451
 34
0.0
 50
90.0
1001
ACAD
1000
DSTYLE
1002
{
1070
   287
1070
     3
1070
    40
1040
20.0
1070
   143
1040
0.039
1070
   172
1070
     1
1070
   271
1070
     0
1070
   279
1070
     0
1070
   288
1070
     1
1002
}
  0
LINE
  5
7D1E
  8
1
 10
1366.0699438432009
 20
3984.0774508515478
 30
0.0
 11
1708.0699438432021
 21
3984.0774508515469
 31
0.0
  0
LINE
  5
7D1F
  8
1
 10
1366.0699438432009
 20
3684.0774508515478
 30
0.0
 11
1708.0699438432021
 21
3684.0774508515478
 31
0.0
  0
POLYLINE
  5
7D21
  8
1
 66
     1
 10
0.0
 20
0.0
 30
0.0
  0
VERTEX
  5
83A7
  8
1
 10
1366.0699438432
 20
2407.0151977267442
 30
0.0
 42
0.3877288018366425
  0
VERTEX
  5
83A8
  8
1
 10
1129.3224803213641
 20
2148.0150712885261
 30
0.0
 42
0.0411443795973027
  0
VERTEX
  5
83A9
  8
1
 10
1132.2074603559529
 20
2113.0151977267442
 30
0.0
 42
0.3936265759256327
  0
SEQEND
  5
83AA
  8
1
  0
DIMENSION
  5
7D26
  8
3
  2
*D8
 10
1366.0699438432
 20
2569.5514668263422
 30
0.0
 11
1213.569941851357
 21
2619.5514668263422
 31
0.0
 70
     0
 13
1061.0699398595141
 23
2140.0150712885261
 33
0.0
 14
1366.0699438432
 24
2509.0879628806051
 34
0.0
1001
ACAD
1000
DSTYLE
1002
{
1070
   287
1070
     3
1070
    40
1040
20.0
1070
   143
1040
0.039
1070
   172
1070
     1
1070
   271
1070
     0
1070
   279
1070
     0
1070
   288
1070
     1
1002
}
  0
DIMENSION
  5
7D27
  8
3
  2
*D9
 10
1708.069921468235
 20
2569.5514668263422
 30
0.0
 11
1537.0699326557169
 21
2619.5514668263422
 31
0.0
 70
     0
 13
1366.0699438432
 23
2509.0879628806051
 33
0.0
 14
1708.069921468235
 24
2125.0151977267442
 34
0.0
1001
ACAD
1000
DSTYLE
1002
{
1070
   287
1070
     3
1070
    40
1040
20.0
1070
   143
1040
0.039
1070
   172
1070
     1
1070
   271
1070
     0
1070
   279
1070
     0
1070
   288
1070
     1
1002
}
  0
DIMENSION
  5
7D28
  8
3
  2
*D10
 10
870.39745713342563
 20
1701.015197726744
 30
0.0
 11
820.39745713342529
 21
1913.015197726744
 31
0.0
 70
     0
 13
986.23664984127015
 23
2125.0151977267442
 33
0.0
 14
1061.0716845583661
 24
1701.015197726744
 34
0.0
 50
90.0
1001
ACAD
1000
DSTYLE
1002
{
1070
   287
1070
     3
1070
    40
1040
20.0
1070
   143
1040
0.039
1070
   172
1070
     1
1070
   271
1070
     0
1070
   279
1070
     0
1070
   288
1070
     1
1002
}
  0
DIMENSION
  5
7D29
  8
3
  2
*D11
 10
750.56102876551267
 20
2125.0151977267442
 30
0.0
 11
700.56102876551233
 21
2266.0151977267451
 31
0.0
 70
     0
 13
1366.0699438432
 23
2407.0151977267442
 33
0.0
 14
986.23664984127015
 24
2125.0151977267442
 34
0.0
 50
90.0
1001
ACAD
1000
DSTYLE
1002
{
1070
   287
1070
     3
1070
    40
1040
20.0
1070
   143
1040
0.039
1070
   172
1070
     1
1070
   271
1070
     0
1070
   279
1070
     0
1070
   288
1070
     1
1002
}
  0
DIMENSION
  5
7D2A
  8
3
  2
*D12
 10
750.56102876551267
 20
1595.015197726744
 30
0.0
 11
700.56102876551245
 21
1860.015197726744
 31
0.0
 70
     0
 13
986.23664984127015
 23
2125.0151977267442
 33
0.0
 14
1151.069930564187
 24
1595.015197726744
 34
0.0
 50
90.0
1001
ACAD
1000
DSTYLE
1002
{
1070
   287
1070
     3
1070
    40
1040
20.0
1070
   143
1040
0.039
1070
   172
1070
     1
1070
   271
1070
     0
1070
   279
1070
     0
1070
   288
1070
     1
1002
}
  0
LINE
  5
7D30
  8
1
 10
3250.2901646761629
 20
2386.9878606156981
 30
0.0
 11
3554.8901646761619
 21
2386.9878606156981
 31
0.0
  0
LINE
  5
7D31
  8
1
 10
3250.2901646761629
 20
1700.9878606156981
 30
0.0
 11
3554.8901646761619
 21
1700.9878606156981
 31
0.0
  0
LINE
  5
7D32
  8
1
 10
3250.2901646761629
 20
2112.9878606156981
 30
0.0
 11
3554.8901646761619
 21
2112.9878606156981
 31
0.0
  0
LINE
  5
7D33
  8
1
 10
3225.2901646761629
 20
2104.9878606156981
 30
0.0
 11
3225.2901646761629
 21
2027.287860615698
 31
0.0
  0
LINE
  5
7D34
  8
1
 10
3579.8901646761628
 20
1922.255809808129
 30
0.0
 11
3579.8901646761628
 21
1669.9878606156981
 31
0.0
  0
LINE
  5
7D35
  8
1
 10
3250.2901646761629
 20
1675.9878606156981
 30
0.0
 11
3554.8901646761619
 21
1675.9878606156981
 31
0.0
  0
LINE
  5
7D36
  8
1
 10
3554.8901646761619
 20
2112.9878606156981
 30
0.0
 11
3250.2901646761629
 21
1700.9878606156981
 31
0.0
  0
LINE
  5
7D37
  8
1
 10
3250.2901646761629
 20
2112.9878606156981
 30
0.0
 11
3554.8901646761619
 21
1700.9878606156981
 31
0.0
  0
LINE
  5
7D38
  8
1
 10
2783.590164676164
 20
1910.0151977267451
 30
0.0
 11
3078.590164676164
 21
1910.015197726744
 31
0.0
  0
LINE
  5
7D39
  8
1
 10
2905.590164676164
 20
1710.015197726744
 30
0.0
 11
3078.590164676164
 21
1710.015197726744
 31
0.0
  0
LINE
  5
7D3A
  8
2
 10
3083.9208646761631
 20
1810.015197726744
 30
0.0
 11
2656.1534192820491
 21
1810.015197726744
 31
0.0
  0
LINE
  5
7D3B
  8
1
 10
2777.590164676164
 20
1773.015197726744
 30
0.0
 11
2777.590164676164
 21
1847.015197726744
 31
0.0
  0
LINE
  5
7D3C
  8
1
 10
2783.590164676164
 20
1910.015197726744
 30
0.0
 11
2783.590164676164
 21
1710.0151977267451
 31
0.0
  0
LINE
  5
7D3D
  8
1
 10
2905.590164676164
 20
1710.015197726744
 30
0.0
 11
2783.590164676164
 21
1710.0151977267451
 31
0.0
  0
ARC
  5
7D3E
  8
1
 10
2780.590164676164
 20
1773.015197726744
 30
0.0
 40
2.9998999999999989
 50
179.9987999999999
 51
270.00119999999998
  0
LINE
  5
7D3F
  8
1
 10
2783.590164676164
 20
1770.015197726744
 30
0.0
 11
2780.590164676164
 21
1770.015197726744
 31
0.0
  0
LINE
  5
7D40
  8
1
 10
2821.590164676164
 20
1669.9878606156981
 30
0.0
 11
2821.590164676164
 21
1710.015197726744
 31
0.0
  0
LINE
  5
7D41
  8
1
 10
2989.590164676164
 20
1669.9878606156981
 30
0.0
 11
2989.590164676164
 21
1710.015197726744
 31
0.0
  0
LINE
  5
7D42
  8
1
 10
2772.590164676164
 20
1796.015197726744
 30
0.0
 11
2730.0901646761631
 21
1796.015197726744
 31
0.0
  0
LINE
  5
7D43
  8
1
 10
2772.590164676164
 20
1824.015197726744
 30
0.0
 11
2730.0901646761631
 21
1824.015197726744
 31
0.0
  0
LINE
  5
7D45
  8
1
 10
2783.590164676164
 20
1850.015197726744
 30
0.0
 11
2780.590164676164
 21
1850.015197726744
 31
0.0
  0
ARC
  5
7D46
  8
1
 10
2780.590164676164
 20
1847.0152977267439
 30
0.0
 40
2.9998999999999989
 50
89.998799999999989
 51
180.0011999999999
  0
LINE
  5
7D47
  8
1
 10
2772.590164676164
 20
1824.6151977267441
 30
0.0
 11
2772.590164676164
 21
1795.4152977267449
 31
0.0
  0
LINE
  5
7D48
  8
1
 10
2777.590164676164
 20
1795.4152977267449
 30
0.0
 11
2772.590164676164
 21
1795.4152977267449
 31
0.0
  0
LINE
  5
7D49
  8
1
 10
2777.590164676164
 20
1824.6151977267441
 30
0.0
 11
2772.590164676164
 21
1824.6151977267441
 31
0.0
  0
LINE
  5
7D4A
  8
1
 10
3078.590164676164
 20
1710.015197726744
 30
0.0
 11
3078.590164676164
 21
1910.015197726744
 31
0.0
  0
LINE
  5
7D4B
  8
1
 10
2769.3901646761619
 20
1796.015197726744
 30
0.0
 11
2769.3901646761628
 21
1669.9878606156981
 31
0.0
  0
LINE
  5
7D4C
  8
1
 10
1708.0699438432009
 20
3684.0774508515478
 30
0.0
 11
1708.0699438432009
 21
3984.0774508515451
 31
0.0
  0
LINE
  5
7D4D
  8
1
 10
1061.0699438432021
 20
3659.0774508515469
 30
0.0
 11
1061.0699438432009
 21
4009.0774508515478
 31
0.0
  0
LINE
  5
7D4E
  8
1
 10
1086.0699438432009
 20
3659.0774508515469
 30
0.0
 11
1086.0699438432009
 21
4009.0774508515478
 31
0.0
  0
LINE
  5
7D4F
  8
1
 10
1061.0699438432009
 20
4009.0774508515478
 30
0.0
 11
1086.0699438432
 21
4009.0774508515478
 31
0.0
  0
LINE
  5
7D50
  8
1
 10
1061.0699438432009
 20
3659.0774508515478
 30
0.0
 11
1086.0699438432009
 21
3659.0774508515478
 31
0.0
  0
LINE
  5
7F4B
  8
4
 10
3700.0
 20
1000.0
 30
0.0
 11
3700.0
 21
600.0
 31
0.0
  0
LINE
  5
7F4C
  8
4
 10
2300.0
 20
1000.0
 30
0.0
 11
2300.0
 21
600.0
 31
0.0
  0
LINE
  5
7F4D
  8
4
 10
1300.0
 20
1000.0
 30
0.0
 11
1300.0
 21
600.0
 31
0.0
  0
LINE
  5
7F50
  8
4
 10
1300.0
 20
600.0
 30
0.0
 11
3700.0
 21
600.0
 31
0.0
  0
LINE
  5
7F51
  8
4
 10
1300.0
 20
800.0
 30
0.0
 11
3700.0
 21
800.0
 31
0.0
  0
TEXT
  5
7F52
  8
4
 10
1377.0041616938031
 20
863.08605173322564
 30
0.0
 40
100.0
  1
機器名称
  0
TEXT
  5
7F53
  8
4
 10
1372.516212049595
 20
643.29031346402189
 30
0.0
 40
100.0
  1
機器型番
  0
TEXT
  5
7F54
  8
4
 10
2355.3574909753288
 20
845.14353791513713
 30
0.0
 40
85.0
  1
ミツヤリミットロ－ﾄﾞファン
  0
TEXT
  5
7F55
  8
4
 10
2373.3089911709608
 20
634.31916855988675
 30
0.0
 40
100.0
  1
LL#2 1/2-1
  0
TEXT
  5
7F57
  8
4
 10
1506.450391208549
 20
4766.8576826650306
 30
0.0
 40
107.9999999999999
  1
床置ベット
  0
TEXT
  5
7F58
  8
4
 10
582.33518665889278
 20
5067.7619523985959
 30
0.0
 40
144.0
  1
遠心式片吸込片持リミットロ－ﾄﾞファン
  0
LINE
  5
7F59
  8
4
 10
500.0
 20
4938.8175085296089
 30
0.0
 11
3700.0
 21
4938.8175085296089
 31
0.0
  0
LINE
  5
7F5A
  8
4
 10
500.0
 20
5338.8175085296098
 30
0.0
 11
3700.0
 21
5338.8175085296098
 31
0.0
  0
LINE
  5
7F5B
  8
4
 10
1300.0
 20
1000.0
 30
0.0
 11
3700.0
 21
1000.0
 31
0.0
  0
LINE
  5
7F5C
  8
4
 10
500.0
 20
5338.8175085296098
 30
0.0
 11
500.0
 21
4938.8175085296089
 31
0.0
  0
TEXT
  5
7F5D
  8
4
 10
634.73272672314488
 20
4764.638955092687
 30
0.0
 40
107.9999999999999
  1
右回転左横向
  0
TEXT
  5
7F5E
  8
4
 10
2937.9391184985789
 20
5412.1221629906177
 30
0.0
 40
112.0
  1
No.
  0
TEXT
  5
7F5F
  8
4
 10
2622.5921252000262
 20
4766.8576826650306
 30
0.0
 40
107.9999999999999
  1
縮尺：1/20
  0
LINE
  5
7F60
  8
4
 10
3700.0
 20
5338.8175085296098
 30
0.0
 11
3700.0
 21
4938.8175085296089
 31
0.0
  0
LINE
  5
7F61
  8
4
 10
4200.0
 20
5900.0
 30
0.0
 11
4200.0
 21
5900.0
 31
0.0
  0
LINE
  5
7F62
  8
4
 10
2881.2348447197292
 20
5362.5271662508021
 30
0.0
 11
2881.2348447197292
 21
5573.3045230995049
 31
0.0
  0
LINE
  5
7F63
  8
4
 10
2881.2348447197292
 20
5573.3045230995049
 30
0.0
 11
3700.0
 21
5573.3045230995049
 31
0.0
  0
LINE
  5
7F64
  8
4
 10
3700.0
 20
5573.3045230995049
 30
0.0
 11
3700.0
 21
5362.5271662508021
 31
0.0
  0
LINE
  5
7F65
  8
4
 10
3700.0
 20
5362.5271662508021
 30
0.0
 11
2881.2348447197292
 21
5362.5271662508021
 31
0.0
  0
LINE
  5
7F66
  8
4
 10
0.0
 20
0.0
 30
0.0
 11
0.0
 21
5900.0
 31
0.0
  0
LINE
  5
7F67
  8
4
 10
0.0
 20
5900.0
 30
0.0
 11
4200.0
 21
5900.0
 31
0.0
  0
LINE
  5
7F68
  8
4
 10
4200.0
 20
5900.0
 30
0.0
 11
4200.0
 21
0.0
 31
0.0
  0
LINE
  5
7F69
  8
4
 10
4200.0
 20
0.0
 30
0.0
 11
0.0
 21
0.0
 31
0.0
  0
DIMENSION
  5
8247
  8
3
  2
*D13
 10
2081.069930564187
 20
2701.5667859849509
 30
0.0
 11
1585.263788485837
 21
2701.5667859849509
 31
0.0
 70
   128
 13
1061.0699398595141
 23
2140.0150712885261
 33
0.0
 14
2081.069930564187
 24
1670.015197726744
 34
0.0
1001
ACAD
1000
DSTYLE
1002
{
1070
   287
1070
     3
1070
    40
1040
20.0
1070
   143
1040
0.039
1070
   172
1070
     1
1070
   271
1070
     0
1070
   279
1070
     0
1070
   288
1070
     1
1002
}
  0
LINE
  5
8248
  8
1
 10
2081.0699438432011
 20
3169.077450851546
 30
0.0
 11
2081.0699438432011
 21
3589.077450851546
 31
0.0
  0
LINE
  5
8249
  8
1
 10
1151.0699438432009
 20
3169.0774508515469
 30
0.0
 11
1151.0699438432009
 21
3684.0774508515469
 31
0.0
  0
LINE
  5
824A
  8
1
 10
1151.0699438432009
 20
4029.0774508515478
 30
0.0
 11
1581.0699438432
 21
4029.0774508515478
 31
0.0
1001
ACAD
1000
ASC_BOUNDS
1002
{
1070
    19
1002
}
  0
LINE
  5
824B
  8
1
 10
1151.0699438432009
 20
3169.0774508515469
 30
0.0
 11
1216.0699438432009
 21
3169.0774508515469
 31
0.0
1001
ACAD
1000
ASC_BOUNDS
1002
{
1070
    19
1002
}
  0
LINE
  5
824C
  8
1
 10
1581.0699438432009
 20
3589.077450851546
 30
0.0
 11
2081.0699438432011
 21
3589.077450851546
 31
0.0
1001
ACAD
1000
ASC_BOUNDS
1002
{
1070
    19
1002
}
  0
LINE
  5
824D
  8
1
 10
1581.0699438432009
 20
3589.077450851546
 30
0.0
 11
1581.0699438432009
 21
3684.0774508515478
 31
0.0
  0
LINE
  5
824F
  8
1
 10
1151.0699438432009
 20
3984.0774508515478
 30
0.0
 11
1151.0699438432009
 21
4029.0774508515478
 31
0.0
  0
LINE
  5
8250
  8
1
 10
1581.0699438432009
 20
3984.0774508515478
 30
0.0
 11
1581.0699438432009
 21
4029.0774508515478
 31
0.0
  0
LINE
  5
8251
  8
1
 10
2016.0699438432
 20
3169.077450851546
 30
0.0
 11
2081.0699438432011
 21
3169.077450851546
 31
0.0
1001
ACAD
1000
ASC_BOUNDS
1002
{
1070
    19
1002
}
  0
DIMENSION
  5
825E
  8
3
  2
*D14
 10
1581.0699438432009
 20
4172.8985627010306
 30
0.0
 11
1373.7489096736131
 21
4172.8985627010306
 31
0.0
 70
   128
 13
1151.0699438432009
 23
4029.0774508515478
 33
0.0
 14
1581.0699438432009
 24
4029.0774508515478
 34
0.0
1001
ACAD
1000
DSTYLE
1002
{
1070
   287
1070
     3
1070
    40
1040
20.0
1070
   143
1040
0.039
1070
   172
1070
     1
1070
   271
1070
     0
1070
   279
1070
     0
1070
   288
1070
     1
1002
}
  0
DIMENSION
  5
8275
  8
3
  2
*D15
 10
2081.0699438432011
 20
4172.8985627010306
 30
0.0
 11
1831.0699438432009
 21
4222.8985627010316
 31
0.0
 70
     0
 13
1581.0699438432009
 23
4029.0774508515478
 33
0.0
 14
2081.0699438432011
 24
3589.077450851546
 34
0.0
1001
ACAD
1000
DSTYLE
1002
{
1070
   287
1070
     4
1070
    40
1040
20.0
1070
    75
1070
     1
1070
   143
1040
0.039
1070
   172
1070
     1
1070
   271
1070
     0
1070
   279
1070
     1
1070
   288
1070
     1
1002
}
  0
DIMENSION
  5
8282
  8
3
  2
*D16
 10
2269.9355726541771
 20
3169.077450851546
 30
0.0
 11
2269.9355726541762
 21
3380.7722625700599
 31
0.0
 70
   128
 13
2081.0699438432011
 23
3589.077450851546
 33
0.0
 14
2081.0699438432011
 24
3169.077450851546
 34
0.0
 50
90.0
1001
ACAD
1000
DSTYLE
1002
{
1070
   287
1070
     3
1070
    40
1040
20.0
1070
   143
1040
0.039
1070
   172
1070
     1
1070
   271
1070
     0
1070
   279
1070
     0
1070
   288
1070
     1
1002
}
  0
DIMENSION
  5
828F
  8
3
  2
*D17
 10
981.66722685232958
 20
4029.0774508515478
 30
0.0
 11
981.66722685232889
 21
3548.6685985978402
 31
0.0
 70
   128
 13
1151.0699438432009
 23
3169.0774508515469
 33
0.0
 14
1151.0699438432009
 24
4029.0774508515478
 34
0.0
 50
90.0
1001
ACAD
1000
DSTYLE
1002
{
1070
   287
1070
     3
1070
    40
1040
20.0
1070
   143
1040
0.039
1070
   172
1070
     1
1070
   271
1070
     0
1070
   279
1070
     0
1070
   288
1070
     1
1002
}
  0
LINE
  5
82AD
  8
1
 10
2757.090164676164
 20
1776.6405406710401
 30
0.0
 11
2757.090164676164
 21
1720.015197726744
 31
0.0
  0
DIMENSION
  5
831E
  8
3
  2
*D18
 10
1366.0699438432
 20
1461.822890901228
 30
0.0
 11
1258.5699372036929
 21
1511.822890901228
 31
0.0
 70
     0
 13
1151.069930564187
 23
1595.015197726744
 33
0.0
 14
1366.0699438432
 24
1595.015197726744
 34
0.0
1001
ACAD
1000
DSTYLE
1002
{
1070
   287
1070
     3
1070
    40
1040
20.0
1070
   143
1040
0.039
1070
   172
1070
     1
1070
   271
1070
     0
1070
   279
1070
     0
1002
}
  0
DIMENSION
  5
832B
  8
3
  2
*D19
 10
2081.069930564187
 20
1461.822890901228
 30
0.0
 11
1723.5699372036941
 21
1511.822890901228
 31
0.0
 70
     0
 13
1366.0699438432
 23
1595.015197726744
 33
0.0
 14
2081.069930564187
 24
1595.015197726744
 34
0.0
1001
ACAD
1000
DSTYLE
1002
{
1070
   287
1070
     3
1070
    40
1040
20.0
1070
   143
1040
0.039
1070
   172
1070
     1
1070
   271
1070
     0
1070
   279
1070
     0
1002
}
  0
DIMENSION
  5
8338
  8
3
  2
*D20
 10
3402.5901646761631
 20
1461.822890901228
 30
0.0
 11
3070.0901646761631
 21
1511.822890901228
 31
0.0
 70
     0
 13
2737.5901646761631
 23
1594.9878606156981
 33
0.0
 14
3402.5901646761631
 24
1594.9878606156981
 34
0.0
1001
ACAD
1000
DSTYLE
1002
{
1070
   287
1070
     3
1070
    40
1040
20.0
1070
   143
1040
0.039
1070
   172
1070
     1
1070
   271
1070
     0
1070
   279
1070
     0
1002
}
  0
DIMENSION
  5
8347
  8
3
  2
*D21
 10
3597.5901646761631
 20
1461.822890901228
 30
0.0
 11
3500.0901646761631
 21
1511.822890901228
 31
0.0
 70
     0
 13
3402.5901646761631
 23
1594.9878606156981
 33
0.0
 14
3597.5901646761631
 24
1594.9878606156981
 34
0.0
1001
ACAD
1000
DSTYLE
1002
{
1070
   287
1070
     3
1070
    40
1040
20.0
1070
   143
1040
0.039
1070
   172
1070
     1
1070
   271
1070
     0
1070
   279
1070
     0
1002
}
  0
DIMENSION
  5
8354
  8
3
  2
*D22
 10
602.19149158537402
 20
1595.015197726744
 30
0.0
 11
552.1914915853738
 21
2001.0151977267451
 31
0.0
 70
     0
 13
1356.0699438432
 23
2407.0151977267442
 33
0.0
 14
1151.069930564187
 24
1595.015197726744
 34
0.0
 50
90.0
1001
ACAD
1000
DSTYLE
1002
{
1070
   287
1070
     3
1070
    40
1040
20.0
1070
   143
1040
0.039
1070
   172
1070
     1
1070
   271
1070
     0
1070
   279
1070
     0
1002
}
  0
ENDSEC
  0
EOF
