  0
SECTION
  2
HEADER
  9
$ACADVER
  1
AC1009
  9
$INSBASE
 10
0.0
 20
0.0
 30
0.0
  9
$EXTMIN
 10
0.0
 20
0.0
 30
0.0
  9
$EXTMAX
 10
4200.0
 20
5900.0
 30
0.0
  9
$LIMMIN
 10
0.0
 20
0.0
  9
$LIMMAX
 10
297.0
 20
210.0
  9
$ORTHOMODE
 70
     0
  9
$REGENMODE
 70
     1
  9
$FILLMODE
 70
     0
  9
$QTEXTMODE
 70
     0
  9
$MIRRTEXT
 70
     1
  9
$DRAGMODE
 70
     2
  9
$LTSCALE
 40
100.0
  9
$OSMODE
 70
    37
  9
$ATTMODE
 70
     1
  9
$TEXTSIZE
 40
180.0
  9
$TRACEWID
 40
0.05
  9
$TEXTSTYLE
  7
STANDARD
  9
$CLAYER
  8
3
  9
$CELTYPE
  6
BYLAYER
  9
$CECOLOR
 62
   256
  9
$DIMSCALE
 40
20.0
  9
$DIMASZ
 40
2.0
  9
$DIMEXO
 40
0.5
  9
$DIMDLI
 40
10.0
  9
$DIMRND
 40
0.0
  9
$DIMDLE
 40
0.0
  9
$DIMEXE
 40
1.0
  9
$DIMTP
 40
1.0
  9
$DIMTM
 40
1.0
  9
$DIMTXT
 40
3.0
  9
$DIMCEN
 40
0.0
  9
$DIMTSZ
 40
0.0
  9
$DIMTOL
 70
     0
  9
$DIMLIM
 70
     0
  9
$DIMTIH
 70
     0
  9
$DIMTOH
 70
     0
  9
$DIMSE1
 70
     0
  9
$DIMSE2
 70
     0
  9
$DIMTAD
 70
     1
  9
$DIMZIN
 70
     8
  9
$DIMBLK
  1

  9
$DIMASO
 70
     1
  9
$DIMSHO
 70
     1
  9
$DIMPOST
  1

  9
$DIMAPOST
  1

  9
$DIMALT
 70
     0
  9
$DIMALTD
 70
     2
  9
$DIMALTF
 40
0.039
  9
$DIMLFAC
 40
1.0
  9
$DIMTOFL
 70
     1
  9
$DIMTVP
 40
0.0
  9
$DIMTIX
 70
     0
  9
$DIMSOXD
 70
     0
  9
$DIMSAH
 70
     1
  9
$DIMBLK1
  1
OPEN
  9
$DIMBLK2
  1
OPEN
  9
$DIMSTYLE
  2
IGA
  9
$DIMCLRD
 70
     0
  9
$DIMCLRE
 70
     0
  9
$DIMCLRT
 70
     0
  9
$DIMTFAC
 40
10.0
  9
$DIMGAP
 40
1.0
  9
$LUNITS
 70
     2
  9
$LUPREC
 70
     3
  9
$SKETCHINC
 40
0.1
  9
$FILLETRAD
 40
50.0
  9
$AUNITS
 70
     0
  9
$AUPREC
 70
     0
  9
$MENU
  1
acad
  9
$ELEVATION
 40
0.0
  9
$PELEVATION
 40
0.0
  9
$THICKNESS
 40
0.0
  9
$LIMCHECK
 70
     0
  9
$BLIPMODE
 70
     0
  9
$CHAMFERA
 40
0.5
  9
$CHAMFERB
 40
0.5
  9
$SKPOLY
 70
     0
  9
$TDCREATE
 40
2451983.492185764
  9
$TDUPDATE
 40
2454953.6388597679
  9
$TDINDWG
 40
0.0227996181
  9
$TDUSRTIMER
 40
0.0227996181
  9
$USRTIMER
 70
     1
  9
$ANGBASE
 50
0.0
  9
$ANGDIR
 70
     0
  9
$PDMODE
 70
     0
  9
$PDSIZE
 40
0.0
  9
$PLINEWID
 40
0.0
  9
$COORDS
 70
     1
  9
$SPLFRAME
 70
     0
  9
$SPLINETYPE
 70
     6
  9
$SPLINESEGS
 70
     8
  9
$ATTDIA
 70
     0
  9
$ATTREQ
 70
     1
  9
$HANDLING
 70
 10241
  9
$HANDSEED
  5
84BA
  9
$SURFTAB1
 70
     6
  9
$SURFTAB2
 70
     6
  9
$SURFTYPE
 70
     6
  9
$SURFU
 70
     6
  9
$SURFV
 70
     6
  9
$UCSNAME
  2

  9
$UCSORG
 10
0.0
 20
0.0
 30
0.0
  9
$UCSXDIR
 10
1.0
 20
0.0
 30
0.0
  9
$UCSYDIR
 10
0.0
 20
1.0
 30
0.0
  9
$PUCSNAME
  2

  9
$PUCSORG
 10
0.0
 20
0.0
 30
0.0
  9
$PUCSXDIR
 10
1.0
 20
0.0
 30
0.0
  9
$PUCSYDIR
 10
0.0
 20
1.0
 30
0.0
  9
$USERI1
 70
     0
  9
$USERI2
 70
     0
  9
$USERI3
 70
     0
  9
$USERI4
 70
     0
  9
$USERI5
 70
     0
  9
$USERR1
 40
0.0
  9
$USERR2
 40
0.0
  9
$USERR3
 40
0.0
  9
$USERR4
 40
0.0
  9
$USERR5
 40
0.0
  9
$WORLDVIEW
 70
     1
  9
$SHADEDGE
 70
     3
  9
$SHADEDIF
 70
    70
  9
$TILEMODE
 70
     1
  9
$MAXACTVP
 70
    16
  9
$PLIMCHECK
 70
     0
  9
$PEXTMIN
 10
1.0000000000000000E+020
 20
1.0000000000000000E+020
 30
1.0000000000000000E+020
  9
$PEXTMAX
 10
-1.0000000000000000E+020
 20
-1.0000000000000000E+020
 30
-1.0000000000000000E+020
  9
$PLIMMIN
 10
0.0
 20
0.0
  9
$PLIMMAX
 10
12.0
 20
9.0
  9
$UNITMODE
 70
     0
  9
$VISRETAIN
 70
     0
  9
$PLINEGEN
 70
     0
  9
$PSLTSCALE
 70
     1
  0
ENDSEC
  0
SECTION
  2
TABLES
  0
TABLE
  2
VPORT
 70
     2
  0
VPORT
  2
*ACTIVE
 70
     0
 10
0.0
 20
0.0
 11
1.0
 21
1.0
 12
4099.5269010795701
 22
705.02319757693738
 13
0.0
 23
0.0
 14
10.0
 24
10.0
 15
10.0
 25
10.0
 16
0.0
 26
0.0
 36
1.0
 17
0.0
 27
0.0
 37
0.0
 40
1845.700436148657
 41
3.1666666666666661
 42
50.0
 43
0.0
 44
0.0
 50
0.0
 51
0.0
 71
     0
 72
   100
 73
     1
 74
     0
 75
     0
 76
     0
 77
     0
 78
     0
  0
ENDTAB
  0
TABLE
  2
LTYPE
 70
     2
  0
LTYPE
  2
CONTINUOUS
 70
     0
  3
Solid line
 72
    65
 73
     0
 40
0.0
  0
LTYPE
  2
CENTER
 70
     0
  3
____ _ ____ _ ____ _ ____ _ ____ _ ____ _ ____ 
 72
    65
 73
     4
 40
2.0
 49
1.25
 49
-0.25
 49
0.25
 49
-0.25
  0
ENDTAB
  0
TABLE
  2
LAYER
 70
     6
  0
LAYER
  2
0
 70
     0
 62
     7
  6
CONTINUOUS
  0
LAYER
  2
3
 70
     0
 62
     2
  6
CONTINUOUS
  0
LAYER
  2
2
 70
     0
 62
     3
  6
CENTER
  0
LAYER
  2
1
 70
     0
 62
     4
  6
CONTINUOUS
  0
LAYER
  2
4
 70
     0
 62
     7
  6
CONTINUOUS
  0
LAYER
  2
DEFPOINTS
 70
     0
 62
     7
  6
CONTINUOUS
  0
ENDTAB
  0
TABLE
  2
STYLE
 70
     1
  0
STYLE
  2
STANDARD
 70
     0
 40
0.0
 41
1.0
 50
0.0
 71
     0
 42
180.0
  3
simplex.shx
  4
extfont.shx
  0
ENDTAB
  0
TABLE
  2
VIEW
 70
     0
  0
ENDTAB
  0
TABLE
  2
UCS
 70
     0
  0
ENDTAB
  0
TABLE
  2
APPID
 70
     1
  0
APPID
  2
ACAD
 70
     0
  0
ENDTAB
  0
TABLE
  2
DIMSTYLE
 70
     1
  0
DIMSTYLE
  2
IGA
 70
     0
  3

  4

  5

  6
OPEN
  7
OPEN
 40
2.0
 41
2.0
 42
0.5
 43
10.0
 44
1.0
 45
0.0
 46
0.0
 47
1.0
 48
1.0
140
3.0
141
0.0
142
0.0
143
0.03937
144
1.0
145
0.0
146
10.0
147
1.0
 71
     0
 72
     0
 73
     0
 74
     0
 75
     0
 76
     0
 77
     1
 78
     8
170
     0
171
     2
172
     0
173
     1
174
     0
175
     0
176
     0
177
     0
178
     0
  0
ENDTAB
  0
ENDSEC
  0
SECTION
  2
BLOCKS
  0
BLOCK
  8
0
  2
$MODEL_SPACE
 70
     0
 10
0.0
 20
0.0
 30
0.0
  3
$MODEL_SPACE
  1

  0
ENDBLK
  5
1B
  8
0
  0
BLOCK
 67
     1
  8
0
  2
$PAPER_SPACE
 70
     0
 10
0.0
 20
0.0
 30
0.0
  3
$PAPER_SPACE
  1

  0
ENDBLK
  5
18
 67
     1
  8
0
  0
BLOCK
  8
0
  2
_OPEN
 70
     0
 10
0.0
 20
0.0
 30
0.0
  3
_OPEN
  1

  0
LINE
  5
79FD
  8
0
  6
BYBLOCK
 62
     0
 10
-1.0
 20
0.1666666666666666
 30
0.0
 11
0.0
 21
0.0
 31
0.0
  0
LINE
  5
79FE
  8
0
  6
BYBLOCK
 62
     0
 10
0.0
 20
0.0
 30
0.0
 11
-1.0
 21
-0.1666666666666666
 31
0.0
  0
LINE
  5
79FF
  8
0
  6
BYBLOCK
 62
     0
 10
0.0
 20
0.0
 30
0.0
 11
-1.0
 21
0.0
 31
0.0
  0
ENDBLK
  5
7A01
  8
0
  0
BLOCK
  8
0
  2
YA_N
 70
     0
 10
0.0
 20
0.0
 30
0.0
  3
YA_N
  1

  0
ENDBLK
  5
7A04
  8
0
  0
BLOCK
  8
0
  2
_DOT
 70
     0
 10
0.0
 20
0.0
 30
0.0
  3
_DOT
  1

  0
LINE
  5
831F
  8
0
  6
BYBLOCK
 62
     0
 10
0.0
 20
0.0
 30
0.0
 11
-1.0
 21
-0.0000000000000284
 31
0.0
  0
POLYLINE
  5
8320
  8
0
  6
BYBLOCK
 62
     0
 66
     1
 10
0.0
 20
0.0
 30
0.0
 70
     1
 40
0.1666666666666666
 41
0.1666666666666666
  0
VERTEX
  5
8477
  8
0
  6
BYBLOCK
 62
     0
 10
-0.0833333333333286
 20
-0.0000000000000284
 30
0.0
 42
1.0
  0
VERTEX
  5
8478
  8
0
  6
BYBLOCK
 62
     0
 10
0.0833333333333286
 20
-0.0000000000000284
 30
0.0
 42
1.0
  0
SEQEND
  5
8479
  8
0
  6
BYBLOCK
 62
     0
  0
ENDBLK
  5
7A64
  8
0
  0
BLOCK
  8
0
  2
*D3
 70
     1
 10
0.0
 20
0.0
 30
0.0
  3
*D3
  1

  0
LINE
  5
83F3
  8
3
 62
     0
 10
3359.4663660043989
 20
2236.0594663930251
 30
0.0
 11
3527.0568327122091
 21
2236.0594663930251
 31
0.0
  0
LINE
  5
83F4
  8
3
 62
     0
 10
3359.4663660043989
 20
1836.059466393026
 30
0.0
 11
3527.0568327122091
 21
1836.059466393026
 31
0.0
  0
LINE
  5
83F5
  8
3
 62
     0
 10
3507.0568327122078
 20
2196.059466393026
 30
0.0
 11
3507.0568327122078
 21
1876.059466393026
 31
0.0
  0
INSERT
  5
83F6
  8
3
 62
     0
  2
_OPEN
 10
3507.0568327122078
 20
2236.0594663930251
 30
0.0
 41
40.0
 42
40.0
 43
40.0
 50
90.0
  0
INSERT
  5
83F7
  8
3
 62
     0
  2
_OPEN
 10
3507.0568327122078
 20
1836.059466393026
 30
0.0
 41
40.0
 42
40.0
 43
40.0
 50
270.0
  0
TEXT
  8
3
  40
60
  5
84A7
  62
0
  72
0
  71
0
 10
3337.06
 20
1929.86
 30
0.000000
  1
φ400
  0
POINT
  5
83F9
  8
DEFPOINTS
 62
     0
 10
3349.4663660043989
 20
2236.0594663930251
 30
0.0
  0
POINT
  5
83FA
  8
DEFPOINTS
 62
     0
 10
3349.4663660043989
 20
1836.059466393026
 30
0.0
  0
POINT
  5
83FB
  8
DEFPOINTS
 62
     0
 10
3507.0568327122078
 20
1836.059466393026
 30
0.0
  0
ENDBLK
  5
8104
  8
0
  0
BLOCK
  8
0
  2
*D4
 70
     1
 10
0.0
 20
0.0
 30
0.0
  3
*D4
  1

  0
LINE
  5
8401
  8
3
 62
     0
 10
3046.1663660043992
 20
2346.5530210980592
 30
0.0
 11
3046.1663660043992
 21
2453.7747138985151
 31
0.0
  0
LINE
  5
8402
  8
3
 62
     0
 10
3346.1663660043992
 20
2346.5530210980592
 30
0.0
 11
3346.1663660043992
 21
2453.7747138985151
 31
0.0
  0
LINE
  5
8403
  8
3
 62
     0
 10
3086.1663660044001
 20
2433.7747138985151
 30
0.0
 11
3306.1663660043992
 21
2433.7747138985151
 31
0.0
  0
INSERT
  5
8404
  8
3
 62
     0
  2
_OPEN
 10
3046.1663660043992
 20
2433.7747138985151
 30
0.0
 41
40.0
 42
40.0
 43
40.0
 50
180.0
  0
INSERT
  5
8405
  8
3
 62
     0
  2
_OPEN
 10
3346.1663660043992
 20
2433.7747138985151
 30
0.0
 41
40.0
 42
40.0
 43
40.0
  0
TEXT
  8
3
  40
60
  5
84A8
  62
0
  72
0
  71
0
 10
3089.02
 20
2377.57
 30
0.000000
  1
300
  0
POINT
  5
8407
  8
DEFPOINTS
 62
     0
 10
3046.1663660043992
 20
2336.5530210980592
 30
0.0
  0
POINT
  5
8408
  8
DEFPOINTS
 62
     0
 10
3346.1663660043992
 20
2336.5530210980592
 30
0.0
  0
POINT
  5
8409
  8
DEFPOINTS
 62
     0
 10
3346.1663660043992
 20
2433.7747138985151
 30
0.0
  0
ENDBLK
  5
80F9
  8
0
  0
BLOCK
  8
0
  2
*D5
 70
     1
 10
0.0
 20
0.0
 30
0.0
  3
*D5
  1

  0
LINE
  5
840A
  8
3
 62
     0
 10
2458.666366004401
 20
2172.7151719963422
 30
0.0
 11
2458.666366004401
 21
2589.822992111996
 31
0.0
  0
LINE
  5
840B
  8
3
 62
     0
 10
3196.1663660043992
 20
2525.1056884720651
 30
0.0
 11
3196.1663660043992
 21
2589.822992111996
 31
0.0
  0
LINE
  5
840C
  8
3
 62
     0
 10
2498.6663660044001
 20
2569.822992111996
 30
0.0
 11
3156.1663660043992
 21
2569.822992111996
 31
0.0
  0
INSERT
  5
840D
  8
3
 62
     0
  2
_OPEN
 10
2458.666366004401
 20
2569.822992111996
 30
0.0
 41
40.0
 42
40.0
 43
40.0
 50
180.0
  0
INSERT
  5
840E
  8
3
 62
     0
  2
_OPEN
 10
3196.1663660043992
 20
2569.822992111996
 30
0.0
 41
40.0
 42
40.0
 43
40.0
  0
TEXT
  8
3
  40
60
  5
84A9
  62
0
  72
0
  71
0
 10
2707.42
 20
2563.62
 30
0.000000
  1
MAX
  0
TEXT
  8
3
  40
60
  5
84AA
  62
0
  72
0
  71
0
 10
2707.42
 20
2485.62
 30
0.000000
  1
830
  0
POINT
  5
8410
  8
DEFPOINTS
 62
     0
 10
2458.666366004401
 20
2162.7151719963422
 30
0.0
  0
POINT
  5
8411
  8
DEFPOINTS
 62
     0
 10
3196.1663660043992
 20
2515.1056884720638
 30
0.0
  0
POINT
  5
8412
  8
DEFPOINTS
 62
     0
 10
3196.1663660043992
 20
2569.822992111996
 30
0.0
  0
ENDBLK
  5
8332
  8
0
  0
BLOCK
  8
0
  2
*D6
 70
     1
 10
0.0
 20
0.0
 30
0.0
  3
*D6
  1

  0
LINE
  5
818B
  8
0
  6
BYBLOCK
 62
     0
 10
3196.1663660043992
 20
2397.097805379668
 30
0.0
 11
3196.1663660043992
 21
2462.3298510581858
 31
0.0
  0
LINE
  5
818C
  8
0
  6
BYBLOCK
 62
     0
 10
3348.4663660043998
 20
2216.8776884058998
 30
0.0
 11
3348.4663660043998
 21
2462.3298510581858
 31
0.0
  0
LINE
  5
818D
  8
0
  6
BYBLOCK
 62
     0
 10
3236.1663660043992
 20
2442.3298510581858
 30
0.0
 11
3308.4663660043998
 21
2442.3298510581858
 31
0.0
  0
TEXT
  5
818E
  8
3
 62
     0
 10
3190.0034661093018
 20
2477.3871393523959
 30
0.0
 40
60.0
  1
153
  0
INSERT
  5
818F
  8
0
  6
BYBLOCK
 62
     0
  2
_OPEN
 10
3196.1663660043992
 20
2442.3298510581858
 30
0.0
 41
40.0
 42
40.0
 43
40.0
 50
180.0
  0
INSERT
  5
8190
  8
0
  6
BYBLOCK
 62
     0
  2
_OPEN
 10
3348.4663660043998
 20
2442.3298510581858
 30
0.0
 41
40.0
 42
40.0
 43
40.0
  0
POINT
  5
8191
  8
DEFPOINTS
  6
BYBLOCK
 62
     0
 10
3196.1663660043992
 20
2387.097805379668
 30
0.0
  0
POINT
  5
8192
  8
DEFPOINTS
  6
BYBLOCK
 62
     0
 10
3348.4663660043998
 20
2206.8776884058998
 30
0.0
  0
POINT
  5
8193
  8
DEFPOINTS
  6
BYBLOCK
 62
     0
 10
3348.4663660043998
 20
2442.3298510581858
 30
0.0
  0
ENDBLK
  5
8194
  8
0
  0
BLOCK
  8
0
  2
*D7
 70
     1
 10
0.0
 20
0.0
 30
0.0
  3
*D7
  1

  0
LINE
  5
841E
  8
3
 62
     0
 10
1543.810433383562
 20
2341.0868074877581
 30
0.0
 11
1985.98321463908
 21
2341.0868074877581
 31
0.0
  0
LINE
  5
841F
  8
3
 62
     0
 10
1908.6438538237101
 20
2036.0868035040719
 30
0.0
 11
1985.98321463908
 21
2036.0868035040719
 31
0.0
  0
LINE
  5
8420
  8
3
 62
     0
 10
1965.98321463908
 20
2301.0868074877581
 30
0.0
 11
1965.98321463908
 21
2076.0868035040721
 31
0.0
  0
INSERT
  5
8421
  8
3
 62
     0
  2
_OPEN
 10
1965.98321463908
 20
2341.0868074877581
 30
0.0
 41
40.0
 42
40.0
 43
40.0
 50
90.0
  0
INSERT
  5
8422
  8
3
 62
     0
  2
_OPEN
 10
1965.98321463908
 20
2036.0868035040719
 30
0.0
 41
40.0
 42
40.0
 43
40.0
 50
270.0
  0
TEXT
  8
3
  40
60
  5
84AB
  62
0
  72
0
  71
0
 10
1795.98
 20
2082.39
 30
0.000000
  1
305
  0
POINT
  5
8424
  8
DEFPOINTS
 62
     0
 10
1533.810433383562
 20
2341.0868074877581
 30
0.0
  0
POINT
  5
8425
  8
DEFPOINTS
 62
     0
 10
1898.6438538237101
 20
2036.0868035040719
 30
0.0
  0
POINT
  5
8426
  8
DEFPOINTS
 62
     0
 10
1965.98321463908
 20
2036.0868035040719
 30
0.0
  0
ENDBLK
  5
80B6
  8
0
  0
BLOCK
  8
0
  2
*D8
 70
     1
 10
0.0
 20
0.0
 30
0.0
  3
*D8
  1

  0
LINE
  5
8427
  8
3
 62
     0
 10
1908.6438538237101
 20
2036.0868035040719
 30
0.0
 11
1985.98321463908
 21
2036.0868035040719
 31
0.0
  0
LINE
  5
8428
  8
3
 62
     0
 10
1743.8105731007929
 20
1611.0868035040719
 30
0.0
 11
1985.98321463908
 21
1611.0868035040719
 31
0.0
  0
LINE
  5
8429
  8
3
 62
     0
 10
1965.98321463908
 20
1996.0868035040719
 30
0.0
 11
1965.98321463908
 21
1651.0868035040719
 31
0.0
  0
INSERT
  5
842A
  8
3
 62
     0
  2
_OPEN
 10
1965.98321463908
 20
2036.0868035040719
 30
0.0
 41
40.0
 42
40.0
 43
40.0
 50
90.0
  0
INSERT
  5
842B
  8
3
 62
     0
  2
_OPEN
 10
1965.98321463908
 20
1611.0868035040719
 30
0.0
 41
40.0
 42
40.0
 43
40.0
 50
270.0
  0
TEXT
  8
3
  40
60
  5
84AC
  62
0
  72
0
  71
0
 10
1795.98
 20
1717.39
 30
0.000000
  1
425
  0
POINT
  5
842D
  8
DEFPOINTS
 62
     0
 10
1898.6438538237101
 20
2036.0868035040719
 30
0.0
  0
POINT
  5
842E
  8
DEFPOINTS
 62
     0
 10
1733.8105731007929
 20
1611.0868035040719
 30
0.0
  0
POINT
  5
842F
  8
DEFPOINTS
 62
     0
 10
1965.98321463908
 20
1611.0868035040719
 30
0.0
  0
ENDBLK
  5
80AB
  8
0
  0
BLOCK
  8
0
  2
*D9
 70
     1
 10
0.0
 20
0.0
 30
0.0
  3
*D9
  1

  0
LINE
  5
8430
  8
3
 62
     0
 10
1800.8105598217801
 20
2046.0868035040719
 30
0.0
 11
1800.8105598217801
 21
2573.9329775695619
 31
0.0
  0
LINE
  5
8431
  8
3
 62
     0
 10
1518.8105598217801
 20
2430.1595686579331
 30
0.0
 11
1518.8105598217801
 21
2573.9329775695619
 31
0.0
  0
LINE
  5
8432
  8
3
 62
     0
 10
1760.8105598217801
 20
2553.9329775695619
 30
0.0
 11
1558.810559821781
 21
2553.9329775695619
 31
0.0
  0
INSERT
  5
8433
  8
3
 62
     0
  2
_OPEN
 10
1800.8105598217801
 20
2553.9329775695619
 30
0.0
 41
40.0
 42
40.0
 43
40.0
  0
INSERT
  5
8434
  8
3
 62
     0
  2
_OPEN
 10
1518.8105598217801
 20
2553.9329775695619
 30
0.0
 41
40.0
 42
40.0
 43
40.0
 50
180.0
  0
TEXT
  8
3
  40
60
  5
84AD
  62
0
  72
0
  71
0
 10
1539.81
 20
2497.73
 30
0.000000
  1
282
  0
POINT
  5
8436
  8
DEFPOINTS
 62
     0
 10
1800.8105598217801
 20
2036.0868035040719
 30
0.0
  0
POINT
  5
8437
  8
DEFPOINTS
 62
     0
 10
1518.8105598217801
 20
2420.1595686579331
 30
0.0
  0
POINT
  5
8438
  8
DEFPOINTS
 62
     0
 10
1518.8105598217801
 20
2553.9329775695619
 30
0.0
  0
ENDBLK
  5
805A
  8
0
  0
BLOCK
  8
0
  2
*D10
 70
     1
 10
0.0
 20
0.0
 30
0.0
  3
*D10
  1

  0
LINE
  5
8439
  8
3
 62
     0
 10
1518.8105598217801
 20
2430.1595686579331
 30
0.0
 11
1518.8105598217801
 21
2573.9329775695619
 31
0.0
  0
LINE
  5
843A
  8
3
 62
     0
 10
1094.8105598217801
 20
2351.0850627889058
 30
0.0
 11
1094.8105598217801
 21
2573.9329775695619
 31
0.0
  0
LINE
  5
843B
  8
3
 62
     0
 10
1478.8105598217801
 20
2553.9329775695619
 30
0.0
 11
1134.8105598217801
 21
2553.9329775695619
 31
0.0
  0
INSERT
  5
843C
  8
3
 62
     0
  2
_OPEN
 10
1518.8105598217801
 20
2553.9329775695619
 30
0.0
 41
40.0
 42
40.0
 43
40.0
  0
INSERT
  5
843D
  8
3
 62
     0
  2
_OPEN
 10
1094.8105598217801
 20
2553.9329775695619
 30
0.0
 41
40.0
 42
40.0
 43
40.0
 50
180.0
  0
TEXT
  8
3
  40
60
  5
84AE
  62
0
  72
0
  71
0
 10
1186.81
 20
2497.73
 30
0.000000
  1
424
  0
POINT
  5
843F
  8
DEFPOINTS
 62
     0
 10
1518.8105598217801
 20
2420.1595686579331
 30
0.0
  0
POINT
  5
8440
  8
DEFPOINTS
 62
     0
 10
1094.8105598217801
 20
2341.0850627889058
 30
0.0
  0
POINT
  5
8441
  8
DEFPOINTS
 62
     0
 10
1094.8105598217801
 20
2553.9329775695619
 30
0.0
  0
ENDBLK
  5
804F
  8
0
  0
BLOCK
  8
0
  2
*D11
 70
     1
 10
0.0
 20
0.0
 30
0.0
  3
*D11
  1

  0
LINE
  5
8442
  8
3
 62
     0
 10
1094.8105598217801
 20
2351.0850627889058
 30
0.0
 11
1094.8105598217801
 21
2455.4479619972458
 31
0.0
  0
LINE
  5
8443
  8
3
 62
     0
 10
1506.810559821781
 20
2351.0868003171158
 30
0.0
 11
1506.810559821781
 21
2455.4479619972458
 31
0.0
  0
LINE
  5
8444
  8
3
 62
     0
 10
1134.8105598217801
 20
2435.4479619972458
 30
0.0
 11
1466.810559821781
 21
2435.4479619972458
 31
0.0
  0
INSERT
  5
8445
  8
3
 62
     0
  2
_OPEN
 10
1094.8105598217801
 20
2435.4479619972458
 30
0.0
 41
40.0
 42
40.0
 43
40.0
 50
180.0
  0
INSERT
  5
8446
  8
3
 62
     0
  2
_OPEN
 10
1506.810559821781
 20
2435.4479619972458
 30
0.0
 41
40.0
 42
40.0
 43
40.0
  0
TEXT
  8
3
  40
60
  5
84AF
  62
0
  72
0
  71
0
 10
1180.81
 20
2379.25
 30
0.000000
  1
412
  0
POINT
  5
8448
  8
DEFPOINTS
 62
     0
 10
1094.8105598217801
 20
2341.0850627889058
 30
0.0
  0
POINT
  5
8449
  8
DEFPOINTS
 62
     0
 10
1506.810559821781
 20
2341.0868003171158
 30
0.0
  0
POINT
  5
844A
  8
DEFPOINTS
 62
     0
 10
1506.810559821781
 20
2435.4479619972458
 30
0.0
  0
ENDBLK
  5
8044
  8
0
  0
BLOCK
  8
0
  2
*D12
 70
     1
 10
0.0
 20
0.0
 30
0.0
  3
*D12
  1

  0
LINE
  5
844B
  8
3
 62
     0
 10
1802.1859097753429
 20
2016.7168134735009
 30
0.0
 11
1802.1859097753429
 21
2693.9119856142511
 31
0.0
  0
LINE
  5
844C
  8
3
 62
     0
 10
803.81057310079359
 20
1696.0868035040719
 30
0.0
 11
803.81057310079359
 21
2693.9119856142511
 31
0.0
  0
LINE
  5
844D
  8
3
 62
     0
 10
1762.1859097753429
 20
2673.9119856142511
 30
0.0
 11
843.8105731007937
 21
2673.9119856142511
 31
0.0
  0
INSERT
  5
844E
  8
3
 62
     0
  2
_OPEN
 10
1802.1859097753429
 20
2673.9119856142511
 30
0.0
 41
40.0
 42
40.0
 43
40.0
  0
INSERT
  5
844F
  8
3
 62
     0
  2
_OPEN
 10
803.81057310079359
 20
2673.9119856142511
 30
0.0
 41
40.0
 42
40.0
 43
40.0
 50
180.0
  0
TEXT
  8
3
  40
60
  5
84B0
  62
0
  72
0
  71
0
 10
1187.74
 20
2617.71
 30
0.000000
  1
998
  0
POINT
  5
8451
  8
DEFPOINTS
 62
     0
 10
1802.1859097753429
 20
2006.7168134735009
 30
0.0
  0
POINT
  5
8452
  8
DEFPOINTS
 62
     0
 10
803.81057310079359
 20
1686.0868035040719
 30
0.0
  0
POINT
  5
8453
  8
DEFPOINTS
 62
     0
 10
803.81057310079359
 20
2673.9119856142511
 30
0.0
  0
ENDBLK
  5
82D0
  8
0
  0
BLOCK
  8
0
  2
*D13
 70
     1
 10
0.0
 20
0.0
 30
0.0
  3
*D13
  1

  0
LINE
  5
8454
  8
3
 62
     0
 10
1303.810559821779
 20
4036.4335501379742
 30
0.0
 11
1303.810559821779
 21
4149.8095042396453
 31
0.0
  0
LINE
  5
8455
  8
3
 62
     0
 10
1733.810559821779
 20
4036.4335501379751
 30
0.0
 11
1733.810559821779
 21
4149.8095042396453
 31
0.0
  0
LINE
  5
8456
  8
3
 62
     0
 10
1343.810559821779
 20
4129.8095042396453
 30
0.0
 11
1693.8105598217801
 21
4129.8095042396453
 31
0.0
  0
INSERT
  5
8457
  8
3
 62
     0
  2
_OPEN
 10
1303.810559821779
 20
4129.8095042396453
 30
0.0
 41
40.0
 42
40.0
 43
40.0
 50
180.0
  0
INSERT
  5
8458
  8
3
 62
     0
  2
_OPEN
 10
1733.810559821779
 20
4129.8095042396453
 30
0.0
 41
40.0
 42
40.0
 43
40.0
  0
TEXT
  8
3
  40
60
  5
84B1
  62
0
  72
0
  71
0
 10
1397.54
 20
4073.61
 30
0.000000
  1
430
  0
POINT
  5
845A
  8
DEFPOINTS
 62
     0
 10
1303.810559821779
 20
4026.4335501379751
 30
0.0
  0
POINT
  5
845B
  8
DEFPOINTS
 62
     0
 10
1733.810559821779
 20
4026.4335501379751
 30
0.0
  0
POINT
  5
845C
  8
DEFPOINTS
 62
     0
 10
1733.810559821779
 20
4129.8095042396453
 30
0.0
  0
ENDBLK
  5
82F3
  8
0
  0
BLOCK
  8
0
  2
*D14
 70
     1
 10
0.0
 20
0.0
 30
0.0
  3
*D14
  1

  0
LINE
  5
845D
  8
3
 62
     0
 10
803.81055982177975
 20
3596.4335501379742
 30
0.0
 11
803.81055982177975
 21
4149.8095042396453
 31
0.0
  0
LINE
  5
845E
  8
3
 62
     0
 10
1263.810559821779
 20
4129.8095042396453
 30
0.0
 11
843.81055982177986
 21
4129.8095042396453
 31
0.0
  0
INSERT
  5
845F
  8
3
 62
     0
  2
_OPEN
 10
1303.810559821779
 20
4129.8095042396453
 30
0.0
 41
40.0
 42
40.0
 43
40.0
  0
INSERT
  5
8460
  8
3
 62
     0
  2
_OPEN
 10
803.81055982177975
 20
4129.8095042396453
 30
0.0
 41
40.0
 42
40.0
 43
40.0
 50
180.0
  0
TEXT
  8
3
  40
60
  5
84B2
  62
0
  72
0
  71
0
 10
933.811
 20
4073.61
 30
0.000000
  1
500
  0
POINT
  5
8462
  8
DEFPOINTS
 62
     0
 10
1303.810559821779
 20
4026.4335501379751
 30
0.0
  0
POINT
  5
8463
  8
DEFPOINTS
 62
     0
 10
803.81055982177975
 20
3586.4335501379742
 30
0.0
  0
POINT
  5
8464
  8
DEFPOINTS
 62
     0
 10
803.81055982177975
 20
4129.8095042396453
 30
0.0
  0
ENDBLK
  5
82FE
  8
0
  0
BLOCK
  8
0
  2
*D15
 70
     1
 10
0.0
 20
0.0
 30
0.0
  3
*D15
  1

  0
LINE
  5
8465
  8
3
 62
     0
 10
1743.810559821779
 20
4026.4335501379751
 30
0.0
 11
1976.5064345385911
 21
4026.4335501379751
 31
0.0
  0
LINE
  5
8466
  8
3
 62
     0
 10
1743.8105598217801
 20
3166.4335501379751
 30
0.0
 11
1976.5064345385911
 21
3166.4335501379751
 31
0.0
  0
LINE
  5
8467
  8
3
 62
     0
 10
1956.5064345385911
 20
3986.4335501379751
 30
0.0
 11
1956.5064345385911
 21
3206.4335501379751
 31
0.0
  0
INSERT
  5
8468
  8
3
 62
     0
  2
_OPEN
 10
1956.5064345385911
 20
4026.4335501379751
 30
0.0
 41
40.0
 42
40.0
 43
40.0
 50
90.0
  0
INSERT
  5
8469
  8
3
 62
     0
  2
_OPEN
 10
1956.5064345385911
 20
3166.4335501379751
 30
0.0
 41
40.0
 42
40.0
 43
40.0
 50
270.0
  0
TEXT
  8
3
  40
60
  5
84B3
  62
0
  72
0
  71
0
 10
1786.51
 20
3462.92
 30
0.000000
  1
860
  0
POINT
  5
846B
  8
DEFPOINTS
 62
     0
 10
1733.810559821779
 20
4026.4335501379751
 30
0.0
  0
POINT
  5
846C
  8
DEFPOINTS
 62
     0
 10
1733.8105598217801
 20
3166.4335501379751
 30
0.0
  0
POINT
  5
846D
  8
DEFPOINTS
 62
     0
 10
1956.5064345385911
 20
3166.4335501379751
 30
0.0
  0
ENDBLK
  5
830B
  8
0
  0
BLOCK
  8
0
  2
*D16
 70
     1
 10
0.0
 20
0.0
 30
0.0
  3
*D16
  1

  0
LINE
  5
846E
  8
3
 62
     0
 10
793.81055982177986
 20
3586.4335501379742
 30
0.0
 11
673.90851014871487
 21
3586.4335501379742
 31
0.0
  0
LINE
  5
846F
  8
3
 62
     0
 10
793.81055982177986
 20
3166.4335501379742
 30
0.0
 11
673.90851014871475
 21
3166.4335501379742
 31
0.0
  0
LINE
  5
8470
  8
3
 62
     0
 10
693.90851014871487
 20
3546.4335501379742
 30
0.0
 11
693.90851014871475
 21
3206.4335501379742
 31
0.0
  0
INSERT
  5
8471
  8
3
 62
     0
  2
_OPEN
 10
693.90851014871487
 20
3586.4335501379742
 30
0.0
 41
40.0
 42
40.0
 43
40.0
 50
90.0
  0
INSERT
  5
8472
  8
3
 62
     0
  2
_OPEN
 10
693.90851014871475
 20
3166.4335501379742
 30
0.0
 41
40.0
 42
40.0
 43
40.0
 50
270.0
  0
TEXT
  8
3
  40
60
  5
84B4
  62
0
  72
0
  71
0
 10
523.909
 20
3268.48
 30
0.000000
  1
420
  0
POINT
  5
8474
  8
DEFPOINTS
 62
     0
 10
803.81055982177975
 20
3586.4335501379742
 30
0.0
  0
POINT
  5
8475
  8
DEFPOINTS
 62
     0
 10
803.81055982177975
 20
3166.4335501379742
 30
0.0
  0
POINT
  5
8476
  8
DEFPOINTS
 62
     0
 10
693.90851014871475
 20
3166.4335501379742
 30
0.0
  0
ENDBLK
  5
8318
  8
0
  0
BLOCK
  8
0
  2
*D17
 70
     1
 10
0.0
 20
0.0
 30
0.0
  3
*D17
  1

  0
LINE
  5
847A
  8
3
 62
     0
 10
803.81057310079359
 20
1601.0868035040719
 30
0.0
 11
803.81057310079359
 21
1440.960431663276
 31
0.0
  0
LINE
  5
847B
  8
3
 62
     0
 10
1518.8105598217801
 20
1601.0868035040719
 30
0.0
 11
1518.8105598217801
 21
1440.960431663276
 31
0.0
  0
LINE
  5
847C
  8
3
 62
     0
 10
843.81057310079348
 20
1460.9604316632749
 30
0.0
 11
1478.8105598217801
 21
1460.9604316632749
 31
0.0
  0
INSERT
  5
847D
  8
3
 62
     0
  2
_OPEN
 10
803.81057310079359
 20
1460.9604316632749
 30
0.0
 41
40.0
 42
40.0
 43
40.0
 50
180.0
  0
INSERT
  5
847E
  8
3
 62
     0
  2
_OPEN
 10
1518.8105598217801
 20
1460.9604316632749
 30
0.0
 41
40.0
 42
40.0
 43
40.0
  0
TEXT
  8
3
  40
60
  5
84B5
  62
0
  72
0
  71
0
 10
1041.31
 20
1404.76
 30
0.000000
  1
715
  0
POINT
  5
8480
  8
DEFPOINTS
 62
     0
 10
803.81057310079359
 20
1611.0868035040719
 30
0.0
  0
POINT
  5
8481
  8
DEFPOINTS
 62
     0
 10
1518.8105598217801
 20
1611.0868035040719
 30
0.0
  0
POINT
  5
8482
  8
DEFPOINTS
 62
     0
 10
1518.8105598217801
 20
1460.9604316632749
 30
0.0
  0
ENDBLK
  5
8398
  8
0
  0
BLOCK
  8
0
  2
*D18
 70
     1
 10
0.0
 20
0.0
 30
0.0
  3
*D18
  1

  0
LINE
  5
8483
  8
3
 62
     0
 10
1518.8105598217801
 20
1601.0868035040719
 30
0.0
 11
1518.8105598217801
 21
1440.960431663276
 31
0.0
  0
LINE
  5
8484
  8
3
 62
     0
 10
1733.8105731007929
 20
1601.0868035040719
 30
0.0
 11
1733.8105731007929
 21
1440.960431663276
 31
0.0
  0
LINE
  5
8485
  8
3
 62
     0
 10
1558.810559821781
 20
1460.9604316632749
 30
0.0
 11
1693.8105731007929
 21
1460.9604316632749
 31
0.0
  0
INSERT
  5
8486
  8
3
 62
     0
  2
_OPEN
 10
1518.8105598217801
 20
1460.9604316632749
 30
0.0
 41
40.0
 42
40.0
 43
40.0
 50
180.0
  0
INSERT
  5
8487
  8
3
 62
     0
  2
_OPEN
 10
1733.8105731007929
 20
1460.9604316632749
 30
0.0
 41
40.0
 42
40.0
 43
40.0
  0
TEXT
  8
3
  40
60
  5
84B6
  62
0
  72
0
  71
0
 10
1506.31
 20
1404.76
 30
0.000000
  1
215
  0
POINT
  5
8489
  8
DEFPOINTS
 62
     0
 10
1518.8105598217801
 20
1611.0868035040719
 30
0.0
  0
POINT
  5
848A
  8
DEFPOINTS
 62
     0
 10
1733.8105731007929
 20
1611.0868035040719
 30
0.0
  0
POINT
  5
848B
  8
DEFPOINTS
 62
     0
 10
1733.8105731007929
 20
1460.9604316632749
 30
0.0
  0
ENDBLK
  5
83A7
  8
0
  0
BLOCK
  8
0
  2
*D19
 70
     1
 10
0.0
 20
0.0
 30
0.0
  3
*D19
  1

  0
LINE
  5
848C
  8
3
 62
     0
 10
2531.1663660043992
 20
1601.0594663930251
 30
0.0
 11
2531.1663660043992
 21
1440.960431663276
 31
0.0
  0
LINE
  5
848D
  8
3
 62
     0
 10
3196.1663660043992
 20
1601.0594663930251
 30
0.0
 11
3196.1663660043992
 21
1440.960431663276
 31
0.0
  0
LINE
  5
848E
  8
3
 62
     0
 10
2571.1663660043992
 20
1460.9604316632749
 30
0.0
 11
3156.1663660043992
 21
1460.9604316632749
 31
0.0
  0
INSERT
  5
848F
  8
3
 62
     0
  2
_OPEN
 10
2531.1663660043992
 20
1460.9604316632749
 30
0.0
 41
40.0
 42
40.0
 43
40.0
 50
180.0
  0
INSERT
  5
8490
  8
3
 62
     0
  2
_OPEN
 10
3196.1663660043992
 20
1460.9604316632749
 30
0.0
 41
40.0
 42
40.0
 43
40.0
  0
TEXT
  8
3
  40
60
  5
84B7
  62
0
  72
0
  71
0
 10
2743.67
 20
1404.76
 30
0.000000
  1
665
  0
POINT
  5
8492
  8
DEFPOINTS
 62
     0
 10
2531.1663660043992
 20
1611.059466393026
 30
0.0
  0
POINT
  5
8493
  8
DEFPOINTS
 62
     0
 10
3196.1663660043992
 20
1611.059466393026
 30
0.0
  0
POINT
  5
8494
  8
DEFPOINTS
 62
     0
 10
3196.1663660043992
 20
1460.9604316632749
 30
0.0
  0
ENDBLK
  5
83B4
  8
0
  0
BLOCK
  8
0
  2
*D20
 70
     1
 10
0.0
 20
0.0
 30
0.0
  3
*D20
  1

  0
LINE
  5
8495
  8
3
 62
     0
 10
3196.1663660043992
 20
1601.0594663930251
 30
0.0
 11
3196.1663660043992
 21
1440.960431663276
 31
0.0
  0
LINE
  5
8496
  8
3
 62
     0
 10
3391.1663660044001
 20
1601.0594663930251
 30
0.0
 11
3391.1663660044001
 21
1440.960431663276
 31
0.0
  0
LINE
  5
8497
  8
3
 62
     0
 10
3236.1663660043992
 20
1460.9604316632749
 30
0.0
 11
3351.1663660043992
 21
1460.9604316632749
 31
0.0
  0
INSERT
  5
8498
  8
3
 62
     0
  2
_OPEN
 10
3196.1663660043992
 20
1460.9604316632749
 30
0.0
 41
40.0
 42
40.0
 43
40.0
 50
180.0
  0
INSERT
  5
8499
  8
3
 62
     0
  2
_OPEN
 10
3391.1663660044001
 20
1460.9604316632749
 30
0.0
 41
40.0
 42
40.0
 43
40.0
  0
TEXT
  8
3
  40
60
  5
84B8
  62
0
  72
0
  71
0
 10
3173.67
 20
1404.76
 30
0.000000
  1
195
  0
POINT
  5
849B
  8
DEFPOINTS
 62
     0
 10
3196.1663660043992
 20
1611.059466393026
 30
0.0
  0
POINT
  5
849C
  8
DEFPOINTS
 62
     0
 10
3391.1663660044001
 20
1611.059466393026
 30
0.0
  0
POINT
  5
849D
  8
DEFPOINTS
 62
     0
 10
3391.1663660044001
 20
1460.9604316632749
 30
0.0
  0
ENDBLK
  5
83C3
  8
0
  0
BLOCK
  8
0
  2
*D21
 70
     1
 10
0.0
 20
0.0
 30
0.0
  3
*D21
  1

  0
LINE
  5
849E
  8
3
 62
     0
 10
1543.810433383562
 20
2341.0868074877581
 30
0.0
 11
2142.2106906662411
 21
2341.0868074877581
 31
0.0
  0
LINE
  5
849F
  8
3
 62
     0
 10
1743.8105731007929
 20
1611.0868035040719
 30
0.0
 11
2142.2106906662411
 21
1611.0868035040719
 31
0.0
  0
LINE
  5
84A0
  8
3
 62
     0
 10
2122.2106906662411
 20
2301.0868074877581
 30
0.0
 11
2122.2106906662411
 21
1651.0868035040719
 31
0.0
  0
INSERT
  5
84A1
  8
3
 62
     0
  2
_OPEN
 10
2122.2106906662411
 20
2341.0868074877581
 30
0.0
 41
40.0
 42
40.0
 43
40.0
 50
90.0
  0
INSERT
  5
84A2
  8
3
 62
     0
  2
_OPEN
 10
2122.2106906662411
 20
1611.0868035040719
 30
0.0
 41
40.0
 42
40.0
 43
40.0
 50
270.0
  0
TEXT
  8
3
  40
60
  5
84B9
  62
0
  72
0
  71
0
 10
1952.21
 20
1869.89
 30
0.000000
  1
730
  0
POINT
  5
84A4
  8
DEFPOINTS
 62
     0
 10
1533.810433383562
 20
2341.0868074877581
 30
0.0
  0
POINT
  5
84A5
  8
DEFPOINTS
 62
     0
 10
1733.8105731007929
 20
1611.0868035040719
 30
0.0
  0
POINT
  5
84A6
  8
DEFPOINTS
 62
     0
 10
2122.2106906662411
 20
1611.0868035040719
 30
0.0
  0
ENDBLK
  5
83D0
  8
0
  0
ENDSEC
  0
SECTION
  2
ENTITIES
  0
INSERT
  5
7C23
  8
0
  2
YA_N
 10
6.0
 20
5.0
 30
0.0
  0
INSERT
  5
7C24
  8
0
  2
YA_N
 10
6.0
 20
5.0
 30
0.0
  0
INSERT
  5
7C25
  8
0
  2
YA_N
 10
6.0
 20
5.0
 30
0.0
  0
INSERT
  5
7C26
  8
0
  2
YA_N
 10
6.0
 20
5.0
 30
0.0
  0
INSERT
  5
7C27
  8
0
  2
YA_N
 10
6.0
 20
5.0
 30
0.0
  0
INSERT
  5
7C28
  8
0
  2
YA_N
 10
6.0
 20
5.0
 30
0.0
  0
INSERT
  5
7C29
  8
0
  2
YA_N
 10
342.69245559421228
 20
1431.8735170089669
 30
0.0
  0
LINE
  5
7C2A
  8
2
 10
2451.1230589177262
 20
2036.059466393026
 30
0.0
 11
3413.188921454228
 21
2036.059466393026
 31
0.0
  0
LINE
  5
7C2B
  8
1
 10
3043.866366004399
 20
2341.0868074877581
 30
0.0
 11
3043.8663660044008
 21
2036.059466393026
 31
0.0
  0
LINE
  5
7C2C
  8
1
 10
3348.4663660043998
 20
2341.0868074877581
 30
0.0
 11
3348.4663660043998
 21
2036.059466393026
 31
0.0
  0
LINE
  5
7C2D
  8
1
 10
3348.4663660043998
 20
2261.059466393026
 30
0.0
 11
3349.4663660043989
 21
2261.059466393026
 31
0.0
  0
LINE
  5
7C2E
  8
1
 10
3348.4663660043998
 20
1811.059466393026
 30
0.0
 11
3349.4663660043989
 21
1811.059466393026
 31
0.0
  0
DIMENSION
  5
7C2F
  8
3
  2
*D3
 10
3507.0568327122078
 20
1836.059466393026
 30
0.0
 11
3457.0568327122091
 21
2036.059466393026
 31
0.0
 70
     0
  1
φ400
 13
3349.4663660043989
 23
2236.0594663930251
 33
0.0
 14
3349.4663660043989
 24
1836.059466393026
 34
0.0
 50
90.0
1001
ACAD
1000
DSTYLE
1002
{
1070
   287
1070
     3
1070
    40
1040
20.0
1070
   143
1040
0.039
1070
   172
1070
     1
1070
   271
1070
     0
1070
   279
1070
     0
1070
   288
1070
     1
1002
}
  0
LINE
  5
7C30
  8
1
 10
2971.1663660043992
 20
1980.859466393026
 30
0.0
 11
2971.1663660044001
 21
1686.059466393026
 31
0.0
  0
LINE
  5
7C31
  8
1
 10
2556.1663660043992
 20
1980.859466393026
 30
0.0
 11
2971.1663660043992
 21
1980.859466393026
 31
0.0
  0
LINE
  5
7C32
  8
1
 10
3391.1663660044001
 20
1686.059466393026
 30
0.0
 11
2531.1663660043992
 21
1686.059466393026
 31
0.0
  0
LINE
  5
7C33
  8
1
 10
3391.1663660044001
 20
1611.059466393026
 30
0.0
 11
2531.1663660043992
 21
1611.059466393026
 31
0.0
1001
ACAD
1000
ASC_BOUNDS
1002
{
1070
    19
1002
}
  0
LINE
  5
7C34
  8
1
 10
3391.1663660044001
 20
1686.059466393026
 30
0.0
 11
3391.1663660044001
 21
1611.059466393026
 31
0.0
  0
LINE
  5
7C35
  8
1
 10
1733.8105731007929
 20
1686.086860603881
 30
0.0
 11
1733.8105731007929
 21
1611.0868035040719
 31
0.0
  0
LINE
  5
7C36
  8
1
 10
803.81057310079359
 20
1686.0868035040719
 30
0.0
 11
803.81057310079359
 21
1611.0868035040719
 31
0.0
  0
LINE
  5
7C37
  8
1
 10
1713.8105598217801
 20
1980.8868035040721
 30
0.0
 11
1323.8105598217801
 21
1980.8868035040721
 31
0.0
  0
LINE
  5
7C38
  8
1
 10
1340.61055982178
 20
1980.8868035040721
 30
0.0
 11
1340.61055982178
 21
1686.086860603881
 31
0.0
  0
LINE
  5
7C39
  8
1
 10
1697.010559821781
 20
1980.8868035040721
 30
0.0
 11
1697.010559821782
 21
1686.086860603881
 31
0.0
  0
LINE
  5
7C3A
  8
1
 10
2971.1663660043992
 20
1932.359466393026
 30
0.0
 11
3007.866366004399
 21
1932.359466393026
 31
0.0
  0
LINE
  5
7C3B
  8
1
 10
2971.1663660043992
 20
1938.359466393026
 30
0.0
 11
3007.866366004399
 21
1938.359466393026
 31
0.0
  0
CIRCLE
  5
7C3C
  8
1
 10
1518.8105598217801
 20
1876.3868035040721
 30
0.0
 40
65.0
  0
LINE
  5
7C3D
  8
1
 10
1793.2236101178721
 20
1932.386803504073
 30
0.0
 11
1697.010559821781
 21
1932.3868035040721
 31
0.0
  0
LINE
  5
7C3E
  8
1
 10
1794.6139361686251
 20
1938.3868035040721
 30
0.0
 11
1697.010559821781
 21
1938.3868035040721
 31
0.0
  0
LINE
  5
7C3F
  8
1
 10
1340.61055982178
 20
1938.3868035040721
 30
0.0
 11
1138.1300847900629
 21
1938.3868035040721
 31
0.0
  0
LINE
  5
7C40
  8
1
 10
1340.61055982178
 20
1932.3868035040721
 30
0.0
 11
1140.3734853663941
 21
1932.3868035040721
 31
0.0
  0
LINE
  5
7C41
  8
1
 10
3374.4663660043998
 20
2236.0594663930251
 30
0.0
 11
3374.4663660043998
 21
1835.059466393026
 31
0.0
  0
LINE
  5
7C42
  8
1
 10
3352.4663660043989
 20
1829.059466393026
 30
0.0
 11
3352.4663660043989
 21
2236.0594663930251
 31
0.0
  0
LINE
  5
7C43
  8
1
 10
3374.4663660043998
 20
2236.0594663930251
 30
0.0
 11
3374.4663660043998
 21
2237.0594663930251
 31
0.0
  0
ARC
  5
7C44
  8
1
 10
3372.4663660043998
 20
2237.0594663930251
 30
0.0
 40
2.0
 50
0.0
 51
90.0
  0
LINE
  5
7C45
  8
1
 10
3372.4663660043998
 20
2239.0594663930251
 30
0.0
 11
3356.4663660043989
 21
2239.0594663930251
 31
0.0
  0
ARC
  5
7C46
  8
1
 10
3356.4663660043989
 20
2243.0594663930251
 30
0.0
 40
4.0
 50
180.0
 51
270.0
  0
LINE
  5
7C47
  8
1
 10
3352.4663660043989
 20
2243.0594663930251
 30
0.0
 11
3352.4663660043989
 21
2259.0594663930251
 31
0.0
  0
ARC
  5
7C48
  8
1
 10
3350.4663660043989
 20
2259.0594663930251
 30
0.0
 40
2.0
 50
0.0
 51
90.0
  0
LINE
  5
7C49
  8
1
 10
3350.4663660043989
 20
2261.0594663930251
 30
0.0
 11
3349.4663660043989
 21
2261.0594663930251
 31
0.0
  0
LINE
  5
7C4A
  8
1
 10
3374.4663660043998
 20
1836.059466393026
 30
0.0
 11
3374.4663660043998
 21
1835.059466393026
 31
0.0
  0
ARC
  5
7C4B
  8
1
 10
3372.4663660043998
 20
1835.059466393026
 30
0.0
 40
2.0
 50
270.0
 51
0.0
  0
LINE
  5
7C4C
  8
1
 10
3372.4663660043998
 20
1833.059466393026
 30
0.0
 11
3356.4663660043989
 21
1833.059466393026
 31
0.0
  0
ARC
  5
7C4D
  8
1
 10
3356.4663660043989
 20
1829.059466393026
 30
0.0
 40
4.0
 50
90.0
 51
180.0
  0
LINE
  5
7C4E
  8
1
 10
3352.4663660043989
 20
1829.059466393026
 30
0.0
 11
3352.4663660043989
 21
1813.059466393026
 31
0.0
  0
ARC
  5
7C4F
  8
1
 10
3350.4663660043989
 20
1813.059466393026
 30
0.0
 40
2.0
 50
270.0
 51
0.0
  0
LINE
  5
7C50
  8
1
 10
3350.4663660043989
 20
1811.059466393026
 30
0.0
 11
3349.4663660043989
 21
1811.059466393026
 31
0.0
  0
LINE
  5
7C51
  8
1
 10
2562.9663660043989
 20
1980.859466393026
 30
0.0
 11
2562.9663660043989
 21
1686.059466393026
 31
0.0
  0
LINE
  5
7C52
  8
1
 10
3373.1663660044001
 20
2341.0868074877581
 30
0.0
 11
3373.1663660043978
 21
2316.0868074877581
 31
0.0
  0
LINE
  5
7C53
  8
1
 10
3019.1663660043992
 20
2341.0868074877581
 30
0.0
 11
3019.1663660043992
 21
2316.0868074877581
 31
0.0
  0
POLYLINE
  5
7C54
  8
1
 66
     1
 10
0.0
 20
0.0
 30
0.0
 70
     1
  0
VERTEX
  5
83FC
  8
1
 10
823.81055982178077
 20
1686.086860603881
 30
0.0
  0
VERTEX
  5
83FD
  8
1
 10
1093.8105598217801
 20
1686.086860603881
 30
0.0
  0
VERTEX
  5
83FE
  8
1
 10
1083.8105598217801
 20
1726.086860603881
 30
0.0
  0
VERTEX
  5
83FF
  8
1
 10
833.81055982178077
 20
1726.086860603881
 30
0.0
  0
SEQEND
  5
8400
  8
1
  0
LINE
  5
7C5A
  8
1
 10
858.81055982178077
 20
1726.086860603881
 30
0.0
 11
898.81055982178077
 21
1726.086860603881
 31
0.0
  0
LINE
  5
7C5B
  8
1
 10
858.81055982178077
 20
1738.086860603881
 30
0.0
 11
878.27605131993539
 21
1765.134478038751
 31
0.0
  0
LINE
  5
7C5C
  8
1
 10
918.09633257757741
 20
1733.656607440171
 30
0.0
 11
999.52478706598413
 21
1733.656607440171
 31
0.0
  0
LINE
  5
7C5D
  8
1
 10
858.81055982178077
 20
1726.086860603881
 30
0.0
 11
858.81055982178077
 21
1738.086860603881
 31
0.0
  0
LINE
  5
7C5E
  8
1
 10
1046.8105598217801
 20
1726.086860603881
 30
0.0
 11
1018.81055982178
 21
1726.086860603881
 31
0.0
  0
LINE
  5
7C5F
  8
1
 10
1058.8105598217801
 20
1726.086860603881
 30
0.0
 11
1058.8105598217801
 21
1738.086860603881
 31
0.0
  0
LINE
  5
7C60
  8
1
 10
1058.8105598217801
 20
1738.086860603881
 30
0.0
 11
1039.345068323626
 21
1765.134478038751
 31
0.0
  0
LINE
  5
7C61
  8
1
 10
1058.8105598217801
 20
1726.086860603881
 30
0.0
 11
1018.81055982178
 21
1726.086860603881
 31
0.0
  0
LINE
  5
7C62
  8
2
 10
835.99803518081171
 20
1826.086860603881
 30
0.0
 11
1087.11055982178
 21
1826.086860603881
 31
0.0
  0
ARC
  5
7C63
  8
1
 10
958.81055982178077
 20
1826.086860603881
 30
0.0
 40
101.0
 50
293.77281679994883
 51
246.2271832000452
  0
LINE
  5
7C64
  8
2
 10
958.81055982178077
 20
1667.45278381463
 30
0.0
 11
958.81055982178077
 21
1964.4088192521931
 31
0.0
  0
CIRCLE
  5
7C65
  8
1
 10
958.81055982178077
 20
1826.086860603881
 30
0.0
 40
50.0
  0
CIRCLE
  5
7C66
  8
1
 10
1518.8105598217801
 20
2036.0868035040719
 30
0.0
 40
101.5
  0
ARC
  5
7C67
  8
1
 10
958.81055982178077
 20
1826.086860603881
 30
0.0
 40
90.0
 50
110.0025635125278
 51
278.06992342332501
  0
ARC
  5
7C68
  8
1
 10
1518.8105598217801
 20
2036.0868035040719
 30
0.0
 40
150.0
 50
278.06992342332512
 51
110.0025635125276
  0
LINE
  5
7C69
  8
1
 10
2523.6663660044001
 20
2016.0594663930251
 30
0.0
 11
3043.8663660043999
 21
2016.0594663930251
 31
0.0
  0
LINE
  5
7C6A
  8
1
 10
2523.6663660044001
 20
2056.059466393026
 30
0.0
 11
3043.8663660044008
 21
2056.059466393026
 31
0.0
  0
DIMENSION
  5
7C6B
  8
3
  2
*D4
 10
3346.1663660043992
 20
2433.7747138985151
 30
0.0
 11
3209.0235088615418
 21
2433.7747138985151
 31
0.0
 70
   128
 13
3046.1663660043992
 23
2336.5530210980592
 33
0.0
 14
3346.1663660043992
 24
2336.5530210980592
 34
0.0
1001
ACAD
1000
DSTYLE
1002
{
1070
   287
1070
     3
1070
    40
1040
20.0
1070
   143
1040
0.039
1070
   172
1070
     1
1070
   271
1070
     0
1070
   279
1070
     0
1070
   288
1070
     1
1002
}
  0
LINE
  5
7C6F
  8
1
 10
2523.6663660044001
 20
2137.559466393026
 30
0.0
 11
2523.6663660044001
 21
1776.086860603881
 31
0.0
  0
LINE
  5
7C70
  8
1
 10
2488.6663660044001
 20
2137.559466393026
 30
0.0
 11
2523.6663660044001
 21
2137.559466393026
 31
0.0
  0
LINE
  5
7C71
  8
1
 10
2488.6663660044001
 20
1934.559466393026
 30
0.0
 11
2523.6663660044001
 21
1934.5594663930251
 31
0.0
  0
LINE
  5
7C72
  8
1
 10
2488.6663660044001
 20
2137.559466393026
 30
0.0
 11
2488.6663660044001
 21
1776.086860603881
 31
0.0
  0
LINE
  5
7C75
  8
1
 10
2488.6663660044001
 20
1876.086860603881
 30
0.0
 11
2523.6663660044001
 21
1876.086860603881
 31
0.0
  0
LINE
  5
7C76
  8
1
 10
2488.6663660044001
 20
1776.086860603881
 30
0.0
 11
2523.6663660044001
 21
1776.086860603881
 31
0.0
  0
LINE
  5
7C7A
  8
1
 10
2458.666366004401
 20
2186.059466393026
 30
0.0
 11
2550.6663660044001
 21
2186.059466393026
 31
0.0
  0
LINE
  5
7C7B
  8
1
 10
2458.666366004401
 20
1736.086860603881
 30
0.0
 11
2550.6663660044001
 21
1736.086860603881
 31
0.0
  0
LINE
  5
7C7C
  8
1
 10
2458.666366004401
 20
2186.059466393026
 30
0.0
 11
2458.666366004401
 21
1736.086860603881
 31
0.0
  0
LINE
  5
7C7D
  8
1
 10
2550.6663660044001
 20
2186.059466393026
 30
0.0
 11
2550.6663660044001
 21
2143.1509220210328
 31
0.0
  0
DIMENSION
  5
7C7E
  8
3
  2
*D5
 10
3196.1663660043992
 20
2569.822992111996
 30
0.0
 11
2827.4163660043992
 21
2569.822992111996
 31
0.0
 70
   128
  1
MAX\P830
 13
2458.666366004401
 23
2162.7151719963422
 33
0.0
 14
3196.1663660043992
 24
2515.1056884720638
 34
0.0
1001
ACAD
1000
DSTYLE
1002
{
1070
   287
1070
     3
1070
    40
1040
20.0
1070
   143
1040
0.039
1070
   172
1070
     1
1070
   271
1070
     0
1070
   279
1070
     0
1070
   288
1070
     1
1002
}
  0
DIMENSION
  5
7C7F
  8
3
  2
*D6
 10
3348.4663660043998
 20
2570.337734150582
 30
0.0
 11
3261.4320375378738
 21
2635.3950224447931
 31
0.0
 12
0.0
 22
128.0078830923957
 32
0.0
 70
   128
  1
153
 13
3196.1663660043992
 23
2515.1056884720638
 33
0.0
 14
3348.4663660043998
 24
2334.885571498296
 34
0.0
1001
ACAD
1000
DSTYLE
1002
{
1070
   288
1070
     1
1070
   172
1070
     1
1070
    40
1040
20.0
1070
   271
1070
     0
1070
   143
1040
0.039
1002
}
  0
LINE
  5
7C80
  8
2
 10
3196.1663660043992
 20
2387.5724313334381
 30
0.0
 11
3196.1663660043992
 21
1611.059466393026
 31
0.0
1001
ACAD
1000
ASC_BOUNDS
1002
{
1070
    19
1002
}
  0
INSERT
  5
7C82
  8
0
  2
YA_N
 10
6.0
 20
5.0
 30
0.0
  0
INSERT
  5
7C83
  8
0
  2
YA_N
 10
96.0
 20
80.0
 30
0.0
 41
16.0
 42
16.0
 43
16.0
  0
INSERT
  5
7C84
  8
0
  2
YA_N
 10
3261.5724272564862
 20
1521.5703809158081
 30
0.0
  0
INSERT
  5
7C85
  8
0
  2
YA_N
 10
3261.5724272564862
 20
1521.5703809158081
 30
0.0
  0
INSERT
  5
7C86
  8
0
  2
YA_N
 10
3598.2648828506981
 20
2948.4438979247761
 30
0.0
  0
INSERT
  5
7C87
  8
0
  2
YA_N
 10
4266.8004074798646
 20
4391.6121309265727
 30
0.0
  0
INSERT
  5
7C88
  8
0
  2
YA_N
 10
7315.6595907797891
 20
4128.942743271853
 30
0.0
  0
LINE
  5
7C89
  8
1
 10
3348.4663660043989
 20
2036.059466393026
 30
0.0
 11
3348.4663660043989
 21
1686.059466393026
 31
0.0
  0
LINE
  5
7C8A
  8
1
 10
3043.866366004399
 20
2036.059466393026
 30
0.0
 11
3043.866366004399
 21
1686.059466393026
 31
0.0
  0
INSERT
  5
7C8B
  8
0
  2
YA_N
 10
96.0
 20
80.0
 30
0.0
 41
16.0
 42
16.0
 43
16.0
  0
INSERT
  5
7C8C
  8
0
  2
YA_N
 10
96.0
 20
80.0
 30
0.0
 41
16.0
 42
16.0
 43
16.0
  0
INSERT
  5
7C8F
  8
0
  2
YA_N
 10
96.0
 20
80.0
 30
0.0
 41
16.0
 42
16.0
 43
16.0
  0
INSERT
  5
7C90
  8
0
  2
YA_N
 10
96.0
 20
80.0
 30
0.0
 41
16.0
 42
16.0
 43
16.0
  0
LINE
  5
7C93
  8
1
 10
3007.866366004399
 20
1938.359466393026
 30
0.0
 11
3043.866366004399
 21
1938.359466393026
 31
0.0
  0
LINE
  5
7C94
  8
1
 10
3007.866366004399
 20
1932.359466393026
 30
0.0
 11
3043.866366004399
 21
1932.359466393026
 31
0.0
  0
LINE
  5
7C95
  8
1
 10
928.02496304032502
 20
1910.657819158278
 30
0.0
 11
1467.501231852686
 21
2177.0384010947341
 31
0.0
  0
LINE
  5
7C96
  8
1
 10
971.44489609903576
 20
1736.978086923433
 30
0.0
 11
1539.8677869505391
 21
1887.572180703326
 31
0.0
  0
LINE
  5
7C97
  8
1
 10
940.8771315975572
 20
1872.7601093886681
 30
0.0
 11
1482.4057005266041
 21
2130.8334985371889
 31
0.0
  0
LINE
  5
7C98
  8
1
 10
968.24162955543954
 20
1776.9843665360761
 30
0.0
 11
1537.9556313811081
 21
1936.408740546427
 31
0.0
  0
INSERT
  5
7C99
  8
0
  2
YA_N
 10
63.111395363473399
 20
-2207.5990737385559
 30
0.0
 41
1.1404799999999991
 42
1.1404799999999991
 43
1.1404799999999991
  0
INSERT
  5
7C9A
  8
0
  2
YA_N
 10
63.111395363473399
 20
-2207.5990737385559
 30
0.0
 41
1.1404799999999991
 42
1.1404799999999991
 43
1.1404799999999991
  0
INSERT
  5
7C9B
  8
0
  2
YA_N
 10
63.111395363473399
 20
-2207.5990737385559
 30
0.0
 41
1.1404799999999991
 42
1.1404799999999991
 43
1.1404799999999991
  0
INSERT
  5
7C9C
  8
0
  2
YA_N
 10
63.111395363473399
 20
-2207.5990737385559
 30
0.0
 41
1.1404799999999991
 42
1.1404799999999991
 43
1.1404799999999991
  0
INSERT
  5
7C9D
  8
0
  2
YA_N
 10
63.111395363473399
 20
-2207.5990737385559
 30
0.0
 41
1.1404799999999991
 42
1.1404799999999991
 43
1.1404799999999991
  0
INSERT
  5
7C9E
  8
0
  2
YA_N
 10
2068.599843633097
 20
-1871.396847612672
 30
0.0
 41
1.1404799999999991
 42
1.1404799999999991
 43
1.1404799999999991
  0
LINE
  5
7C9F
  8
1
 10
2531.1663660043992
 20
1611.059466393026
 30
0.0
 11
2531.1663660043992
 21
1686.059466393026
 31
0.0
  0
INSERT
  5
7CB3
  8
0
  2
YA_N
 10
7517.3489782723964
 20
85.078014923515184
 30
0.0
  0
ARC
  5
7CB7
  8
1
 10
1394.810433383562
 20
2251.0868156823849
 30
0.0
 40
31.0
 50
180.0
 51
330.96585194849592
  0
LINE
  5
7CB8
  8
1
 10
1533.810433383562
 20
2316.0868156823849
 30
0.0
 11
1067.8156160709909
 21
2316.0868156823849
 31
0.0
  0
LINE
  5
7CB9
  8
1
 10
1533.810433383562
 20
2316.0868156823849
 30
0.0
 11
1533.810433383562
 21
2341.0868156823849
 31
0.0
  0
LINE
  5
7CBA
  8
1
 10
1376.810433383562
 20
2336.0868156823849
 30
0.0
 11
1363.8104333835611
 21
2251.0868156823849
 31
0.0
  0
LINE
  5
7CBB
  8
1
 10
1067.8156160709909
 20
2341.0868156823849
 30
0.0
 11
1067.8156160709909
 21
2316.0868156823849
 31
0.0
  0
LINE
  5
7CBE
  8
1
 10
3374.4663660043998
 20
2236.0594663930251
 30
0.0
 11
3348.4663660043998
 21
2236.0594663930251
 31
0.0
  0
LINE
  5
7CBF
  8
1
 10
3374.4663660043998
 20
1836.059466393026
 30
0.0
 11
3348.4663660043989
 21
1836.059466393026
 31
0.0
  0
POLYLINE
  5
7CC0
  8
1
 66
     1
 10
0.0
 20
0.0
 30
0.0
  0
VERTEX
  5
8413
  8
1
 10
1800.8105598217801
 20
2036.0868035040719
 30
0.0
 42
0.3877288018366425
  0
VERTEX
  5
8414
  8
1
 10
1541.810433383562
 20
2272.834267025908
 30
0.0
 42
0.1499846310316867
  0
VERTEX
  5
8415
  8
1
 10
1421.9146822085529
 20
2236.0415607615482
 30
0.0
 42
0.3936265759256327
  0
SEQEND
  5
8416
  8
1
  0
LINE
  5
7CC5
  8
2
 10
2623.773542564837
 20
1826.086860603881
 30
0.0
 11
2450.8008498437412
 21
1826.086860603881
 31
0.0
  0
LINE
  5
7CC7
  8
1
 10
2562.9663660043989
 20
1812.086860603881
 30
0.0
 11
2523.6663660044001
 21
1812.086860603881
 31
0.0
  0
LINE
  5
7CC8
  8
1
 10
2562.9663660043989
 20
1840.086860603881
 30
0.0
 11
2523.6663660044001
 21
1840.086860603881
 31
0.0
  0
LINE
  5
7CC9
  8
1
 10
1800.8105598217801
 20
3981.433550137976
 30
0.0
 11
1531.810559821781
 21
3981.433550137976
 31
0.0
  0
LINE
  5
7CCA
  8
1
 10
1800.8105598217801
 20
3681.433550137976
 30
0.0
 11
1531.810559821781
 21
3681.4335501379742
 31
0.0
  0
LINE
  5
7CCB
  8
1
 10
1538.810559821779
 20
3158.933550137976
 30
0.0
 11
1538.8105598217801
 21
3681.433550137976
 31
0.0
  0
LINE
  5
7CCC
  8
1
 10
1498.810559821779
 20
3158.933550137976
 30
0.0
 11
1498.810559821779
 21
3656.4335501379751
 31
0.0
  0
LINE
  5
7CCD
  8
2
 10
1518.8105598217801
 20
3086.3902430513021
 30
0.0
 11
1518.8105598217801
 21
4058.2964511965529
 31
0.0
  0
LINE
  5
7CCF
  8
1
 10
1668.810559821779
 20
3185.933550137976
 30
0.0
 11
868.81055982178066
 21
3185.9335501379742
 31
0.0
  0
LINE
  5
7CD0
  8
1
 10
1668.810559821779
 20
3093.933550137976
 30
0.0
 11
868.81055982178066
 21
3093.9335501379742
 31
0.0
  0
LINE
  5
7CD1
  8
1
 10
1620.310559821779
 20
3123.933550137976
 30
0.0
 11
908.81055982178077
 21
3123.9335501379742
 31
0.0
  0
LINE
  5
7CD2
  8
1
 10
1620.310559821779
 20
3158.933550137976
 30
0.0
 11
908.81055982178077
 21
3158.9335501379742
 31
0.0
  0
LINE
  5
7CD3
  8
1
 10
1697.010559821781
 20
3198.2335501379712
 30
0.0
 11
1538.810559821779
 21
3198.2335501379712
 31
0.0
  0
LINE
  5
7CD4
  8
1
 10
868.81055982178066
 20
3093.9335501379742
 30
0.0
 11
868.81055982178066
 21
3185.9335501379742
 31
0.0
  0
LINE
  5
7CD5
  8
1
 10
908.81055982178077
 20
3123.9335501379742
 30
0.0
 11
908.81055982178077
 21
3158.9335501379742
 31
0.0
  0
LINE
  5
7CE0
  8
1
 10
1668.810559821779
 20
3093.933550137976
 30
0.0
 11
1668.810559821779
 21
3185.933550137976
 31
0.0
  0
LINE
  5
7CE1
  8
1
 10
1620.310559821779
 20
3123.933550137976
 30
0.0
 11
1620.310559821779
 21
3158.9335501379751
 31
0.0
  0
LINE
  5
7CE2
  8
2
 10
1884.4236620474551
 20
3831.433550137976
 30
0.0
 11
1130.2328042227689
 21
3831.4335501379742
 31
0.0
1001
ACAD
1000
ASC_BOUNDS
1002
{
1070
    19
1002
}
  0
LINE
  5
7CE3
  8
1
 10
1417.310559821779
 20
3123.933550137976
 30
0.0
 11
1417.310559821779
 21
3158.9335501379751
 31
0.0
  0
LINE
  5
7CE4
  8
1
 10
1008.81055982178
 20
3123.9335501379742
 30
0.0
 11
1008.81055982178
 21
3158.9335501379742
 31
0.0
  0
LINE
  5
7CE5
  8
1
 10
1340.61055982178
 20
3654.4335501379742
 30
0.0
 11
1498.8105598217801
 21
3654.4335501379742
 31
0.0
  0
LINE
  5
7CE6
  8
1
 10
1697.010559821781
 20
3198.2335501379712
 30
0.0
 11
1697.010559821781
 21
3654.4335501379742
 31
0.0
  0
LINE
  5
7CE7
  8
1
 10
1340.610559821781
 20
3198.2335501379721
 30
0.0
 11
1340.61055982178
 21
3654.4335501379742
 31
0.0
  0
LINE
  5
7CE8
  8
1
 10
1538.810559821779
 20
3654.4335501379742
 30
0.0
 11
1697.010559821781
 21
3654.4335501379742
 31
0.0
  0
LINE
  5
7CE9
  8
1
 10
1498.810559821779
 20
3198.2335501379712
 30
0.0
 11
1340.61055982178
 21
3198.2335501379721
 31
0.0
  0
LINE
  5
7CEA
  8
1
 10
973.41045982178093
 20
3206.4335501379742
 30
0.0
 11
973.41045982178093
 21
3201.4335501379742
 31
0.0
  0
LINE
  5
7CEB
  8
1
 10
944.2105598217812
 20
3206.4335501379742
 30
0.0
 11
944.2105598217812
 21
3201.4335501379742
 31
0.0
  0
LINE
  5
7CEC
  8
2
 10
958.81055982178077
 20
3570.3473877399879
 30
0.0
 11
958.81055982178077
 21
3084.27869673751
 31
0.0
  0
LINE
  5
7CED
  8
1
 10
972.81055982178066
 20
3201.4335501379742
 30
0.0
 11
972.81055982178066
 21
3158.9335501379751
 31
0.0
  0
LINE
  5
7CEE
  8
1
 10
944.81055982178066
 20
3201.4335501379742
 30
0.0
 11
944.81055982178066
 21
3158.9335501379742
 31
0.0
  0
LINE
  5
7CEF
  8
1
 10
944.2105598217812
 20
3201.4335501379742
 30
0.0
 11
973.41045982178093
 21
3201.4335501379742
 31
0.0
  0
ARC
  5
7CF0
  8
1
 10
859.51055982178059
 20
3455.9335501379751
 30
0.0
 40
1.5
 50
90.0
 51
180.0
  0
LINE
  5
7CF1
  8
1
 10
1058.810559821781
 20
3507.4335501379742
 30
0.0
 11
858.81055982178077
 21
3507.4335501379742
 31
0.0
  0
LINE
  5
7CF2
  8
1
 10
858.81055982178077
 20
3212.4335501379751
 30
0.0
 11
1058.8105598217801
 21
3212.4335501379751
 31
0.0
  0
LINE
  5
7CF3
  8
1
 10
1058.8105598217801
 20
3334.4335501379742
 30
0.0
 11
1058.810559821781
 21
3507.4335501379742
 31
0.0
  0
LINE
  5
7CF4
  8
1
 10
1058.8105598217801
 20
3334.4335501379742
 30
0.0
 11
1058.8105598217801
 21
3212.4335501379751
 31
0.0
  0
LINE
  5
7CF5
  8
1
 10
995.81055982178066
 20
3206.4335501379742
 30
0.0
 11
921.81055982178066
 21
3206.4335501379742
 31
0.0
  0
ARC
  5
7CF6
  8
1
 10
995.81055982178066
 20
3209.4335501379742
 30
0.0
 40
2.9998999999999989
 50
269.9987999999999
 51
0.0011999999999279
  0
LINE
  5
7CF7
  8
1
 10
998.81055982178077
 20
3212.4335501379751
 30
0.0
 11
998.81055982178077
 21
3209.4335501379742
 31
0.0
  0
LINE
  5
7CF8
  8
1
 10
918.81055982178066
 20
3212.4335501379751
 30
0.0
 11
918.81055982178066
 21
3209.4335501379742
 31
0.0
  0
ARC
  5
7CF9
  8
1
 10
921.81045982178148
 20
3209.4335501379742
 30
0.0
 40
2.9998999999999989
 50
179.9987999999999
 51
270.00119999999998
  0
LINE
  5
7CFA
  8
1
 10
858.81055982178077
 20
3212.4335501379751
 30
0.0
 11
858.81055982178077
 21
3507.4335501379742
 31
0.0
  0
POLYLINE
  5
7CFC
  8
1
 66
     1
 10
0.0
 20
0.0
 30
0.0
  0
VERTEX
  5
8417
  8
1
 10
1094.8105598217801
 20
2341.0850627889058
 30
0.0
  0
VERTEX
  5
8418
  8
1
 10
1116.810433383562
 20
2036.086815682386
 30
0.0
 42
0.2772892689818999
  0
VERTEX
  5
8419
  8
1
 10
1340.6105598217789
 20
1723.565579149129
 30
0.0
 42
0.4425993610286298
  0
SEQEND
  5
841A
  8
1
  0
POLYLINE
  5
7D01
  8
1
 66
     1
 10
0.0
 20
0.0
 30
0.0
  0
VERTEX
  5
841B
  8
1
 10
1697.010559821782
 20
1772.0958301387809
 30
0.0
 42
0.2384802149823572
  0
VERTEX
  5
841C
  8
1
 10
1800.8105598217801
 20
2036.0868035040719
 30
0.0
  0
SEQEND
  5
841D
  8
1
  0
LINE
  5
7D05
  8
1
 10
1533.810433383562
 20
2341.0868074877581
 30
0.0
 11
1067.8156160709909
 21
2341.086683728593
 31
0.0
  0
LINE
  5
7D06
  8
2
 10
1011.207419256066
 20
2036.0868035040719
 30
0.0
 11
1898.6438538237101
 21
2036.0868035040719
 31
0.0
  0
DIMENSION
  5
7D07
  8
3
  2
*D7
 10
1965.98321463908
 20
2036.0868035040719
 30
0.0
 11
1915.9832146390791
 21
2188.5868054959151
 31
0.0
 70
     0
 13
1533.810433383562
 23
2341.0868074877581
 33
0.0
 14
1898.6438538237101
 24
2036.0868035040719
 34
0.0
 50
90.0
1001
ACAD
1000
DSTYLE
1002
{
1070
   287
1070
     3
1070
    40
1040
20.0
1070
   143
1040
0.039
1070
   172
1070
     1
1070
   271
1070
     0
1070
   279
1070
     0
1070
   288
1070
     1
1002
}
  0
LINE
  5
7D08
  8
1
 10
803.81057310079359
 20
1611.0868035040719
 30
0.0
 11
1733.8105731007929
 21
1611.0868035040719
 31
0.0
  0
LINE
  5
7D09
  8
1
 10
803.81057310079359
 20
1686.0868035040719
 30
0.0
 11
1733.8105731007929
 21
1686.0868035040719
 31
0.0
  0
DIMENSION
  5
7D0A
  8
3
  2
*D8
 10
1965.98321463908
 20
1611.0868035040719
 30
0.0
 11
1915.9832146390791
 21
1823.5868035040719
 31
0.0
 70
     0
 13
1898.6438538237101
 23
2036.0868035040719
 33
0.0
 14
1733.8105731007929
 24
1611.0868035040719
 34
0.0
 50
90.0
1001
ACAD
1000
DSTYLE
1002
{
1070
   287
1070
     3
1070
    40
1040
20.0
1070
   143
1040
0.039
1070
   172
1070
     1
1070
   271
1070
     0
1070
   279
1070
     0
1070
   288
1070
     1
1002
}
  0
LINE
  5
7D12
  8
1
 10
3019.1663660043992
 20
2341.0868074877581
 30
0.0
 11
3373.1663660044001
 21
2341.0868074877581
 31
0.0
  0
LINE
  5
7D13
  8
1
 10
3019.1663660043992
 20
2316.0868074877581
 30
0.0
 11
3373.1663660044001
 21
2316.0868074877581
 31
0.0
  0
LINE
  5
7D15
  8
2
 10
1518.8105598217801
 20
1611.0868035040719
 30
0.0
 11
1518.8105598217801
 21
2420.1595686579331
 31
0.0
  0
DIMENSION
  5
7D16
  8
3
  2
*D9
 10
1518.8105598217801
 20
2553.9329775695619
 30
0.0
 11
1659.8105598217801
 21
2603.9329775695619
 31
0.0
 70
     0
 13
1800.8105598217801
 23
2036.0868035040719
 33
0.0
 14
1518.8105598217801
 24
2420.1595686579331
 34
0.0
1001
ACAD
1000
DSTYLE
1002
{
1070
   287
1070
     3
1070
    40
1040
20.0
1070
   143
1040
0.039
1070
   172
1070
     1
1070
   271
1070
     0
1070
   279
1070
     0
1070
   288
1070
     1
1002
}
  0
LINE
  5
7D17
  8
1
 10
1506.8105598217801
 20
2269.9492869913188
 30
0.0
 11
1506.810559821781
 21
2341.0868003171158
 31
0.0
  0
DIMENSION
  5
7D18
  8
3
  2
*D10
 10
1094.8105598217801
 20
2553.9329775695619
 30
0.0
 11
1306.8105598217801
 21
2603.9329775695619
 31
0.0
 70
     0
 13
1518.8105598217801
 23
2420.1595686579331
 33
0.0
 14
1094.8105598217801
 24
2341.0850627889058
 34
0.0
1001
ACAD
1000
DSTYLE
1002
{
1070
   287
1070
     3
1070
    40
1040
20.0
1070
   143
1040
0.039
1070
   172
1070
     1
1070
   271
1070
     0
1070
   279
1070
     0
1070
   288
1070
     1
1002
}
  0
DIMENSION
  5
7D19
  8
3
  2
*D11
 10
1506.810559821781
 20
2435.4479619972458
 30
0.0
 11
1300.810559821781
 21
2485.4479619972458
 31
0.0
 70
     0
 13
1094.8105598217801
 23
2341.0850627889058
 33
0.0
 14
1506.810559821781
 24
2341.0868003171158
 34
0.0
1001
ACAD
1000
DSTYLE
1002
{
1070
   287
1070
     3
1070
    40
1040
20.0
1070
   143
1040
0.039
1070
   172
1070
     1
1070
   271
1070
     0
1070
   279
1070
     0
1070
   288
1070
     1
1002
}
  0
LINE
  5
7D1D
  8
1
 10
1800.8105598217801
 20
3681.4335501379742
 30
0.0
 11
1800.8105598217801
 21
3981.433550137976
 31
0.0
  0
LINE
  5
7D1E
  8
1
 10
1094.810559821779
 20
3681.4335501379742
 30
0.0
 11
1094.810559821779
 21
3981.433550137976
 31
0.0
  0
LINE
  5
7D1F
  8
1
 10
1069.810559821779
 20
3656.4335501379751
 30
0.0
 11
1069.810559821779
 21
4006.4335501379742
 31
0.0
  0
LINE
  5
7D20
  8
1
 10
1531.810559821779
 20
3656.4335501379751
 30
0.0
 11
1069.810559821779
 21
3656.4335501379751
 31
0.0
  0
LINE
  5
7D21
  8
1
 10
1531.810559821779
 20
4006.433550137976
 30
0.0
 11
1069.810559821779
 21
4006.4335501379742
 31
0.0
  0
LINE
  5
7D22
  8
1
 10
1506.810559821779
 20
3681.4335501379742
 30
0.0
 11
1506.810559821779
 21
3981.433550137976
 31
0.0
  0
LINE
  5
7D23
  8
1
 10
1531.810559821779
 20
3656.4335501379751
 30
0.0
 11
1531.810559821779
 21
4006.433550137976
 31
0.0
  0
LINE
  5
7D24
  8
1
 10
1506.810559821779
 20
3981.433550137976
 30
0.0
 11
1094.810559821779
 21
3981.4335501379742
 31
0.0
  0
LINE
  5
7D25
  8
1
 10
1506.810559821779
 20
3681.433550137976
 30
0.0
 11
1094.810559821779
 21
3681.433550137976
 31
0.0
  0
LINE
  5
7D26
  8
1
 10
1506.810559821779
 20
3981.433550137976
 30
0.0
 11
1094.810559821779
 21
3681.433550137976
 31
0.0
  0
LINE
  5
7D27
  8
1
 10
1094.810559821779
 20
3981.4335501379742
 30
0.0
 11
1506.810559821779
 21
3681.433550137976
 31
0.0
  0
LINE
  5
7F0C
  8
4
 10
3700.0
 20
1000.0
 30
0.0
 11
3700.0
 21
600.0
 31
0.0
  0
LINE
  5
7F0D
  8
4
 10
2300.0
 20
1000.0
 30
0.0
 11
2300.0
 21
600.0
 31
0.0
  0
LINE
  5
7F0E
  8
4
 10
1300.0
 20
1000.0
 30
0.0
 11
1300.0
 21
600.0
 31
0.0
  0
LINE
  5
7F11
  8
4
 10
1300.0
 20
600.0
 30
0.0
 11
3700.0
 21
600.0
 31
0.0
  0
LINE
  5
7F12
  8
4
 10
1300.0
 20
800.0
 30
0.0
 11
3700.0
 21
800.0
 31
0.0
  0
TEXT
  5
7F13
  8
4
 10
1377.0041616938031
 20
863.08605173322564
 30
0.0
 40
100.0
  1
機器名称
  0
TEXT
  5
7F14
  8
4
 10
1372.516212049595
 20
643.29031346402189
 30
0.0
 40
100.0
  1
機器型番
  0
TEXT
  5
7F15
  8
4
 10
2355.3574909753288
 20
845.14353791513713
 30
0.0
 40
85.0
  1
ミツヤリミットロ－ﾄﾞファン
  0
TEXT
  5
7F16
  8
4
 10
2373.3089911709608
 20
634.31916855988675
 30
0.0
 40
100.0
  1
LL#2 1/2-1
  0
TEXT
  5
7F18
  8
4
 10
1507.3556010775751
 20
4766.8576826650306
 30
0.0
 40
107.9999999999999
  1
床置ベット
  0
TEXT
  5
7F19
  8
4
 10
582.33518665889278
 20
5067.7619523985959
 30
0.0
 40
144.0
  1
遠心式片吸込片持リミットロ－ﾄﾞファン
  0
LINE
  5
7F1A
  8
4
 10
500.0
 20
4938.8175085296089
 30
0.0
 11
3700.0
 21
4938.8175085296089
 31
0.0
  0
LINE
  5
7F1B
  8
4
 10
500.0
 20
5338.8175085296098
 30
0.0
 11
3700.0
 21
5338.8175085296098
 31
0.0
  0
LINE
  5
7F1C
  8
4
 10
1300.0
 20
1000.0
 30
0.0
 11
3700.0
 21
1000.0
 31
0.0
  0
LINE
  5
7F1D
  8
4
 10
500.0
 20
5338.8175085296098
 30
0.0
 11
500.0
 21
4938.8175085296089
 31
0.0
  0
TEXT
  5
7F1E
  8
4
 10
635.63793659217117
 20
4764.638955092687
 30
0.0
 40
107.9999999999999
  1
右回転上向
  0
TEXT
  5
7F1F
  8
4
 10
2937.9391184985789
 20
5412.1221629906177
 30
0.0
 40
112.0
  1
No.
  0
TEXT
  5
7F20
  8
4
 10
2622.5921252000262
 20
4766.8576826650306
 30
0.0
 40
107.9999999999999
  1
縮尺：1/20
  0
LINE
  5
7F21
  8
4
 10
3700.0
 20
5338.8175085296098
 30
0.0
 11
3700.0
 21
4938.8175085296089
 31
0.0
  0
LINE
  5
7F22
  8
4
 10
4200.0
 20
5900.0
 30
0.0
 11
4200.0
 21
5900.0
 31
0.0
  0
LINE
  5
7F23
  8
4
 10
2881.2348447197292
 20
5362.5271662508021
 30
0.0
 11
2881.2348447197292
 21
5573.3045230995049
 31
0.0
  0
LINE
  5
7F24
  8
4
 10
2881.2348447197292
 20
5573.3045230995049
 30
0.0
 11
3700.0
 21
5573.3045230995049
 31
0.0
  0
LINE
  5
7F25
  8
4
 10
3700.0
 20
5573.3045230995049
 30
0.0
 11
3700.0
 21
5362.5271662508021
 31
0.0
  0
LINE
  5
7F26
  8
4
 10
3700.0
 20
5362.5271662508021
 30
0.0
 11
2881.2348447197292
 21
5362.5271662508021
 31
0.0
  0
LINE
  5
7F27
  8
4
 10
0.0
 20
0.0
 30
0.0
 11
0.0
 21
5900.0
 31
0.0
  0
LINE
  5
7F28
  8
4
 10
0.0
 20
5900.0
 30
0.0
 11
4200.0
 21
5900.0
 31
0.0
  0
LINE
  5
7F29
  8
4
 10
4200.0
 20
5900.0
 30
0.0
 11
4200.0
 21
0.0
 31
0.0
  0
LINE
  5
7F2A
  8
4
 10
4200.0
 20
0.0
 30
0.0
 11
0.0
 21
0.0
 31
0.0
  0
DIMENSION
  5
82D1
  8
3
  2
*D12
 10
803.81057310079359
 20
2673.9119856142511
 30
0.0
 11
1307.7374322987009
 21
2673.9119856142511
 31
0.0
 70
   128
 13
1802.1859097753429
 23
2006.7168134735009
 33
0.0
 14
803.81057310079359
 24
1686.0868035040719
 34
0.0
1001
ACAD
1000
DSTYLE
1002
{
1070
   287
1070
     3
1070
    40
1040
20.0
1070
   143
1040
0.039
1070
   172
1070
     1
1070
   271
1070
     0
1070
   279
1070
     0
1070
   288
1070
     1
1002
}
  0
LINE
  5
82D2
  8
1
 10
1733.8105598217801
 20
3166.4335501379751
 30
0.0
 11
1733.810559821779
 21
3681.433550137976
 31
0.0
  0
LINE
  5
82D3
  8
1
 10
803.81055982177975
 20
3166.4335501379728
 30
0.0
 11
803.81055982177975
 21
3586.4335501379742
 31
0.0
  0
LINE
  5
82D4
  8
1
 10
1733.8105598217801
 20
4026.4335501379751
 30
0.0
 11
1303.810559821779
 21
4026.4335501379751
 31
0.0
1001
ACAD
1000
ASC_BOUNDS
1002
{
1070
    19
1002
}
  0
LINE
  5
82D5
  8
1
 10
1733.8105598217801
 20
3166.4335501379751
 30
0.0
 11
1668.810559821779
 21
3166.4335501379742
 31
0.0
1001
ACAD
1000
ASC_BOUNDS
1002
{
1070
    19
1002
}
  0
LINE
  5
82D7
  8
1
 10
1303.8105598217801
 20
3586.4335501379751
 30
0.0
 11
803.81055982177952
 21
3586.4335501379742
 31
0.0
1001
ACAD
1000
ASC_BOUNDS
1002
{
1070
    19
1002
}
  0
LINE
  5
82D8
  8
1
 10
1303.8105598217801
 20
3586.4335501379751
 30
0.0
 11
1303.810559821779
 21
3656.4335501379751
 31
0.0
  0
LINE
  5
82D9
  8
1
 10
1733.810559821779
 20
3981.433550137976
 30
0.0
 11
1733.810559821779
 21
4026.4335501379751
 31
0.0
  0
LINE
  5
82DA
  8
1
 10
1303.810559821779
 20
4006.4335501379742
 30
0.0
 11
1303.810559821779
 21
4026.4335501379751
 31
0.0
  0
LINE
  5
82DB
  8
1
 10
868.81055982178066
 20
3166.4335501379742
 30
0.0
 11
803.81055982177998
 21
3166.4335501379742
 31
0.0
1001
ACAD
1000
ASC_BOUNDS
1002
{
1070
    19
1002
}
  0
DIMENSION
  5
82E8
  8
3
  2
*D13
 10
1733.810559821779
 20
4129.8095042396453
 30
0.0
 11
1517.538687141772
 21
4129.8095042396453
 31
0.0
 70
   128
 13
1303.810559821779
 23
4026.4335501379751
 33
0.0
 14
1733.810559821779
 24
4026.4335501379751
 34
0.0
1001
ACAD
1000
DSTYLE
1002
{
1070
   287
1070
     3
1070
    40
1040
20.0
1070
   143
1040
0.039
1070
   172
1070
     1
1070
   271
1070
     0
1070
   279
1070
     0
1070
   288
1070
     1
1002
}
  0
DIMENSION
  5
82FF
  8
3
  2
*D14
 10
803.81055982177975
 20
4129.8095042396453
 30
0.0
 11
1053.810559821779
 21
4179.8095042396453
 31
0.0
 70
     0
 13
1303.810559821779
 23
4026.4335501379751
 33
0.0
 14
803.81055982177975
 24
3586.4335501379742
 34
0.0
1001
ACAD
1000
DSTYLE
1002
{
1070
   287
1070
     4
1070
    40
1040
20.0
1070
    75
1070
     1
1070
   143
1040
0.039
1070
   172
1070
     1
1070
   271
1070
     0
1070
   279
1070
     1
1070
   288
1070
     1
1002
}
  0
DIMENSION
  5
830C
  8
3
  2
*D15
 10
1956.5064345385911
 20
3166.4335501379751
 30
0.0
 11
1956.5064345385899
 21
3569.117959164194
 31
0.0
 70
   128
 13
1733.810559821779
 23
4026.4335501379751
 33
0.0
 14
1733.8105598217801
 24
3166.4335501379751
 34
0.0
 50
90.0
1001
ACAD
1000
DSTYLE
1002
{
1070
   287
1070
     3
1070
    40
1040
20.0
1070
   143
1040
0.039
1070
   172
1070
     1
1070
   271
1070
     0
1070
   279
1070
     0
1070
   288
1070
     1
1002
}
  0
DIMENSION
  5
8319
  8
3
  2
*D16
 10
693.90851014871475
 20
3166.4335501379742
 30
0.0
 11
693.90851014871441
 21
3374.6845953629199
 31
0.0
 70
   128
 13
803.81055982177975
 23
3586.4335501379742
 33
0.0
 14
803.81055982177975
 24
3166.4335501379742
 34
0.0
 50
90.0
1001
ACAD
1000
DSTYLE
1002
{
1070
   287
1070
     3
1070
    40
1040
20.0
1070
   143
1040
0.039
1070
   172
1070
     1
1070
   271
1070
     0
1070
   279
1070
     0
1070
   288
1070
     1
1002
}
  0
LINE
  5
8337
  8
1
 10
2550.6663660044001
 20
1784.6737254966681
 30
0.0
 11
2550.6663660044001
 21
1736.086860603881
 31
0.0
  0
DIMENSION
  5
8399
  8
3
  2
*D17
 10
1518.8105598217801
 20
1460.9604316632749
 30
0.0
 11
1161.310566461287
 21
1510.9604316632749
 31
0.0
 70
     0
 13
803.81057310079359
 23
1611.0868035040719
 33
0.0
 14
1518.8105598217801
 24
1611.0868035040719
 34
0.0
1001
ACAD
1000
DSTYLE
1002
{
1070
   287
1070
     3
1070
    40
1040
20.0
1070
   143
1040
0.039
1070
   172
1070
     1
1070
   271
1070
     0
1070
   279
1070
     0
1002
}
  0
DIMENSION
  5
83A8
  8
3
  2
*D18
 10
1733.8105731007929
 20
1460.9604316632749
 30
0.0
 11
1626.310566461287
 21
1510.9604316632749
 31
0.0
 70
     0
 13
1518.8105598217801
 23
1611.0868035040719
 33
0.0
 14
1733.8105731007929
 24
1611.0868035040719
 34
0.0
1001
ACAD
1000
DSTYLE
1002
{
1070
   287
1070
     3
1070
    40
1040
20.0
1070
   143
1040
0.039
1070
   172
1070
     1
1070
   271
1070
     0
1070
   279
1070
     0
1002
}
  0
DIMENSION
  5
83B5
  8
3
  2
*D19
 10
3196.1663660043992
 20
1460.9604316632749
 30
0.0
 11
2863.6663660044001
 21
1510.9604316632749
 31
0.0
 70
     0
 13
2531.1663660043992
 23
1611.059466393026
 33
0.0
 14
3196.1663660043992
 24
1611.059466393026
 34
0.0
1001
ACAD
1000
DSTYLE
1002
{
1070
   287
1070
     3
1070
    40
1040
20.0
1070
   143
1040
0.039
1070
   172
1070
     1
1070
   271
1070
     0
1070
   279
1070
     0
1002
}
  0
DIMENSION
  5
83C4
  8
3
  2
*D20
 10
3391.1663660044001
 20
1460.9604316632749
 30
0.0
 11
3293.6663660044001
 21
1510.9604316632749
 31
0.0
 70
     0
 13
3196.1663660043992
 23
1611.059466393026
 33
0.0
 14
3391.1663660044001
 24
1611.059466393026
 34
0.0
1001
ACAD
1000
DSTYLE
1002
{
1070
   287
1070
     3
1070
    40
1040
20.0
1070
   143
1040
0.039
1070
   172
1070
     1
1070
   271
1070
     0
1070
   279
1070
     0
1002
}
  0
DIMENSION
  5
83D1
  8
3
  2
*D21
 10
2122.2106906662411
 20
1611.0868035040719
 30
0.0
 11
2072.2106906662402
 21
1976.0868054959151
 31
0.0
 70
     0
 13
1533.810433383562
 23
2341.0868074877581
 33
0.0
 14
1733.8105731007929
 24
1611.0868035040719
 34
0.0
 50
90.0
1001
ACAD
1000
DSTYLE
1002
{
1070
   287
1070
     3
1070
    40
1040
20.0
1070
   143
1040
0.039
1070
   172
1070
     1
1070
   271
1070
     0
1070
   279
1070
     0
1002
}
  0
ENDSEC
  0
EOF
