  0
SECTION
  2
HEADER
  9
$ACADVER
  1
AC1009
  9
$INSBASE
 10
0.0
 20
0.0
 30
0.0
  9
$EXTMIN
 10
0.0
 20
0.0
 30
0.0
  9
$EXTMAX
 10
4200.0
 20
5900.0
 30
0.0
  9
$LIMMIN
 10
0.0
 20
0.0
  9
$LIMMAX
 10
297.0
 20
210.0
  9
$ORTHOMODE
 70
     0
  9
$REGENMODE
 70
     1
  9
$FILLMODE
 70
     0
  9
$QTEXTMODE
 70
     0
  9
$MIRRTEXT
 70
     1
  9
$DRAGMODE
 70
     2
  9
$LTSCALE
 40
100.0
  9
$OSMODE
 70
    37
  9
$ATTMODE
 70
     1
  9
$TEXTSIZE
 40
180.0
  9
$TRACEWID
 40
0.05
  9
$TEXTSTYLE
  7
STANDARD
  9
$CLAYER
  8
3
  9
$CELTYPE
  6
BYLAYER
  9
$CECOLOR
 62
   256
  9
$DIMSCALE
 40
20.0
  9
$DIMASZ
 40
2.0
  9
$DIMEXO
 40
0.5
  9
$DIMDLI
 40
10.0
  9
$DIMRND
 40
0.0
  9
$DIMDLE
 40
0.0
  9
$DIMEXE
 40
1.0
  9
$DIMTP
 40
1.0
  9
$DIMTM
 40
1.0
  9
$DIMTXT
 40
3.0
  9
$DIMCEN
 40
0.0
  9
$DIMTSZ
 40
0.0
  9
$DIMTOL
 70
     0
  9
$DIMLIM
 70
     0
  9
$DIMTIH
 70
     0
  9
$DIMTOH
 70
     0
  9
$DIMSE1
 70
     0
  9
$DIMSE2
 70
     0
  9
$DIMTAD
 70
     1
  9
$DIMZIN
 70
     8
  9
$DIMBLK
  1

  9
$DIMASO
 70
     1
  9
$DIMSHO
 70
     1
  9
$DIMPOST
  1

  9
$DIMAPOST
  1

  9
$DIMALT
 70
     0
  9
$DIMALTD
 70
     2
  9
$DIMALTF
 40
0.039
  9
$DIMLFAC
 40
1.0
  9
$DIMTOFL
 70
     1
  9
$DIMTVP
 40
0.0
  9
$DIMTIX
 70
     0
  9
$DIMSOXD
 70
     0
  9
$DIMSAH
 70
     1
  9
$DIMBLK1
  1
OPEN
  9
$DIMBLK2
  1
OPEN
  9
$DIMSTYLE
  2
IGA
  9
$DIMCLRD
 70
     0
  9
$DIMCLRE
 70
     0
  9
$DIMCLRT
 70
     0
  9
$DIMTFAC
 40
10.0
  9
$DIMGAP
 40
1.0
  9
$LUNITS
 70
     2
  9
$LUPREC
 70
     3
  9
$SKETCHINC
 40
0.1
  9
$FILLETRAD
 40
50.0
  9
$AUNITS
 70
     0
  9
$AUPREC
 70
     0
  9
$MENU
  1
acad
  9
$ELEVATION
 40
0.0
  9
$PELEVATION
 40
0.0
  9
$THICKNESS
 40
0.0
  9
$LIMCHECK
 70
     0
  9
$BLIPMODE
 70
     0
  9
$CHAMFERA
 40
0.5
  9
$CHAMFERB
 40
0.5
  9
$SKPOLY
 70
     0
  9
$TDCREATE
 40
2451988.4840873838
  9
$TDUPDATE
 40
2454953.6387029742
  9
$TDINDWG
 40
0.0268381134
  9
$TDUSRTIMER
 40
0.0268381134
  9
$USRTIMER
 70
     1
  9
$ANGBASE
 50
0.0
  9
$ANGDIR
 70
     0
  9
$PDMODE
 70
     0
  9
$PDSIZE
 40
0.0
  9
$PLINEWID
 40
0.0
  9
$COORDS
 70
     1
  9
$SPLFRAME
 70
     0
  9
$SPLINETYPE
 70
     6
  9
$SPLINESEGS
 70
     8
  9
$ATTDIA
 70
     0
  9
$ATTREQ
 70
     1
  9
$HANDLING
 70
 10241
  9
$HANDSEED
  5
8603
  9
$SURFTAB1
 70
     6
  9
$SURFTAB2
 70
     6
  9
$SURFTYPE
 70
     6
  9
$SURFU
 70
     6
  9
$SURFV
 70
     6
  9
$UCSNAME
  2

  9
$UCSORG
 10
0.0
 20
0.0
 30
0.0
  9
$UCSXDIR
 10
1.0
 20
0.0
 30
0.0
  9
$UCSYDIR
 10
0.0
 20
1.0
 30
0.0
  9
$PUCSNAME
  2

  9
$PUCSORG
 10
0.0
 20
0.0
 30
0.0
  9
$PUCSXDIR
 10
1.0
 20
0.0
 30
0.0
  9
$PUCSYDIR
 10
0.0
 20
1.0
 30
0.0
  9
$USERI1
 70
     0
  9
$USERI2
 70
     0
  9
$USERI3
 70
     0
  9
$USERI4
 70
     0
  9
$USERI5
 70
     0
  9
$USERR1
 40
0.0
  9
$USERR2
 40
0.0
  9
$USERR3
 40
0.0
  9
$USERR4
 40
0.0
  9
$USERR5
 40
0.0
  9
$WORLDVIEW
 70
     1
  9
$SHADEDGE
 70
     3
  9
$SHADEDIF
 70
    70
  9
$TILEMODE
 70
     1
  9
$MAXACTVP
 70
    16
  9
$PLIMCHECK
 70
     0
  9
$PEXTMIN
 10
1.0000000000000000E+020
 20
1.0000000000000000E+020
 30
1.0000000000000000E+020
  9
$PEXTMAX
 10
-1.0000000000000000E+020
 20
-1.0000000000000000E+020
 30
-1.0000000000000000E+020
  9
$PLIMMIN
 10
0.0
 20
0.0
  9
$PLIMMAX
 10
12.0
 20
9.0
  9
$UNITMODE
 70
     0
  9
$VISRETAIN
 70
     0
  9
$PLINEGEN
 70
     0
  9
$PSLTSCALE
 70
     1
  0
ENDSEC
  0
SECTION
  2
TABLES
  0
TABLE
  2
VPORT
 70
     2
  0
VPORT
  2
*ACTIVE
 70
     0
 10
0.0
 20
0.0
 11
1.0
 21
1.0
 12
3972.5444942037261
 22
724.07787809660033
 13
0.0
 23
0.0
 14
10.0
 24
10.0
 15
10.0
 25
10.0
 16
0.0
 26
0.0
 36
1.0
 17
0.0
 27
0.0
 37
0.0
 40
1789.581152210761
 41
3.1666666666666661
 42
50.0
 43
0.0
 44
0.0
 50
0.0
 51
0.0
 71
     0
 72
   100
 73
     1
 74
     0
 75
     0
 76
     0
 77
     0
 78
     0
  0
ENDTAB
  0
TABLE
  2
LTYPE
 70
     2
  0
LTYPE
  2
CONTINUOUS
 70
     0
  3
Solid line
 72
    65
 73
     0
 40
0.0
  0
LTYPE
  2
CENTER
 70
     0
  3
____ _ ____ _ ____ _ ____ _ ____ _ ____ _ ____ 
 72
    65
 73
     4
 40
2.0
 49
1.25
 49
-0.25
 49
0.25
 49
-0.25
  0
ENDTAB
  0
TABLE
  2
LAYER
 70
     6
  0
LAYER
  2
0
 70
     0
 62
     7
  6
CONTINUOUS
  0
LAYER
  2
3
 70
     0
 62
     2
  6
CONTINUOUS
  0
LAYER
  2
2
 70
     0
 62
     3
  6
CENTER
  0
LAYER
  2
1
 70
     0
 62
     4
  6
CONTINUOUS
  0
LAYER
  2
4
 70
     0
 62
     7
  6
CONTINUOUS
  0
LAYER
  2
DEFPOINTS
 70
     0
 62
     7
  6
CONTINUOUS
  0
ENDTAB
  0
TABLE
  2
STYLE
 70
     1
  0
STYLE
  2
STANDARD
 70
     0
 40
0.0
 41
1.0
 50
0.0
 71
     0
 42
180.0
  3
simplex.shx
  4
extfont.shx
  0
ENDTAB
  0
TABLE
  2
VIEW
 70
     0
  0
ENDTAB
  0
TABLE
  2
UCS
 70
     0
  0
ENDTAB
  0
TABLE
  2
APPID
 70
     1
  0
APPID
  2
ACAD
 70
     0
  0
ENDTAB
  0
TABLE
  2
DIMSTYLE
 70
     1
  0
DIMSTYLE
  2
IGA
 70
     0
  3

  4

  5

  6
OPEN
  7
OPEN
 40
2.0
 41
2.0
 42
0.5
 43
10.0
 44
1.0
 45
0.0
 46
0.0
 47
1.0
 48
1.0
140
3.0
141
0.0
142
0.0
143
0.03937
144
1.0
145
0.0
146
10.0
147
1.0
 71
     0
 72
     0
 73
     0
 74
     0
 75
     0
 76
     0
 77
     1
 78
     8
170
     0
171
     2
172
     0
173
     1
174
     0
175
     0
176
     0
177
     0
178
     0
  0
ENDTAB
  0
ENDSEC
  0
SECTION
  2
BLOCKS
  0
BLOCK
  8
0
  2
$MODEL_SPACE
 70
     0
 10
0.0
 20
0.0
 30
0.0
  3
$MODEL_SPACE
  1

  0
ENDBLK
  5
1B
  8
0
  0
BLOCK
 67
     1
  8
0
  2
$PAPER_SPACE
 70
     0
 10
0.0
 20
0.0
 30
0.0
  3
$PAPER_SPACE
  1

  0
ENDBLK
  5
18
 67
     1
  8
0
  0
BLOCK
  8
0
  2
_OPEN
 70
     0
 10
0.0
 20
0.0
 30
0.0
  3
_OPEN
  1

  0
LINE
  5
7C34
  8
0
  6
BYBLOCK
 62
     0
 10
-1.0
 20
0.1666666666666666
 30
0.0
 11
0.0
 21
0.0
 31
0.0
  0
LINE
  5
7C35
  8
0
  6
BYBLOCK
 62
     0
 10
0.0
 20
0.0
 30
0.0
 11
-1.0
 21
-0.1666666666666666
 31
0.0
  0
LINE
  5
7C36
  8
0
  6
BYBLOCK
 62
     0
 10
0.0
 20
0.0
 30
0.0
 11
-1.0
 21
0.0
 31
0.0
  0
ENDBLK
  5
7C38
  8
0
  0
BLOCK
  8
0
  2
YA_N
 70
     0
 10
0.0
 20
0.0
 30
0.0
  3
YA_N
  1

  0
ENDBLK
  5
7C3B
  8
0
  0
BLOCK
  8
0
  2
_DOT
 70
     0
 10
0.0
 20
0.0
 30
0.0
  3
_DOT
  1

  0
LINE
  5
8450
  8
0
  6
BYBLOCK
 62
     0
 10
0.0
 20
0.0
 30
0.0
 11
-1.0
 21
-0.0000000000000284
 31
0.0
  0
POLYLINE
  5
8451
  8
0
  6
BYBLOCK
 62
     0
 66
     1
 10
0.0
 20
0.0
 30
0.0
 70
     1
 40
0.1666666666666666
 41
0.1666666666666666
  0
VERTEX
  5
85C0
  8
0
  6
BYBLOCK
 62
     0
 10
-0.0833333333333286
 20
-0.0000000000000284
 30
0.0
 42
1.0
  0
VERTEX
  5
85C1
  8
0
  6
BYBLOCK
 62
     0
 10
0.0833333333333286
 20
-0.0000000000000284
 30
0.0
 42
1.0
  0
SEQEND
  5
85C2
  8
0
  6
BYBLOCK
 62
     0
  0
ENDBLK
  5
7C9B
  8
0
  0
BLOCK
  8
0
  2
*D3
 70
     1
 10
0.0
 20
0.0
 30
0.0
  3
*D3
  1

  0
LINE
  5
853C
  8
3
 62
     0
 10
3473.3164018343969
 20
2241.8688878955468
 30
0.0
 11
3640.9068685422062
 21
2241.8688878955468
 31
0.0
  0
LINE
  5
853D
  8
3
 62
     0
 10
3473.3164018343969
 20
1841.868887895547
 30
0.0
 11
3640.9068685422062
 21
1841.868887895547
 31
0.0
  0
LINE
  5
853E
  8
3
 62
     0
 10
3620.9068685422062
 20
2201.8688878955468
 30
0.0
 11
3620.9068685422062
 21
1881.868887895547
 31
0.0
  0
INSERT
  5
853F
  8
3
 62
     0
  2
_OPEN
 10
3620.9068685422062
 20
2241.8688878955468
 30
0.0
 41
40.0
 42
40.0
 43
40.0
 50
90.0
  0
INSERT
  5
8540
  8
3
 62
     0
  2
_OPEN
 10
3620.9068685422062
 20
1841.868887895547
 30
0.0
 41
40.0
 42
40.0
 43
40.0
 50
270.0
  0
TEXT
  8
3
  40
60
  5
85F0
  62
0
  72
0
  71
0
 10
3450.91
 20
1935.67
 30
0.000000
  1
φ400
  0
POINT
  5
8542
  8
DEFPOINTS
 62
     0
 10
3463.3164018343969
 20
2241.8688878955468
 30
0.0
  0
POINT
  5
8543
  8
DEFPOINTS
 62
     0
 10
3463.3164018343969
 20
1841.868887895547
 30
0.0
  0
POINT
  5
8544
  8
DEFPOINTS
 62
     0
 10
3620.9068685422062
 20
1841.868887895547
 30
0.0
  0
ENDBLK
  5
8271
  8
0
  0
BLOCK
  8
0
  2
*D4
 70
     1
 10
0.0
 20
0.0
 30
0.0
  3
*D4
  1

  0
LINE
  5
854A
  8
3
 62
     0
 10
3160.0164018343971
 20
2352.3624426005799
 30
0.0
 11
3160.0164018343971
 21
2459.5841354010372
 31
0.0
  0
LINE
  5
854B
  8
3
 62
     0
 10
3460.0164018343962
 20
2352.3624426005799
 30
0.0
 11
3460.0164018343962
 21
2459.5841354010372
 31
0.0
  0
LINE
  5
854C
  8
3
 62
     0
 10
3200.0164018343962
 20
2439.5841354010372
 30
0.0
 11
3420.0164018343971
 21
2439.5841354010372
 31
0.0
  0
INSERT
  5
854D
  8
3
 62
     0
  2
_OPEN
 10
3160.0164018343971
 20
2439.5841354010372
 30
0.0
 41
40.0
 42
40.0
 43
40.0
 50
180.0
  0
INSERT
  5
854E
  8
3
 62
     0
  2
_OPEN
 10
3460.0164018343962
 20
2439.5841354010372
 30
0.0
 41
40.0
 42
40.0
 43
40.0
  0
TEXT
  8
3
  40
60
  5
85F1
  62
0
  72
0
  71
0
 10
3202.87
 20
2383.38
 30
0.000000
  1
300
  0
POINT
  5
8550
  8
DEFPOINTS
 62
     0
 10
3160.0164018343971
 20
2342.3624426005799
 30
0.0
  0
POINT
  5
8551
  8
DEFPOINTS
 62
     0
 10
3460.0164018343962
 20
2342.3624426005799
 30
0.0
  0
POINT
  5
8552
  8
DEFPOINTS
 62
     0
 10
3460.0164018343962
 20
2439.5841354010372
 30
0.0
  0
ENDBLK
  5
8266
  8
0
  0
BLOCK
  8
0
  2
*D5
 70
     1
 10
0.0
 20
0.0
 30
0.0
  3
*D5
  1

  0
LINE
  5
8553
  8
3
 62
     0
 10
2572.5164018343971
 20
2178.5245934988629
 30
0.0
 11
2572.5164018343971
 21
2595.6324136145172
 31
0.0
  0
LINE
  5
8554
  8
3
 62
     0
 10
3310.0164018343962
 20
2530.4110579404692
 30
0.0
 11
3310.0164018343962
 21
2595.6324136145172
 31
0.0
  0
LINE
  5
8555
  8
3
 62
     0
 10
2612.516401834398
 20
2575.6324136145172
 30
0.0
 11
3270.0164018343962
 21
2575.6324136145172
 31
0.0
  0
INSERT
  5
8556
  8
3
 62
     0
  2
_OPEN
 10
2572.5164018343971
 20
2575.6324136145172
 30
0.0
 41
40.0
 42
40.0
 43
40.0
 50
180.0
  0
INSERT
  5
8557
  8
3
 62
     0
  2
_OPEN
 10
3310.0164018343962
 20
2575.6324136145172
 30
0.0
 41
40.0
 42
40.0
 43
40.0
  0
TEXT
  8
3
  40
60
  5
85F2
  62
0
  72
0
  71
0
 10
2821.27
 20
2569.43
 30
0.000000
  1
MAX
  0
TEXT
  8
3
  40
60
  5
85F3
  62
0
  72
0
  71
0
 10
2821.27
 20
2491.43
 30
0.000000
  1
830
  0
POINT
  5
8559
  8
DEFPOINTS
 62
     0
 10
2572.5164018343971
 20
2168.5245934988629
 30
0.0
  0
POINT
  5
855A
  8
DEFPOINTS
 62
     0
 10
3310.0164018343962
 20
2520.4110579404692
 30
0.0
  0
POINT
  5
855B
  8
DEFPOINTS
 62
     0
 10
3310.0164018343962
 20
2575.6324136145172
 30
0.0
  0
ENDBLK
  5
8464
  8
0
  0
BLOCK
  8
0
  2
*D6
 70
     1
 10
0.0
 20
0.0
 30
0.0
  3
*D6
  1

  0
LINE
  5
82DE
  8
0
  6
BYBLOCK
 62
     0
 10
3310.0164018343962
 20
2390.76608832285
 30
0.0
 11
3310.0164018343962
 21
2456.1665421337871
 31
0.0
  0
LINE
  5
82DF
  8
0
  6
BYBLOCK
 62
     0
 10
3462.3164018343969
 20
2211.0500233831981
 30
0.0
 11
3462.3164018343969
 21
2456.1665421337871
 31
0.0
  0
LINE
  5
82E0
  8
0
  6
BYBLOCK
 62
     0
 10
3350.0164018343962
 20
2436.1665421337871
 30
0.0
 11
3422.3164018343969
 21
2436.1665421337871
 31
0.0
  0
TEXT
  5
82E1
  8
3
 62
     0
 10
3311.236684334764
 20
2470.4880567784271
 30
0.0
 40
60.0
  1
153
  0
INSERT
  5
82E2
  8
0
  6
BYBLOCK
 62
     0
  2
_OPEN
 10
3310.0164018343962
 20
2436.1665421337871
 30
0.0
 41
40.0
 42
40.0
 43
40.0
 50
180.0
  0
INSERT
  5
82E3
  8
0
  6
BYBLOCK
 62
     0
  2
_OPEN
 10
3462.3164018343969
 20
2436.1665421337871
 30
0.0
 41
40.0
 42
40.0
 43
40.0
  0
POINT
  5
82E4
  8
DEFPOINTS
  6
BYBLOCK
 62
     0
 10
3310.0164018343962
 20
2380.76608832285
 30
0.0
  0
POINT
  5
82E5
  8
DEFPOINTS
  6
BYBLOCK
 62
     0
 10
3462.3164018343969
 20
2201.0500233831981
 30
0.0
  0
POINT
  5
82E6
  8
DEFPOINTS
  6
BYBLOCK
 62
     0
 10
3462.3164018343969
 20
2436.1665421337871
 30
0.0
  0
ENDBLK
  5
82E7
  8
0
  0
BLOCK
  8
0
  2
*D7
 70
     1
 10
0.0
 20
0.0
 30
0.0
  3
*D7
  1

  0
LINE
  5
8567
  8
3
 62
     0
 10
1240.151974425364
 20
2346.8962289902788
 30
0.0
 11
797.97919316984735
 21
2346.8962289902788
 31
0.0
  0
LINE
  5
8568
  8
3
 62
     0
 10
875.31855398521657
 20
2041.8962250065931
 30
0.0
 11
797.97919316984735
 21
2041.8962250065931
 31
0.0
  0
LINE
  5
8569
  8
3
 62
     0
 10
817.97919316984735
 20
2306.8962289902788
 30
0.0
 11
817.97919316984724
 21
2081.8962250065938
 31
0.0
  0
INSERT
  5
856A
  8
3
 62
     0
  2
_OPEN
 10
817.97919316984735
 20
2346.8962289902788
 30
0.0
 41
40.0
 42
40.0
 43
40.0
 50
90.0
  0
INSERT
  5
856B
  8
3
 62
     0
  2
_OPEN
 10
817.97919316984724
 20
2041.8962250065931
 30
0.0
 41
40.0
 42
40.0
 43
40.0
 50
270.0
  0
TEXT
  8
3
  40
60
  5
85F4
  62
0
  72
0
  71
0
 10
647.979
 20
2088.20
 30
0.000000
  1
305
  0
POINT
  5
856D
  8
DEFPOINTS
 62
     0
 10
1250.151974425364
 20
2346.8962289902788
 30
0.0
  0
POINT
  5
856E
  8
DEFPOINTS
 62
     0
 10
885.31855398521657
 20
2041.8962250065931
 30
0.0
  0
POINT
  5
856F
  8
DEFPOINTS
 62
     0
 10
817.97919316984724
 20
2041.8962250065931
 30
0.0
  0
ENDBLK
  5
8223
  8
0
  0
BLOCK
  8
0
  2
*D8
 70
     1
 10
0.0
 20
0.0
 30
0.0
  3
*D8
  1

  0
LINE
  5
8570
  8
3
 62
     0
 10
875.31855398521657
 20
2041.8962250065931
 30
0.0
 11
797.97919316984735
 21
2041.8962250065931
 31
0.0
  0
LINE
  5
8571
  8
3
 62
     0
 10
1040.151834708133
 20
1616.8962250065931
 30
0.0
 11
797.97919316984735
 21
1616.8962250065931
 31
0.0
  0
LINE
  5
8572
  8
3
 62
     0
 10
817.97919316984735
 20
2001.896225006594
 30
0.0
 11
817.97919316984724
 21
1656.8962250065931
 31
0.0
  0
INSERT
  5
8573
  8
3
 62
     0
  2
_OPEN
 10
817.97919316984735
 20
2041.8962250065931
 30
0.0
 41
40.0
 42
40.0
 43
40.0
 50
90.0
  0
INSERT
  5
8574
  8
3
 62
     0
  2
_OPEN
 10
817.97919316984724
 20
1616.8962250065931
 30
0.0
 41
40.0
 42
40.0
 43
40.0
 50
270.0
  0
TEXT
  8
3
  40
60
  5
85F5
  62
0
  72
0
  71
0
 10
647.979
 20
1723.20
 30
0.000000
  1
425
  0
POINT
  5
8576
  8
DEFPOINTS
 62
     0
 10
885.31855398521657
 20
2041.8962250065931
 30
0.0
  0
POINT
  5
8577
  8
DEFPOINTS
 62
     0
 10
1050.151834708133
 20
1616.8962250065931
 30
0.0
  0
POINT
  5
8578
  8
DEFPOINTS
 62
     0
 10
817.97919316984724
 20
1616.8962250065931
 30
0.0
  0
ENDBLK
  5
8218
  8
0
  0
BLOCK
  8
0
  2
*D9
 70
     1
 10
0.0
 20
0.0
 30
0.0
  3
*D9
  1

  0
LINE
  5
8579
  8
3
 62
     0
 10
983.15184798714665
 20
2051.8962250065929
 30
0.0
 11
983.15184798714665
 21
2579.7423990720831
 31
0.0
  0
LINE
  5
857A
  8
3
 62
     0
 10
1265.1518479871461
 20
2435.9689901604538
 30
0.0
 11
1265.1518479871461
 21
2579.7423990720831
 31
0.0
  0
LINE
  5
857B
  8
3
 62
     0
 10
1023.151847987146
 20
2559.7423990720831
 30
0.0
 11
1225.1518479871461
 21
2559.7423990720831
 31
0.0
  0
INSERT
  5
857C
  8
3
 62
     0
  2
_OPEN
 10
983.15184798714665
 20
2559.7423990720831
 30
0.0
 41
40.0
 42
40.0
 43
40.0
 50
180.0
  0
INSERT
  5
857D
  8
3
 62
     0
  2
_OPEN
 10
1265.1518479871461
 20
2559.7423990720831
 30
0.0
 41
40.0
 42
40.0
 43
40.0
  0
TEXT
  8
3
  40
60
  5
85F6
  62
0
  72
0
  71
0
 10
1004.15
 20
2503.54
 30
0.000000
  1
282
  0
POINT
  5
857F
  8
DEFPOINTS
 62
     0
 10
983.15184798714665
 20
2041.8962250065931
 30
0.0
  0
POINT
  5
8580
  8
DEFPOINTS
 62
     0
 10
1265.1518479871461
 20
2425.9689901604538
 30
0.0
  0
POINT
  5
8581
  8
DEFPOINTS
 62
     0
 10
1265.1518479871461
 20
2559.7423990720831
 30
0.0
  0
ENDBLK
  5
81C7
  8
0
  0
BLOCK
  8
0
  2
*D10
 70
     1
 10
0.0
 20
0.0
 30
0.0
  3
*D10
  1

  0
LINE
  5
8582
  8
3
 62
     0
 10
1265.1518479871461
 20
2435.9689901604538
 30
0.0
 11
1265.1518479871461
 21
2579.7423990720831
 31
0.0
  0
LINE
  5
8583
  8
3
 62
     0
 10
1689.1518479871461
 20
2356.894484291427
 30
0.0
 11
1689.1518479871461
 21
2579.7423990720831
 31
0.0
  0
LINE
  5
8584
  8
3
 62
     0
 10
1305.1518479871461
 20
2559.7423990720831
 30
0.0
 11
1649.1518479871461
 21
2559.7423990720831
 31
0.0
  0
INSERT
  5
8585
  8
3
 62
     0
  2
_OPEN
 10
1265.1518479871461
 20
2559.7423990720831
 30
0.0
 41
40.0
 42
40.0
 43
40.0
 50
180.0
  0
INSERT
  5
8586
  8
3
 62
     0
  2
_OPEN
 10
1689.1518479871461
 20
2559.7423990720831
 30
0.0
 41
40.0
 42
40.0
 43
40.0
  0
TEXT
  8
3
  40
60
  5
85F7
  62
0
  72
0
  71
0
 10
1357.15
 20
2503.54
 30
0.000000
  1
424
  0
POINT
  5
8588
  8
DEFPOINTS
 62
     0
 10
1265.1518479871461
 20
2425.9689901604538
 30
0.0
  0
POINT
  5
8589
  8
DEFPOINTS
 62
     0
 10
1689.1518479871461
 20
2346.894484291427
 30
0.0
  0
POINT
  5
858A
  8
DEFPOINTS
 62
     0
 10
1689.1518479871461
 20
2559.7423990720831
 30
0.0
  0
ENDBLK
  5
81BC
  8
0
  0
BLOCK
  8
0
  2
*D11
 70
     1
 10
0.0
 20
0.0
 30
0.0
  3
*D11
  1

  0
LINE
  5
858B
  8
3
 62
     0
 10
1689.1518479871461
 20
2356.894484291427
 30
0.0
 11
1689.1518479871461
 21
2461.257383499767
 31
0.0
  0
LINE
  5
858C
  8
3
 62
     0
 10
1277.1518479871461
 20
2356.896221819637
 30
0.0
 11
1277.1518479871461
 21
2461.257383499767
 31
0.0
  0
LINE
  5
858D
  8
3
 62
     0
 10
1649.1518479871461
 20
2441.257383499767
 30
0.0
 11
1317.1518479871461
 21
2441.257383499767
 31
0.0
  0
INSERT
  5
858E
  8
3
 62
     0
  2
_OPEN
 10
1689.1518479871461
 20
2441.257383499767
 30
0.0
 41
40.0
 42
40.0
 43
40.0
  0
INSERT
  5
858F
  8
3
 62
     0
  2
_OPEN
 10
1277.1518479871461
 20
2441.257383499767
 30
0.0
 41
40.0
 42
40.0
 43
40.0
 50
180.0
  0
TEXT
  8
3
  40
60
  5
85F8
  62
0
  72
0
  71
0
 10
1363.15
 20
2385.06
 30
0.000000
  1
412
  0
POINT
  5
8591
  8
DEFPOINTS
 62
     0
 10
1689.1518479871461
 20
2346.894484291427
 30
0.0
  0
POINT
  5
8592
  8
DEFPOINTS
 62
     0
 10
1277.1518479871461
 20
2346.896221819637
 30
0.0
  0
POINT
  5
8593
  8
DEFPOINTS
 62
     0
 10
1277.1518479871461
 20
2441.257383499767
 30
0.0
  0
ENDBLK
  5
81B1
  8
0
  0
BLOCK
  8
0
  2
*D12
 70
     1
 10
0.0
 20
0.0
 30
0.0
  3
*D12
  1

  0
LINE
  5
8594
  8
3
 62
     0
 10
981.77649803358372
 20
2022.5262349760219
 30
0.0
 11
981.77649803358372
 21
2713.9842269467008
 31
0.0
  0
LINE
  5
8595
  8
3
 62
     0
 10
1980.151834708133
 20
1701.896225006594
 30
0.0
 11
1980.151834708133
 21
2713.9842269467008
 31
0.0
  0
LINE
  5
8596
  8
3
 62
     0
 10
1021.776498033583
 20
2693.9842269466999
 30
0.0
 11
1940.151834708133
 21
2693.9842269466999
 31
0.0
  0
INSERT
  5
8597
  8
3
 62
     0
  2
_OPEN
 10
981.77649803358372
 20
2693.9842269466999
 30
0.0
 41
40.0
 42
40.0
 43
40.0
 50
180.0
  0
INSERT
  5
8598
  8
3
 62
     0
  2
_OPEN
 10
1980.151834708133
 20
2693.9842269466999
 30
0.0
 41
40.0
 42
40.0
 43
40.0
  0
TEXT
  8
3
  40
60
  5
85F9
  62
0
  72
0
  71
0
 10
1362.86
 20
2637.78
 30
0.000000
  1
998
  0
POINT
  5
859A
  8
DEFPOINTS
 62
     0
 10
981.77649803358372
 20
2012.5262349760219
 30
0.0
  0
POINT
  5
859B
  8
DEFPOINTS
 62
     0
 10
1980.151834708133
 20
1691.8962250065931
 30
0.0
  0
POINT
  5
859C
  8
DEFPOINTS
 62
     0
 10
1980.151834708133
 20
2693.9842269466999
 30
0.0
  0
ENDBLK
  5
8411
  8
0
  0
BLOCK
  8
0
  2
*D13
 70
     1
 10
0.0
 20
0.0
 30
0.0
  3
*D13
  1

  0
LINE
  5
859D
  8
3
 62
     0
 10
1050.151847987147
 20
4104.6141632695153
 30
0.0
 11
1050.151847987147
 21
4224.1139695133243
 31
0.0
  0
LINE
  5
859E
  8
3
 62
     0
 10
1480.151847987147
 20
4104.6141632695153
 30
0.0
 11
1480.151847987147
 21
4224.1139695133243
 31
0.0
  0
LINE
  5
859F
  8
3
 62
     0
 10
1090.151847987147
 20
4204.1139695133252
 30
0.0
 11
1440.151847987147
 21
4204.1139695133252
 31
0.0
  0
INSERT
  5
85A0
  8
3
 62
     0
  2
_OPEN
 10
1050.151847987147
 20
4204.1139695133252
 30
0.0
 41
40.0
 42
40.0
 43
40.0
 50
180.0
  0
INSERT
  5
85A1
  8
3
 62
     0
  2
_OPEN
 10
1480.151847987147
 20
4204.1139695133252
 30
0.0
 41
40.0
 42
40.0
 43
40.0
  0
TEXT
  8
3
  40
60
  5
85FA
  62
0
  72
0
  71
0
 10
1144.40
 20
4147.91
 30
0.000000
  1
430
  0
POINT
  5
85A3
  8
DEFPOINTS
 62
     0
 10
1050.151847987147
 20
4094.6141632695148
 30
0.0
  0
POINT
  5
85A4
  8
DEFPOINTS
 62
     0
 10
1480.151847987147
 20
4094.6141632695139
 30
0.0
  0
POINT
  5
85A5
  8
DEFPOINTS
 62
     0
 10
1480.151847987147
 20
4204.1139695133252
 30
0.0
  0
ENDBLK
  5
8428
  8
0
  0
BLOCK
  8
0
  2
*D14
 70
     1
 10
0.0
 20
0.0
 30
0.0
  3
*D14
  1

  0
LINE
  5
85A6
  8
3
 62
     0
 10
1980.151847987147
 20
3664.614163269513
 30
0.0
 11
1980.151847987147
 21
4224.1139695133243
 31
0.0
  0
LINE
  5
85A7
  8
3
 62
     0
 10
1520.151847987147
 20
4204.1139695133252
 30
0.0
 11
1940.151847987147
 21
4204.1139695133252
 31
0.0
  0
INSERT
  5
85A8
  8
3
 62
     0
  2
_OPEN
 10
1480.151847987147
 20
4204.1139695133252
 30
0.0
 41
40.0
 42
40.0
 43
40.0
 50
180.0
  0
INSERT
  5
85A9
  8
3
 62
     0
  2
_OPEN
 10
1980.151847987147
 20
4204.1139695133252
 30
0.0
 41
40.0
 42
40.0
 43
40.0
  0
TEXT
  8
3
  40
60
  5
85FB
  62
0
  72
0
  71
0
 10
1610.15
 20
4147.91
 30
0.000000
  1
500
  0
POINT
  5
85AB
  8
DEFPOINTS
 62
     0
 10
1480.151847987147
 20
4094.6141632695139
 30
0.0
  0
POINT
  5
85AC
  8
DEFPOINTS
 62
     0
 10
1980.151847987147
 20
3654.614163269513
 30
0.0
  0
POINT
  5
85AD
  8
DEFPOINTS
 62
     0
 10
1980.151847987147
 20
4204.1139695133252
 30
0.0
  0
ENDBLK
  5
8434
  8
0
  0
BLOCK
  8
0
  2
*D15
 70
     1
 10
0.0
 20
0.0
 30
0.0
  3
*D15
  1

  0
LINE
  5
85AE
  8
3
 62
     0
 10
1990.151847987147
 20
3654.614163269513
 30
0.0
 11
2161.5496275706291
 21
3654.614163269513
 31
0.0
  0
LINE
  5
85AF
  8
3
 62
     0
 10
1990.151847987147
 20
3234.614163269513
 30
0.0
 11
2161.5496275706291
 21
3234.614163269513
 31
0.0
  0
LINE
  5
85B0
  8
3
 62
     0
 10
2141.5496275706291
 20
3614.614163269513
 30
0.0
 11
2141.5496275706291
 21
3274.614163269513
 31
0.0
  0
INSERT
  5
85B1
  8
3
 62
     0
  2
_OPEN
 10
2141.5496275706291
 20
3654.614163269513
 30
0.0
 41
40.0
 42
40.0
 43
40.0
 50
90.0
  0
INSERT
  5
85B2
  8
3
 62
     0
  2
_OPEN
 10
2141.5496275706291
 20
3234.614163269513
 30
0.0
 41
40.0
 42
40.0
 43
40.0
 50
270.0
  0
TEXT
  8
3
  40
60
  5
85FC
  62
0
  72
0
  71
0
 10
1971.55
 20
3332.00
 30
0.000000
  1
420
  0
POINT
  5
85B4
  8
DEFPOINTS
 62
     0
 10
1980.151847987147
 20
3654.614163269513
 30
0.0
  0
POINT
  5
85B5
  8
DEFPOINTS
 62
     0
 10
1980.151847987147
 20
3234.614163269513
 30
0.0
  0
POINT
  5
85B6
  8
DEFPOINTS
 62
     0
 10
2141.5496275706291
 20
3234.614163269513
 30
0.0
  0
ENDBLK
  5
8441
  8
0
  0
BLOCK
  8
0
  2
*D16
 70
     1
 10
0.0
 20
0.0
 30
0.0
  3
*D16
  1

  0
LINE
  5
85B7
  8
3
 62
     0
 10
1040.151847987147
 20
4094.6141632695148
 30
0.0
 11
845.69099988207086
 21
4094.6141632695148
 31
0.0
  0
LINE
  5
85B8
  8
3
 62
     0
 10
1040.151847987147
 20
3234.6141632695139
 30
0.0
 11
845.69099988207051
 21
3234.6141632695148
 31
0.0
  0
LINE
  5
85B9
  8
3
 62
     0
 10
865.69099988207086
 20
4054.6141632695148
 30
0.0
 11
865.69099988207063
 21
3274.6141632695139
 31
0.0
  0
INSERT
  5
85BA
  8
3
 62
     0
  2
_OPEN
 10
865.69099988207086
 20
4094.6141632695148
 30
0.0
 41
40.0
 42
40.0
 43
40.0
 50
90.0
  0
INSERT
  5
85BB
  8
3
 62
     0
  2
_OPEN
 10
865.69099988207063
 20
3234.6141632695148
 30
0.0
 41
40.0
 42
40.0
 43
40.0
 50
270.0
  0
TEXT
  8
3
  40
60
  5
85FD
  62
0
  72
0
  71
0
 10
695.691
 20
3586.45
 30
0.000000
  1
860
  0
POINT
  5
85BD
  8
DEFPOINTS
 62
     0
 10
1050.151847987147
 20
4094.6141632695148
 30
0.0
  0
POINT
  5
85BE
  8
DEFPOINTS
 62
     0
 10
1050.151847987147
 20
3234.6141632695139
 30
0.0
  0
POINT
  5
85BF
  8
DEFPOINTS
 62
     0
 10
865.69099988207063
 20
3234.6141632695148
 30
0.0
  0
ENDBLK
  5
844E
  8
0
  0
BLOCK
  8
0
  2
*D17
 70
     1
 10
0.0
 20
0.0
 30
0.0
  3
*D17
  1

  0
LINE
  5
85C3
  8
3
 62
     0
 10
1050.151834708133
 20
1606.8962250065931
 30
0.0
 11
1050.151834708133
 21
1454.461286747319
 31
0.0
  0
LINE
  5
85C4
  8
3
 62
     0
 10
1265.1518479871461
 20
1606.8962250065931
 30
0.0
 11
1265.1518479871461
 21
1454.461286747319
 31
0.0
  0
LINE
  5
85C5
  8
3
 62
     0
 10
1090.151834708133
 20
1474.461286747319
 30
0.0
 11
1225.1518479871461
 21
1474.461286747319
 31
0.0
  0
INSERT
  5
85C6
  8
3
 62
     0
  2
_OPEN
 10
1050.151834708133
 20
1474.461286747319
 30
0.0
 41
40.0
 42
40.0
 43
40.0
 50
180.0
  0
INSERT
  5
85C7
  8
3
 62
     0
  2
_OPEN
 10
1265.1518479871461
 20
1474.461286747319
 30
0.0
 41
40.0
 42
40.0
 43
40.0
  0
TEXT
  8
3
  40
60
  5
85FE
  62
0
  72
0
  71
0
 10
1037.65
 20
1418.26
 30
0.000000
  1
215
  0
POINT
  5
85C9
  8
DEFPOINTS
 62
     0
 10
1050.151834708133
 20
1616.8962250065931
 30
0.0
  0
POINT
  5
85CA
  8
DEFPOINTS
 62
     0
 10
1265.1518479871461
 20
1616.8962250065931
 30
0.0
  0
POINT
  5
85CB
  8
DEFPOINTS
 62
     0
 10
1265.1518479871461
 20
1474.461286747319
 30
0.0
  0
ENDBLK
  5
84E3
  8
0
  0
BLOCK
  8
0
  2
*D18
 70
     1
 10
0.0
 20
0.0
 30
0.0
  3
*D18
  1

  0
LINE
  5
85CC
  8
3
 62
     0
 10
1265.1518479871461
 20
1606.8962250065931
 30
0.0
 11
1265.1518479871461
 21
1454.461286747319
 31
0.0
  0
LINE
  5
85CD
  8
3
 62
     0
 10
1980.151834708133
 20
1606.8962250065931
 30
0.0
 11
1980.151834708133
 21
1454.461286747319
 31
0.0
  0
LINE
  5
85CE
  8
3
 62
     0
 10
1305.1518479871461
 20
1474.461286747319
 30
0.0
 11
1940.151834708133
 21
1474.461286747319
 31
0.0
  0
INSERT
  5
85CF
  8
3
 62
     0
  2
_OPEN
 10
1265.1518479871461
 20
1474.461286747319
 30
0.0
 41
40.0
 42
40.0
 43
40.0
 50
180.0
  0
INSERT
  5
85D0
  8
3
 62
     0
  2
_OPEN
 10
1980.151834708133
 20
1474.461286747319
 30
0.0
 41
40.0
 42
40.0
 43
40.0
  0
TEXT
  8
3
  40
60
  5
85FF
  62
0
  72
0
  71
0
 10
1502.65
 20
1418.26
 30
0.000000
  1
715
  0
POINT
  5
85D2
  8
DEFPOINTS
 62
     0
 10
1265.1518479871461
 20
1616.8962250065931
 30
0.0
  0
POINT
  5
85D3
  8
DEFPOINTS
 62
     0
 10
1980.151834708133
 20
1616.8962250065931
 30
0.0
  0
POINT
  5
85D4
  8
DEFPOINTS
 62
     0
 10
1980.151834708133
 20
1474.461286747319
 30
0.0
  0
ENDBLK
  5
84F0
  8
0
  0
BLOCK
  8
0
  2
*D19
 70
     1
 10
0.0
 20
0.0
 30
0.0
  3
*D19
  1

  0
LINE
  5
85D5
  8
3
 62
     0
 10
2645.0164018343962
 20
1606.868887895547
 30
0.0
 11
2645.0164018343962
 21
1454.461286747319
 31
0.0
  0
LINE
  5
85D6
  8
3
 62
     0
 10
3310.0164018343971
 20
1606.868887895547
 30
0.0
 11
3310.0164018343971
 21
1454.461286747319
 31
0.0
  0
LINE
  5
85D7
  8
3
 62
     0
 10
2685.0164018343962
 20
1474.461286747319
 30
0.0
 11
3270.0164018343962
 21
1474.461286747319
 31
0.0
  0
INSERT
  5
85D8
  8
3
 62
     0
  2
_OPEN
 10
2645.0164018343962
 20
1474.461286747319
 30
0.0
 41
40.0
 42
40.0
 43
40.0
 50
180.0
  0
INSERT
  5
85D9
  8
3
 62
     0
  2
_OPEN
 10
3310.0164018343971
 20
1474.461286747319
 30
0.0
 41
40.0
 42
40.0
 43
40.0
  0
TEXT
  8
3
  40
60
  5
8600
  62
0
  72
0
  71
0
 10
2857.52
 20
1418.26
 30
0.000000
  1
665
  0
POINT
  5
85DB
  8
DEFPOINTS
 62
     0
 10
2645.0164018343962
 20
1616.868887895547
 30
0.0
  0
POINT
  5
85DC
  8
DEFPOINTS
 62
     0
 10
3310.0164018343971
 20
1616.868887895547
 30
0.0
  0
POINT
  5
85DD
  8
DEFPOINTS
 62
     0
 10
3310.0164018343971
 20
1474.461286747319
 30
0.0
  0
ENDBLK
  5
84FD
  8
0
  0
BLOCK
  8
0
  2
*D20
 70
     1
 10
0.0
 20
0.0
 30
0.0
  3
*D20
  1

  0
LINE
  5
85DE
  8
3
 62
     0
 10
3310.0164018343971
 20
1606.868887895547
 30
0.0
 11
3310.0164018343971
 21
1454.461286747319
 31
0.0
  0
LINE
  5
85DF
  8
3
 62
     0
 10
3505.0164018343971
 20
1606.868887895547
 30
0.0
 11
3505.0164018343971
 21
1454.461286747319
 31
0.0
  0
LINE
  5
85E0
  8
3
 62
     0
 10
3350.0164018343971
 20
1474.461286747319
 30
0.0
 11
3465.0164018343962
 21
1474.461286747319
 31
0.0
  0
INSERT
  5
85E1
  8
3
 62
     0
  2
_OPEN
 10
3310.0164018343971
 20
1474.461286747319
 30
0.0
 41
40.0
 42
40.0
 43
40.0
 50
180.0
  0
INSERT
  5
85E2
  8
3
 62
     0
  2
_OPEN
 10
3505.0164018343971
 20
1474.461286747319
 30
0.0
 41
40.0
 42
40.0
 43
40.0
  0
TEXT
  8
3
  40
60
  5
8601
  62
0
  72
0
  71
0
 10
3287.52
 20
1418.26
 30
0.000000
  1
195
  0
POINT
  5
85E4
  8
DEFPOINTS
 62
     0
 10
3310.0164018343971
 20
1616.868887895547
 30
0.0
  0
POINT
  5
85E5
  8
DEFPOINTS
 62
     0
 10
3505.0164018343971
 20
1616.868887895547
 30
0.0
  0
POINT
  5
85E6
  8
DEFPOINTS
 62
     0
 10
3505.0164018343971
 20
1474.461286747319
 30
0.0
  0
ENDBLK
  5
850C
  8
0
  0
BLOCK
  8
0
  2
*D21
 70
     1
 10
0.0
 20
0.0
 30
0.0
  3
*D21
  1

  0
LINE
  5
85E7
  8
3
 62
     0
 10
1240.151974425364
 20
2346.8962371849061
 30
0.0
 11
665.11826555015091
 21
2346.896237184907
 31
0.0
  0
LINE
  5
85E8
  8
3
 62
     0
 10
1040.151834708133
 20
1616.8962250065931
 30
0.0
 11
665.11826555015057
 21
1616.8962250065931
 31
0.0
  0
LINE
  5
85E9
  8
3
 62
     0
 10
685.11826555015091
 20
2306.896237184907
 30
0.0
 11
685.11826555015057
 21
1656.8962250065931
 31
0.0
  0
INSERT
  5
85EA
  8
3
 62
     0
  2
_OPEN
 10
685.11826555015091
 20
2346.896237184907
 30
0.0
 41
40.0
 42
40.0
 43
40.0
 50
90.0
  0
INSERT
  5
85EB
  8
3
 62
     0
  2
_OPEN
 10
685.11826555015057
 20
1616.8962250065931
 30
0.0
 41
40.0
 42
40.0
 43
40.0
 50
270.0
  0
TEXT
  8
3
  40
60
  5
8602
  62
0
  72
0
  71
0
 10
515.118
 20
1875.70
 30
0.000000
  1
730
  0
POINT
  5
85ED
  8
DEFPOINTS
 62
     0
 10
1250.151974425364
 20
2346.8962371849061
 30
0.0
  0
POINT
  5
85EE
  8
DEFPOINTS
 62
     0
 10
1050.151834708133
 20
1616.8962250065931
 30
0.0
  0
POINT
  5
85EF
  8
DEFPOINTS
 62
     0
 10
685.11826555015057
 20
1616.8962250065931
 30
0.0
  0
ENDBLK
  5
8519
  8
0
  0
ENDSEC
  0
SECTION
  2
ENTITIES
  0
INSERT
  5
7E6B
  8
0
  2
YA_N
 10
6.0
 20
5.0
 30
0.0
  0
INSERT
  5
7E6C
  8
0
  2
YA_N
 10
6.0
 20
5.0
 30
0.0
  0
INSERT
  5
7E6D
  8
0
  2
YA_N
 10
6.0
 20
5.0
 30
0.0
  0
INSERT
  5
7E6E
  8
0
  2
YA_N
 10
6.0
 20
5.0
 30
0.0
  0
INSERT
  5
7E6F
  8
0
  2
YA_N
 10
6.0
 20
5.0
 30
0.0
  0
INSERT
  5
7E70
  8
0
  2
YA_N
 10
6.0
 20
5.0
 30
0.0
  0
INSERT
  5
7E71
  8
0
  2
YA_N
 10
342.69245559421228
 20
1431.8735170089669
 30
0.0
  0
LINE
  5
7E72
  8
2
 10
2564.9730947477242
 20
2041.868887895547
 30
0.0
 11
3527.0389572842241
 21
2041.868887895547
 31
0.0
  0
LINE
  5
7E73
  8
1
 10
3157.716401834396
 20
2346.8962289902788
 30
0.0
 11
3157.7164018343979
 21
2041.868887895547
 31
0.0
  0
LINE
  5
7E74
  8
1
 10
3462.3164018343982
 20
2346.8962289902788
 30
0.0
 11
3462.3164018343969
 21
2041.868887895547
 31
0.0
  0
LINE
  5
7E75
  8
1
 10
3462.3164018343969
 20
2266.8688878955468
 30
0.0
 11
3463.3164018343969
 21
2266.8688878955468
 31
0.0
  0
LINE
  5
7E76
  8
1
 10
3462.3164018343969
 20
1816.868887895547
 30
0.0
 11
3463.3164018343969
 21
1816.868887895547
 31
0.0
  0
DIMENSION
  5
7E77
  8
3
  2
*D3
 10
3620.9068685422062
 20
1841.868887895547
 30
0.0
 11
3570.9068685422062
 21
2041.868887895547
 31
0.0
 70
     0
  1
φ400
 13
3463.3164018343969
 23
2241.8688878955468
 33
0.0
 14
3463.3164018343969
 24
1841.868887895547
 34
0.0
 50
90.0
1001
ACAD
1000
DSTYLE
1002
{
1070
   287
1070
     3
1070
    40
1040
20.0
1070
   143
1040
0.039
1070
   172
1070
     1
1070
   271
1070
     0
1070
   279
1070
     0
1070
   288
1070
     1
1002
}
  0
LINE
  5
7E78
  8
1
 10
3085.0164018343962
 20
1986.668887895547
 30
0.0
 11
3085.0164018343971
 21
1691.868887895547
 31
0.0
  0
LINE
  5
7E79
  8
1
 10
2670.0164018343971
 20
1986.668887895547
 30
0.0
 11
3085.0164018343962
 21
1986.668887895547
 31
0.0
  0
LINE
  5
7E7A
  8
1
 10
3505.0164018343971
 20
1691.868887895547
 30
0.0
 11
2645.0164018343962
 21
1691.868887895547
 31
0.0
  0
LINE
  5
7E7B
  8
1
 10
3505.0164018343971
 20
1616.868887895547
 30
0.0
 11
2645.0164018343962
 21
1616.868887895547
 31
0.0
1001
ACAD
1000
ASC_BOUNDS
1002
{
1070
    19
1002
}
  0
LINE
  5
7E7C
  8
1
 10
3505.0164018343971
 20
1691.868887895547
 30
0.0
 11
3505.0164018343971
 21
1616.868887895547
 31
0.0
  0
LINE
  5
7E7D
  8
1
 10
1050.151834708133
 20
1691.8962821064019
 30
0.0
 11
1050.151834708133
 21
1616.8962250065931
 31
0.0
  0
LINE
  5
7E7E
  8
1
 10
1980.151834708133
 20
1691.8962250065931
 30
0.0
 11
1980.151834708133
 21
1616.8962250065931
 31
0.0
  0
LINE
  5
7E7F
  8
1
 10
1070.1518479871461
 20
1986.6962250065931
 30
0.0
 11
1460.1518479871461
 21
1986.6962250065931
 31
0.0
  0
LINE
  5
7E80
  8
1
 10
1443.351847987147
 20
1986.6962250065931
 30
0.0
 11
1443.351847987147
 21
1691.8962821064019
 31
0.0
  0
LINE
  5
7E81
  8
1
 10
1086.9518479871449
 20
1986.6962250065931
 30
0.0
 11
1086.9518479871449
 21
1691.8962821064019
 31
0.0
  0
LINE
  5
7E82
  8
1
 10
3085.0164018343962
 20
1938.168887895547
 30
0.0
 11
3121.716401834396
 21
1938.168887895547
 31
0.0
  0
LINE
  5
7E83
  8
1
 10
3085.0164018343962
 20
1944.168887895547
 30
0.0
 11
3121.716401834396
 21
1944.168887895547
 31
0.0
  0
CIRCLE
  5
7E84
  8
1
 10
1265.1518479871461
 20
1882.1962250065931
 30
0.0
 40
65.0
  0
LINE
  5
7E85
  8
1
 10
990.73879769105497
 20
1938.196225006594
 30
0.0
 11
1086.9518479871449
 21
1938.1962250065931
 31
0.0
  0
LINE
  5
7E86
  8
1
 10
989.34847164030168
 20
1944.196225006594
 30
0.0
 11
1086.9518479871449
 21
1944.196225006594
 31
0.0
  0
LINE
  5
7E87
  8
1
 10
1443.351847987147
 20
1944.1962250065931
 30
0.0
 11
1645.8323230188639
 21
1944.1962250065931
 31
0.0
  0
LINE
  5
7E88
  8
1
 10
1443.351847987147
 20
1938.1962250065931
 30
0.0
 11
1643.5889224425321
 21
1938.1962250065931
 31
0.0
  0
LINE
  5
7E89
  8
1
 10
3488.3164018343969
 20
2241.8688878955459
 30
0.0
 11
3488.3164018343969
 21
1840.8688878955479
 31
0.0
  0
LINE
  5
7E8A
  8
1
 10
3466.3164018343969
 20
1834.8688878955479
 30
0.0
 11
3466.3164018343969
 21
2241.8688878955468
 31
0.0
  0
LINE
  5
7E8B
  8
1
 10
3488.3164018343969
 20
2241.8688878955459
 30
0.0
 11
3488.3164018343969
 21
2242.8688878955459
 31
0.0
  0
ARC
  5
7E8C
  8
1
 10
3486.3164018343969
 20
2242.8688878955459
 30
0.0
 40
2.0
 50
0.0
 51
90.0
  0
LINE
  5
7E8D
  8
1
 10
3486.3164018343969
 20
2244.8688878955459
 30
0.0
 11
3470.3164018343969
 21
2244.8688878955459
 31
0.0
  0
ARC
  5
7E8E
  8
1
 10
3470.3164018343969
 20
2248.8688878955459
 30
0.0
 40
4.0
 50
180.0
 51
270.0
  0
LINE
  5
7E8F
  8
1
 10
3466.3164018343969
 20
2248.8688878955459
 30
0.0
 11
3466.3164018343969
 21
2264.8688878955459
 31
0.0
  0
ARC
  5
7E90
  8
1
 10
3464.3164018343969
 20
2264.8688878955459
 30
0.0
 40
2.0
 50
0.0
 51
90.0
  0
LINE
  5
7E91
  8
1
 10
3464.3164018343969
 20
2266.8688878955459
 30
0.0
 11
3463.3164018343969
 21
2266.8688878955459
 31
0.0
  0
LINE
  5
7E92
  8
1
 10
3488.3164018343969
 20
1841.8688878955479
 30
0.0
 11
3488.3164018343969
 21
1840.8688878955479
 31
0.0
  0
ARC
  5
7E93
  8
1
 10
3486.3164018343969
 20
1840.8688878955479
 30
0.0
 40
2.0
 50
270.0
 51
0.0
  0
LINE
  5
7E94
  8
1
 10
3486.3164018343969
 20
1838.8688878955479
 30
0.0
 11
3470.3164018343969
 21
1838.8688878955479
 31
0.0
  0
ARC
  5
7E95
  8
1
 10
3470.3164018343969
 20
1834.8688878955479
 30
0.0
 40
4.0
 50
90.0
 51
180.0
  0
LINE
  5
7E96
  8
1
 10
3466.3164018343969
 20
1834.8688878955479
 30
0.0
 11
3466.3164018343969
 21
1818.868887895547
 31
0.0
  0
ARC
  5
7E97
  8
1
 10
3464.3164018343969
 20
1818.868887895547
 30
0.0
 40
2.0
 50
270.0
 51
0.0
  0
LINE
  5
7E98
  8
1
 10
3464.3164018343969
 20
1816.868887895547
 30
0.0
 11
3463.3164018343969
 21
1816.868887895547
 31
0.0
  0
LINE
  5
7E99
  8
1
 10
2676.8164018343959
 20
1986.668887895547
 30
0.0
 11
2676.8164018343959
 21
1845.8962821064019
 31
0.0
  0
LINE
  5
7E9A
  8
1
 10
3487.0164018343971
 20
2346.8962289902788
 30
0.0
 11
3487.0164018343949
 21
2321.8962289902788
 31
0.0
  0
LINE
  5
7E9B
  8
1
 10
3133.0164018343962
 20
2346.8962289902788
 30
0.0
 11
3133.0164018343962
 21
2321.8962289902788
 31
0.0
  0
POLYLINE
  5
7E9C
  8
1
 66
     1
 10
0.0
 20
0.0
 30
0.0
 70
     1
  0
VERTEX
  5
8545
  8
1
 10
1960.1518479871461
 20
1691.8962821064019
 30
0.0
  0
VERTEX
  5
8546
  8
1
 10
1690.1518479871461
 20
1691.8962821064019
 30
0.0
  0
VERTEX
  5
8547
  8
1
 10
1700.1518479871461
 20
1731.8962821064019
 30
0.0
  0
VERTEX
  5
8548
  8
1
 10
1950.1518479871461
 20
1731.8962821064019
 30
0.0
  0
SEQEND
  5
8549
  8
1
  0
LINE
  5
7EA2
  8
1
 10
1925.1518479871461
 20
1731.8962821064019
 30
0.0
 11
1885.1518479871461
 21
1731.8962821064019
 31
0.0
  0
LINE
  5
7EA3
  8
1
 10
1925.1518479871461
 20
1743.8962821064019
 30
0.0
 11
1905.686356488992
 21
1770.943899541272
 31
0.0
  0
LINE
  5
7EA4
  8
1
 10
1865.866075231349
 20
1739.4660289426929
 30
0.0
 11
1784.437620742943
 21
1739.4660289426929
 31
0.0
  0
LINE
  5
7EA5
  8
1
 10
1925.1518479871461
 20
1731.8962821064019
 30
0.0
 11
1925.1518479871461
 21
1743.8962821064019
 31
0.0
  0
LINE
  5
7EA6
  8
1
 10
1737.1518479871461
 20
1731.8962821064019
 30
0.0
 11
1765.1518479871461
 21
1731.8962821064019
 31
0.0
  0
LINE
  5
7EA7
  8
1
 10
1725.1518479871461
 20
1731.8962821064019
 30
0.0
 11
1725.1518479871461
 21
1743.8962821064019
 31
0.0
  0
LINE
  5
7EA8
  8
1
 10
1725.1518479871461
 20
1743.8962821064019
 30
0.0
 11
1744.617339485301
 21
1770.943899541272
 31
0.0
  0
LINE
  5
7EA9
  8
1
 10
1725.1518479871461
 20
1731.8962821064019
 30
0.0
 11
1765.1518479871461
 21
1731.8962821064019
 31
0.0
  0
LINE
  5
7EAA
  8
2
 10
1947.9643726281149
 20
1831.8962821064019
 30
0.0
 11
1696.851847987147
 21
1831.8962821064019
 31
0.0
  0
ARC
  5
7EAB
  8
1
 10
1825.1518479871461
 20
1831.8962821064019
 30
0.0
 40
101.0
 50
293.77281679995468
 51
246.22718320005109
  0
LINE
  5
7EAC
  8
2
 10
1825.1518479871461
 20
1673.262205317151
 30
0.0
 11
1825.1518479871461
 21
1970.2182407547141
 31
0.0
  0
CIRCLE
  5
7EAD
  8
1
 10
1825.1518479871461
 20
1831.8962821064019
 30
0.0
 40
50.0
  0
CIRCLE
  5
7EAE
  8
1
 10
1265.1518479871461
 20
2041.8962250065931
 30
0.0
 40
101.5
  0
ARC
  5
7EAF
  8
1
 10
1825.1518479871461
 20
1831.8962821064019
 30
0.0
 40
90.0
 50
261.93007657667482
 51
69.997436487472172
  0
ARC
  5
7EB0
  8
1
 10
1265.1518479871461
 20
2041.8962250065931
 30
0.0
 40
150.0
 50
69.997436487472356
 51
261.93007657667482
  0
LINE
  5
7EB1
  8
1
 10
2637.5164018343971
 20
2021.868887895547
 30
0.0
 11
3157.7164018343969
 21
2021.868887895547
 31
0.0
  0
LINE
  5
7EB2
  8
1
 10
2637.5164018343971
 20
2061.8688878955468
 30
0.0
 11
3157.7164018343979
 21
2061.8688878955468
 31
0.0
  0
DIMENSION
  5
7EB3
  8
3
  2
*D4
 10
3460.0164018343962
 20
2439.5841354010372
 30
0.0
 11
3322.8735446915389
 21
2439.5841354010372
 31
0.0
 70
   128
 13
3160.0164018343971
 23
2342.3624426005799
 33
0.0
 14
3460.0164018343962
 24
2342.3624426005799
 34
0.0
1001
ACAD
1000
DSTYLE
1002
{
1070
   287
1070
     3
1070
    40
1040
20.0
1070
   143
1040
0.039
1070
   172
1070
     1
1070
   271
1070
     0
1070
   279
1070
     0
1070
   288
1070
     1
1002
}
  0
LINE
  5
7EB7
  8
1
 10
2637.5164018343971
 20
2143.3688878955468
 30
0.0
 11
2637.5164018343971
 21
1781.8962821064019
 31
0.0
  0
LINE
  5
7EB8
  8
1
 10
2602.5164018343971
 20
2143.3688878955468
 30
0.0
 11
2637.5164018343962
 21
2143.3688878955468
 31
0.0
  0
LINE
  5
7EB9
  8
1
 10
2602.5164018343971
 20
1940.368887895547
 30
0.0
 11
2637.5164018343962
 21
1940.368887895547
 31
0.0
  0
LINE
  5
7EBA
  8
1
 10
2602.5164018343971
 20
2143.3688878955468
 30
0.0
 11
2602.5164018343971
 21
1781.8962821064019
 31
0.0
  0
LINE
  5
7EBD
  8
1
 10
2602.5164018343971
 20
1881.8962821064019
 30
0.0
 11
2637.5164018343971
 21
1881.8962821064019
 31
0.0
  0
LINE
  5
7EBE
  8
1
 10
2602.5164018343971
 20
1781.8962821064019
 30
0.0
 11
2637.5164018343971
 21
1781.8962821064019
 31
0.0
  0
LINE
  5
7EC3
  8
1
 10
2572.5164018343971
 20
2191.8688878955468
 30
0.0
 11
2664.5164018343971
 21
2191.8688878955468
 31
0.0
  0
LINE
  5
7EC4
  8
1
 10
2572.5164018343971
 20
1741.8962821064019
 30
0.0
 11
2664.5164018343971
 21
1741.8962821064019
 31
0.0
  0
LINE
  5
7EC5
  8
1
 10
2572.5164018343971
 20
2191.8688878955468
 30
0.0
 11
2572.5164018343971
 21
1741.8962821064019
 31
0.0
  0
LINE
  5
7EC6
  8
1
 10
2664.5164018343971
 20
2191.8688878955468
 30
0.0
 11
2664.5164018343971
 21
2138.8931638690528
 31
0.0
  0
DIMENSION
  5
7EC7
  8
3
  2
*D5
 10
3310.0164018343962
 20
2575.6324136145172
 30
0.0
 11
2941.2664018343971
 21
2575.6324136145172
 31
0.0
 70
   128
  1
MAX\P830
 13
2572.5164018343971
 23
2168.5245934988629
 33
0.0
 14
3310.0164018343962
 24
2520.4110579404692
 34
0.0
1001
ACAD
1000
DSTYLE
1002
{
1070
   287
1070
     3
1070
    40
1040
20.0
1070
   143
1040
0.039
1070
   172
1070
     1
1070
   271
1070
     0
1070
   279
1070
     0
1070
   288
1070
     1
1002
}
  0
DIMENSION
  5
7EC8
  8
3
  2
*D6
 10
3462.3164018343969
 20
2575.8115117514062
 30
0.0
 11
3382.6652557633352
 21
2640.1330263960458
 31
0.0
 12
0.0
 22
139.64496961761861
 32
0.0
 70
   128
  1
153
 13
3310.0164018343962
 23
2520.4110579404692
 33
0.0
 14
3462.3164018343969
 24
2340.6949930008168
 34
0.0
1001
ACAD
1000
DSTYLE
1002
{
1070
   288
1070
     1
1070
   172
1070
     1
1070
    40
1040
20.0
1070
   271
1070
     0
1070
   143
1040
0.039
1002
}
  0
LINE
  5
7EC9
  8
2
 10
3310.0164018343962
 20
2430.8417807147289
 30
0.0
 11
3310.0164018343971
 21
1616.868887895547
 31
0.0
1001
ACAD
1000
ASC_BOUNDS
1002
{
1070
    19
1002
}
  0
INSERT
  5
7ECB
  8
0
  2
YA_N
 10
6.0
 20
5.0
 30
0.0
  0
INSERT
  5
7ECC
  8
0
  2
YA_N
 10
96.0
 20
80.0
 30
0.0
 41
16.0
 42
16.0
 43
16.0
  0
INSERT
  5
7ECD
  8
0
  2
YA_N
 10
3261.5724272564862
 20
1521.5703809158081
 30
0.0
  0
INSERT
  5
7ECE
  8
0
  2
YA_N
 10
3261.5724272564862
 20
1521.5703809158081
 30
0.0
  0
INSERT
  5
7ECF
  8
0
  2
YA_N
 10
3598.2648828506981
 20
2948.4438979247761
 30
0.0
  0
INSERT
  5
7ED0
  8
0
  2
YA_N
 10
4266.8004074798646
 20
4391.6121309265727
 30
0.0
  0
INSERT
  5
7ED1
  8
0
  2
YA_N
 10
7315.6595907797891
 20
4128.942743271853
 30
0.0
  0
LINE
  5
7ED2
  8
1
 10
3462.3164018343959
 20
2041.868887895547
 30
0.0
 11
3462.3164018343959
 21
1691.868887895547
 31
0.0
  0
LINE
  5
7ED3
  8
1
 10
3157.716401834396
 20
2041.868887895547
 30
0.0
 11
3157.716401834396
 21
1691.868887895547
 31
0.0
  0
INSERT
  5
7ED4
  8
0
  2
YA_N
 10
96.0
 20
80.0
 30
0.0
 41
16.0
 42
16.0
 43
16.0
  0
INSERT
  5
7ED5
  8
0
  2
YA_N
 10
96.0
 20
80.0
 30
0.0
 41
16.0
 42
16.0
 43
16.0
  0
INSERT
  5
7ED8
  8
0
  2
YA_N
 10
96.0
 20
80.0
 30
0.0
 41
16.0
 42
16.0
 43
16.0
  0
INSERT
  5
7ED9
  8
0
  2
YA_N
 10
96.0
 20
80.0
 30
0.0
 41
16.0
 42
16.0
 43
16.0
  0
LINE
  5
7EDC
  8
1
 10
3121.716401834396
 20
1944.168887895547
 30
0.0
 11
3157.716401834396
 21
1944.168887895547
 31
0.0
  0
LINE
  5
7EDD
  8
1
 10
3121.716401834396
 20
1938.168887895547
 30
0.0
 11
3157.716401834396
 21
1938.168887895547
 31
0.0
  0
LINE
  5
7EDE
  8
1
 10
1855.9374447686021
 20
1916.467240660799
 30
0.0
 11
1316.461175956241
 21
2182.8478225972549
 31
0.0
  0
LINE
  5
7EDF
  8
1
 10
1812.5175117098911
 20
1742.7875084259549
 30
0.0
 11
1244.094620858388
 21
1893.381602205847
 31
0.0
  0
LINE
  5
7EE0
  8
1
 10
1843.08527621137
 20
1878.5695308911891
 30
0.0
 11
1301.556707282323
 21
2136.6429200397101
 31
0.0
  0
LINE
  5
7EE1
  8
1
 10
1815.7207782534881
 20
1782.7937880385971
 30
0.0
 11
1246.006776427819
 21
1942.2181620489489
 31
0.0
  0
INSERT
  5
7EE2
  8
0
  2
YA_N
 10
63.111395363473399
 20
-2207.5990737385559
 30
0.0
 41
1.1404799999999991
 42
1.1404799999999991
 43
1.1404799999999991
  0
INSERT
  5
7EE3
  8
0
  2
YA_N
 10
63.111395363473399
 20
-2207.5990737385559
 30
0.0
 41
1.1404799999999991
 42
1.1404799999999991
 43
1.1404799999999991
  0
INSERT
  5
7EE4
  8
0
  2
YA_N
 10
63.111395363473399
 20
-2207.5990737385559
 30
0.0
 41
1.1404799999999991
 42
1.1404799999999991
 43
1.1404799999999991
  0
INSERT
  5
7EE5
  8
0
  2
YA_N
 10
63.111395363473399
 20
-2207.5990737385559
 30
0.0
 41
1.1404799999999991
 42
1.1404799999999991
 43
1.1404799999999991
  0
INSERT
  5
7EE6
  8
0
  2
YA_N
 10
63.111395363473399
 20
-2207.5990737385559
 30
0.0
 41
1.1404799999999991
 42
1.1404799999999991
 43
1.1404799999999991
  0
INSERT
  5
7EE7
  8
0
  2
YA_N
 10
2068.599843633097
 20
-1871.396847612672
 30
0.0
 41
1.1404799999999991
 42
1.1404799999999991
 43
1.1404799999999991
  0
LINE
  5
7EE8
  8
1
 10
2645.0164018343962
 20
1616.868887895547
 30
0.0
 11
2645.0164018343962
 21
1691.868887895547
 31
0.0
  0
INSERT
  5
7EFC
  8
0
  2
YA_N
 10
7517.3489782723964
 20
85.078014923515184
 30
0.0
  0
ARC
  5
7F00
  8
1
 10
1389.151974425364
 20
2256.896237184907
 30
0.0
 40
31.0
 50
209.03414805150399
 51
0.0
  0
LINE
  5
7F01
  8
1
 10
1250.151974425364
 20
2321.896237184907
 30
0.0
 11
1716.146791737935
 21
2321.896237184907
 31
0.0
  0
LINE
  5
7F02
  8
1
 10
1250.151974425364
 20
2321.896237184907
 30
0.0
 11
1250.151974425364
 21
2346.8962371849061
 31
0.0
  0
LINE
  5
7F03
  8
1
 10
1407.151974425364
 20
2341.896237184907
 30
0.0
 11
1420.1519744253651
 21
2256.896237184907
 31
0.0
  0
LINE
  5
7F04
  8
1
 10
1716.146791737935
 20
2346.8962371849061
 30
0.0
 11
1716.146791737935
 21
2321.896237184907
 31
0.0
  0
LINE
  5
7F07
  8
1
 10
3488.3164018343969
 20
2241.8688878955468
 30
0.0
 11
3462.3164018343969
 21
2241.8688878955468
 31
0.0
  0
LINE
  5
7F08
  8
1
 10
3488.3164018343969
 20
1841.868887895547
 30
0.0
 11
3462.3164018343959
 21
1841.868887895547
 31
0.0
  0
LINE
  5
7F09
  8
1
 10
2691.016401834398
 20
1931.8962821064031
 30
0.0
 11
2986.0164018343971
 21
1931.8962821064019
 31
0.0
  0
LINE
  5
7F0A
  8
1
 10
2813.0164018343971
 20
1731.8962821064019
 30
0.0
 11
2986.0164018343971
 21
1731.8962821064019
 31
0.0
  0
LINE
  5
7F0B
  8
2
 10
2991.3471018343971
 20
1831.8962821064019
 30
0.0
 11
2565.6588013603582
 21
1831.8962821064019
 31
0.0
  0
LINE
  5
7F0C
  8
1
 10
2986.0164018343971
 20
1731.8962821064019
 30
0.0
 11
2986.0164018343971
 21
1931.8962821064019
 31
0.0
  0
LINE
  5
7F0D
  8
1
 10
2897.0164018343971
 20
1691.868887895547
 30
0.0
 11
2897.0164018343971
 21
1731.8962821064019
 31
0.0
  0
ARC
  5
7F0E
  8
1
 10
2934.5164018343971
 20
1931.1962821064019
 30
0.0
 40
1.5
 50
0.0
 51
90.0
  0
LINE
  5
7F0F
  8
1
 10
2691.016401834398
 20
1931.8962821064019
 30
0.0
 11
2691.016401834398
 21
1731.8962821064031
 31
0.0
  0
LINE
  5
7F10
  8
1
 10
2813.0164018343971
 20
1731.8962821064019
 30
0.0
 11
2691.016401834398
 21
1731.8962821064031
 31
0.0
  0
LINE
  5
7F11
  8
1
 10
2729.0164018343971
 20
1691.868887895547
 30
0.0
 11
2729.0164018343971
 21
1731.8962821064019
 31
0.0
  0
LINE
  5
7F12
  8
1
 10
2680.0164018343971
 20
1817.8962821064019
 30
0.0
 11
2637.5164018343971
 21
1817.8962821064019
 31
0.0
  0
LINE
  5
7F13
  8
1
 10
2680.0164018343971
 20
1845.8962821064019
 30
0.0
 11
2637.5164018343971
 21
1845.8962821064019
 31
0.0
  0
LINE
  5
7F14
  8
1
 10
2685.0164018343971
 20
1794.8962821064019
 30
0.0
 11
2685.0164018343971
 21
1868.8962821064019
 31
0.0
  0
LINE
  5
7F15
  8
1
 10
2680.0164018343971
 20
1846.4962821064021
 30
0.0
 11
2680.0164018343971
 21
1817.296382106402
 31
0.0
  0
ARC
  5
7F16
  8
1
 10
2688.0164018343971
 20
1794.8962821064019
 30
0.0
 40
2.9998999999999989
 50
179.9987999999999
 51
270.00119999999998
  0
LINE
  5
7F17
  8
1
 10
2691.016401834398
 20
1791.8962821064019
 30
0.0
 11
2688.0164018343971
 21
1791.8962821064019
 31
0.0
  0
LINE
  5
7F18
  8
1
 10
2685.0164018343971
 20
1817.296382106402
 30
0.0
 11
2680.0164018343971
 21
1817.296382106402
 31
0.0
  0
LINE
  5
7F19
  8
1
 10
2685.0164018343971
 20
1846.4962821064021
 30
0.0
 11
2680.0164018343971
 21
1846.4962821064021
 31
0.0
  0
ARC
  5
7F1A
  8
1
 10
2688.0164018343971
 20
1868.8963821064019
 30
0.0
 40
2.9998999999999989
 50
89.998799999999989
 51
180.0011999999999
  0
LINE
  5
7F1B
  8
1
 10
2691.016401834398
 20
1871.8962821064019
 30
0.0
 11
2688.0164018343971
 21
1871.8962821064019
 31
0.0
  0
POLYLINE
  5
7F1C
  8
1
 66
     1
 10
0.0
 20
0.0
 30
0.0
  0
VERTEX
  5
855C
  8
1
 10
983.15184798714665
 20
2041.8962250065931
 30
0.0
 42
-0.3877288018366425
  0
VERTEX
  5
855D
  8
1
 10
1242.151974425364
 20
2278.6436885284302
 30
0.0
 42
-0.1499846310316867
  0
VERTEX
  5
855E
  8
1
 10
1362.047725600374
 20
2241.850982264069
 30
0.0
 42
-0.3936265759256327
  0
SEQEND
  5
855F
  8
1
  0
LINE
  5
7F21
  8
1
 10
983.15184798714745
 20
4049.6141632695139
 30
0.0
 11
1252.1518479871461
 21
4049.6141632695139
 31
0.0
  0
LINE
  5
7F22
  8
1
 10
983.15184798714745
 20
3749.6141632695139
 30
0.0
 11
1252.1518479871461
 21
3749.614163269513
 31
0.0
  0
LINE
  5
7F23
  8
1
 10
1245.151847987147
 20
3227.1141632695148
 30
0.0
 11
1245.1518479871461
 21
3749.6141632695139
 31
0.0
  0
LINE
  5
7F24
  8
1
 10
1285.151847987147
 20
3227.1141632695148
 30
0.0
 11
1285.151847987147
 21
3724.6141632695139
 31
0.0
  0
LINE
  5
7F25
  8
2
 10
1265.151847987147
 20
3154.570856182841
 30
0.0
 11
1265.151847987147
 21
4126.4770643280908
 31
0.0
  0
LINE
  5
7F27
  8
1
 10
1115.151847987147
 20
3254.1141632695148
 30
0.0
 11
1915.1518479871461
 21
3254.1141632695121
 31
0.0
  0
LINE
  5
7F28
  8
1
 10
1115.151847987147
 20
3162.1141632695148
 30
0.0
 11
1915.1518479871461
 21
3162.114163269513
 31
0.0
  0
LINE
  5
7F29
  8
1
 10
1163.651847987147
 20
3192.1141632695148
 30
0.0
 11
1875.1518479871461
 21
3192.114163269513
 31
0.0
  0
LINE
  5
7F2A
  8
1
 10
1163.651847987147
 20
3227.1141632695148
 30
0.0
 11
1875.1518479871461
 21
3227.114163269513
 31
0.0
  0
LINE
  5
7F2B
  8
1
 10
1086.9518479871449
 20
3266.41416326951
 30
0.0
 11
1245.151847987147
 21
3266.41416326951
 31
0.0
  0
LINE
  5
7F2C
  8
1
 10
1915.1518479871461
 20
3162.114163269513
 30
0.0
 11
1915.1518479871461
 21
3254.1141632695121
 31
0.0
  0
LINE
  5
7F2D
  8
1
 10
1875.1518479871461
 20
3192.114163269513
 30
0.0
 11
1875.1518479871461
 21
3227.114163269513
 31
0.0
  0
LINE
  5
7F38
  8
1
 10
1115.151847987147
 20
3162.1141632695148
 30
0.0
 11
1115.151847987147
 21
3254.1141632695148
 31
0.0
  0
LINE
  5
7F39
  8
1
 10
1163.651847987147
 20
3192.1141632695148
 30
0.0
 11
1163.651847987147
 21
3227.1141632695139
 31
0.0
  0
LINE
  5
7F3A
  8
2
 10
899.53874576147234
 20
3899.6141632695139
 30
0.0
 11
1653.729603586158
 21
3899.614163269513
 31
0.0
1001
ACAD
1000
ASC_BOUNDS
1002
{
1070
    19
1002
}
  0
LINE
  5
7F3B
  8
1
 10
1366.651847987147
 20
3192.1141632695148
 30
0.0
 11
1366.651847987147
 21
3227.1141632695139
 31
0.0
  0
LINE
  5
7F3C
  8
1
 10
1775.1518479871461
 20
3192.114163269513
 30
0.0
 11
1775.1518479871461
 21
3227.114163269513
 31
0.0
  0
LINE
  5
7F3D
  8
1
 10
1443.351847987147
 20
3722.6141632695121
 30
0.0
 11
1285.1518479871461
 21
3722.6141632695121
 31
0.0
  0
LINE
  5
7F3E
  8
1
 10
1086.9518479871449
 20
3266.41416326951
 30
0.0
 11
1086.9518479871449
 21
3722.6141632695121
 31
0.0
  0
LINE
  5
7F3F
  8
1
 10
1443.3518479871459
 20
3266.4141632695109
 30
0.0
 11
1443.351847987147
 21
3722.6141632695121
 31
0.0
  0
LINE
  5
7F40
  8
1
 10
1245.151847987147
 20
3722.6141632695121
 30
0.0
 11
1086.9518479871449
 21
3722.6141632695121
 31
0.0
  0
LINE
  5
7F41
  8
1
 10
1285.151847987147
 20
3266.41416326951
 30
0.0
 11
1443.351847987147
 21
3266.4141632695109
 31
0.0
  0
LINE
  5
7F42
  8
1
 10
1810.5519479871459
 20
3274.614163269513
 30
0.0
 11
1810.5519479871459
 21
3269.6141632695139
 31
0.0
  0
LINE
  5
7F43
  8
1
 10
1839.751847987146
 20
3274.614163269513
 30
0.0
 11
1839.751847987146
 21
3269.6141632695139
 31
0.0
  0
LINE
  5
7F44
  8
2
 10
1825.1518479871461
 20
3638.5280008715272
 30
0.0
 11
1825.1518479871461
 21
3149.1845896227128
 31
0.0
  0
LINE
  5
7F45
  8
1
 10
1811.1518479871461
 20
3269.6141632695139
 30
0.0
 11
1811.1518479871461
 21
3227.114163269513
 31
0.0
  0
LINE
  5
7F46
  8
1
 10
1839.1518479871461
 20
3269.6141632695139
 30
0.0
 11
1839.1518479871461
 21
3227.114163269513
 31
0.0
  0
LINE
  5
7F47
  8
1
 10
1839.751847987146
 20
3269.6141632695139
 30
0.0
 11
1810.5519479871459
 21
3269.6141632695139
 31
0.0
  0
LINE
  5
7F49
  8
1
 10
1725.1518479871449
 20
3575.614163269513
 30
0.0
 11
1925.1518479871461
 21
3575.614163269513
 31
0.0
  0
LINE
  5
7F4A
  8
1
 10
1925.1518479871461
 20
3280.614163269513
 30
0.0
 11
1725.1518479871461
 21
3280.614163269513
 31
0.0
  0
LINE
  5
7F4B
  8
1
 10
1725.1518479871461
 20
3402.614163269513
 30
0.0
 11
1725.1518479871449
 21
3575.614163269513
 31
0.0
  0
LINE
  5
7F4C
  8
1
 10
1725.1518479871461
 20
3402.614163269513
 30
0.0
 11
1725.1518479871461
 21
3280.614163269513
 31
0.0
  0
LINE
  5
7F4D
  8
1
 10
1788.1518479871461
 20
3274.614163269513
 30
0.0
 11
1862.1518479871461
 21
3274.614163269513
 31
0.0
  0
ARC
  5
7F4E
  8
1
 10
1788.1518479871461
 20
3277.614163269513
 30
0.0
 40
2.9998999999999989
 50
179.99879999999999
 51
270.00119999999998
  0
LINE
  5
7F4F
  8
1
 10
1785.1518479871461
 20
3280.614163269513
 30
0.0
 11
1785.1518479871461
 21
3277.614163269513
 31
0.0
  0
LINE
  5
7F50
  8
1
 10
1865.1518479871461
 20
3280.614163269513
 30
0.0
 11
1865.1518479871461
 21
3277.614163269513
 31
0.0
  0
ARC
  5
7F51
  8
1
 10
1862.1519479871449
 20
3277.614163269513
 30
0.0
 40
2.9998999999999989
 50
269.99880000000002
 51
0.0012000000000121
  0
LINE
  5
7F52
  8
1
 10
1925.1518479871461
 20
3280.614163269513
 30
0.0
 11
1925.1518479871461
 21
3575.614163269513
 31
0.0
  0
POLYLINE
  5
7F54
  8
1
 66
     1
 10
0.0
 20
0.0
 30
0.0
  0
VERTEX
  5
8560
  8
1
 10
1689.1518479871461
 20
2346.894484291427
 30
0.0
  0
VERTEX
  5
8561
  8
1
 10
1667.151974425364
 20
2041.896237184907
 30
0.0
 42
-0.2772892689818999
  0
VERTEX
  5
8562
  8
1
 10
1443.351847987147
 20
1729.37500065165
 30
0.0
 42
-0.4425993610286298
  0
SEQEND
  5
8563
  8
1
  0
POLYLINE
  5
7F59
  8
1
 66
     1
 10
0.0
 20
0.0
 30
0.0
  0
VERTEX
  5
8564
  8
1
 10
1086.9518479871449
 20
1777.9052516413019
 30
0.0
 42
-0.2384802149823572
  0
VERTEX
  5
8565
  8
1
 10
983.15184798714665
 20
2041.8962250065931
 30
0.0
  0
SEQEND
  5
8566
  8
1
  0
LINE
  5
7F5D
  8
1
 10
1250.151974425364
 20
2346.8962289902788
 30
0.0
 11
1716.146791737935
 21
2346.8961052311151
 31
0.0
  0
LINE
  5
7F5E
  8
2
 10
1772.7549885528599
 20
2041.8962250065931
 30
0.0
 11
885.31855398521657
 21
2041.8962250065931
 31
0.0
  0
DIMENSION
  5
7F5F
  8
3
  2
*D7
 10
817.97919316984724
 20
2041.8962250065931
 30
0.0
 11
767.97919316984701
 21
2194.3962269984358
 31
0.0
 70
     0
 13
1250.151974425364
 23
2346.8962289902788
 33
0.0
 14
885.31855398521657
 24
2041.8962250065931
 34
0.0
 50
270.0
1001
ACAD
1000
DSTYLE
1002
{
1070
   287
1070
     3
1070
    40
1040
20.0
1070
   143
1040
0.039
1070
   172
1070
     1
1070
   271
1070
     0
1070
   279
1070
     0
1070
   288
1070
     1
1002
}
  0
LINE
  5
7F60
  8
1
 10
1980.151834708133
 20
1616.8962250065931
 30
0.0
 11
1050.151834708133
 21
1616.8962250065931
 31
0.0
  0
LINE
  5
7F61
  8
1
 10
1980.151834708133
 20
1691.8962250065931
 30
0.0
 11
1050.151834708133
 21
1691.8962250065931
 31
0.0
  0
DIMENSION
  5
7F62
  8
3
  2
*D8
 10
817.97919316984724
 20
1616.8962250065931
 30
0.0
 11
767.97919316984712
 21
1829.396225006594
 31
0.0
 70
     0
 13
885.31855398521657
 23
2041.8962250065931
 33
0.0
 14
1050.151834708133
 24
1616.8962250065931
 34
0.0
 50
270.0
1001
ACAD
1000
DSTYLE
1002
{
1070
   287
1070
     3
1070
    40
1040
20.0
1070
   143
1040
0.039
1070
   172
1070
     1
1070
   271
1070
     0
1070
   279
1070
     0
1070
   288
1070
     1
1002
}
  0
LINE
  5
7F6A
  8
1
 10
3133.0164018343962
 20
2346.8962289902788
 30
0.0
 11
3487.0164018343971
 21
2346.8962289902788
 31
0.0
  0
LINE
  5
7F6B
  8
1
 10
3133.0164018343962
 20
2321.8962289902788
 30
0.0
 11
3487.0164018343971
 21
2321.8962289902788
 31
0.0
  0
LINE
  5
7F6D
  8
2
 10
1265.1518479871461
 20
1616.8962250065931
 30
0.0
 11
1265.1518479871461
 21
2425.9689901604538
 31
0.0
  0
DIMENSION
  5
7F6E
  8
3
  2
*D9
 10
1265.1518479871461
 20
2559.7423990720831
 30
0.0
 11
1124.1518479871461
 21
2609.742399072084
 31
0.0
 70
     0
 13
983.15184798714665
 23
2041.8962250065931
 33
0.0
 14
1265.1518479871461
 24
2425.9689901604538
 34
0.0
1001
ACAD
1000
DSTYLE
1002
{
1070
   287
1070
     3
1070
    40
1040
20.0
1070
   143
1040
0.039
1070
   172
1070
     1
1070
   271
1070
     0
1070
   279
1070
     0
1070
   288
1070
     1
1002
}
  0
LINE
  5
7F6F
  8
1
 10
1277.1518479871461
 20
2275.75870849384
 30
0.0
 11
1277.1518479871461
 21
2346.896221819637
 31
0.0
  0
DIMENSION
  5
7F70
  8
3
  2
*D10
 10
1689.1518479871461
 20
2559.7423990720831
 30
0.0
 11
1477.1518479871461
 21
2609.742399072084
 31
0.0
 70
     0
 13
1265.1518479871461
 23
2425.9689901604538
 33
0.0
 14
1689.1518479871461
 24
2346.894484291427
 34
0.0
1001
ACAD
1000
DSTYLE
1002
{
1070
   287
1070
     3
1070
    40
1040
20.0
1070
   143
1040
0.039
1070
   172
1070
     1
1070
   271
1070
     0
1070
   279
1070
     0
1070
   288
1070
     1
1002
}
  0
DIMENSION
  5
7F71
  8
3
  2
*D11
 10
1277.1518479871461
 20
2441.257383499767
 30
0.0
 11
1483.1518479871461
 21
2491.257383499767
 31
0.0
 70
     0
 13
1689.1518479871461
 23
2346.894484291427
 33
0.0
 14
1277.1518479871461
 24
2346.896221819637
 34
0.0
1001
ACAD
1000
DSTYLE
1002
{
1070
   287
1070
     3
1070
    40
1040
20.0
1070
   143
1040
0.039
1070
   172
1070
     1
1070
   271
1070
     0
1070
   279
1070
     0
1070
   288
1070
     1
1002
}
  0
LINE
  5
7F75
  8
1
 10
983.15184798714745
 20
3749.614163269513
 30
0.0
 11
983.15184798714745
 21
4049.6141632695162
 31
0.0
  0
LINE
  5
7F76
  8
1
 10
1689.151847987147
 20
3749.614163269513
 30
0.0
 11
1689.151847987147
 21
4049.6141632695139
 31
0.0
  0
LINE
  5
7F77
  8
1
 10
1714.151847987147
 20
3724.6141632695139
 30
0.0
 11
1714.151847987147
 21
4074.614163269513
 31
0.0
  0
LINE
  5
7F78
  8
1
 10
1252.151847987147
 20
3724.6141632695139
 30
0.0
 11
1714.151847987147
 21
3724.6141632695139
 31
0.0
  0
LINE
  5
7F79
  8
1
 10
1252.151847987147
 20
4074.6141632695139
 30
0.0
 11
1714.151847987147
 21
4074.614163269513
 31
0.0
  0
LINE
  5
7F7A
  8
1
 10
1277.151847987147
 20
3749.614163269513
 30
0.0
 11
1277.151847987147
 21
4049.6141632695139
 31
0.0
  0
LINE
  5
7F7B
  8
1
 10
1252.151847987147
 20
3724.6141632695139
 30
0.0
 11
1252.151847987147
 21
4074.6141632695139
 31
0.0
  0
LINE
  5
7F7C
  8
1
 10
1277.151847987147
 20
4049.6141632695139
 30
0.0
 11
1689.151847987147
 21
4049.614163269513
 31
0.0
  0
LINE
  5
7F7D
  8
1
 10
1277.151847987147
 20
3749.6141632695139
 30
0.0
 11
1689.151847987147
 21
3749.6141632695139
 31
0.0
  0
LINE
  5
7F7E
  8
1
 10
1277.151847987147
 20
4049.6141632695139
 30
0.0
 11
1689.151847987147
 21
3749.6141632695139
 31
0.0
  0
LINE
  5
7F7F
  8
1
 10
1689.151847987147
 20
4049.614163269513
 30
0.0
 11
1277.151847987147
 21
3749.6141632695139
 31
0.0
  0
LINE
  5
7F81
  8
1
 10
2676.8164018343959
 20
1817.8962821064019
 30
0.0
 11
2676.8164018343969
 21
1691.868887895547
 31
0.0
  0
LINE
  5
8167
  8
4
 10
3700.0
 20
1000.0
 30
0.0
 11
3700.0
 21
600.0
 31
0.0
  0
LINE
  5
8168
  8
4
 10
2300.0
 20
1000.0
 30
0.0
 11
2300.0
 21
600.0
 31
0.0
  0
LINE
  5
8169
  8
4
 10
1300.0
 20
1000.0
 30
0.0
 11
1300.0
 21
600.0
 31
0.0
  0
LINE
  5
816C
  8
4
 10
1300.0
 20
600.0
 30
0.0
 11
3700.0
 21
600.0
 31
0.0
  0
LINE
  5
816D
  8
4
 10
1300.0
 20
800.0
 30
0.0
 11
3700.0
 21
800.0
 31
0.0
  0
TEXT
  5
816E
  8
4
 10
1377.0041616938031
 20
863.08605173322564
 30
0.0
 40
100.0
  1
機器名称
  0
TEXT
  5
816F
  8
4
 10
1372.516212049595
 20
643.29031346402189
 30
0.0
 40
100.0
  1
機器型番
  0
TEXT
  5
8170
  8
4
 10
2355.3574909753288
 20
845.14353791513713
 30
0.0
 40
85.0
  1
ミツヤリミットロ－ﾄﾞファン
  0
TEXT
  5
8171
  8
4
 10
2373.3089911709608
 20
634.31916855988675
 30
0.0
 40
100.0
  1
LL#2 1/2-1
  0
TEXT
  5
8173
  8
4
 10
1460.8608426384301
 20
4766.8576826650306
 30
0.0
 40
107.9999999999999
  1
床置ベット
  0
TEXT
  5
8174
  8
4
 10
582.33518665889278
 20
5067.7619523985959
 30
0.0
 40
144.0
  1
遠心式片吸込片持リミットロ－ﾄﾞファン
  0
LINE
  5
8175
  8
4
 10
500.0
 20
4938.8175085296089
 30
0.0
 11
3700.0
 21
4938.8175085296089
 31
0.0
  0
LINE
  5
8176
  8
4
 10
500.0
 20
5338.8175085296098
 30
0.0
 11
3700.0
 21
5338.8175085296098
 31
0.0
  0
LINE
  5
8177
  8
4
 10
1300.0
 20
1000.0
 30
0.0
 11
3700.0
 21
1000.0
 31
0.0
  0
LINE
  5
8178
  8
4
 10
500.0
 20
5338.8175085296098
 30
0.0
 11
500.0
 21
4938.8175085296089
 31
0.0
  0
TEXT
  5
8179
  8
4
 10
658.88531581174175
 20
4764.638955092687
 30
0.0
 40
107.9999999999999
  1
左回転上向
  0
TEXT
  5
817A
  8
4
 10
2937.9391184985789
 20
5412.1221629906177
 30
0.0
 40
112.0
  1
No.
  0
TEXT
  5
817B
  8
4
 10
2622.5921252000262
 20
4766.8576826650306
 30
0.0
 40
107.9999999999999
  1
縮尺：1/20
  0
LINE
  5
817C
  8
4
 10
3700.0
 20
5338.8175085296098
 30
0.0
 11
3700.0
 21
4938.8175085296089
 31
0.0
  0
LINE
  5
817D
  8
4
 10
4200.0
 20
5900.0
 30
0.0
 11
4200.0
 21
5900.0
 31
0.0
  0
LINE
  5
817E
  8
4
 10
2881.2348447197292
 20
5362.5271662508021
 30
0.0
 11
2881.2348447197292
 21
5573.3045230995049
 31
0.0
  0
LINE
  5
817F
  8
4
 10
2881.2348447197292
 20
5573.3045230995049
 30
0.0
 11
3700.0
 21
5573.3045230995049
 31
0.0
  0
LINE
  5
8180
  8
4
 10
3700.0
 20
5573.3045230995049
 30
0.0
 11
3700.0
 21
5362.5271662508021
 31
0.0
  0
LINE
  5
8181
  8
4
 10
3700.0
 20
5362.5271662508021
 30
0.0
 11
2881.2348447197292
 21
5362.5271662508021
 31
0.0
  0
LINE
  5
8182
  8
4
 10
0.0
 20
0.0
 30
0.0
 11
0.0
 21
5900.0
 31
0.0
  0
LINE
  5
8183
  8
4
 10
0.0
 20
5900.0
 30
0.0
 11
4200.0
 21
5900.0
 31
0.0
  0
LINE
  5
8184
  8
4
 10
4200.0
 20
5900.0
 30
0.0
 11
4200.0
 21
0.0
 31
0.0
  0
LINE
  5
8185
  8
4
 10
4200.0
 20
0.0
 30
0.0
 11
0.0
 21
0.0
 31
0.0
  0
DIMENSION
  5
8412
  8
3
  2
*D12
 10
1980.151834708133
 20
2693.9842269466999
 30
0.0
 11
1482.862808808942
 21
2693.9842269466999
 31
0.0
 70
   128
 13
981.77649803358372
 23
2012.5262349760219
 33
0.0
 14
1980.151834708133
 24
1691.8962250065931
 34
0.0
1001
ACAD
1000
DSTYLE
1002
{
1070
   287
1070
     3
1070
    40
1040
20.0
1070
   143
1040
0.039
1070
   172
1070
     1
1070
   271
1070
     0
1070
   279
1070
     0
1070
   288
1070
     1
1002
}
  0
LINE
  5
8414
  8
1
 10
1050.151847987147
 20
3234.6141632695139
 30
0.0
 11
1050.151847987147
 21
3749.6141632695139
 31
0.0
  0
LINE
  5
8415
  8
1
 10
1980.151847987147
 20
3234.614163269513
 30
0.0
 11
1980.151847987147
 21
3654.6141632695121
 31
0.0
  0
LINE
  5
8416
  8
1
 10
1050.151847987147
 20
4094.6141632695148
 30
0.0
 11
1480.151847987147
 21
4094.6141632695139
 31
0.0
1001
ACAD
1000
ASC_BOUNDS
1002
{
1070
    19
1002
}
  0
LINE
  5
8417
  8
1
 10
1050.151847987147
 20
3234.6141632695139
 30
0.0
 11
1115.151847987147
 21
3234.6141632695139
 31
0.0
1001
ACAD
1000
ASC_BOUNDS
1002
{
1070
    19
1002
}
  0
LINE
  5
8418
  8
1
 10
1480.151847987147
 20
3654.614163269513
 30
0.0
 11
1480.151847987147
 21
3724.6141632695148
 31
0.0
  0
LINE
  5
8419
  8
1
 10
1480.151847987147
 20
3654.614163269513
 30
0.0
 11
1980.1518479871479
 21
3654.614163269513
 31
0.0
1001
ACAD
1000
ASC_BOUNDS
1002
{
1070
    19
1002
}
  0
LINE
  5
841A
  8
1
 10
1480.151847987147
 20
4074.6141632695139
 30
0.0
 11
1480.151847987147
 21
4094.6141632695139
 31
0.0
  0
LINE
  5
841B
  8
1
 10
1050.151847987147
 20
4049.6141632695139
 30
0.0
 11
1050.151847987147
 21
4094.6141632695139
 31
0.0
  0
LINE
  5
841C
  8
1
 10
1915.1518479871461
 20
3234.614163269513
 30
0.0
 11
1980.151847987147
 21
3234.614163269513
 31
0.0
1001
ACAD
1000
ASC_BOUNDS
1002
{
1070
    19
1002
}
  0
DIMENSION
  5
8429
  8
3
  2
*D13
 10
1480.151847987147
 20
4204.1139695133252
 30
0.0
 11
1264.3968180823749
 21
4204.1139695133252
 31
0.0
 70
   128
 13
1050.151847987147
 23
4094.6141632695148
 33
0.0
 14
1480.151847987147
 24
4094.6141632695139
 34
0.0
1001
ACAD
1000
DSTYLE
1002
{
1070
   287
1070
     3
1070
    40
1040
20.0
1070
   143
1040
0.039
1070
   172
1070
     1
1070
   271
1070
     0
1070
   279
1070
     0
1070
   288
1070
     1
1002
}
  0
DIMENSION
  5
8435
  8
3
  2
*D14
 10
1980.151847987147
 20
4204.1139695133252
 30
0.0
 11
1730.151847987147
 21
4254.1139695133243
 31
0.0
 70
     0
 13
1480.151847987147
 23
4094.6141632695139
 33
0.0
 14
1980.151847987147
 24
3654.614163269513
 34
0.0
1001
ACAD
1000
DSTYLE
1002
{
1070
   287
1070
     4
1070
    40
1040
20.0
1070
    75
1070
     1
1070
   143
1040
0.039
1070
   172
1070
     1
1070
   271
1070
     0
1070
   279
1070
     1
1070
   288
1070
     1
1002
}
  0
DIMENSION
  5
8442
  8
3
  2
*D15
 10
2141.5496275706291
 20
3234.614163269513
 30
0.0
 11
2141.5496275706282
 21
3438.2024597499549
 31
0.0
 70
   128
 13
1980.151847987147
 23
3654.614163269513
 33
0.0
 14
1980.151847987147
 24
3234.614163269513
 34
0.0
 50
90.0
1001
ACAD
1000
DSTYLE
1002
{
1070
   287
1070
     3
1070
    40
1040
20.0
1070
   143
1040
0.039
1070
   172
1070
     1
1070
   271
1070
     0
1070
   279
1070
     0
1070
   288
1070
     1
1002
}
  0
DIMENSION
  5
844F
  8
3
  2
*D16
 10
865.69099988207063
 20
3234.6141632695148
 30
0.0
 11
865.69099988207006
 21
3692.6495695185381
 31
0.0
 70
   128
 13
1050.151847987147
 23
4094.6141632695148
 33
0.0
 14
1050.151847987147
 24
3234.6141632695139
 34
0.0
 50
90.0
1001
ACAD
1000
DSTYLE
1002
{
1070
   287
1070
     3
1070
    40
1040
20.0
1070
   143
1040
0.039
1070
   172
1070
     1
1070
   271
1070
     0
1070
   279
1070
     0
1070
   288
1070
     1
1002
}
  0
LINE
  5
8469
  8
1
 10
2664.5164018343971
 20
1791.4333362285299
 30
0.0
 11
2664.5164018343971
 21
1741.8962821064019
 31
0.0
  0
DIMENSION
  5
84E4
  8
3
  2
*D17
 10
1265.1518479871461
 20
1474.461286747319
 30
0.0
 11
1157.6518413476399
 21
1524.4612867473179
 31
0.0
 70
     0
 13
1050.151834708133
 23
1616.8962250065931
 33
0.0
 14
1265.1518479871461
 24
1616.8962250065931
 34
0.0
1001
ACAD
1000
DSTYLE
1002
{
1070
   287
1070
     3
1070
    40
1040
20.0
1070
   143
1040
0.039
1070
   172
1070
     1
1070
   271
1070
     0
1070
   279
1070
     0
1002
}
  0
DIMENSION
  5
84F1
  8
3
  2
*D18
 10
1980.151834708133
 20
1474.461286747319
 30
0.0
 11
1622.6518413476399
 21
1524.4612867473179
 31
0.0
 70
     0
 13
1265.1518479871461
 23
1616.8962250065931
 33
0.0
 14
1980.151834708133
 24
1616.8962250065931
 34
0.0
1001
ACAD
1000
DSTYLE
1002
{
1070
   287
1070
     3
1070
    40
1040
20.0
1070
   143
1040
0.039
1070
   172
1070
     1
1070
   271
1070
     0
1070
   279
1070
     0
1002
}
  0
DIMENSION
  5
84FE
  8
3
  2
*D19
 10
3310.0164018343971
 20
1474.461286747319
 30
0.0
 11
2977.5164018343962
 21
1524.4612867473179
 31
0.0
 70
     0
 13
2645.0164018343962
 23
1616.868887895547
 33
0.0
 14
3310.0164018343971
 24
1616.868887895547
 34
0.0
1001
ACAD
1000
DSTYLE
1002
{
1070
   287
1070
     3
1070
    40
1040
20.0
1070
   143
1040
0.039
1070
   172
1070
     1
1070
   271
1070
     0
1070
   279
1070
     0
1002
}
  0
DIMENSION
  5
850D
  8
3
  2
*D20
 10
3505.0164018343971
 20
1474.461286747319
 30
0.0
 11
3407.5164018343971
 21
1524.4612867473179
 31
0.0
 70
     0
 13
3310.0164018343971
 23
1616.868887895547
 33
0.0
 14
3505.0164018343971
 24
1616.868887895547
 34
0.0
1001
ACAD
1000
DSTYLE
1002
{
1070
   287
1070
     3
1070
    40
1040
20.0
1070
   143
1040
0.039
1070
   172
1070
     1
1070
   271
1070
     0
1070
   279
1070
     0
1002
}
  0
DIMENSION
  5
851A
  8
3
  2
*D21
 10
685.11826555015057
 20
1616.8962250065931
 30
0.0
 11
635.11826555015045
 21
1981.8962310957511
 31
0.0
 70
     0
 13
1250.151974425364
 23
2346.8962371849061
 33
0.0
 14
1050.151834708133
 24
1616.8962250065931
 34
0.0
 50
90.0
1001
ACAD
1000
DSTYLE
1002
{
1070
   287
1070
     3
1070
    40
1040
20.0
1070
   143
1040
0.039
1070
   172
1070
     1
1070
   271
1070
     0
1070
   279
1070
     0
1002
}
  0
ENDSEC
  0
EOF
