  0
SECTION
  2
HEADER
  9
$ACADVER
  1
AC1027
  9
$ACADMAINTVER
 70
   125
  9
$DWGCODEPAGE
  3
ANSI_932
  9
$LASTSAVEDBY
  1
yasukiyo.ogawa
  9
$REQUIREDVERSIONS
160
                 0
  9
$INSBASE
 10
0.0
 20
0.0
 30
0.0
  9
$EXTMIN
 10
0.0
 20
0.0
 30
0.0
  9
$EXTMAX
 10
3150.0
 20
4425.0
 30
0.0
  9
$LIMMIN
 10
0.0
 20
0.0
  9
$LIMMAX
 10
297.0
 20
210.0
  9
$ORTHOMODE
 70
     1
  9
$REGENMODE
 70
     1
  9
$FILLMODE
 70
     0
  9
$QTEXTMODE
 70
     0
  9
$MIRRTEXT
 70
     1
  9
$LTSCALE
 40
100.0
  9
$ATTMODE
 70
     1
  9
$TEXTSIZE
 40
180.0
  9
$TRACEWID
 40
0.05
  9
$TEXTSTYLE
  7
STANDARD
  9
$CLAYER
  8
3
  9
$CELTYPE
  6
BYLAYER
  9
$CECOLOR
 62
   256
  9
$CELTSCALE
 40
1.0
  9
$DISPSILH
 70
     0
  9
$DIMSCALE
 40
15.0
  9
$DIMASZ
 40
2.0
  9
$DIMEXO
 40
0.5
  9
$DIMDLI
 40
10.0
  9
$DIMRND
 40
0.0
  9
$DIMDLE
 40
0.0
  9
$DIMEXE
 40
1.0
  9
$DIMTP
 40
1.0
  9
$DIMTM
 40
1.0
  9
$DIMTXT
 40
3.0
  9
$DIMCEN
 40
0.0
  9
$DIMTSZ
 40
0.0
  9
$DIMTOL
 70
     0
  9
$DIMLIM
 70
     0
  9
$DIMTIH
 70
     0
  9
$DIMTOH
 70
     0
  9
$DIMSE1
 70
     0
  9
$DIMSE2
 70
     0
  9
$DIMTAD
 70
     1
  9
$DIMZIN
 70
     8
  9
$DIMBLK
  1

  9
$DIMASO
 70
     1
  9
$DIMSHO
 70
     1
  9
$DIMPOST
  1

  9
$DIMAPOST
  1

  9
$DIMALT
 70
     0
  9
$DIMALTD
 70
     2
  9
$DIMALTF
 40
0.039
  9
$DIMLFAC
 40
1.0
  9
$DIMTOFL
 70
     1
  9
$DIMTVP
 40
0.0
  9
$DIMTIX
 70
     0
  9
$DIMSOXD
 70
     0
  9
$DIMSAH
 70
     1
  9
$DIMBLK1
  1
OPEN
  9
$DIMBLK2
  1
OPEN
  9
$DIMSTYLE
  2
IGA
  9
$DIMCLRD
 70
     0
  9
$DIMCLRE
 70
     0
  9
$DIMCLRT
 70
     0
  9
$DIMTFAC
 40
10.0
  9
$DIMGAP
 40
1.0
  9
$DIMJUST
 70
     0
  9
$DIMSD1
 70
     0
  9
$DIMSD2
 70
     0
  9
$DIMTOLJ
 70
     1
  9
$DIMTZIN
 70
     8
  9
$DIMALTZ
 70
     0
  9
$DIMALTTZ
 70
     0
  9
$DIMUPT
 70
     0
  9
$DIMDEC
 70
     0
  9
$DIMTDEC
 70
     0
  9
$DIMALTU
 70
     2
  9
$DIMALTTD
 70
     2
  9
$DIMTXSTY
  7
STANDARD
  9
$DIMAUNIT
 70
     0
  9
$DIMADEC
 70
     0
  9
$DIMALTRND
 40
0.0
  9
$DIMAZIN
 70
     0
  9
$DIMDSEP
 70
    46
  9
$DIMATFIT
 70
     3
  9
$DIMFRAC
 70
     0
  9
$DIMLDRBLK
  1
OPEN
  9
$DIMLUNIT
 70
     2
  9
$DIMLWD
 70
    -2
  9
$DIMLWE
 70
    -2
  9
$DIMTMOVE
 70
     0
  9
$DIMFXL
 40
1.0
  9
$DIMFXLON
 70
     0
  9
$DIMJOGANG
 40
0.7853981633974483
  9
$DIMTFILL
 70
     0
  9
$DIMTFILLCLR
 70
     0
  9
$DIMARCSYM
 70
     0
  9
$DIMLTYPE
  6

  9
$DIMLTEX1
  6

  9
$DIMLTEX2
  6

  9
$DIMTXTDIRECTION
 70
     0
  9
$LUNITS
 70
     2
  9
$LUPREC
 70
     3
  9
$SKETCHINC
 40
0.1
  9
$FILLETRAD
 40
50.0
  9
$AUNITS
 70
     0
  9
$AUPREC
 70
     0
  9
$MENU
  1
acad
  9
$ELEVATION
 40
0.0
  9
$PELEVATION
 40
0.0
  9
$THICKNESS
 40
0.0
  9
$LIMCHECK
 70
     0
  9
$CHAMFERA
 40
0.5
  9
$CHAMFERB
 40
0.5
  9
$CHAMFERC
 40
20.0
  9
$CHAMFERD
 40
0.0
  9
$SKPOLY
 70
     0
  9
$TDCREATE
 40
2451372.407511574
  9
$TDUCREATE
 40
2451372.032517824
  9
$TDUPDATE
 40
2460216.483113426
  9
$TDUUPDATE
 40
2460216.108116319
  9
$TDINDWG
 40
0.0295386690
  9
$TDUSRTIMER
 40
0.0295386690
  9
$USRTIMER
 70
     1
  9
$ANGBASE
 50
0.0
  9
$ANGDIR
 70
     0
  9
$PDMODE
 70
     0
  9
$PDSIZE
 40
0.0
  9
$PLINEWID
 40
0.0
  9
$SPLFRAME
 70
     0
  9
$SPLINETYPE
 70
     6
  9
$SPLINESEGS
 70
     8
  9
$HANDSEED
  5
865E
  9
$SURFTAB1
 70
     6
  9
$SURFTAB2
 70
     6
  9
$SURFTYPE
 70
     6
  9
$SURFU
 70
     6
  9
$SURFV
 70
     6
  9
$UCSBASE
  2

  9
$UCSNAME
  2

  9
$UCSORG
 10
0.0
 20
0.0
 30
0.0
  9
$UCSXDIR
 10
1.0
 20
0.0
 30
0.0
  9
$UCSYDIR
 10
0.0
 20
1.0
 30
0.0
  9
$UCSORTHOREF
  2

  9
$UCSORTHOVIEW
 70
     0
  9
$UCSORGTOP
 10
0.0
 20
0.0
 30
0.0
  9
$UCSORGBOTTOM
 10
0.0
 20
0.0
 30
0.0
  9
$UCSORGLEFT
 10
0.0
 20
0.0
 30
0.0
  9
$UCSORGRIGHT
 10
0.0
 20
0.0
 30
0.0
  9
$UCSORGFRONT
 10
0.0
 20
0.0
 30
0.0
  9
$UCSORGBACK
 10
0.0
 20
0.0
 30
0.0
  9
$PUCSBASE
  2

  9
$PUCSNAME
  2

  9
$PUCSORG
 10
0.0
 20
0.0
 30
0.0
  9
$PUCSXDIR
 10
1.0
 20
0.0
 30
0.0
  9
$PUCSYDIR
 10
0.0
 20
1.0
 30
0.0
  9
$PUCSORTHOREF
  2

  9
$PUCSORTHOVIEW
 70
     0
  9
$PUCSORGTOP
 10
0.0
 20
0.0
 30
0.0
  9
$PUCSORGBOTTOM
 10
0.0
 20
0.0
 30
0.0
  9
$PUCSORGLEFT
 10
0.0
 20
0.0
 30
0.0
  9
$PUCSORGRIGHT
 10
0.0
 20
0.0
 30
0.0
  9
$PUCSORGFRONT
 10
0.0
 20
0.0
 30
0.0
  9
$PUCSORGBACK
 10
0.0
 20
0.0
 30
0.0
  9
$USERI1
 70
     0
  9
$USERI2
 70
     0
  9
$USERI3
 70
     0
  9
$USERI4
 70
     0
  9
$USERI5
 70
     0
  9
$USERR1
 40
0.0
  9
$USERR2
 40
0.0
  9
$USERR3
 40
0.0
  9
$USERR4
 40
0.0
  9
$USERR5
 40
0.0
  9
$WORLDVIEW
 70
     1
  9
$SHADEDGE
 70
     3
  9
$SHADEDIF
 70
    70
  9
$TILEMODE
 70
     1
  9
$MAXACTVP
 70
    16
  9
$PINSBASE
 10
0.0
 20
0.0
 30
0.0
  9
$PLIMCHECK
 70
     0
  9
$PEXTMIN
 10
1.000000000000000E+20
 20
1.000000000000000E+20
 30
1.000000000000000E+20
  9
$PEXTMAX
 10
-1.000000000000000E+20
 20
-1.000000000000000E+20
 30
-1.000000000000000E+20
  9
$PLIMMIN
 10
0.0
 20
0.0
  9
$PLIMMAX
 10
12.0
 20
9.0
  9
$UNITMODE
 70
     0
  9
$VISRETAIN
 70
     0
  9
$PLINEGEN
 70
     0
  9
$PSLTSCALE
 70
     1
  9
$TREEDEPTH
 70
  3020
  9
$CMLSTYLE
  2
STANDARD
  9
$CMLJUST
 70
     0
  9
$CMLSCALE
 40
20.0
  9
$PROXYGRAPHICS
 70
     1
  9
$MEASUREMENT
 70
     1
  9
$CELWEIGHT
370
    -1
  9
$ENDCAPS
280
     0
  9
$JOINSTYLE
280
     0
  9
$LWDISPLAY
290
     0
  9
$INSUNITS
 70
     0
  9
$HYPERLINKBASE
  1

  9
$STYLESHEET
  1

  9
$XEDIT
290
     1
  9
$CEPSNTYPE
380
     0
  9
$PSTYLEMODE
290
     1
  9
$FINGERPRINTGUID
  2
{E9F7A262-5F51-49A7-B9AF-9D717E2E775F}
  9
$VERSIONGUID
  2
{A7EB523D-6409-435F-85B4-06E5FEE11FC7}
  9
$EXTNAMES
290
     1
  9
$PSVPSCALE
 40
0.0
  9
$OLESTARTUP
290
     0
  9
$SORTENTS
280
   127
  9
$INDEXCTL
280
     0
  9
$HIDETEXT
280
     0
  9
$XCLIPFRAME
280
     2
  9
$HALOGAP
280
     0
  9
$OBSCOLOR
 70
   257
  9
$OBSLTYPE
280
     0
  9
$INTERSECTIONDISPLAY
280
     0
  9
$INTERSECTIONCOLOR
 70
   257
  9
$DIMASSOC
280
     1
  9
$PROJECTNAME
  1

  9
$CAMERADISPLAY
290
     0
  9
$LENSLENGTH
 40
50.0
  9
$CAMERAHEIGHT
 40
0.0
  9
$STEPSPERSEC
 40
2.0
  9
$STEPSIZE
 40
6.0
  9
$3DDWFPREC
 40
2.0
  9
$PSOLWIDTH
 40
0.25
  9
$PSOLHEIGHT
 40
4.0
  9
$LOFTANG1
 40
1.570796326794896
  9
$LOFTANG2
 40
1.570796326794896
  9
$LOFTMAG1
 40
0.0
  9
$LOFTMAG2
 40
0.0
  9
$LOFTPARAM
 70
     7
  9
$LOFTNORMALS
280
     1
  9
$LATITUDE
 40
37.795
  9
$LONGITUDE
 40
-122.394
  9
$NORTHDIRECTION
 40
0.0
  9
$TIMEZONE
 70
 -8000
  9
$LIGHTGLYPHDISPLAY
280
     1
  9
$TILEMODELIGHTSYNCH
280
     1
  9
$CMATERIAL
347
85BB
  9
$SOLIDHIST
280
     0
  9
$SHOWHIST
280
     1
  9
$DWFFRAME
280
     2
  9
$DGNFRAME
280
     0
  9
$REALWORLDSCALE
290
     1
  9
$INTERFERECOLOR
 62
     1
  9
$INTERFEREOBJVS
345
85DD
  9
$INTERFEREVPVS
346
85DA
  9
$CSHADOW
280
     0
  9
$SHADOWPLANELOCATION
 40
0.0
  0
ENDSEC
  0
SECTION
  2
CLASSES
  0
CLASS
  1
ACDBDICTIONARYWDFLT
  2
AcDbDictionaryWithDefault
  3
ObjectDBX Classes
 90
        0
 91
        1
280
     0
281
     0
  0
CLASS
  1
MATERIAL
  2
AcDbMaterial
  3
ObjectDBX Classes
 90
     1153
 91
        3
280
     0
281
     0
  0
CLASS
  1
VISUALSTYLE
  2
AcDbVisualStyle
  3
ObjectDBX Classes
 90
     4095
 91
       24
280
     0
281
     0
  0
CLASS
  1
TABLESTYLE
  2
AcDbTableStyle
  3
ObjectDBX Classes
 90
     4095
 91
        1
280
     0
281
     0
  0
CLASS
  1
SCALE
  2
AcDbScale
  3
ObjectDBX Classes
 90
     1153
 91
       17
280
     0
281
     0
  0
CLASS
  1
MLEADERSTYLE
  2
AcDbMLeaderStyle
  3
ACDB_MLEADERSTYLE_CLASS
 90
     4095
 91
        1
280
     0
281
     0
  0
CLASS
  1
ACDBSECTIONVIEWSTYLE
  2
AcDbSectionViewStyle
  3
ObjectDBX Classes
 90
     1025
 91
        1
280
     0
281
     0
  0
CLASS
  1
ACDBDETAILVIEWSTYLE
  2
AcDbDetailViewStyle
  3
ObjectDBX Classes
 90
     1025
 91
        1
280
     0
281
     0
  0
CLASS
  1
SORTENTSTABLE
  2
AcDbSortentsTable
  3
ObjectDBX Classes
 90
        0
 91
        1
280
     0
281
     0
  0
CLASS
  1
DICTIONARYVAR
  2
AcDbDictionaryVar
  3
ObjectDBX Classes
 90
        0
 91
       10
280
     0
281
     0
  0
CLASS
  1
CELLSTYLEMAP
  2
AcDbCellStyleMap
  3
ObjectDBX Classes
 90
     1152
 91
        1
280
     0
281
     0
  0
ENDSEC
  0
SECTION
  2
TABLES
  0
TABLE
  2
VPORT
  5
8
330
0
100
AcDbSymbolTable
 70
     1
1001
ACAD
1000
DbSaveVer
1071
      278
  0
VPORT
  5
85B8
330
8
100
AcDbSymbolTableRecord
100
AcDbViewportTableRecord
  2
*Active
 70
     0
 10
0.0
 20
0.0
 11
1.0
 21
1.0
 12
2026.059035037786
 22
2210.358462852485
 13
0.0
 23
0.0
 14
10.0
 24
10.0
 15
10.0
 25
10.0
 16
0.0
 26
0.0
 36
1.0
 17
0.0
 27
0.0
 37
0.0
 40
4459.185756414205
 41
2.250314465408805
 42
50.0
 43
0.0
 44
0.0
 50
0.0
 51
0.0
 71
     0
 72
   100
 73
     1
 74
     0
 75
     0
 76
     0
 77
     0
 78
     0
281
     0
 65
     1
110
0.0
120
0.0
130
0.0
111
1.0
121
0.0
131
0.0
112
0.0
122
1.0
132
0.0
 79
     0
146
0.0
348
85D9
 60
     3
 61
     5
292
     1
282
     1
141
0.0
142
0.0
 63
   250
421
  3355443
1001
ACAD_NAV_VCDISPLAY
1070
     3
  0
ENDTAB
  0
TABLE
  2
LTYPE
  5
5
330
0
100
AcDbSymbolTable
 70
     2
  0
LTYPE
  5
13
330
5
100
AcDbSymbolTableRecord
100
AcDbLinetypeTableRecord
  2
BYBLOCK
 70
     0
  3

 72
    65
 73
     0
 40
0.0
  0
LTYPE
  5
14
330
5
100
AcDbSymbolTableRecord
100
AcDbLinetypeTableRecord
  2
BYLAYER
 70
     0
  3

 72
    65
 73
     0
 40
0.0
  0
LTYPE
  5
15
330
5
100
AcDbSymbolTableRecord
100
AcDbLinetypeTableRecord
  2
CONTINUOUS
 70
     0
  3
Solid line
 72
    65
 73
     0
 40
0.0
  0
LTYPE
  5
1F
330
5
100
AcDbSymbolTableRecord
100
AcDbLinetypeTableRecord
  2
CENTER
 70
     0
  3
____ _ ____ _ ____ _ ____ _ ____ _ ____ _ ____ 
 72
    65
 73
     4
 40
2.0
 49
1.25
 74
     0
 49
-0.25
 74
     0
 49
0.25
 74
     0
 49
-0.25
 74
     0
  0
ENDTAB
  0
TABLE
  2
LAYER
  5
2
102
{ACAD_XDICTIONARY
360
8634
102
}
330
0
100
AcDbSymbolTable
 70
     6
  0
LAYER
  5
F
102
{ACAD_XDICTIONARY
360
8627
102
}
330
2
100
AcDbSymbolTableRecord
100
AcDbLayerTableRecord
  2
0
 70
     0
 62
     7
  6
CONTINUOUS
370
    -3
390
8516
347
85CB
348
0
  0
LAYER
  5
31
102
{ACAD_XDICTIONARY
360
8629
102
}
330
2
100
AcDbSymbolTableRecord
100
AcDbLayerTableRecord
  2
3
 70
     0
 62
     2
  6
CONTINUOUS
370
    -3
390
8516
347
85CB
348
0
  0
LAYER
  5
76D0
102
{ACAD_XDICTIONARY
360
862B
102
}
330
2
100
AcDbSymbolTableRecord
100
AcDbLayerTableRecord
  2
2
 70
     0
 62
     3
  6
CENTER
370
    -3
390
8516
347
85CB
348
0
  0
LAYER
  5
76D1
102
{ACAD_XDICTIONARY
360
862D
102
}
330
2
100
AcDbSymbolTableRecord
100
AcDbLayerTableRecord
  2
1
 70
     0
 62
     4
  6
CONTINUOUS
370
    -3
390
8516
347
85CB
348
0
  0
LAYER
  5
76D2
102
{ACAD_XDICTIONARY
360
862F
102
}
330
2
100
AcDbSymbolTableRecord
100
AcDbLayerTableRecord
  2
4
 70
     0
 62
     7
  6
CONTINUOUS
370
    -3
390
8516
347
85CB
348
0
  0
LAYER
  5
7B17
330
2
100
AcDbSymbolTableRecord
100
AcDbLayerTableRecord
  2
DEFPOINTS
 70
     0
 62
     7
  6
CONTINUOUS
290
     0
370
    -3
390
8516
347
85CB
348
0
  0
ENDTAB
  0
TABLE
  2
STYLE
  5
3
330
0
100
AcDbSymbolTable
 70
     1
  0
STYLE
  5
10
330
3
100
AcDbSymbolTableRecord
100
AcDbTextStyleTableRecord
  2
STANDARD
 70
     0
 40
0.0
 41
1.0
 50
0.0
 71
     0
 42
180.0
  3
simplex.shx
  4
extfont.shx
  0
ENDTAB
  0
TABLE
  2
VIEW
  5
6
330
0
100
AcDbSymbolTable
 70
     0
  0
ENDTAB
  0
TABLE
  2
UCS
  5
7
330
0
100
AcDbSymbolTable
 70
     0
  0
ENDTAB
  0
TABLE
  2
APPID
  5
9
330
0
100
AcDbSymbolTable
 70
     4
  0
APPID
  5
11
330
9
100
AcDbSymbolTableRecord
100
AcDbRegAppTableRecord
  2
ACAD
 70
     0
  0
APPID
  5
860C
330
9
100
AcDbSymbolTableRecord
100
AcDbRegAppTableRecord
  2
AcadAnnoMonitorAlertIconDisabled
 70
     0
  0
APPID
  5
860D
330
9
100
AcDbSymbolTableRecord
100
AcDbRegAppTableRecord
  2
ACAD_EXEMPT_FROM_CAD_STANDARDS
 70
     0
  0
APPID
  5
863A
330
9
100
AcDbSymbolTableRecord
100
AcDbRegAppTableRecord
  2
ACAD_NAV_VCDISPLAY
 70
     0
  0
ENDTAB
  0
TABLE
  2
DIMSTYLE
  5
A
330
0
100
AcDbSymbolTable
 70
     2
100
AcDbDimStyleTable
 71
     0
  0
DIMSTYLE
105
1D
102
{ACAD_REACTORS
330
8237
330
84B1
330
84BE
330
84CB
330
84D8
330
84E5
330
84F3
330
8500
330
8512
102
}
330
A
100
AcDbSymbolTableRecord
100
AcDbDimStyleTableRecord
  2
IGA
 70
     0
 40
2.0
 41
2.0
 42
0.5
 43
10.0
 44
1.0
 47
1.0
 48
1.0
 73
     0
 74
     0
 77
     1
 78
     8
140
3.0
141
0.0
143
0.03937
146
10.0
147
1.0
173
     1
271
     1
272
     0
279
     2
284
     8
340
10
341
79FC
343
79FC
344
79FC
  0
DIMSTYLE
105
7B19
102
{ACAD_REACTORS
330
81D4
330
81D8
330
81D9
330
8208
330
820F
330
8219
330
821A
330
821B
330
8220
330
8229
330
822A
102
}
330
A
100
AcDbSymbolTableRecord
100
AcDbDimStyleTableRecord
  2
MATSU
 70
     0
 41
2.0
 42
1.0
 43
10.0
 44
1.0
 73
     0
 74
     0
 77
     1
 78
     8
140
3.0
141
0.0
143
0.03937
147
0.5
172
     1
173
     1
176
   256
177
   256
178
   256
284
     8
289
     0
340
10
341
79FC
343
79FC
344
79FC
  0
ENDTAB
  0
TABLE
  2
BLOCK_RECORD
  5
1
330
0
100
AcDbSymbolTable
 70
    24
  0
BLOCK_RECORD
  5
19
102
{ACAD_XDICTIONARY
360
8544
102
}
330
1
100
AcDbSymbolTableRecord
100
AcDbBlockTableRecord
  2
*MODEL_SPACE
340
8519
 70
     0
280
     1
281
     0
  0
BLOCK_RECORD
  5
16
102
{ACAD_XDICTIONARY
360
8542
102
}
330
1
100
AcDbSymbolTableRecord
100
AcDbBlockTableRecord
  2
*PAPER_SPACE
340
851A
 70
     0
280
     1
281
     0
  0
BLOCK_RECORD
  5
79FC
330
1
100
AcDbSymbolTableRecord
100
AcDbBlockTableRecord
  2
_OPEN
340
0
102
{BLKREFS
331
83BA
331
83BB
331
8405
331
8406
331
8410
331
8411
331
841B
331
841C
331
8426
331
8427
331
8450
331
8451
331
8399
331
839A
331
83A4
331
83A5
331
83AF
331
83B0
331
8621
331
8622
331
8560
331
8561
331
856C
331
8574
331
8575
331
857D
331
857E
331
8586
331
8587
331
858F
331
8590
331
8598
331
8599
331
85A1
331
85A2
331
85AA
331
85AB
102
}
 70
     0
280
     1
281
     0
  0
BLOCK_RECORD
  5
7F63
330
1
100
AcDbSymbolTableRecord
100
AcDbBlockTableRecord
  2
_DOT
340
0
102
{BLKREFS
331
856B
102
}
 70
     0
280
     1
281
     0
  0
BLOCK_RECORD
  5
7FC4
330
1
100
AcDbSymbolTableRecord
100
AcDbBlockTableRecord
  2
YA_N
340
0
102
{BLKREFS
331
823C
331
823D
331
823E
331
823F
331
8240
331
8241
331
8242
331
81B0
331
81B1
331
81B2
331
81B3
331
81B4
102
}
 70
     0
280
     1
281
     0
  0
BLOCK_RECORD
  5
828F
330
1
100
AcDbSymbolTableRecord
100
AcDbBlockTableRecord
  2
*D3
340
0
 70
     0
280
     1
281
     0
  0
BLOCK_RECORD
  5
829B
330
1
100
AcDbSymbolTableRecord
100
AcDbBlockTableRecord
  2
*D4
340
0
 70
     0
280
     1
281
     0
  0
BLOCK_RECORD
  5
82A7
330
1
100
AcDbSymbolTableRecord
100
AcDbBlockTableRecord
  2
*D5
340
0
 70
     0
280
     1
281
     0
  0
BLOCK_RECORD
  5
82B3
330
1
100
AcDbSymbolTableRecord
100
AcDbBlockTableRecord
  2
*D6
340
0
 70
     0
280
     1
281
     0
  0
BLOCK_RECORD
  5
8305
330
1
100
AcDbSymbolTableRecord
100
AcDbBlockTableRecord
  2
*D7
340
0
 70
     0
280
     1
281
     0
  0
BLOCK_RECORD
  5
8311
330
1
100
AcDbSymbolTableRecord
100
AcDbBlockTableRecord
  2
*D8
340
0
 70
     0
280
     1
281
     0
  0
BLOCK_RECORD
  5
831D
330
1
100
AcDbSymbolTableRecord
100
AcDbBlockTableRecord
  2
*D9
340
0
 70
     0
280
     1
281
     0
  0
BLOCK_RECORD
  5
8329
330
1
100
AcDbSymbolTableRecord
100
AcDbBlockTableRecord
  2
*D10
340
0
 70
     0
280
     1
281
     0
  0
BLOCK_RECORD
  5
8335
330
1
100
AcDbSymbolTableRecord
100
AcDbBlockTableRecord
  2
*D11
340
0
 70
     0
280
     1
281
     0
  0
BLOCK_RECORD
  5
8357
330
1
100
AcDbSymbolTableRecord
100
AcDbBlockTableRecord
  2
*D12
340
0
 70
     0
280
     1
281
     0
  0
BLOCK_RECORD
  5
8363
330
1
100
AcDbSymbolTableRecord
100
AcDbBlockTableRecord
  2
*D13
340
0
 70
     0
280
     1
281
     0
  0
BLOCK_RECORD
  5
8387
330
1
100
AcDbSymbolTableRecord
100
AcDbBlockTableRecord
  2
*D14
340
0
 70
     0
280
     1
281
     0
  0
BLOCK_RECORD
  5
84A5
330
1
100
AcDbSymbolTableRecord
100
AcDbBlockTableRecord
  2
*D15
340
0
 70
     0
280
     1
281
     0
  0
BLOCK_RECORD
  5
84B2
330
1
100
AcDbSymbolTableRecord
100
AcDbBlockTableRecord
  2
*D16
340
0
 70
     0
280
     1
281
     0
  0
BLOCK_RECORD
  5
84BF
330
1
100
AcDbSymbolTableRecord
100
AcDbBlockTableRecord
  2
*D17
340
0
 70
     0
280
     1
281
     0
  0
BLOCK_RECORD
  5
84CC
330
1
100
AcDbSymbolTableRecord
100
AcDbBlockTableRecord
  2
*D18
340
0
 70
     0
280
     1
281
     0
  0
BLOCK_RECORD
  5
84D9
330
1
100
AcDbSymbolTableRecord
100
AcDbBlockTableRecord
  2
_NONE
340
0
 70
     0
280
     1
281
     0
  0
BLOCK_RECORD
  5
84DD
330
1
100
AcDbSymbolTableRecord
100
AcDbBlockTableRecord
  2
*D20
340
0
 70
     0
280
     1
281
     0
  0
BLOCK_RECORD
  5
84E7
330
1
100
AcDbSymbolTableRecord
100
AcDbBlockTableRecord
  2
*D21
340
0
 70
     0
280
     1
281
     0
  0
BLOCK_RECORD
  5
84F4
330
1
100
AcDbSymbolTableRecord
100
AcDbBlockTableRecord
  2
*D22
340
0
 70
     0
280
     1
281
     0
  0
BLOCK_RECORD
  5
8506
330
1
100
AcDbSymbolTableRecord
100
AcDbBlockTableRecord
  2
*D23
340
0
 70
     0
280
     1
281
     0
  0
ENDTAB
  0
ENDSEC
  0
SECTION
  2
BLOCKS
  0
BLOCK
  5
1A
330
19
100
AcDbEntity
  8
0
100
AcDbBlockBegin
  2
*MODEL_SPACE
 70
     0
 10
0.0
 20
0.0
 30
0.0
  3
*MODEL_SPACE
  1

  0
ENDBLK
  5
1B
330
19
100
AcDbEntity
  8
0
100
AcDbBlockEnd
  0
BLOCK
  5
17
330
16
100
AcDbEntity
 67
     1
  8
0
100
AcDbBlockBegin
  2
*PAPER_SPACE
 70
     0
 10
0.0
 20
0.0
 30
0.0
  3
*PAPER_SPACE
  1

  0
ENDBLK
  5
18
330
16
100
AcDbEntity
 67
     1
  8
0
100
AcDbBlockEnd
  0
BLOCK
  5
7A00
330
79FC
100
AcDbEntity
  8
0
100
AcDbBlockBegin
  2
_OPEN
 70
     0
 10
0.0
 20
0.0
 30
0.0
  3
_OPEN
  1

  0
LINE
  5
79FD
330
79FC
100
AcDbEntity
  8
0
  6
ByBlock
 62
     0
100
AcDbLine
 10
-1.0
 20
0.1666666666666666
 30
0.0
 11
0.0
 21
0.0
 31
0.0
  0
LINE
  5
79FE
330
79FC
100
AcDbEntity
  8
0
  6
ByBlock
 62
     0
100
AcDbLine
 10
0.0
 20
0.0
 30
0.0
 11
-1.0
 21
-0.1666666666666666
 31
0.0
  0
LINE
  5
79FF
330
79FC
100
AcDbEntity
  8
0
  6
ByBlock
 62
     0
100
AcDbLine
 10
0.0
 20
0.0
 30
0.0
 11
-1.0
 21
0.0
 31
0.0
  0
ENDBLK
  5
7A01
330
79FC
100
AcDbEntity
  8
0
100
AcDbBlockEnd
  0
BLOCK
  5
7F64
330
7F63
100
AcDbEntity
  8
0
100
AcDbBlockBegin
  2
_DOT
 70
     0
 10
0.0
 20
0.0
 30
0.0
  3
_DOT
  1

  0
LWPOLYLINE
  5
7F93
330
7F63
100
AcDbEntity
  8
0
  6
ByBlock
 62
     0
100
AcDbPolyline
 90
        2
 70
     1
 43
0.25
 10
-0.125
 20
0.0
 42
1.0
 10
0.125
 20
0.0
 42
1.0
  0
LINE
  5
7F97
330
7F63
100
AcDbEntity
  8
0
  6
ByBlock
 62
     0
100
AcDbLine
 10
-0.25
 20
0.0
 30
0.0
 11
-1.0
 21
0.0
 31
0.0
  0
ENDBLK
  5
7F6A
330
7F63
100
AcDbEntity
  8
0
100
AcDbBlockEnd
  0
BLOCK
  5
7FC5
330
7FC4
100
AcDbEntity
  8
0
100
AcDbBlockBegin
  2
YA_N
 70
     0
 10
0.0
 20
0.0
 30
0.0
  3
YA_N
  1

  0
ENDBLK
  5
7FC6
330
7FC4
100
AcDbEntity
  8
0
100
AcDbBlockEnd
  0
BLOCK
  5
8395
330
828F
100
AcDbEntity
  8
0
100
AcDbBlockBegin
  2
*D3
 70
     1
 10
0.0
 20
0.0
 30
0.0
  3
*D3
  1

  0
LINE
  5
8396
330
828F
100
AcDbEntity
  8
0
  6
ByBlock
440
 16777216
100
AcDbLine
 10
6460.725743466591
 20
1898.834755623914
 30
0.0
 11
6636.768464579994
 21
1898.834755623914
 31
0.0
  0
LINE
  5
8397
330
828F
100
AcDbEntity
  8
0
  6
ByBlock
440
 16777216
100
AcDbLine
 10
6460.725743466591
 20
1583.834755623914
 30
0.0
 11
6636.768464579994
 21
1583.834755623914
 31
0.0
  0
LINE
  5
8398
330
828F
100
AcDbEntity
  8
0
  6
ByBlock
440
 16777216
100
AcDbLine
 10
6621.768464579995
 20
1868.834755623914
 30
0.0
 11
6621.768464579995
 21
1613.834755623913
 31
0.0
  0
INSERT
  5
8399
330
828F
100
AcDbEntity
  8
0
  6
ByBlock
440
 16777216
100
AcDbBlockReference
  2
_OPEN
 10
6621.768464579995
 20
1898.834755623914
 30
0.0
 41
30.0
 42
30.0
 43
30.0
 50
90.0
  0
INSERT
  5
839A
330
828F
100
AcDbEntity
  8
0
  6
ByBlock
440
 16777216
100
AcDbBlockReference
  2
_OPEN
 10
6621.768464579995
 20
1583.834755623914
 30
0.0
 41
30.0
 42
30.0
 43
30.0
 50
270.0
  0
MTEXT
  5
839B
330
828F
100
AcDbEntity
  8
0
  6
ByBlock
440
 16777216
100
AcDbMText
 10
6591.768464579995
 20
1741.334755623913
 30
0.0
 40
45.0
 41
0.0
 46
0.0
 71
     5
 72
     5
  1
\A1;φ 315
 11
0.0
 21
1.0
 31
0.0
 73
     1
 44
1.0
  0
POINT
  5
839C
330
828F
100
AcDbEntity
  8
DEFPOINTS
  6
ByBlock
 62
     0
440
 16777216
100
AcDbPoint
 10
6445.72574346659
 20
1898.834755623914
 30
0.0
  0
POINT
  5
839D
330
828F
100
AcDbEntity
  8
DEFPOINTS
  6
ByBlock
 62
     0
440
 16777216
100
AcDbPoint
 10
6445.725743466592
 20
1583.834755623914
 30
0.0
  0
POINT
  5
839E
330
828F
100
AcDbEntity
  8
DEFPOINTS
  6
ByBlock
 62
     0
440
 16777216
100
AcDbPoint
 10
6621.768464579995
 20
1583.834755623914
 30
0.0
  0
ENDBLK
  5
839F
330
828F
100
AcDbEntity
  8
0
100
AcDbBlockEnd
  0
BLOCK
  5
83A0
330
829B
100
AcDbEntity
  8
0
100
AcDbBlockBegin
  2
*D4
 70
     1
 10
0.0
 20
0.0
 30
0.0
  3
*D4
  1

  0
LINE
  5
83A1
330
829B
100
AcDbEntity
  8
0
  6
ByBlock
440
 16777216
100
AcDbLine
 10
4533.170020232989
 20
1390.334755623914
 30
0.0
 11
4406.138161658249
 21
1390.334755623914
 31
0.0
  0
LINE
  5
83A2
330
829B
100
AcDbEntity
  8
0
  6
ByBlock
440
 16777216
100
AcDbLine
 10
4503.176195857041
 20
1741.334755623913
 30
0.0
 11
4406.138161658249
 21
1741.334755623913
 31
0.0
  0
LINE
  5
83A3
330
829B
100
AcDbEntity
  8
0
  6
ByBlock
440
 16777216
100
AcDbLine
 10
4421.138161658249
 20
1420.334755623914
 30
0.0
 11
4421.138161658249
 21
1711.334755623914
 31
0.0
  0
INSERT
  5
83A4
330
829B
100
AcDbEntity
  8
0
  6
ByBlock
440
 16777216
100
AcDbBlockReference
  2
_OPEN
 10
4421.138161658249
 20
1390.334755623914
 30
0.0
 41
30.0
 42
30.0
 43
30.0
 50
270.0
  0
INSERT
  5
83A5
330
829B
100
AcDbEntity
  8
0
  6
ByBlock
440
 16777216
100
AcDbBlockReference
  2
_OPEN
 10
4421.138161658249
 20
1741.334755623913
 30
0.0
 41
30.0
 42
30.0
 43
30.0
 50
90.0
  0
MTEXT
  5
83A6
330
829B
100
AcDbEntity
  8
0
  6
ByBlock
440
 16777216
100
AcDbMText
 10
4391.13816165825
 20
1565.834755623914
 30
0.0
 40
45.0
 41
0.0
 46
0.0
 71
     5
 72
     5
  1
\A1;351
 11
0.0
 21
1.0
 31
0.0
 73
     1
 44
1.0
  0
POINT
  5
83A7
330
829B
100
AcDbEntity
  8
DEFPOINTS
  6
ByBlock
 62
     0
440
 16777216
100
AcDbPoint
 10
4548.17002023299
 20
1390.334755623914
 30
0.0
  0
POINT
  5
83A8
330
829B
100
AcDbEntity
  8
DEFPOINTS
  6
ByBlock
 62
     0
440
 16777216
100
AcDbPoint
 10
4518.176195857041
 20
1741.334755623913
 30
0.0
  0
POINT
  5
83A9
330
829B
100
AcDbEntity
  8
DEFPOINTS
  6
ByBlock
 62
     0
440
 16777216
100
AcDbPoint
 10
4421.138161658249
 20
1741.334755623913
 30
0.0
  0
ENDBLK
  5
83AA
330
829B
100
AcDbEntity
  8
0
100
AcDbBlockEnd
  0
BLOCK
  5
83AB
330
82A7
100
AcDbEntity
  8
0
100
AcDbBlockBegin
  2
*D5
 70
     1
 10
0.0
 20
0.0
 30
0.0
  3
*D5
  1

  0
LINE
  5
83AC
330
82A7
100
AcDbEntity
  8
0
  6
ByBlock
440
 16777216
100
AcDbLine
 10
4533.170020232989
 20
1390.334755623914
 30
0.0
 11
4483.669654794204
 21
1390.334755623914
 31
0.0
  0
LINE
  5
83AD
330
82A7
100
AcDbEntity
  8
0
  6
ByBlock
440
 16777216
100
AcDbLine
 10
4533.170020232989
 20
1715.334755623914
 30
0.0
 11
4483.669654794204
 21
1715.334755623914
 31
0.0
  0
LINE
  5
83AE
330
82A7
100
AcDbEntity
  8
0
  6
ByBlock
440
 16777216
100
AcDbLine
 10
4498.669654794205
 20
1420.334755623914
 30
0.0
 11
4498.669654794205
 21
1685.334755623913
 31
0.0
  0
INSERT
  5
83AF
330
82A7
100
AcDbEntity
  8
0
  6
ByBlock
440
 16777216
100
AcDbBlockReference
  2
_OPEN
 10
4498.669654794205
 20
1390.334755623914
 30
0.0
 41
30.0
 42
30.0
 43
30.0
 50
270.0
  0
INSERT
  5
83B0
330
82A7
100
AcDbEntity
  8
0
  6
ByBlock
440
 16777216
100
AcDbBlockReference
  2
_OPEN
 10
4498.669654794205
 20
1715.334755623914
 30
0.0
 41
30.0
 42
30.0
 43
30.0
 50
90.0
  0
MTEXT
  5
83B1
330
82A7
100
AcDbEntity
  8
0
  6
ByBlock
440
 16777216
100
AcDbMText
 10
4468.669654794204
 20
1552.834755623913
 30
0.0
 40
45.0
 41
0.0
 46
0.0
 71
     5
 72
     5
  1
\A1;325
 11
0.0
 21
1.0
 31
0.0
 73
     1
 44
1.0
  0
POINT
  5
83B2
330
82A7
100
AcDbEntity
  8
DEFPOINTS
  6
ByBlock
 62
     0
440
 16777216
100
AcDbPoint
 10
4548.17002023299
 20
1390.334755623914
 30
0.0
  0
POINT
  5
83B3
330
82A7
100
AcDbEntity
  8
DEFPOINTS
  6
ByBlock
 62
     0
440
 16777216
100
AcDbPoint
 10
4548.17002023299
 20
1715.334755623914
 30
0.0
  0
POINT
  5
83B4
330
82A7
100
AcDbEntity
  8
DEFPOINTS
  6
ByBlock
 62
     0
440
 16777216
100
AcDbPoint
 10
4498.669654794205
 20
1715.334755623914
 30
0.0
  0
ENDBLK
  5
83B5
330
82A7
100
AcDbEntity
  8
0
100
AcDbBlockEnd
  0
BLOCK
  5
83B6
330
82B3
100
AcDbEntity
  8
0
100
AcDbBlockBegin
  2
*D6
 70
     1
 10
0.0
 20
0.0
 30
0.0
  3
*D6
  1

  0
LINE
  5
83B7
330
82B3
100
AcDbEntity
  8
0
  6
ByBlock
440
 16777216
100
AcDbLine
 10
4503.176195857041
 20
1741.334755623913
 30
0.0
 11
4331.633977112727
 21
1741.334755623913
 31
0.0
  0
LINE
  5
83B8
330
82B3
100
AcDbEntity
  8
0
  6
ByBlock
440
 16777216
100
AcDbLine
 10
4566.17002023299
 20
1301.334755623914
 30
0.0
 11
4331.633977112727
 21
1301.334755623914
 31
0.0
  0
LINE
  5
83B9
330
82B3
100
AcDbEntity
  8
0
  6
ByBlock
440
 16777216
100
AcDbLine
 10
4346.633977112728
 20
1711.334755623914
 30
0.0
 11
4346.633977112728
 21
1331.334755623913
 31
0.0
  0
INSERT
  5
83BA
330
82B3
100
AcDbEntity
  8
0
  6
ByBlock
440
 16777216
100
AcDbBlockReference
  2
_OPEN
 10
4346.633977112728
 20
1741.334755623913
 30
0.0
 41
30.0
 42
30.0
 43
30.0
 50
90.0
  0
INSERT
  5
83BB
330
82B3
100
AcDbEntity
  8
0
  6
ByBlock
440
 16777216
100
AcDbBlockReference
  2
_OPEN
 10
4346.633977112728
 20
1301.334755623914
 30
0.0
 41
30.0
 42
30.0
 43
30.0
 50
270.0
  0
MTEXT
  5
83BC
330
82B3
100
AcDbEntity
  8
0
  6
ByBlock
440
 16777216
100
AcDbMText
 10
4316.633977112728
 20
1521.334755623914
 30
0.0
 40
45.0
 41
0.0
 46
0.0
 71
     5
 72
     5
  1
\A1;440
 11
0.0
 21
1.0
 31
0.0
 73
     1
 44
1.0
  0
POINT
  5
83BD
330
82B3
100
AcDbEntity
  8
DEFPOINTS
  6
ByBlock
 62
     0
440
 16777216
100
AcDbPoint
 10
4518.176195857041
 20
1741.334755623913
 30
0.0
  0
POINT
  5
83BE
330
82B3
100
AcDbEntity
  8
DEFPOINTS
  6
ByBlock
 62
     0
440
 16777216
100
AcDbPoint
 10
4581.170020232989
 20
1301.334755623914
 30
0.0
  0
POINT
  5
83BF
330
82B3
100
AcDbEntity
  8
DEFPOINTS
  6
ByBlock
 62
     0
440
 16777216
100
AcDbPoint
 10
4346.633977112728
 20
1301.334755623914
 30
0.0
  0
ENDBLK
  5
83C0
330
82B3
100
AcDbEntity
  8
0
100
AcDbBlockEnd
  0
BLOCK
  5
8401
330
8305
100
AcDbEntity
  8
0
100
AcDbBlockBegin
  2
*D7
 70
     1
 10
0.0
 20
0.0
 30
0.0
  3
*D7
  1

  0
LINE
  5
8402
330
8305
100
AcDbEntity
  8
0
  6
ByBlock
440
 16777216
100
AcDbLine
 10
6441.52574346659
 20
1982.334755623913
 30
0.0
 11
6441.52574346659
 21
2090.856107789175
 31
0.0
  0
LINE
  5
8403
330
8305
100
AcDbEntity
  8
0
  6
ByBlock
440
 16777216
100
AcDbLine
 10
6016.525743466591
 20
1982.334755623914
 30
0.0
 11
6016.525743466591
 21
2090.856107789175
 31
0.0
  0
LINE
  5
8404
330
8305
100
AcDbEntity
  8
0
  6
ByBlock
440
 16777216
100
AcDbLine
 10
6411.52574346659
 20
2075.856107789176
 30
0.0
 11
6046.525743466591
 21
2075.856107789176
 31
0.0
  0
INSERT
  5
8405
330
8305
100
AcDbEntity
  8
0
  6
ByBlock
440
 16777216
100
AcDbBlockReference
  2
_OPEN
 10
6441.52574346659
 20
2075.856107789176
 30
0.0
 41
30.0
 42
30.0
 43
30.0
  0
INSERT
  5
8406
330
8305
100
AcDbEntity
  8
0
  6
ByBlock
440
 16777216
100
AcDbBlockReference
  2
_OPEN
 10
6016.525743466591
 20
2075.856107789176
 30
0.0
 41
30.0
 42
30.0
 43
30.0
 50
180.0
  0
MTEXT
  5
8407
330
8305
100
AcDbEntity
  8
0
  6
ByBlock
440
 16777216
100
AcDbMText
 10
6229.025743466591
 20
2105.856107789175
 30
0.0
 40
45.0
 41
0.0
 46
0.0
 71
     5
 72
     5
  1
\A1;425
 73
     1
 44
1.0
  0
POINT
  5
8408
330
8305
100
AcDbEntity
  8
DEFPOINTS
  6
ByBlock
 62
     0
440
 16777216
100
AcDbPoint
 10
6441.52574346659
 20
1967.334755623913
 30
0.0
  0
POINT
  5
8409
330
8305
100
AcDbEntity
  8
DEFPOINTS
  6
ByBlock
 62
     0
440
 16777216
100
AcDbPoint
 10
6016.525743466591
 20
1967.334755623913
 30
0.0
  0
POINT
  5
840A
330
8305
100
AcDbEntity
  8
DEFPOINTS
  6
ByBlock
 62
     0
440
 16777216
100
AcDbPoint
 10
6016.525743466591
 20
2075.856107789176
 30
0.0
  0
ENDBLK
  5
840B
330
8305
100
AcDbEntity
  8
0
100
AcDbBlockEnd
  0
BLOCK
  5
840C
330
8311
100
AcDbEntity
  8
0
100
AcDbBlockBegin
  2
*D8
 70
     1
 10
0.0
 20
0.0
 30
0.0
  3
*D8
  1

  0
LINE
  5
840D
330
8311
100
AcDbEntity
  8
0
  6
ByBlock
440
 16777216
100
AcDbLine
 10
6519.025743466591
 20
1734.334755623914
 30
0.0
 11
6519.025743466591
 21
2182.788194761636
 31
0.0
  0
LINE
  5
840E
330
8311
100
AcDbEntity
  8
0
  6
ByBlock
440
 16777216
100
AcDbLine
 10
6229.025743466591
 20
2153.813114858805
 30
0.0
 11
6229.025743466591
 21
2182.788194761636
 31
0.0
  0
LINE
  5
840F
330
8311
100
AcDbEntity
  8
0
  6
ByBlock
440
 16777216
100
AcDbLine
 10
6489.025743466591
 20
2167.788194761636
 30
0.0
 11
6259.02574346659
 21
2167.788194761636
 31
0.0
  0
INSERT
  5
8410
330
8311
100
AcDbEntity
  8
0
  6
ByBlock
440
 16777216
100
AcDbBlockReference
  2
_OPEN
 10
6519.025743466591
 20
2167.788194761636
 30
0.0
 41
30.0
 42
30.0
 43
30.0
  0
INSERT
  5
8411
330
8311
100
AcDbEntity
  8
0
  6
ByBlock
440
 16777216
100
AcDbBlockReference
  2
_OPEN
 10
6229.025743466591
 20
2167.788194761636
 30
0.0
 41
30.0
 42
30.0
 43
30.0
 50
180.0
  0
MTEXT
  5
8412
330
8311
100
AcDbEntity
  8
0
  6
ByBlock
440
 16777216
100
AcDbMText
 10
6374.025743466591
 20
2209.57390904735
 30
0.0
 40
45.0
 41
0.0
 46
0.0
 71
     5
 72
     5
  1
\A1;(290)
 73
     1
 44
1.0
  0
POINT
  5
8413
330
8311
100
AcDbEntity
  8
DEFPOINTS
  6
ByBlock
 62
     0
440
 16777216
100
AcDbPoint
 10
6519.025743466591
 20
1719.334755623914
 30
0.0
  0
POINT
  5
8414
330
8311
100
AcDbEntity
  8
DEFPOINTS
  6
ByBlock
 62
     0
440
 16777216
100
AcDbPoint
 10
6229.025743466591
 20
2138.813114858804
 30
0.0
  0
POINT
  5
8415
330
8311
100
AcDbEntity
  8
DEFPOINTS
  6
ByBlock
 62
     0
440
 16777216
100
AcDbPoint
 10
6229.025743466591
 20
2167.788194761636
 30
0.0
  0
ENDBLK
  5
8416
330
8311
100
AcDbEntity
  8
0
100
AcDbBlockEnd
  0
BLOCK
  5
8417
330
831D
100
AcDbEntity
  8
0
100
AcDbBlockBegin
  2
*D9
 70
     1
 10
0.0
 20
0.0
 30
0.0
  3
*D9
  1

  0
LINE
  5
8418
330
831D
100
AcDbEntity
  8
0
  6
ByBlock
440
 16777216
100
AcDbLine
 10
5481.17002023299
 20
3073.913718071325
 30
0.0
 11
5481.17002023299
 21
3184.435953266232
 31
0.0
  0
LINE
  5
8419
330
831D
100
AcDbEntity
  8
0
  6
ByBlock
440
 16777216
100
AcDbLine
 10
4581.170020232989
 20
3073.913718071325
 30
0.0
 11
4581.170020232989
 21
3184.435953266232
 31
0.0
  0
LINE
  5
841A
330
831D
100
AcDbEntity
  8
0
  6
ByBlock
440
 16777216
100
AcDbLine
 10
5451.170020232989
 20
3169.435953266232
 30
0.0
 11
4611.170020232989
 21
3169.435953266232
 31
0.0
  0
INSERT
  5
841B
330
831D
100
AcDbEntity
  8
0
  6
ByBlock
440
 16777216
100
AcDbBlockReference
  2
_OPEN
 10
5481.17002023299
 20
3169.435953266232
 30
0.0
 41
30.0
 42
30.0
 43
30.0
  0
INSERT
  5
841C
330
831D
100
AcDbEntity
  8
0
  6
ByBlock
440
 16777216
100
AcDbBlockReference
  2
_OPEN
 10
4581.170020232989
 20
3169.435953266232
 30
0.0
 41
30.0
 42
30.0
 43
30.0
 50
180.0
  0
MTEXT
  5
841D
330
831D
100
AcDbEntity
  8
0
  6
ByBlock
440
 16777216
100
AcDbMText
 10
5031.170020232989
 20
3199.435953266232
 30
0.0
 40
45.0
 41
0.0
 46
0.0
 71
     5
 72
     5
  1
\A1;900
 73
     1
 44
1.0
  0
POINT
  5
841E
330
831D
100
AcDbEntity
  8
DEFPOINTS
  6
ByBlock
 62
     0
440
 16777216
100
AcDbPoint
 10
5481.17002023299
 20
3058.913718071325
 30
0.0
  0
POINT
  5
841F
330
831D
100
AcDbEntity
  8
DEFPOINTS
  6
ByBlock
 62
     0
440
 16777216
100
AcDbPoint
 10
4581.170020232989
 20
3058.913718071325
 30
0.0
  0
POINT
  5
8420
330
831D
100
AcDbEntity
  8
DEFPOINTS
  6
ByBlock
 62
     0
440
 16777216
100
AcDbPoint
 10
4581.170020232989
 20
3169.435953266232
 30
0.0
  0
ENDBLK
  5
8421
330
831D
100
AcDbEntity
  8
0
100
AcDbBlockEnd
  0
BLOCK
  5
8422
330
8329
100
AcDbEntity
  8
0
100
AcDbBlockBegin
  2
*D10
 70
     1
 10
0.0
 20
0.0
 30
0.0
  3
*D10
  1

  0
LINE
  5
8423
330
8329
100
AcDbEntity
  8
0
  6
ByBlock
440
 16777216
100
AcDbLine
 10
4566.17002023299
 20
3058.913718071325
 30
0.0
 11
4382.681516097725
 21
3058.913718071325
 31
0.0
  0
LINE
  5
8424
330
8329
100
AcDbEntity
  8
0
  6
ByBlock
440
 16777216
100
AcDbLine
 10
4566.17002023299
 20
2468.913718071324
 30
0.0
 11
4382.681516097725
 21
2468.913718071324
 31
0.0
  0
LINE
  5
8425
330
8329
100
AcDbEntity
  8
0
  6
ByBlock
440
 16777216
100
AcDbLine
 10
4397.681516097724
 20
3028.913718071325
 30
0.0
 11
4397.681516097724
 21
2498.913718071325
 31
0.0
  0
INSERT
  5
8426
330
8329
100
AcDbEntity
  8
0
  6
ByBlock
440
 16777216
100
AcDbBlockReference
  2
_OPEN
 10
4397.681516097724
 20
3058.913718071325
 30
0.0
 41
30.0
 42
30.0
 43
30.0
 50
90.0
  0
INSERT
  5
8427
330
8329
100
AcDbEntity
  8
0
  6
ByBlock
440
 16777216
100
AcDbBlockReference
  2
_OPEN
 10
4397.681516097724
 20
2468.913718071324
 30
0.0
 41
30.0
 42
30.0
 43
30.0
 50
270.0
  0
MTEXT
  5
8428
330
8329
100
AcDbEntity
  8
0
  6
ByBlock
440
 16777216
100
AcDbMText
 10
4367.681516097724
 20
2763.913718071324
 30
0.0
 40
45.0
 41
0.0
 46
0.0
 71
     5
 72
     5
  1
\A1;590
 11
0.0
 21
1.0
 31
0.0
 73
     1
 44
1.0
  0
POINT
  5
8429
330
8329
100
AcDbEntity
  8
DEFPOINTS
  6
ByBlock
 62
     0
440
 16777216
100
AcDbPoint
 10
4581.170020232989
 20
3058.913718071325
 30
0.0
  0
POINT
  5
842A
330
8329
100
AcDbEntity
  8
DEFPOINTS
  6
ByBlock
 62
     0
440
 16777216
100
AcDbPoint
 10
4581.170020232989
 20
2468.913718071324
 30
0.0
  0
POINT
  5
842B
330
8329
100
AcDbEntity
  8
DEFPOINTS
  6
ByBlock
 62
     0
440
 16777216
100
AcDbPoint
 10
4397.681516097724
 20
2468.913718071324
 30
0.0
  0
ENDBLK
  5
842C
330
8329
100
AcDbEntity
  8
0
100
AcDbBlockEnd
  0
BLOCK
  5
8489
330
8335
100
AcDbEntity
  8
0
100
AcDbBlockBegin
  2
*D11
 70
     1
 10
0.0
 20
0.0
 30
0.0
  3
*D11
  1

  0
LINE
  5
861F
330
8335
100
AcDbEntity
  8
3
440
 16777216
370
    -2
100
AcDbLine
 10
1845.73721034795
 20
1896.857006032758
 30
0.0
 11
1845.73721034795
 21
2182.788194761636
 31
0.0
  0
LINE
  5
8620
330
8335
100
AcDbEntity
  8
3
440
 16777216
370
    -2
100
AcDbLine
 10
2285.73721034795
 20
2167.788194761636
 30
0.0
 11
1875.73721034795
 21
2167.788194761636
 31
0.0
  0
INSERT
  5
8621
330
8335
100
AcDbEntity
  8
3
440
 16777216
370
    -2
100
AcDbBlockReference
  2
_OPEN
 10
2315.73721034795
 20
2167.788194761636
 30
0.0
 41
30.0
 42
30.0
 43
30.0
  0
INSERT
  5
8622
330
8335
100
AcDbEntity
  8
3
440
 16777216
370
    -2
100
AcDbBlockReference
  2
_OPEN
 10
1845.73721034795
 20
2167.788194761636
 30
0.0
 41
30.0
 42
30.0
 43
30.0
 50
180.0
  0
MTEXT
  5
8623
330
8335
100
AcDbEntity
  8
3
440
 16777216
100
AcDbMText
 10
2080.73721034795
 20
2209.57390904735
 30
0.0
 40
45.0
 41
0.0
 46
0.0
 71
     5
 72
     1
  1
\A1;(470)
 73
     1
 44
1.0
  0
POINT
  5
8624
330
8335
100
AcDbEntity
  8
DEFPOINTS
 62
     0
440
 16777216
100
AcDbPoint
 10
2315.73721034795
 20
2138.813114858804
 30
0.0
  0
POINT
  5
8625
330
8335
100
AcDbEntity
  8
DEFPOINTS
 62
     0
440
 16777216
100
AcDbPoint
 10
1845.73721034795
 20
1881.857006032758
 30
0.0
  0
POINT
  5
8626
330
8335
100
AcDbEntity
  8
DEFPOINTS
 62
     0
440
 16777216
100
AcDbPoint
 10
1845.73721034795
 20
2167.788194761636
 30
0.0
  0
ENDBLK
  5
8492
330
8335
100
AcDbEntity
  8
0
100
AcDbBlockEnd
  0
BLOCK
  5
844C
330
8357
100
AcDbEntity
  8
0
100
AcDbBlockBegin
  2
*D12
 70
     1
 10
0.0
 20
0.0
 30
0.0
  3
*D12
  1

  0
LINE
  5
844D
330
8357
100
AcDbEntity
  8
0
  6
ByBlock
440
 16777216
100
AcDbLine
 10
4548.17002023299
 20
1758.723585948869
 30
0.0
 11
4548.17002023299
 21
2111.433401306705
 31
0.0
  0
LINE
  5
844E
330
8357
100
AcDbEntity
  8
0
  6
ByBlock
440
 16777216
100
AcDbLine
 10
4793.170020232989
 20
2070.924448958518
 30
0.0
 11
4793.170020232989
 21
2111.433401306705
 31
0.0
  0
LINE
  5
844F
330
8357
100
AcDbEntity
  8
0
  6
ByBlock
440
 16777216
100
AcDbLine
 10
4578.170020232989
 20
2096.433401306706
 30
0.0
 11
4763.17002023299
 21
2096.433401306706
 31
0.0
  0
INSERT
  5
8450
330
8357
100
AcDbEntity
  8
0
  6
ByBlock
440
 16777216
100
AcDbBlockReference
  2
_OPEN
 10
4548.17002023299
 20
2096.433401306706
 30
0.0
 41
30.0
 42
30.0
 43
30.0
 50
180.0
  0
INSERT
  5
8451
330
8357
100
AcDbEntity
  8
0
  6
ByBlock
440
 16777216
100
AcDbBlockReference
  2
_OPEN
 10
4793.170020232989
 20
2096.433401306706
 30
0.0
 41
30.0
 42
30.0
 43
30.0
  0
MTEXT
  5
8452
330
8357
100
AcDbEntity
  8
0
  6
ByBlock
440
 16777216
100
AcDbMText
 10
4670.670020232988
 20
2126.433401306706
 30
0.0
 40
45.0
 41
0.0
 46
0.0
 71
     5
 72
     5
  1
\A1;245
 73
     1
 44
1.0
  0
POINT
  5
8453
330
8357
100
AcDbEntity
  8
DEFPOINTS
  6
ByBlock
 62
     0
440
 16777216
100
AcDbPoint
 10
4548.17002023299
 20
1743.72358594887
 30
0.0
  0
POINT
  5
8454
330
8357
100
AcDbEntity
  8
DEFPOINTS
  6
ByBlock
 62
     0
440
 16777216
100
AcDbPoint
 10
4793.170020232989
 20
2055.924448958518
 30
0.0
  0
POINT
  5
8455
330
8357
100
AcDbEntity
  8
DEFPOINTS
  6
ByBlock
 62
     0
440
 16777216
100
AcDbPoint
 10
4793.170020232989
 20
2096.433401306706
 30
0.0
  0
ENDBLK
  5
8456
330
8357
100
AcDbEntity
  8
0
100
AcDbBlockEnd
  0
BLOCK
  5
8457
330
8363
100
AcDbEntity
  8
0
100
AcDbBlockBegin
  2
*D13
 70
     1
 10
0.0
 20
0.0
 30
0.0
  3
*D13
  1

  0
LINE
  5
855E
330
8363
100
AcDbEntity
  8
3
440
 16777216
100
AcDbLine
 10
1156.44636799503
 20
1732.334755623914
 30
0.0
 11
1156.44636799503
 21
2111.433401306705
 31
0.0
  0
LINE
  5
855F
330
8363
100
AcDbEntity
  8
3
440
 16777216
100
AcDbLine
 10
909.8814871143487
 20
2096.433401306706
 30
0.0
 11
1126.44636799503
 21
2096.433401306706
 31
0.0
  0
INSERT
  5
8560
330
8363
100
AcDbEntity
  8
3
440
 16777216
100
AcDbBlockReference
  2
_OPEN
 10
879.8814871143486
 20
2096.433401306706
 30
0.0
 41
30.0
 42
30.0
 43
30.0
 50
180.0
  0
INSERT
  5
8561
330
8363
100
AcDbEntity
  8
3
440
 16777216
100
AcDbBlockReference
  2
_OPEN
 10
1156.44636799503
 20
2096.433401306706
 30
0.0
 41
30.0
 42
30.0
 43
30.0
  0
MTEXT
  5
8562
330
8363
100
AcDbEntity
  8
3
440
 16777216
100
AcDbMText
 10
1018.163927554689
 20
2126.433401306706
 30
0.0
 40
45.0
 41
0.0
 46
0.0
 71
     5
 72
     5
  1
\A1;274
 73
     1
 44
1.0
  0
POINT
  5
8563
330
8363
100
AcDbEntity
  8
DEFPOINTS
 62
     0
440
 16777216
100
AcDbPoint
 10
879.8814871143486
 20
2055.924448958518
 30
0.0
  0
POINT
  5
8564
330
8363
100
AcDbEntity
  8
DEFPOINTS
 62
     0
440
 16777216
100
AcDbPoint
 10
1156.44636799503
 20
1717.334755623913
 30
0.0
  0
POINT
  5
8565
330
8363
100
AcDbEntity
  8
DEFPOINTS
 62
     0
440
 16777216
100
AcDbPoint
 10
1156.44636799503
 20
2096.433401306706
 30
0.0
  0
ENDBLK
  5
8460
330
8363
100
AcDbEntity
  8
0
100
AcDbBlockEnd
  0
BLOCK
  5
8478
330
8387
100
AcDbEntity
  8
0
100
AcDbBlockBegin
  2
*D14
 70
     1
 10
0.0
 20
0.0
 30
0.0
  3
*D14
  1

  0
LINE
  5
8566
330
8387
100
AcDbEntity
  8
3
 62
     0
440
 16777216
100
AcDbLine
 10
660.3814871143486
 20
1265.334755623914
 30
0.0
 11
418.3454439940869
 21
1265.334755623914
 31
0.0
  0
LINE
  5
8567
330
8387
100
AcDbEntity
  8
3
 62
     0
440
 16777216
100
AcDbLine
 10
660.3814871143486
 20
1200.334755623913
 30
0.0
 11
418.3454439940869
 21
1200.334755623914
 31
0.0
  0
LINE
  5
8568
330
8387
100
AcDbEntity
  8
3
 62
     0
440
 16777216
100
AcDbLine
 10
433.345443994087
 20
1295.334755623914
 30
0.0
 11
433.345443994087
 21
1325.334755623914
 31
0.0
  0
LINE
  5
8569
330
8387
100
AcDbEntity
  8
3
 62
     0
440
 16777216
100
AcDbLine
 10
433.345443994087
 20
1170.334755623914
 30
0.0
 11
433.3454439940869
 21
1037.477612766771
 31
0.0
  0
LINE
  5
856A
330
8387
100
AcDbEntity
  8
3
 62
     0
440
 16777216
100
AcDbLine
 10
433.345443994087
 20
1265.334755623914
 30
0.0
 11
433.345443994087
 21
1200.334755623914
 31
0.0
  0
INSERT
  5
856B
330
8387
100
AcDbEntity
  8
3
 62
     0
440
 16777216
100
AcDbBlockReference
  2
_DOT
 10
433.345443994087
 20
1265.334755623914
 30
0.0
 41
30.0
 42
30.0
 43
30.0
 50
270.0
  0
INSERT
  5
856C
330
8387
100
AcDbEntity
  8
3
 62
     0
440
 16777216
100
AcDbBlockReference
  2
_OPEN
 10
433.345443994087
 20
1200.334755623914
 30
0.0
 41
30.0
 42
30.0
 43
30.0
 50
90.0
  0
MTEXT
  5
856D
330
8387
100
AcDbEntity
  8
3
 62
     0
440
 16777216
100
AcDbMText
 10
395.8454439940867
 20
1088.906184195342
 30
0.0
 40
45.0
 41
0.0
 46
0.0
 71
     5
 72
     5
  1
\A1;65
 11
0.0000000000000001
 21
1.0
 31
0.0
 73
     1
 44
1.0
  0
POINT
  5
856E
330
8387
100
AcDbEntity
  8
DEFPOINTS
 62
     0
440
 16777216
100
AcDbPoint
 10
667.8814871143486
 20
1265.334755623914
 30
0.0
  0
POINT
  5
856F
330
8387
100
AcDbEntity
  8
DEFPOINTS
 62
     0
440
 16777216
100
AcDbPoint
 10
667.8814871143486
 20
1200.334755623913
 30
0.0
  0
POINT
  5
8570
330
8387
100
AcDbEntity
  8
DEFPOINTS
 62
     0
440
 16777216
100
AcDbPoint
 10
433.345443994087
 20
1200.334755623914
 30
0.0
  0
ENDBLK
  5
8484
330
8387
100
AcDbEntity
  8
0
100
AcDbBlockEnd
  0
BLOCK
  5
84A6
330
84A5
100
AcDbEntity
  8
0
100
AcDbBlockBegin
  2
*D15
 70
     1
 10
0.0
 20
0.0
 30
0.0
  3
*D15
  1

  0
LINE
  5
8571
330
84A5
100
AcDbEntity
  8
3
 62
     0
440
 16777216
100
AcDbLine
 10
667.8814871143486
 20
1192.834755623914
 30
0.0
 11
667.8814871143486
 21
1071.961882264959
 31
0.0
  0
LINE
  5
8572
330
84A5
100
AcDbEntity
  8
3
 62
     0
440
 16777216
100
AcDbLine
 10
879.8814871143486
 20
1192.834755623914
 30
0.0
 11
879.8814871143486
 21
1071.961882264959
 31
0.0
  0
LINE
  5
8573
330
84A5
100
AcDbEntity
  8
3
 62
     0
440
 16777216
100
AcDbLine
 10
697.8814871143486
 20
1086.961882264959
 30
0.0
 11
849.8814871143485
 21
1086.961882264959
 31
0.0
  0
INSERT
  5
8574
330
84A5
100
AcDbEntity
  8
3
 62
     0
440
 16777216
100
AcDbBlockReference
  2
_OPEN
 10
667.8814871143486
 20
1086.961882264959
 30
0.0
 41
30.0
 42
30.0
 43
30.0
 50
180.0
  0
INSERT
  5
8575
330
84A5
100
AcDbEntity
  8
3
 62
     0
440
 16777216
100
AcDbBlockReference
  2
_OPEN
 10
879.8814871143486
 20
1086.961882264959
 30
0.0
 41
30.0
 42
30.0
 43
30.0
  0
MTEXT
  5
8576
330
84A5
100
AcDbEntity
  8
3
 62
     0
440
 16777216
100
AcDbMText
 10
773.8814871143485
 20
1124.461882264959
 30
0.0
 40
45.0
 41
0.0
 46
0.0
 71
     5
 72
     5
  1
\A1;212
 73
     1
 44
1.0
  0
POINT
  5
8577
330
84A5
100
AcDbEntity
  8
DEFPOINTS
 62
     0
440
 16777216
100
AcDbPoint
 10
667.8814871143486
 20
1200.334755623913
 30
0.0
  0
POINT
  5
8578
330
84A5
100
AcDbEntity
  8
DEFPOINTS
 62
     0
440
 16777216
100
AcDbPoint
 10
879.8814871143486
 20
1200.334755623913
 30
0.0
  0
POINT
  5
8579
330
84A5
100
AcDbEntity
  8
DEFPOINTS
 62
     0
440
 16777216
100
AcDbPoint
 10
879.8814871143486
 20
1086.961882264959
 30
0.0
  0
ENDBLK
  5
84B0
330
84A5
100
AcDbEntity
  8
0
100
AcDbBlockEnd
  0
BLOCK
  5
84B3
330
84B2
100
AcDbEntity
  8
0
100
AcDbBlockBegin
  2
*D16
 70
     1
 10
0.0
 20
0.0
 30
0.0
  3
*D16
  1

  0
LINE
  5
857A
330
84B2
100
AcDbEntity
  8
3
 62
     0
440
 16777216
100
AcDbLine
 10
879.8814871143486
 20
1192.834755623914
 30
0.0
 11
879.8814871143486
 21
1071.961882264959
 31
0.0
  0
LINE
  5
857B
330
84B2
100
AcDbEntity
  8
3
 62
     0
440
 16777216
100
AcDbLine
 10
1567.881487114348
 20
1192.834755623914
 30
0.0
 11
1567.881487114348
 21
1071.961882264959
 31
0.0
  0
LINE
  5
857C
330
84B2
100
AcDbEntity
  8
3
 62
     0
440
 16777216
100
AcDbLine
 10
909.8814871143487
 20
1086.961882264959
 30
0.0
 11
1537.881487114348
 21
1086.961882264959
 31
0.0
  0
INSERT
  5
857D
330
84B2
100
AcDbEntity
  8
3
 62
     0
440
 16777216
100
AcDbBlockReference
  2
_OPEN
 10
879.8814871143486
 20
1086.961882264959
 30
0.0
 41
30.0
 42
30.0
 43
30.0
 50
180.0
  0
INSERT
  5
857E
330
84B2
100
AcDbEntity
  8
3
 62
     0
440
 16777216
100
AcDbBlockReference
  2
_OPEN
 10
1567.881487114348
 20
1086.961882264959
 30
0.0
 41
30.0
 42
30.0
 43
30.0
  0
MTEXT
  5
857F
330
84B2
100
AcDbEntity
  8
3
 62
     0
440
 16777216
100
AcDbMText
 10
1223.881487114348
 20
1124.461882264959
 30
0.0
 40
45.0
 41
0.0
 46
0.0
 71
     5
 72
     5
  1
\A1;688
 73
     1
 44
1.0
  0
POINT
  5
8580
330
84B2
100
AcDbEntity
  8
DEFPOINTS
 62
     0
440
 16777216
100
AcDbPoint
 10
879.8814871143486
 20
1200.334755623913
 30
0.0
  0
POINT
  5
8581
330
84B2
100
AcDbEntity
  8
DEFPOINTS
 62
     0
440
 16777216
100
AcDbPoint
 10
1567.881487114348
 20
1200.334755623913
 30
0.0
  0
POINT
  5
8582
330
84B2
100
AcDbEntity
  8
DEFPOINTS
 62
     0
440
 16777216
100
AcDbPoint
 10
1567.881487114348
 20
1086.961882264959
 30
0.0
  0
ENDBLK
  5
84BD
330
84B2
100
AcDbEntity
  8
0
100
AcDbBlockEnd
  0
BLOCK
  5
84C0
330
84BF
100
AcDbEntity
  8
0
100
AcDbBlockBegin
  2
*D17
 70
     1
 10
0.0
 20
0.0
 30
0.0
  3
*D17
  1

  0
LINE
  5
8583
330
84BF
100
AcDbEntity
  8
3
 62
     0
440
 16777216
100
AcDbLine
 10
1980.73721034795
 20
1192.834755623914
 30
0.0
 11
1980.73721034795
 21
1071.961882264959
 31
0.0
  0
LINE
  5
8584
330
84BF
100
AcDbEntity
  8
3
 62
     0
440
 16777216
100
AcDbLine
 10
2315.73721034795
 20
1192.834755623914
 30
0.0
 11
2315.73721034795
 21
1071.961882264959
 31
0.0
  0
LINE
  5
8585
330
84BF
100
AcDbEntity
  8
3
 62
     0
440
 16777216
100
AcDbLine
 10
2010.73721034795
 20
1086.961882264959
 30
0.0
 11
2285.73721034795
 21
1086.961882264959
 31
0.0
  0
INSERT
  5
8586
330
84BF
100
AcDbEntity
  8
3
 62
     0
440
 16777216
100
AcDbBlockReference
  2
_OPEN
 10
1980.73721034795
 20
1086.961882264959
 30
0.0
 41
30.0
 42
30.0
 43
30.0
 50
180.0
  0
INSERT
  5
8587
330
84BF
100
AcDbEntity
  8
3
 62
     0
440
 16777216
100
AcDbBlockReference
  2
_OPEN
 10
2315.73721034795
 20
1086.961882264959
 30
0.0
 41
30.0
 42
30.0
 43
30.0
  0
MTEXT
  5
8588
330
84BF
100
AcDbEntity
  8
3
 62
     0
440
 16777216
100
AcDbMText
 10
2148.23721034795
 20
1124.461882264959
 30
0.0
 40
45.0
 41
0.0
 46
0.0
 71
     5
 72
     5
  1
\A1;335
 73
     1
 44
1.0
  0
POINT
  5
8589
330
84BF
100
AcDbEntity
  8
DEFPOINTS
 62
     0
440
 16777216
100
AcDbPoint
 10
1980.73721034795
 20
1200.334755623913
 30
0.0
  0
POINT
  5
858A
330
84BF
100
AcDbEntity
  8
DEFPOINTS
 62
     0
440
 16777216
100
AcDbPoint
 10
2315.73721034795
 20
1200.334755623913
 30
0.0
  0
POINT
  5
858B
330
84BF
100
AcDbEntity
  8
DEFPOINTS
 62
     0
440
 16777216
100
AcDbPoint
 10
2315.73721034795
 20
1086.961882264959
 30
0.0
  0
ENDBLK
  5
84CA
330
84BF
100
AcDbEntity
  8
0
100
AcDbBlockEnd
  0
BLOCK
  5
84CD
330
84CC
100
AcDbEntity
  8
0
100
AcDbBlockBegin
  2
*D18
 70
     1
 10
0.0
 20
0.0
 30
0.0
  3
*D18
  1

  0
LINE
  5
858C
330
84CC
100
AcDbEntity
  8
3
 62
     0
440
 16777216
100
AcDbLine
 10
2315.73721034795
 20
1192.834755623914
 30
0.0
 11
2315.73721034795
 21
1071.961882264959
 31
0.0
  0
LINE
  5
858D
330
84CC
100
AcDbEntity
  8
3
 62
     0
440
 16777216
100
AcDbLine
 10
2570.73721034795
 20
1192.834755623914
 30
0.0
 11
2570.73721034795
 21
1071.961882264959
 31
0.0
  0
LINE
  5
858E
330
84CC
100
AcDbEntity
  8
3
 62
     0
440
 16777216
100
AcDbLine
 10
2345.73721034795
 20
1086.961882264959
 30
0.0
 11
2540.737210347951
 21
1086.961882264959
 31
0.0
  0
INSERT
  5
858F
330
84CC
100
AcDbEntity
  8
3
 62
     0
440
 16777216
100
AcDbBlockReference
  2
_OPEN
 10
2315.73721034795
 20
1086.961882264959
 30
0.0
 41
30.0
 42
30.0
 43
30.0
 50
180.0
  0
INSERT
  5
8590
330
84CC
100
AcDbEntity
  8
3
 62
     0
440
 16777216
100
AcDbBlockReference
  2
_OPEN
 10
2570.73721034795
 20
1086.961882264959
 30
0.0
 41
30.0
 42
30.0
 43
30.0
  0
MTEXT
  5
8591
330
84CC
100
AcDbEntity
  8
3
 62
     0
440
 16777216
100
AcDbMText
 10
2443.23721034795
 20
1124.461882264959
 30
0.0
 40
45.0
 41
0.0
 46
0.0
 71
     5
 72
     5
  1
\A1;255
 73
     1
 44
1.0
  0
POINT
  5
8592
330
84CC
100
AcDbEntity
  8
DEFPOINTS
 62
     0
440
 16777216
100
AcDbPoint
 10
2315.73721034795
 20
1200.334755623913
 30
0.0
  0
POINT
  5
8593
330
84CC
100
AcDbEntity
  8
DEFPOINTS
 62
     0
440
 16777216
100
AcDbPoint
 10
2570.73721034795
 20
1200.334755623913
 30
0.0
  0
POINT
  5
8594
330
84CC
100
AcDbEntity
  8
DEFPOINTS
 62
     0
440
 16777216
100
AcDbPoint
 10
2570.73721034795
 20
1086.961882264959
 30
0.0
  0
ENDBLK
  5
84D7
330
84CC
100
AcDbEntity
  8
0
100
AcDbBlockEnd
  0
BLOCK
  5
84DA
330
84D9
100
AcDbEntity
  8
0
100
AcDbBlockBegin
  2
_NONE
 70
     0
 10
0.0
 20
0.0
 30
0.0
  3
_NONE
  1

  0
CIRCLE
  5
84DB
330
84D9
100
AcDbEntity
  8
0
  6
ByBlock
 62
     0
100
AcDbCircle
 10
0.0
 20
0.0
 30
0.0
 40
0.25
  0
ENDBLK
  5
84DC
330
84D9
100
AcDbEntity
  8
0
100
AcDbBlockEnd
  0
BLOCK
  5
84DE
330
84DD
100
AcDbEntity
  8
0
100
AcDbBlockBegin
  2
*D20
 70
     1
 10
0.0
 20
0.0
 30
0.0
  3
*D20
  1

  0
LINE
  5
84DF
330
84DD
100
AcDbEntity
  8
0
  6
ByBlock
 62
     0
440
 16777216
100
AcDbLine
 10
433.2543844582324
 20
1301.334755623914
 30
0.0
 11
433.2543844582324
 21
1265.334755623914
 31
0.0
  0
MTEXT
  5
84E0
330
84DD
100
AcDbEntity
  8
0
  6
ByBlock
 62
     0
440
 16777216
100
AcDbMText
 10
361.4686701725181
 20
1283.334755623913
 30
0.0
 40
45.0
 41
0.0
 46
0.0
 71
     5
 72
     5
  1
\A1;(36)
 11
0.0
 21
1.0
 31
0.0
 73
     1
 44
1.0
  0
POINT
  5
84E1
330
84DD
100
AcDbEntity
  8
DEFPOINTS
  6
ByBlock
 62
     0
440
 16777216
100
AcDbPoint
 10
667.8814871143486
 20
1301.334755623914
 30
0.0
  0
POINT
  5
84E2
330
84DD
100
AcDbEntity
  8
DEFPOINTS
  6
ByBlock
 62
     0
440
 16777216
100
AcDbPoint
 10
667.8814871143486
 20
1265.334755623914
 30
0.0
  0
POINT
  5
84E3
330
84DD
100
AcDbEntity
  8
DEFPOINTS
  6
ByBlock
 62
     0
440
 16777216
100
AcDbPoint
 10
433.2543844582324
 20
1265.334755623914
 30
0.0
  0
ENDBLK
  5
84E4
330
84DD
100
AcDbEntity
  8
0
100
AcDbBlockEnd
  0
BLOCK
  5
84E8
330
84E7
100
AcDbEntity
  8
0
100
AcDbBlockBegin
  2
*D21
 70
     1
 10
0.0
 20
0.0
 30
0.0
  3
*D21
  1

  0
LINE
  5
8595
330
84E7
100
AcDbEntity
  8
3
 62
     0
440
 16777216
100
AcDbLine
 10
579.3295780281696
 20
1741.334755623913
 30
0.0
 11
418.8332542749867
 21
1741.334755623913
 31
0.0
  0
LINE
  5
8596
330
84E7
100
AcDbEntity
  8
3
 62
     0
440
 16777216
100
AcDbLine
 10
928.0806922212244
 20
1967.334755623913
 30
0.0
 11
418.8332542749867
 21
1967.334755623914
 31
0.0
  0
LINE
  5
8597
330
84E7
100
AcDbEntity
  8
3
 62
     0
440
 16777216
100
AcDbLine
 10
433.8332542749866
 20
1771.334755623914
 30
0.0
 11
433.8332542749867
 21
1937.334755623914
 31
0.0
  0
INSERT
  5
8598
330
84E7
100
AcDbEntity
  8
3
 62
     0
440
 16777216
100
AcDbBlockReference
  2
_OPEN
 10
433.8332542749866
 20
1741.334755623913
 30
0.0
 41
30.0
 42
30.0
 43
30.0
 50
270.0
  0
INSERT
  5
8599
330
84E7
100
AcDbEntity
  8
3
 62
     0
440
 16777216
100
AcDbBlockReference
  2
_OPEN
 10
433.8332542749867
 20
1967.334755623914
 30
0.0
 41
30.0
 42
30.0
 43
30.0
 50
90.0
  0
MTEXT
  5
859A
330
84E7
100
AcDbEntity
  8
3
 62
     0
440
 16777216
100
AcDbMText
 10
396.3332542749864
 20
1854.334755623914
 30
0.0
 40
45.0
 41
0.0
 46
0.0
 71
     5
 72
     5
  1
\A1;226
 11
0.0000000000000001
 21
1.0
 31
0.0
 73
     1
 44
1.0
  0
POINT
  5
859B
330
84E7
100
AcDbEntity
  8
DEFPOINTS
 62
     0
440
 16777216
100
AcDbPoint
 10
586.8295780281696
 20
1741.334755623913
 30
0.0
  0
POINT
  5
859C
330
84E7
100
AcDbEntity
  8
DEFPOINTS
 62
     0
440
 16777216
100
AcDbPoint
 10
935.5806922212243
 20
1967.334755623913
 30
0.0
  0
POINT
  5
859D
330
84E7
100
AcDbEntity
  8
DEFPOINTS
 62
     0
440
 16777216
100
AcDbPoint
 10
433.8332542749867
 20
1967.334755623914
 30
0.0
  0
ENDBLK
  5
84F2
330
84E7
100
AcDbEntity
  8
0
100
AcDbBlockEnd
  0
BLOCK
  5
84F5
330
84F4
100
AcDbEntity
  8
0
100
AcDbBlockBegin
  2
*D22
 70
     1
 10
0.0
 20
0.0
 30
0.0
  3
*D22
  1

  0
LINE
  5
859E
330
84F4
100
AcDbEntity
  8
3
 62
     0
440
 16777216
100
AcDbLine
 10
920.5806922212243
 20
1967.334755623913
 30
0.0
 11
278.380711723132
 21
1967.334755623914
 31
0.0
  0
LINE
  5
859F
330
84F4
100
AcDbEntity
  8
3
 62
     0
440
 16777216
100
AcDbLine
 10
660.3814871143486
 20
1200.334755623913
 30
0.0
 11
278.3807117231317
 21
1200.334755623914
 31
0.0
  0
LINE
  5
85A0
330
84F4
100
AcDbEntity
  8
3
 62
     0
440
 16777216
100
AcDbLine
 10
293.3807117231319
 20
1937.334755623914
 30
0.0
 11
293.3807117231317
 21
1230.334755623914
 31
0.0
  0
INSERT
  5
85A1
330
84F4
100
AcDbEntity
  8
3
 62
     0
440
 16777216
100
AcDbBlockReference
  2
_OPEN
 10
293.3807117231319
 20
1967.334755623914
 30
0.0
 41
30.0
 42
30.0
 43
30.0
 50
90.0
  0
INSERT
  5
85A2
330
84F4
100
AcDbEntity
  8
3
 62
     0
440
 16777216
100
AcDbBlockReference
  2
_OPEN
 10
293.3807117231317
 20
1200.334755623914
 30
0.0
 41
30.0
 42
30.0
 43
30.0
 50
270.0
  0
MTEXT
  5
85A3
330
84F4
100
AcDbEntity
  8
3
 62
     0
440
 16777216
100
AcDbMText
 10
244.0949974374173
 20
1583.834755623914
 30
0.0
 40
45.0
 41
0.0
 46
0.0
 71
     5
 72
     5
  1
\A1;(767)
 11
0.0000000000000001
 21
1.0
 31
0.0
 73
     1
 44
1.0
  0
POINT
  5
85A4
330
84F4
100
AcDbEntity
  8
DEFPOINTS
 62
     0
440
 16777216
100
AcDbPoint
 10
928.0806922212244
 20
1967.334755623913
 30
0.0
  0
POINT
  5
85A5
330
84F4
100
AcDbEntity
  8
DEFPOINTS
 62
     0
440
 16777216
100
AcDbPoint
 10
667.8814871143486
 20
1200.334755623913
 30
0.0
  0
POINT
  5
85A6
330
84F4
100
AcDbEntity
  8
DEFPOINTS
 62
     0
440
 16777216
100
AcDbPoint
 10
293.3807117231317
 20
1200.334755623914
 30
0.0
  0
ENDBLK
  5
84FF
330
84F4
100
AcDbEntity
  8
0
100
AcDbBlockEnd
  0
BLOCK
  5
8507
330
8506
100
AcDbEntity
  8
0
100
AcDbBlockBegin
  2
*D23
 70
     1
 10
0.0
 20
0.0
 30
0.0
  3
*D23
  1

  0
LINE
  5
85A7
330
8506
100
AcDbEntity
  8
3
 62
     0
440
 16777216
100
AcDbLine
 10
634.8814871143486
 20
1751.22358594887
 30
0.0
 11
634.8814871143486
 21
2193.165967782881
 31
0.0
  0
LINE
  5
85A8
330
8506
100
AcDbEntity
  8
3
 62
     0
440
 16777216
100
AcDbLine
 10
1599.881487114348
 20
1423.834755623914
 30
0.0
 11
1599.881487114348
 21
2193.165967782881
 31
0.0
  0
LINE
  5
85A9
330
8506
100
AcDbEntity
  8
3
 62
     0
440
 16777216
100
AcDbLine
 10
664.8814871143486
 20
2178.165967782881
 30
0.0
 11
1569.881487114348
 21
2178.165967782881
 31
0.0
  0
INSERT
  5
85AA
330
8506
100
AcDbEntity
  8
3
 62
     0
440
 16777216
100
AcDbBlockReference
  2
_OPEN
 10
634.8814871143486
 20
2178.165967782881
 30
0.0
 41
30.0
 42
30.0
 43
30.0
 50
180.0
  0
INSERT
  5
85AB
330
8506
100
AcDbEntity
  8
3
 62
     0
440
 16777216
100
AcDbBlockReference
  2
_OPEN
 10
1599.881487114348
 20
2178.165967782881
 30
0.0
 41
30.0
 42
30.0
 43
30.0
  0
MTEXT
  5
85AC
330
8506
100
AcDbEntity
  8
3
 62
     0
440
 16777216
100
AcDbMText
 10
1117.381487114348
 20
2215.665967782881
 30
0.0
 40
45.0
 41
0.0
 46
0.0
 71
     5
 72
     5
  1
\A1;965
 73
     1
 44
1.0
  0
POINT
  5
85AD
330
8506
100
AcDbEntity
  8
DEFPOINTS
 62
     0
440
 16777216
100
AcDbPoint
 10
634.8814871143486
 20
1743.72358594887
 30
0.0
  0
POINT
  5
85AE
330
8506
100
AcDbEntity
  8
DEFPOINTS
 62
     0
440
 16777216
100
AcDbPoint
 10
1599.881487114348
 20
1416.334755623913
 30
0.0
  0
POINT
  5
85AF
330
8506
100
AcDbEntity
  8
DEFPOINTS
 62
     0
440
 16777216
100
AcDbPoint
 10
1599.881487114348
 20
2178.165967782881
 30
0.0
  0
ENDBLK
  5
8511
330
8506
100
AcDbEntity
  8
0
100
AcDbBlockEnd
  0
ENDSEC
  0
SECTION
  2
ENTITIES
  0
LINE
  5
7EAD
330
19
100
AcDbEntity
  8
4
100
AcDbLine
 10
2775.0
 20
750.0
 30
0.0
 11
2775.0
 21
450.0
 31
0.0
  0
LINE
  5
7EAE
330
19
100
AcDbEntity
  8
4
100
AcDbLine
 10
1725.0
 20
750.0
 30
0.0
 11
1725.0
 21
450.0
 31
0.0
  0
LINE
  5
7EAF
330
19
100
AcDbEntity
  8
4
100
AcDbLine
 10
975.0
 20
750.0
 30
0.0
 11
975.0
 21
450.0
 31
0.0
  0
LINE
  5
7EB2
330
19
100
AcDbEntity
  8
4
100
AcDbLine
 10
975.0
 20
450.0
 30
0.0
 11
2775.0
 21
450.0
 31
0.0
  0
LINE
  5
7EB3
330
19
100
AcDbEntity
  8
4
100
AcDbLine
 10
975.0
 20
600.0
 30
0.0
 11
2775.0
 21
600.0
 31
0.0
  0
TEXT
  5
7EB4
330
19
100
AcDbEntity
  8
4
100
AcDbText
 10
1032.753121270352
 20
647.3145387999193
 30
0.0
 40
75.0
  1
機器名称
100
AcDbText
  0
TEXT
  5
7EB5
330
19
100
AcDbEntity
  8
4
100
AcDbText
 10
1029.387159037196
 20
482.4677350980164
 30
0.0
 40
75.0
  1
機器型番
100
AcDbText
  0
TEXT
  5
7EB6
330
19
100
AcDbEntity
  8
4
100
AcDbText
 10
1762.515409061593
 20
634.5324550190777
 30
0.0
 40
60.0
  1
ミツヤリミットロードファン
100
AcDbText
  0
TEXT
  5
7EB7
330
19
100
AcDbEntity
  8
4
100
AcDbText
 10
1779.981743378221
 20
475.739376419915
 30
0.0
 40
75.0
  1
LL#2-5
100
AcDbText
  0
TEXT
  5
7EB9
330
19
100
AcDbEntity
  8
4
100
AcDbText
 10
1222.527500185471
 20
3575.143261998774
 30
0.0
 40
80.99999999999999
  1
床置防振ベット
100
AcDbText
  0
TEXT
  5
7EBA
330
19
100
AcDbEntity
  8
4
100
AcDbText
 10
474.2513899941696
 20
3800.821464298947
 30
0.0
 40
108.0
  1
遠心式両吸込両持リミットロードファン
100
AcDbText
  0
LINE
  5
7EBB
330
19
100
AcDbEntity
  8
4
100
AcDbLine
 10
375.0
 20
3704.113131397207
 30
0.0
 11
2775.0
 21
3704.113131397207
 31
0.0
  0
LINE
  5
7EBC
330
19
100
AcDbEntity
  8
4
100
AcDbLine
 10
375.0
 20
4004.113131397207
 30
0.0
 11
2775.0
 21
4004.113131397207
 31
0.0
  0
LINE
  5
7EBD
330
19
100
AcDbEntity
  8
4
100
AcDbLine
 10
975.0
 20
750.0
 30
0.0
 11
2775.0
 21
750.0
 31
0.0
  0
LINE
  5
7EBE
330
19
100
AcDbEntity
  8
4
100
AcDbLine
 10
375.0
 20
4004.113131397207
 30
0.0
 11
375.0
 21
3704.113131397207
 31
0.0
  0
TEXT
  5
7EBF
330
19
100
AcDbEntity
  8
4
100
AcDbText
 10
568.7392518214182
 20
3573.479216319515
 30
0.0
 40
80.99999999999999
  1
右回転左横向
100
AcDbText
  0
TEXT
  5
7EC0
330
19
100
AcDbEntity
  8
4
100
AcDbText
 10
2203.454338873935
 20
4059.091622242963
 30
0.0
 40
84.00000000000002
  1
No.
100
AcDbText
  0
TEXT
  5
7EC1
330
19
100
AcDbEntity
  8
4
100
AcDbText
 10
1966.94409390002
 20
3575.143261998774
 30
0.0
 40
80.99999999999999
  1
縮尺：1/15
100
AcDbText
  0
LINE
  5
7EC2
330
19
100
AcDbEntity
  8
4
100
AcDbLine
 10
2775.0
 20
4004.113131397207
 30
0.0
 11
2775.0
 21
3704.113131397207
 31
0.0
  0
LINE
  5
7EC3
330
19
100
AcDbEntity
  8
4
100
AcDbLine
 10
3150.0
 20
4425.0
 30
0.0
 11
3150.0
 21
4425.0
 31
0.0
  0
LINE
  5
7EC4
330
19
100
AcDbEntity
  8
4
100
AcDbLine
 10
2160.926133539797
 20
4021.895374688102
 30
0.0
 11
2160.926133539797
 21
4179.978392324628
 31
0.0
  0
LINE
  5
7EC5
330
19
100
AcDbEntity
  8
4
100
AcDbLine
 10
2160.926133539797
 20
4179.978392324628
 30
0.0
 11
2775.0
 21
4179.978392324628
 31
0.0
  0
LINE
  5
7EC6
330
19
100
AcDbEntity
  8
4
100
AcDbLine
 10
2775.0
 20
4179.978392324628
 30
0.0
 11
2775.0
 21
4021.895374688102
 31
0.0
  0
LINE
  5
7EC7
330
19
100
AcDbEntity
  8
4
100
AcDbLine
 10
2775.0
 20
4021.895374688102
 30
0.0
 11
2160.926133539797
 21
4021.895374688102
 31
0.0
  0
LINE
  5
7EC8
330
19
100
AcDbEntity
  8
4
100
AcDbLine
 10
0.0
 20
0.0
 30
0.0
 11
0.0
 21
4425.0
 31
0.0
  0
LINE
  5
7EC9
330
19
100
AcDbEntity
  8
4
100
AcDbLine
 10
0.0
 20
4425.0
 30
0.0
 11
3150.0
 21
4425.0
 31
0.0
  0
LINE
  5
7ECA
330
19
100
AcDbEntity
  8
4
100
AcDbLine
 10
3150.0
 20
4425.0
 30
0.0
 11
3150.0
 21
0.0
 31
0.0
  0
LINE
  5
7ECB
330
19
100
AcDbEntity
  8
4
100
AcDbLine
 10
3150.0
 20
0.0
 30
0.0
 11
0.0
 21
0.0
 31
0.0
  0
INSERT
  5
81B0
330
19
100
AcDbEntity
  8
0
100
AcDbBlockReference
  2
YA_N
 10
3845.040867651372
 20
0.636093583309048
 30
0.0
  0
INSERT
  5
81B1
330
19
100
AcDbEntity
  8
0
100
AcDbBlockReference
  2
YA_N
 10
3845.040867651372
 20
0.636093583309048
 30
0.0
  0
INSERT
  5
81B2
330
19
100
AcDbEntity
  8
0
100
AcDbBlockReference
  2
YA_N
 10
5491.151297969808
 20
349.495905772537
 30
0.0
  0
INSERT
  5
81B3
330
19
100
AcDbEntity
  8
0
100
AcDbBlockReference
  2
YA_N
 10
3629.637230982003
 20
-1448.847914662177
 30
0.0
 41
10.0
 42
10.0
 43
10.0
  0
INSERT
  5
81B4
330
19
100
AcDbEntity
  8
0
100
AcDbBlockReference
  2
YA_N
 10
3629.637230982003
 20
-1448.847914662177
 30
0.0
 41
10.0
 42
10.0
 43
10.0
  0
DIMENSION
  5
81D4
330
19
100
AcDbEntity
  8
3
100
AcDbDimension
280
     0
  2
*D3
 10
2708.479931461354
 20
1583.834755623914
 30
0.0
 11
2678.479931461354
 21
1741.334755623913
 31
0.0
 12
-3913.288533118641
 22
0.0
 32
0.0
 70
    32
  1
φ <>
 71
     5
 42
-1.0
 73
     0
 74
     0
 75
     0
  3
MATSU
100
AcDbAlignedDimension
 13
2532.43721034795
 23
1898.834755623914
 33
0.0
 14
2532.437210347951
 24
1583.834755623914
 34
0.0
 50
90.0
100
AcDbRotatedDimension
1001
ACAD
1000
DSTYLE
1002
{
1070
    40
1040
15.0
1002
}
  0
LINE
  5
81D5
330
19
100
AcDbEntity
  8
1
100
AcDbLine
 10
2103.23721034795
 20
1967.334755623913
 30
0.0
 11
2103.23721034795
 21
1725.334755623913
 31
0.0
  0
LINE
  5
81D6
330
19
100
AcDbEntity
  8
1
100
AcDbLine
 10
2528.23721034795
 20
1967.334755623913
 30
0.0
 11
2528.23721034795
 21
1390.334755623914
 31
0.0
  0
LINE
  5
81D7
330
19
100
AcDbEntity
  8
2
100
AcDbLine
 10
1154.875311490296
 20
1741.334755623913
 30
0.0
 11
586.8295780281696
 21
1741.334755623913
 31
0.0
  0
DIMENSION
  5
81D8
330
19
100
AcDbEntity
  8
3
100
AcDbDimension
280
     0
  2
*D4
 10
507.8496285396085
 20
1741.334755623913
 30
0.0
 11
477.8496285396085
 21
1565.834755623914
 31
0.0
 12
-3913.288533118641
 22
0.0
 32
0.0
 70
    32
  1
351
 71
     5
 42
-1.0
 73
     0
 74
     0
 75
     0
  3
MATSU
100
AcDbAlignedDimension
 13
634.8814871143486
 23
1390.334755623914
 33
0.0
 14
604.8876627384006
 24
1741.334755623913
 34
0.0
 50
90.0
100
AcDbRotatedDimension
1001
ACAD
1000
DSTYLE
1002
{
1070
    40
1040
15.0
1002
}
  0
DIMENSION
  5
81D9
330
19
100
AcDbEntity
  8
3
100
AcDbDimension
280
     0
  2
*D5
 10
585.3811216755639
 20
1715.334755623914
 30
0.0
 11
555.3811216755639
 21
1552.834755623913
 31
0.0
 12
-3913.288533118641
 22
0.0
 32
0.0
 70
    32
  1
325
 71
     5
 42
-1.0
 73
     0
 74
     0
 75
     0
  3
MATSU
100
AcDbAlignedDimension
 13
634.8814871143486
 23
1390.334755623914
 33
0.0
 14
634.8814871143486
 24
1715.334755623914
 34
0.0
 50
90.0
100
AcDbRotatedDimension
1001
ACAD
1000
DSTYLE
1002
{
1070
    40
1040
15.0
1002
}
  0
LINE
  5
81DA
330
19
100
AcDbEntity
  8
1
100
AcDbLine
 10
634.8814871143486
 20
1715.334755623914
 30
0.0
 11
694.502313484476
 21
1715.334755623914
 31
0.0
  0
LINE
  5
81DB
330
19
100
AcDbEntity
  8
1
100
AcDbLine
 10
634.8814871143495
 20
1390.334755623914
 30
0.0
 11
634.8814871143495
 21
1363.72358594887
 31
0.0
  0
LINE
  5
81DC
330
19
100
AcDbEntity
  8
1
100
AcDbLine
 10
634.8814871143486
 20
1743.72358594887
 30
0.0
 11
637.8814871143486
 21
1743.72358594887
 31
0.0
  0
LINE
  5
81DD
330
19
100
AcDbEntity
  8
1
100
AcDbLine
 10
634.8814871143486
 20
1718.72358594887
 30
0.0
 11
634.8814871143486
 21
1743.72358594887
 31
0.0
  0
LINE
  5
81DE
330
19
100
AcDbEntity
  8
2
100
AcDbLine
 10
1831.21382577734
 20
1741.334755623913
 30
0.0
 11
2573.290092325573
 21
1741.334755623913
 31
0.0
  0
LINE
  5
81DF
330
19
100
AcDbEntity
  8
1
100
AcDbLine
 10
659.8814871143486
 20
1392.293939297383
 30
0.0
 11
659.8814871143486
 21
1393.293939297383
 31
0.0
  0
LINE
  5
81E0
330
19
100
AcDbEntity
  8
1
100
AcDbLine
 10
659.8814871143486
 20
1393.129640422062
 30
0.0
 11
659.8814871143486
 21
1715.334755623914
 31
0.0
  0
LINE
  5
81E1
330
19
100
AcDbEntity
  8
2
100
AcDbLine
 10
879.8814871143486
 20
2056.991762965436
 30
0.0
 11
879.8814871143486
 21
1200.334755623913
 31
0.0
  0
LINE
  5
81E2
330
19
100
AcDbEntity
  8
1
100
AcDbLine
 10
634.8814871143486
 20
1723.723585948869
 30
0.0
 11
634.8814871143486
 21
1384.8352985034
 31
0.0
  0
LWPOLYLINE
  5
81E3
330
19
100
AcDbEntity
  8
1
100
AcDbPolyline
 90
        6
 70
     0
 43
0.0
 10
634.8814871143486
 20
1390.334755623914
 10
880.0398413473358
 20
1417.742329919304
 42
0.3908380251735333
 10
1156.44636799503
 20
1717.334755623914
 42
0.4468309864143491
 10
865.1669230713551
 20
1967.810932319774
 42
0.3826939024088523
 10
688.6710109080995
 20
1759.834755623915
 42
0.0652413708697207
 10
694.502313484476
 20
1715.334755623914
 42
0.1475914163848442
  0
LINE
  5
81EB
330
19
100
AcDbEntity
  8
1
100
AcDbLine
 10
637.8814871143486
 20
1743.72358594887
 30
0.0
 11
637.8814871143495
 21
1363.72358594887
 31
0.0
  0
LINE
  5
81EC
330
19
100
AcDbEntity
  8
1
100
AcDbLine
 10
634.8814871143495
 20
1363.72358594887
 30
0.0
 11
637.8814871143495
 21
1363.72358594887
 31
0.0
  0
LINE
  5
81ED
330
19
100
AcDbEntity
  8
1
100
AcDbLine
 10
1980.73721034795
 20
1301.334755623914
 30
0.0
 11
2570.73721034795
 21
1301.334755623914
 31
0.0
  0
LINE
  5
81EE
330
19
100
AcDbEntity
  8
1
100
AcDbLine
 10
1980.73721034795
 20
1265.334755623914
 30
0.0
 11
2570.73721034795
 21
1265.334755623914
 31
0.0
  0
LINE
  5
81EF
330
19
100
AcDbEntity
  8
1
100
AcDbLine
 10
1980.73721034795
 20
1200.334755623913
 30
0.0
 11
2570.73721034795
 21
1200.334755623913
 31
0.0
  0
LINE
  5
81F0
330
19
100
AcDbEntity
  8
2
100
AcDbLine
 10
2315.73721034795
 20
2067.83985644968
 30
0.0
 11
2315.73721034795
 21
1200.334755623913
 31
0.0
  0
LINE
  5
81F1
330
19
100
AcDbEntity
  8
1
100
AcDbLine
 10
2570.737210347951
 20
1376.334755623914
 30
0.0
 11
2570.737210347951
 21
1301.334755623914
 31
0.0
  0
LINE
  5
81F2
330
19
100
AcDbEntity
  8
1
100
AcDbLine
 10
1980.737210347949
 20
1376.334755623914
 30
0.0
 11
1980.73721034795
 21
1301.334755623914
 31
0.0
  0
LINE
  5
81F3
330
19
100
AcDbEntity
  8
1
100
AcDbLine
 10
1980.73721034795
 20
1265.334755623914
 30
0.0
 11
1980.73721034795
 21
1200.334755623913
 31
0.0
  0
LINE
  5
81F4
330
19
100
AcDbEntity
  8
1
100
AcDbLine
 10
2570.73721034795
 20
1265.334755623914
 30
0.0
 11
2570.73721034795
 21
1200.334755623913
 31
0.0
  0
LINE
  5
81F5
330
19
100
AcDbEntity
  8
1
100
AcDbLine
 10
667.8814871143486
 20
1301.334755623914
 30
0.0
 11
1567.881487114348
 21
1301.334755623914
 31
0.0
  0
LINE
  5
81F6
330
19
100
AcDbEntity
  8
1
100
AcDbLine
 10
667.8814871143486
 20
1265.334755623914
 30
0.0
 11
1567.881487114348
 21
1265.334755623914
 31
0.0
  0
LINE
  5
81F7
330
19
100
AcDbEntity
  8
1
100
AcDbLine
 10
667.8814871143486
 20
1200.334755623913
 30
0.0
 11
1567.881487114348
 21
1200.334755623913
 31
0.0
  0
LINE
  5
81F8
330
19
100
AcDbEntity
  8
1
100
AcDbLine
 10
667.8814871143486
 20
1376.334755623914
 30
0.0
 11
667.8814871143486
 21
1301.334755623914
 31
0.0
  0
LINE
  5
81F9
330
19
100
AcDbEntity
  8
1
100
AcDbLine
 10
1567.881487114348
 20
1376.334755623914
 30
0.0
 11
1567.881487114348
 21
1301.334755623914
 31
0.0
  0
LINE
  5
81FA
330
19
100
AcDbEntity
  8
1
100
AcDbLine
 10
1567.881487114348
 20
1265.334755623914
 30
0.0
 11
1567.881487114348
 21
1200.334755623913
 31
0.0
  0
LINE
  5
81FB
330
19
100
AcDbEntity
  8
1
100
AcDbLine
 10
667.8814871143486
 20
1265.334755623914
 30
0.0
 11
667.8814871143486
 21
1200.334755623913
 31
0.0
  0
LINE
  5
81FC
330
19
100
AcDbEntity
  8
2
100
AcDbLine
 10
1399.881487114348
 20
1746.732755623914
 30
0.0
 11
1399.881487114348
 21
1200.334755623913
 31
0.0
  0
LINE
  5
81FD
330
19
100
AcDbEntity
  8
2
100
AcDbLine
 10
1590.512815615685
 20
1583.334755623913
 30
0.0
 11
1191.982587114348
 21
1583.334755623913
 31
0.0
  0
LINE
  5
81FE
330
19
100
AcDbEntity
  8
2
100
AcDbLine
 10
879.8814871143486
 20
2420.249357392898
 30
0.0
 11
879.8814871143486
 21
3090.914302944175
 31
0.0
  0
LINE
  5
81FF
330
19
100
AcDbEntity
  8
1
100
AcDbLine
 10
1567.881487114348
 20
3058.913718071325
 30
0.0
 11
667.8814871143486
 21
3058.913718071325
 31
0.0
  0
LINE
  5
8200
330
19
100
AcDbEntity
  8
1
100
AcDbLine
 10
1567.881487114348
 20
2468.913718071325
 30
0.0
 11
667.8814871143486
 21
2468.913718071324
 31
0.0
  0
LINE
  5
8201
330
19
100
AcDbEntity
  8
1
100
AcDbLine
 10
667.8814871143486
 20
2468.913718071324
 30
0.0
 11
667.8814871143486
 21
2591.413718071325
 31
0.0
  0
LINE
  5
8202
330
19
100
AcDbEntity
  8
1
100
AcDbLine
 10
1567.881487114348
 20
2468.913718071324
 30
0.0
 11
1567.881487114348
 21
3058.913718071325
 31
0.0
  0
LINE
  5
8203
330
19
100
AcDbEntity
  8
1
100
AcDbLine
 10
2032.737210347951
 20
1726.334755623913
 30
0.0
 11
2053.237210347951
 21
1726.334755623913
 31
0.0
  0
LINE
  5
8204
330
19
100
AcDbEntity
  8
1
100
AcDbLine
 10
2022.737210347951
 20
1716.334755623914
 30
0.0
 11
2022.73721034795
 21
1656.334755623914
 31
0.0
  0
LINE
  5
8205
330
19
100
AcDbEntity
  8
1
100
AcDbLine
 10
2605.73721034795
 20
1716.334755623914
 30
0.0
 11
2605.73721034795
 21
1656.334755623914
 31
0.0
  0
LINE
  5
8206
330
19
100
AcDbEntity
  8
1
100
AcDbLine
 10
2535.737210347949
 20
1646.334755623913
 30
0.0
 11
2595.737210347949
 21
1646.334755623913
 31
0.0
  0
LINE
  5
8207
330
19
100
AcDbEntity
  8
1
100
AcDbLine
 10
2535.73721034795
 20
1726.334755623913
 30
0.0
 11
2595.73721034795
 21
1726.334755623913
 31
0.0
  0
DIMENSION
  5
8208
330
19
100
AcDbEntity
  8
3
100
AcDbDimension
280
     0
  2
*D6
 10
433.345443994087
 20
1301.334755623914
 30
0.0
 11
403.3454439940869
 21
1521.334755623914
 31
0.0
 12
-3913.288533118641
 22
0.0
 32
0.0
 70
    32
 71
     5
 42
-1.0
 73
     0
 74
     0
 75
     0
  3
MATSU
100
AcDbAlignedDimension
 13
604.8876627384006
 23
1741.334755623913
 33
0.0
 14
667.8814871143486
 24
1301.334755623914
 34
0.0
 50
270.0
100
AcDbRotatedDimension
1001
ACAD
1000
DSTYLE
1002
{
1070
    40
1040
15.0
1002
}
  0
DIMENSION
  5
820F
330
19
100
AcDbEntity
  8
3
100
AcDbDimension
280
     0
  2
*D7
 10
2103.23721034795
 20
2075.856107789176
 30
0.0
 11
2315.73721034795
 21
2105.856107789175
 31
0.0
 12
-3913.288533118641
 22
0.0
 32
0.0
 70
    32
 71
     5
 42
-1.0
 73
     0
 74
     0
 75
     0
  3
MATSU
100
AcDbAlignedDimension
 13
2528.23721034795
 23
1967.334755623913
 33
0.0
 14
2103.23721034795
 24
1967.334755623913
 34
0.0
100
AcDbRotatedDimension
1001
ACAD
1000
DSTYLE
1002
{
1070
    40
1040
15.0
1002
}
  0
LINE
  5
8210
330
19
100
AcDbEntity
  8
1
100
AcDbLine
 10
1845.73721034795
 20
1891.334755623913
 30
0.0
 11
1845.73721034795
 21
1433.334755623913
 31
0.0
  0
CIRCLE
  5
8211
330
19
100
AcDbEntity
  8
1
100
AcDbCircle
 10
879.8814871143486
 20
1741.334755623913
 30
0.0
 40
182.5
  0
LINE
  5
8212
330
19
100
AcDbEntity
  8
1
100
AcDbLine
 10
2032.737210347951
 20
1726.334755623913
 30
0.0
 11
2022.737210347951
 21
1716.334755623914
 31
0.0
  0
LINE
  5
8213
330
19
100
AcDbEntity
  8
1
100
AcDbLine
 10
2022.73721034795
 20
1656.334755623914
 30
0.0
 11
2032.73721034795
 21
1646.334755623913
 31
0.0
  0
LINE
  5
8214
330
19
100
AcDbEntity
  8
1
100
AcDbLine
 10
2595.73721034795
 20
1726.334755623913
 30
0.0
 11
2605.73721034795
 21
1716.334755623914
 31
0.0
  0
LINE
  5
8215
330
19
100
AcDbEntity
  8
1
100
AcDbLine
 10
2605.73721034795
 20
1656.334755623914
 30
0.0
 11
2595.737210347949
 21
1646.334755623913
 31
0.0
  0
LINE
  5
8216
330
19
100
AcDbEntity
  8
1
100
AcDbLine
 10
2036.737210347951
 20
1726.334755623913
 30
0.0
 11
2103.23721034795
 21
1726.334755623914
 31
0.0
  0
LINE
  5
8217
330
19
100
AcDbEntity
  8
1
100
AcDbLine
 10
2535.73721034795
 20
1726.334755623913
 30
0.0
 11
2535.737210347949
 21
1646.334755623913
 31
0.0
  0
LINE
  5
8218
330
19
100
AcDbEntity
  8
1
100
AcDbLine
 10
1542.381487114348
 20
2333.913718071324
 30
0.0
 11
729.8814871143486
 21
2333.913718071324
 31
0.0
  0
DIMENSION
  5
8219
330
19
100
AcDbEntity
  8
3
100
AcDbDimension
280
     0
  2
*D8
 10
2315.73721034795
 20
2167.788194761636
 30
0.0
 11
2460.737210347951
 21
2209.57390904735
 31
0.0
 12
-3913.288533118641
 22
0.0
 32
0.0
 70
    32
  1
(<>)
 71
     5
 42
-1.0
 73
     0
 74
     0
 75
     0
  3
MATSU
100
AcDbAlignedDimension
 13
2605.73721034795
 23
1719.334755623914
 33
0.0
 14
2315.73721034795
 24
2138.813114858804
 34
0.0
100
AcDbRotatedDimension
1001
ACAD
1000
DSTYLE
1002
{
1070
    40
1040
15.0
1002
}
  0
DIMENSION
  5
821A
330
19
100
AcDbEntity
  8
3
100
AcDbDimension
280
     0
  2
*D9
 10
667.8814871143486
 20
3169.435953266232
 30
0.0
 11
1117.881487114348
 21
3199.435953266232
 31
0.0
 12
-3913.288533118641
 22
0.0
 32
0.0
 70
    32
 71
     5
 42
-1.0
 73
     0
 74
     0
 75
     0
  3
MATSU
100
AcDbAlignedDimension
 13
1567.881487114348
 23
3058.913718071325
 33
0.0
 14
667.8814871143486
 24
3058.913718071325
 34
0.0
100
AcDbRotatedDimension
1001
ACAD
1000
DSTYLE
1002
{
1070
    40
1040
15.0
1002
}
  0
DIMENSION
  5
821B
330
19
100
AcDbEntity
  8
3
100
AcDbDimension
280
     0
  2
*D10
 10
484.392982979084
 20
2468.913718071324
 30
0.0
 11
454.392982979084
 21
2763.913718071324
 31
0.0
 12
-3913.288533118641
 22
0.0
 32
0.0
 70
    32
 71
     5
 42
-1.0
 73
     0
 74
     0
 75
     0
  3
MATSU
100
AcDbAlignedDimension
 13
667.8814871143486
 23
3058.913718071325
 33
0.0
 14
667.8814871143486
 24
2468.913718071324
 34
0.0
 50
270.0
100
AcDbRotatedDimension
1001
ACAD
1000
DSTYLE
1002
{
1070
    40
1040
15.0
1002
}
  0
LINE
  5
821C
330
19
100
AcDbEntity
  8
1
100
AcDbLine
 10
894.8814871143486
 20
2524.913718071325
 30
0.0
 11
894.8814871143486
 21
2591.413718071325
 31
0.0
  0
LINE
  5
821D
330
19
100
AcDbEntity
  8
1
100
AcDbLine
 10
864.8814871143486
 20
2524.913718071325
 30
0.0
 11
864.8814871143486
 21
2591.413718071325
 31
0.0
  0
LINE
  5
821E
330
19
100
AcDbEntity
  8
1
100
AcDbLine
 10
1845.73721034795
 20
1433.334755623913
 30
0.0
 11
2037.73721034795
 21
1433.334755623913
 31
0.0
  0
LINE
  5
821F
330
19
100
AcDbEntity
  8
1
100
AcDbLine
 10
2037.73721034795
 20
1891.334755623913
 30
0.0
 11
2037.73721034795
 21
1868.550177863754
 31
0.0
  0
DIMENSION
  5
8220
330
19
100
AcDbEntity
  8
3
100
AcDbDimension
280
     0
  2
*D11
 10
1845.73721034795
 20
2167.788194761636
 30
0.0
 11
2080.73721034795
 21
2209.57390904735
 31
0.0
 70
    32
  1
(<>)
 71
     5
 42
470.0
 73
     0
 74
     0
 75
     0
  3
MATSU
100
AcDbAlignedDimension
 13
2315.73721034795
 23
2138.813114858804
 33
0.0
 14
1845.73721034795
 24
1881.857006032758
 34
0.0
100
AcDbRotatedDimension
1001
ACAD
1000
DSTYLE
1002
{
1070
   287
1070
     4
1070
    40
1040
15.0
1070
    75
1070
     1
1070
   279
1070
     1
1070
   289
1070
     3
1002
}
  0
LINE
  5
8221
330
19
100
AcDbEntity
  8
2
100
AcDbLine
 10
1592.960185519277
 20
2803.913718071325
 30
0.0
 11
564.9579316676918
 21
2803.913718071325
 31
0.0
  0
LINE
  5
8222
330
19
100
AcDbEntity
  8
1
100
AcDbLine
 10
1845.73721034795
 20
1891.334755623914
 30
0.0
 11
2037.73721034795
 21
1891.334755623913
 31
0.0
  0
LINE
  5
8223
330
19
100
AcDbEntity
  8
1
100
AcDbLine
 10
2037.73721034795
 20
1466.583046992601
 30
0.0
 11
2037.73721034795
 21
1433.334755623914
 31
0.0
  0
LINE
  5
8224
330
19
100
AcDbEntity
  8
1
100
AcDbLine
 10
1145.881487114349
 20
2591.413718071325
 30
0.0
 11
1145.881487114349
 21
3016.413718071325
 31
0.0
  0
LINE
  5
8225
330
19
100
AcDbEntity
  8
1
100
AcDbLine
 10
634.8814871143486
 20
3016.413718071325
 30
0.0
 11
1145.881487114349
 21
3016.413718071325
 31
0.0
  0
LINE
  5
8226
330
19
100
AcDbEntity
  8
1
100
AcDbLine
 10
634.8814871143486
 20
2591.413718071325
 30
0.0
 11
1145.881487114349
 21
2591.413718071325
 31
0.0
  0
DIMENSION
  5
8229
330
19
100
AcDbEntity
  8
3
100
AcDbDimension
280
     0
  2
*D12
 10
879.8814871143486
 20
2096.433401306706
 30
0.0
 11
757.3814871143485
 21
2126.433401306706
 31
0.0
 12
-3913.288533118641
 22
0.0
 32
0.0
 70
    32
 71
     5
 42
-1.0
 73
     0
 74
     0
 75
     0
  3
MATSU
100
AcDbAlignedDimension
 13
634.8814871143486
 23
1743.72358594887
 33
0.0
 14
879.8814871143486
 24
2055.924448958518
 34
0.0
100
AcDbRotatedDimension
1001
ACAD
1000
DSTYLE
1002
{
1070
    40
1040
15.0
1002
}
  0
DIMENSION
  5
822A
330
19
100
AcDbEntity
  8
3
100
AcDbDimension
280
     0
  2
*D13
 10
1156.44636799503
 20
2096.433401306706
 30
0.0
 11
1018.163927554689
 21
2126.433401306706
 31
0.0
 70
    32
  1
274
 71
     5
 42
-1.0
 73
     0
 74
     0
 75
     0
  3
MATSU
100
AcDbAlignedDimension
 13
879.8814871143486
 23
2055.924448958518
 33
0.0
 14
1156.44636799503
 24
1717.334755623913
 34
0.0
100
AcDbRotatedDimension
1001
ACAD
1000
DSTYLE
1002
{
1070
   287
1070
     4
1070
    40
1040
15.0
1070
    75
1070
     1
1070
   279
1070
     1
1070
   289
1070
     3
1002
}
  0
LINE
  5
822C
330
19
100
AcDbEntity
  8
1
100
AcDbLine
 10
2103.23721034795
 20
1967.334755623913
 30
0.0
 11
2528.23721034795
 21
1967.334755623913
 31
0.0
  0
LINE
  5
822D
330
19
100
AcDbEntity
  8
1
100
AcDbLine
 10
2353.153712972475
 20
1390.334755623913
 30
0.0
 11
2528.23721034795
 21
1390.334755623914
 31
0.0
  0
LINE
  5
822E
330
19
100
AcDbEntity
  8
1
100
AcDbLine
 10
634.8814871143486
 20
2566.413718071325
 30
0.0
 11
634.8814871143486
 21
3041.413718071325
 31
0.0
  0
LINE
  5
822F
330
19
100
AcDbEntity
  8
1
100
AcDbLine
 10
634.8814871143486
 20
3041.413718071325
 30
0.0
 11
638.0814871143484
 21
3041.413718071325
 31
0.0
  0
LINE
  5
8230
330
19
100
AcDbEntity
  8
1
100
AcDbLine
 10
634.8814871143486
 20
2566.413718071325
 30
0.0
 11
638.0814871143484
 21
2566.413718071325
 31
0.0
  0
LINE
  5
8231
330
19
100
AcDbEntity
  8
1
100
AcDbLine
 10
638.0814871143484
 20
2566.413718071325
 30
0.0
 11
638.0814871143484
 21
3041.413718071325
 31
0.0
  0
LINE
  5
8235
330
19
100
AcDbEntity
  8
1
100
AcDbLine
 10
667.8814871143486
 20
3016.413718071325
 30
0.0
 11
667.8814871143486
 21
3058.913718071325
 31
0.0
  0
DIMENSION
  5
8237
330
19
100
AcDbEntity
  8
3
100
AcDbDimension
280
     0
  2
*D14
 10
433.345443994087
 20
1200.334755623914
 30
0.0
 11
395.8454439940867
 21
1088.906184195342
 31
0.0
 70
    32
 71
     5
 42
-1.0
 73
     0
 74
     0
 75
     0
  3
IGA
100
AcDbAlignedDimension
 13
667.8814871143486
 23
1265.334755623914
 33
0.0
 14
667.8814871143486
 24
1200.334755623913
 34
0.0
 50
90.0
100
AcDbRotatedDimension
1001
ACAD
1000
DSTYLE
1002
{
1070
   287
1070
     3
1070
    40
1040
15.0
1070
   143
1040
0.039
1070
   172
1070
     1
1070
   271
1070
     0
1070
   279
1070
     0
1070
   288
1070
     1
1070
     6
1000
DOT
1002
}
  0
LINE
  5
8238
330
19
100
AcDbEntity
  8
1
100
AcDbLine
 10
667.8814871143486
 20
1376.334755623914
 30
0.0
 11
1599.881487114348
 21
1376.334755623914
 31
0.0
  0
LINE
  5
8239
330
19
100
AcDbEntity
  8
1
100
AcDbLine
 10
1980.73721034795
 20
1376.334755623914
 30
0.0
 11
2570.73721034795
 21
1376.334755623914
 31
0.0
  0
LINE
  5
823A
330
19
100
AcDbEntity
  8
1
100
AcDbLine
 10
1945.73721034795
 20
1816.334755623913
 30
0.0
 11
1945.73721034795
 21
1508.334755623913
 31
0.0
  0
LINE
  5
823B
330
19
100
AcDbEntity
  8
1
100
AcDbLine
 10
2005.73721034795
 20
1816.334755623913
 30
0.0
 11
2005.73721034795
 21
1508.334755623913
 31
0.0
  0
INSERT
  5
823C
330
19
100
AcDbEntity
  8
0
100
AcDbBlockReference
  2
YA_N
 10
12154.48618140065
 20
614.8406867845188
 30
0.0
  0
INSERT
  5
823D
330
19
100
AcDbEntity
  8
0
100
AcDbBlockReference
  2
YA_N
 10
12154.48618140065
 20
614.8406867845188
 30
0.0
  0
INSERT
  5
823E
330
19
100
AcDbEntity
  8
0
100
AcDbBlockReference
  2
YA_N
 10
13800.59661171909
 20
963.7004989737468
 30
0.0
  0
INSERT
  5
823F
330
19
100
AcDbEntity
  8
0
100
AcDbBlockReference
  2
YA_N
 10
11939.08254473128
 20
-834.6433214609678
 30
0.0
 41
10.0
 42
10.0
 43
10.0
  0
INSERT
  5
8240
330
19
100
AcDbEntity
  8
0
100
AcDbBlockReference
  2
YA_N
 10
11939.08254473128
 20
-834.6433214609678
 30
0.0
 41
10.0
 42
10.0
 43
10.0
  0
INSERT
  5
8241
330
19
100
AcDbEntity
  8
0
  6
ByBlock
 62
     2
100
AcDbBlockReference
  2
YA_N
 10
13310.39622341823
 20
214.7420030360333
 30
0.0
 41
30.0
 42
30.0
 43
30.0
 50
90.0
  0
INSERT
  5
8242
330
19
100
AcDbEntity
  8
0
  6
ByBlock
 62
     2
100
AcDbBlockReference
  2
YA_N
 10
13310.39622341823
 20
214.7420030360333
 30
0.0
 41
30.0
 42
30.0
 43
30.0
 50
90.0
  0
ARC
  5
8243
330
19
100
AcDbEntity
  8
1
100
AcDbCircle
 10
1399.881487114348
 20
1583.334755623913
 30
0.0
 40
150.0
100
AcDbArc
 50
253.0987975628936
 51
73.09879756289366
  0
CIRCLE
  5
8244
330
19
100
AcDbEntity
  8
1
100
AcDbCircle
 10
1399.881487114348
 20
1583.334755623913
 30
0.0
 40
75.0
  0
LINE
  5
8245
330
19
100
AcDbEntity
  8
1
100
AcDbLine
 10
1564.881487114348
 20
1451.334755623913
 30
0.0
 11
1234.881487114348
 21
1451.334755623913
 31
0.0
  0
ARC
  5
8246
330
19
100
AcDbEntity
  8
1
100
AcDbCircle
 10
1399.881487114348
 20
1583.334755623913
 30
0.0
 40
142.5
100
AcDbArc
 50
180.0
 51
244.787
  0
ARC
  5
8247
330
19
100
AcDbEntity
  8
1
100
AcDbCircle
 10
1399.881487114348
 20
1583.334755623913
 30
0.0
 40
142.5
100
AcDbArc
 50
295.1874
 51
180.0
  0
LINE
  5
8248
330
19
100
AcDbEntity
  8
1
100
AcDbLine
 10
1339.340187114349
 20
1454.334755623914
 30
0.0
 11
1460.422787114348
 21
1454.334755623914
 31
0.0
  0
LINE
  5
8249
330
19
100
AcDbEntity
  8
1
100
AcDbLine
 10
1269.881487114348
 20
1451.334755623913
 30
0.0
 11
1319.881487114348
 21
1451.334755623913
 31
0.0
  0
LINE
  5
824A
330
19
100
AcDbEntity
  8
1
100
AcDbLine
 10
1280.355887114349
 20
1505.426055623914
 30
0.0
 11
1269.881487114348
 21
1466.334755623913
 31
0.0
  0
LINE
  5
824B
330
19
100
AcDbEntity
  8
1
100
AcDbLine
 10
1269.881487114348
 20
1466.137355623914
 30
0.0
 11
1269.881487114348
 21
1451.334755623913
 31
0.0
  0
LINE
  5
824C
330
19
100
AcDbEntity
  8
1
100
AcDbLine
 10
1529.881487114348
 20
1451.334755623913
 30
0.0
 11
1479.881487114348
 21
1451.334755623913
 31
0.0
  0
LINE
  5
824D
330
19
100
AcDbEntity
  8
1
100
AcDbLine
 10
1519.364287114348
 20
1505.585355623914
 30
0.0
 11
1529.881487114348
 21
1466.334755623913
 31
0.0
  0
LINE
  5
824E
330
19
100
AcDbEntity
  8
1
100
AcDbLine
 10
1529.881487114348
 20
1466.137355623914
 30
0.0
 11
1529.881487114348
 21
1451.334755623913
 31
0.0
  0
LINE
  5
824F
330
19
100
AcDbEntity
  8
1
100
AcDbLine
 10
2428.153412972474
 20
1725.334755623913
 30
0.0
 11
2076.153712972474
 21
1725.334755623913
 31
0.0
  0
LINE
  5
8250
330
19
100
AcDbEntity
  8
1
100
AcDbLine
 10
2428.153412972474
 20
1451.334755623913
 30
0.0
 11
2076.153712972474
 21
1451.334755623914
 31
0.0
  0
LINE
  5
8251
330
19
100
AcDbEntity
  8
2
100
AcDbLine
 10
2432.663412972475
 20
1583.334755623913
 30
0.0
 11
1973.279712972475
 21
1583.334755623913
 31
0.0
  0
LINE
  5
8252
330
19
100
AcDbEntity
  8
1
100
AcDbLine
 10
2428.153412972474
 20
1725.334755623914
 30
0.0
 11
2428.153412972474
 21
1451.334755623913
 31
0.0
  0
LINE
  5
8253
330
19
100
AcDbEntity
  8
1
100
AcDbLine
 10
2076.153712972475
 20
1725.334755623914
 30
0.0
 11
2076.153712972475
 21
1451.334755623913
 31
0.0
  0
LINE
  5
8254
330
19
100
AcDbEntity
  8
1
100
AcDbLine
 10
2066.153712972475
 20
1525.334755623913
 30
0.0
 11
2066.153712972475
 21
1641.334755623914
 31
0.0
  0
LINE
  5
8255
330
19
100
AcDbEntity
  8
1
100
AcDbLine
 10
2076.153712972475
 20
1524.334755623914
 30
0.0
 11
2067.153712972475
 21
1524.334755623914
 31
0.0
  0
ARC
  5
8256
330
19
100
AcDbEntity
  8
1
100
AcDbCircle
 10
2067.153712972475
 20
1525.334755623913
 30
0.0
 40
0.9999
100
AcDbArc
 50
179.9965
 51
270.007
  0
LINE
  5
8257
330
19
100
AcDbEntity
  8
1
100
AcDbLine
 10
2042.153712972475
 20
1605.334755623914
 30
0.0
 11
2005.73721034795
 21
1605.334755623913
 31
0.0
  0
LINE
  5
8258
330
19
100
AcDbEntity
  8
1
100
AcDbLine
 10
2059.153712972475
 20
1564.334755623914
 30
0.0
 11
2005.73721034795
 21
1564.334755623913
 31
0.0
  0
LINE
  5
8259
330
19
100
AcDbEntity
  8
1
100
AcDbLine
 10
2059.153712972475
 20
1602.334755623914
 30
0.0
 11
2005.73721034795
 21
1602.334755623914
 31
0.0
  0
LINE
  5
825A
330
19
100
AcDbEntity
  8
1
100
AcDbLine
 10
2076.153712972475
 20
1642.334755623913
 30
0.0
 11
2067.153712972475
 21
1642.334755623913
 31
0.0
  0
LINE
  5
825B
330
19
100
AcDbEntity
  8
1
100
AcDbLine
 10
2059.153712972475
 20
1563.334755623914
 30
0.0
 11
2059.153712972475
 21
1603.334755623913
 31
0.0
  0
LINE
  5
825C
330
19
100
AcDbEntity
  8
1
100
AcDbLine
 10
2066.153712972475
 20
1563.334755623914
 30
0.0
 11
2059.153712972475
 21
1563.334755623914
 31
0.0
  0
LINE
  5
825D
330
19
100
AcDbEntity
  8
1
100
AcDbLine
 10
2066.153712972475
 20
1603.334755623913
 30
0.0
 11
2059.153712972475
 21
1603.334755623913
 31
0.0
  0
LINE
  5
825E
330
19
100
AcDbEntity
  8
1
100
AcDbLine
 10
2042.153712972475
 20
1602.334755623914
 30
0.0
 11
2042.153712972475
 21
1605.334755623914
 31
0.0
  0
ARC
  5
825F
330
19
100
AcDbEntity
  8
1
100
AcDbCircle
 10
2067.152712972475
 20
1641.334755623914
 30
0.0
 40
0.9998000000000001
100
AcDbArc
 50
89.98600000000001
 51
180.007
  0
LINE
  5
8260
330
19
100
AcDbEntity
  8
1
100
AcDbLine
 10
1599.881487114348
 20
1416.334755623913
 30
0.0
 11
1199.881487114348
 21
1416.334755623913
 31
0.0
  0
LINE
  5
8261
330
19
100
AcDbEntity
  8
1
100
AcDbLine
 10
1599.881487114348
 20
1416.334755623913
 30
0.0
 11
1599.881487114348
 21
1376.334755623914
 31
0.0
  0
LINE
  5
8262
330
19
100
AcDbEntity
  8
1
100
AcDbLine
 10
1199.881487114348
 20
1416.334755623913
 30
0.0
 11
1199.881487114348
 21
1376.334755623912
 31
0.0
  0
LINE
  5
8263
330
19
100
AcDbEntity
  8
1
100
AcDbLine
 10
1564.881487114348
 20
1451.334755623913
 30
0.0
 11
1574.881487114348
 21
1416.334755623913
 31
0.0
  0
LINE
  5
8264
330
19
100
AcDbEntity
  8
1
100
AcDbLine
 10
1234.881487114348
 20
1451.334755623913
 30
0.0
 11
1224.881487114348
 21
1416.334755623913
 31
0.0
  0
LINE
  5
8265
330
19
100
AcDbEntity
  8
1
100
AcDbLine
 10
1257.881487114348
 20
2902.44407810597
 30
0.0
 11
1531.881487114348
 21
2902.44407810597
 31
0.0
  0
LINE
  5
8266
330
19
100
AcDbEntity
  8
1
100
AcDbLine
 10
1257.881487114348
 20
2550.444378105971
 30
0.0
 11
1531.881487114348
 21
2550.444378105971
 31
0.0
  0
LINE
  5
8267
330
19
100
AcDbEntity
  8
1
100
AcDbLine
 10
1457.881487114348
 20
2540.444378105971
 30
0.0
 11
1341.881487114348
 21
2540.444378105971
 31
0.0
  0
LINE
  5
8268
330
19
100
AcDbEntity
  8
1
100
AcDbLine
 10
1531.881487114348
 20
2902.44407810597
 30
0.0
 11
1531.881487114348
 21
2550.44437810597
 31
0.0
  0
LINE
  5
8269
330
19
100
AcDbEntity
  8
1
100
AcDbLine
 10
1458.881487114348
 20
2550.444378105971
 30
0.0
 11
1458.881487114348
 21
2541.444378105971
 31
0.0
  0
ARC
  5
826A
330
19
100
AcDbEntity
  8
1
100
AcDbCircle
 10
1457.881487114348
 20
2541.444378105971
 30
0.0
 40
0.9999
100
AcDbArc
 50
269.9965
 51
0.0069999999999659
  0
LINE
  5
826B
330
19
100
AcDbEntity
  8
1
100
AcDbLine
 10
1257.881487114348
 20
2902.44407810597
 30
0.0
 11
1257.881487114348
 21
2550.44437810597
 31
0.0
  0
LINE
  5
826C
330
19
100
AcDbEntity
  8
2
100
AcDbLine
 10
1399.881487114348
 20
2906.95407810597
 30
0.0
 11
1399.881487114348
 21
2447.570378105971
 31
0.0
  0
LINE
  5
826D
330
19
100
AcDbEntity
  8
1
100
AcDbLine
 10
1418.881487114348
 20
2533.444378105971
 30
0.0
 11
1418.881487114348
 21
2493.913718071324
 31
0.0
  0
LINE
  5
826E
330
19
100
AcDbEntity
  8
1
100
AcDbLine
 10
1380.881487114348
 20
2533.444378105971
 30
0.0
 11
1380.881487114348
 21
2493.913718071324
 31
0.0
  0
LINE
  5
826F
330
19
100
AcDbEntity
  8
1
100
AcDbLine
 10
1380.881487114348
 20
2516.444378105971
 30
0.0
 11
1377.881487114348
 21
2516.444378105971
 31
0.0
  0
LINE
  5
8270
330
19
100
AcDbEntity
  8
1
100
AcDbLine
 10
1377.881487114348
 20
2516.444378105971
 30
0.0
 11
1377.881487114348
 21
2493.913718071324
 31
0.0
  0
LINE
  5
8271
330
19
100
AcDbEntity
  8
1
100
AcDbLine
 10
1419.881487114349
 20
2533.444378105971
 30
0.0
 11
1379.881487114348
 21
2533.444378105971
 31
0.0
  0
LINE
  5
8272
330
19
100
AcDbEntity
  8
1
100
AcDbLine
 10
1419.881487114349
 20
2540.444378105971
 30
0.0
 11
1419.881487114349
 21
2533.444378105971
 31
0.0
  0
LINE
  5
8273
330
19
100
AcDbEntity
  8
1
100
AcDbLine
 10
1379.881487114348
 20
2540.444378105971
 30
0.0
 11
1379.881487114348
 21
2533.444378105971
 31
0.0
  0
LINE
  5
8274
330
19
100
AcDbEntity
  8
1
100
AcDbLine
 10
1340.881487114348
 20
2550.444378105971
 30
0.0
 11
1340.881487114348
 21
2541.444378105971
 31
0.0
  0
ARC
  5
8275
330
19
100
AcDbEntity
  8
1
100
AcDbCircle
 10
1341.881487114348
 20
2541.443378105971
 30
0.0
 40
0.9998000000000001
100
AcDbArc
 50
179.986
 51
270.007
  0
ARC
  5
8276
330
19
100
AcDbEntity
  8
1
100
AcDbCircle
 10
879.8814871143486
 20
1741.334755623913
 30
0.0
 40
150.0
100
AcDbArc
 50
73.09879756289366
 51
253.0987975628936
  0
CIRCLE
  5
8277
330
19
100
AcDbEntity
  8
1
100
AcDbCircle
 10
879.8814871143486
 20
1741.334755623913
 30
0.0
 40
75.0
  0
LINE
  5
8278
330
19
100
AcDbEntity
  8
1
100
AcDbLine
 10
1443.489828167796
 20
1726.855878078297
 30
0.0
 11
923.489828167796
 21
1884.855878078297
 31
0.0
  0
LINE
  5
8279
330
19
100
AcDbEntity
  8
1
100
AcDbLine
 10
1356.273146060901
 20
1439.81363316953
 30
0.0
 11
836.273146060901
 21
1597.81363316953
 31
0.0
  0
LINE
  5
827A
330
19
100
AcDbEntity
  8
1
100
AcDbLine
 10
1421.685657641072
 20
1655.095316851105
 30
0.0
 11
901.6856576410718
 21
1813.095316851105
 31
0.0
  0
LINE
  5
827B
330
19
100
AcDbEntity
  8
1
100
AcDbLine
 10
1378.077316587625
 20
1511.574194396722
 30
0.0
 11
858.0773165876253
 21
1669.574194396721
 31
0.0
  0
LINE
  5
827C
330
19
100
AcDbEntity
  8
1
100
AcDbLine
 10
1945.73721034795
 20
1816.334755623913
 30
0.0
 11
2005.73721034795
 21
1816.334755623913
 31
0.0
  0
LINE
  5
827D
330
19
100
AcDbEntity
  8
1
100
AcDbLine
 10
1945.73721034795
 20
1508.334755623914
 30
0.0
 11
2005.73721034795
 21
1508.334755623914
 31
0.0
  0
LINE
  5
827E
330
19
100
AcDbEntity
  8
1
100
AcDbLine
 10
1945.73721034795
 20
1658.334755623914
 30
0.0
 11
2005.73721034795
 21
1658.334755623914
 31
0.0
  0
LINE
  5
827F
330
19
100
AcDbEntity
  8
1
100
AcDbLine
 10
1945.73721034795
 20
1666.334755623913
 30
0.0
 11
2005.73721034795
 21
1666.334755623913
 31
0.0
  0
LINE
  5
8280
330
19
100
AcDbEntity
  8
1
100
AcDbLine
 10
2032.73721034795
 20
1646.334755623913
 30
0.0
 11
2076.153712972475
 21
1646.334755623913
 31
0.0
  0
LINE
  5
8281
330
19
100
AcDbEntity
  8
1
100
AcDbLine
 10
2083.153712972475
 20
1416.334755623913
 30
0.0
 11
2353.153712972475
 21
1416.334755623913
 31
0.0
  0
LINE
  5
8282
330
19
100
AcDbEntity
  8
1
100
AcDbLine
 10
2353.153712972475
 20
1451.334755623913
 30
0.0
 11
2353.153712972475
 21
1376.334755623914
 31
0.0
  0
LINE
  5
8283
330
19
100
AcDbEntity
  8
1
100
AcDbLine
 10
2083.153712972475
 20
1451.334755623914
 30
0.0
 11
2083.153712972475
 21
1376.334755623914
 31
0.0
  0
LINE
  5
8284
330
19
100
AcDbEntity
  8
1
100
AcDbLine
 10
729.8814871143486
 20
2333.913718071324
 30
0.0
 11
729.8814871143486
 21
2525.913718071324
 31
0.0
  0
LINE
  5
8285
330
19
100
AcDbEntity
  8
1
100
AcDbLine
 10
1542.381487114348
 20
2333.913718071324
 30
0.0
 11
1542.381487114348
 21
2525.913718071324
 31
0.0
  0
LINE
  5
8286
330
19
100
AcDbEntity
  8
1
100
AcDbLine
 10
1542.381487114348
 20
2525.913718071324
 30
0.0
 11
729.8814871143486
 21
2525.913718071324
 31
0.0
  0
LINE
  5
8287
330
19
100
AcDbEntity
  8
1
100
AcDbLine
 10
1474.881487114348
 20
2433.913718071324
 30
0.0
 11
1324.881487114348
 21
2433.913718071324
 31
0.0
  0
LINE
  5
8288
330
19
100
AcDbEntity
  8
1
100
AcDbLine
 10
1474.881487114348
 20
2493.913718071324
 30
0.0
 11
1324.881487114348
 21
2493.913718071324
 31
0.0
  0
LINE
  5
8289
330
19
100
AcDbEntity
  8
1
100
AcDbLine
 10
954.8814871143486
 20
2433.913718071324
 30
0.0
 11
954.8814871143486
 21
2493.913718071324
 31
0.0
  0
LINE
  5
828A
330
19
100
AcDbEntity
  8
1
100
AcDbLine
 10
804.8814871143486
 20
2433.913718071324
 30
0.0
 11
804.8814871143486
 21
2493.913718071324
 31
0.0
  0
LINE
  5
828B
330
19
100
AcDbEntity
  8
1
100
AcDbLine
 10
1474.881487114348
 20
2433.913718071324
 30
0.0
 11
1474.881487114348
 21
2493.913718071324
 31
0.0
  0
LINE
  5
828C
330
19
100
AcDbEntity
  8
1
100
AcDbLine
 10
1324.881487114348
 20
2433.913718071324
 30
0.0
 11
1324.881487114348
 21
2493.913718071324
 31
0.0
  0
LINE
  5
828D
330
19
100
AcDbEntity
  8
1
100
AcDbLine
 10
954.8814871143486
 20
2493.913718071324
 30
0.0
 11
804.8814871143486
 21
2493.913718071324
 31
0.0
  0
LINE
  5
828E
330
19
100
AcDbEntity
  8
1
100
AcDbLine
 10
954.8814871143486
 20
2433.913718071324
 30
0.0
 11
804.8814871143486
 21
2433.913718071324
 31
0.0
  0
DIMENSION
  5
84B1
330
19
100
AcDbEntity
  8
3
100
AcDbDimension
280
     0
  2
*D15
 10
879.8814871143486
 20
1086.961882264959
 30
0.0
 11
773.8814871143485
 21
1124.461882264959
 31
0.0
 70
    32
 71
     5
 42
-1.0
 73
     0
 74
     0
 75
     0
  3
IGA
100
AcDbAlignedDimension
 13
667.8814871143486
 23
1200.334755623913
 33
0.0
 14
879.8814871143486
 24
1200.334755623913
 34
0.0
100
AcDbRotatedDimension
1001
ACAD
1000
DSTYLE
1002
{
1070
   287
1070
     3
1070
    40
1040
15.0
1070
   143
1040
0.039
1070
   172
1070
     1
1070
   271
1070
     0
1070
   279
1070
     0
1002
}
  0
DIMENSION
  5
84BE
330
19
100
AcDbEntity
  8
3
100
AcDbDimension
280
     0
  2
*D16
 10
1567.881487114348
 20
1086.961882264959
 30
0.0
 11
1223.881487114348
 21
1124.461882264959
 31
0.0
 70
    32
 71
     5
 42
-1.0
 73
     0
 74
     0
 75
     0
  3
IGA
100
AcDbAlignedDimension
 13
879.8814871143486
 23
1200.334755623913
 33
0.0
 14
1567.881487114348
 24
1200.334755623913
 34
0.0
100
AcDbRotatedDimension
1001
ACAD
1000
DSTYLE
1002
{
1070
   287
1070
     3
1070
    40
1040
15.0
1070
   143
1040
0.039
1070
   172
1070
     1
1070
   271
1070
     0
1070
   279
1070
     0
1002
}
  0
DIMENSION
  5
84CB
330
19
100
AcDbEntity
  8
3
100
AcDbDimension
280
     0
  2
*D17
 10
2315.73721034795
 20
1086.961882264959
 30
0.0
 11
2148.23721034795
 21
1124.461882264959
 31
0.0
 70
    32
 71
     5
 42
-1.0
 73
     0
 74
     0
 75
     0
  3
IGA
100
AcDbAlignedDimension
 13
1980.73721034795
 23
1200.334755623913
 33
0.0
 14
2315.73721034795
 24
1200.334755623913
 34
0.0
100
AcDbRotatedDimension
1001
ACAD
1000
DSTYLE
1002
{
1070
   287
1070
     3
1070
    40
1040
15.0
1070
   143
1040
0.039
1070
   172
1070
     1
1070
   271
1070
     0
1070
   279
1070
     0
1002
}
  0
DIMENSION
  5
84D8
330
19
100
AcDbEntity
  8
3
100
AcDbDimension
280
     0
  2
*D18
 10
2570.73721034795
 20
1086.961882264959
 30
0.0
 11
2443.23721034795
 21
1124.461882264959
 31
0.0
 70
    32
 71
     5
 42
-1.0
 73
     0
 74
     0
 75
     0
  3
IGA
100
AcDbAlignedDimension
 13
2315.73721034795
 23
1200.334755623913
 33
0.0
 14
2570.73721034795
 24
1200.334755623913
 34
0.0
100
AcDbRotatedDimension
1001
ACAD
1000
DSTYLE
1002
{
1070
   287
1070
     3
1070
    40
1040
15.0
1070
   143
1040
0.039
1070
   172
1070
     1
1070
   271
1070
     0
1070
   279
1070
     0
1002
}
  0
DIMENSION
  5
84E5
330
19
100
AcDbEntity
  8
3
100
AcDbDimension
280
     0
  2
*D20
 10
433.2543844582324
 20
1265.334755623914
 30
0.0
 11
361.4686701725181
 21
1283.334755623913
 31
0.0
 70
    32
 71
     5
 42
-1.0
 73
     0
 74
     0
 75
     0
  3
IGA
100
AcDbAlignedDimension
 13
667.8814871143486
 23
1301.334755623914
 33
0.0
 14
667.8814871143486
 24
1265.334755623914
 34
0.0
 50
90.0
100
AcDbRotatedDimension
1001
ACAD
1000
DSTYLE
1002
{
1070
   172
1070
     1
1070
    76
1070
     1
1070
    75
1070
     1
1070
    40
1040
15.0
1070
     3
1000
(<>)
1070
   271
1070
     0
1070
     7
1000
_NONE
1070
     6
1000
_NONE
1070
   143
1040
0.039
1002
}
  0
DIMENSION
  5
84F3
330
19
100
AcDbEntity
  8
3
100
AcDbDimension
280
     0
  2
*D21
 10
433.8332542749867
 20
1967.334755623914
 30
0.0
 11
396.3332542749864
 21
1854.334755623914
 31
0.0
 70
    32
 71
     5
 42
-1.0
 73
     0
 74
     0
 75
     0
  3
IGA
100
AcDbAlignedDimension
 13
586.8295780281696
 23
1741.334755623913
 33
0.0
 14
935.5806922212243
 24
1967.334755623913
 34
0.0
 50
90.0
100
AcDbRotatedDimension
1001
ACAD
1000
DSTYLE
1002
{
1070
   287
1070
     3
1070
    40
1040
15.0
1070
   143
1040
0.039
1070
   172
1070
     1
1070
   271
1070
     0
1070
   279
1070
     0
1002
}
  0
DIMENSION
  5
8500
330
19
100
AcDbEntity
  8
3
100
AcDbDimension
280
     0
  2
*D22
 10
293.3807117231317
 20
1200.334755623914
 30
0.0
 11
244.0949974374173
 21
1583.834755623914
 31
0.0
 70
    32
 71
     5
 42
-1.0
 73
     0
 74
     0
 75
     0
  3
IGA
100
AcDbAlignedDimension
 13
928.0806922212244
 23
1967.334755623913
 33
0.0
 14
667.8814871143486
 24
1200.334755623913
 34
0.0
 50
90.0
100
AcDbRotatedDimension
1001
ACAD
1000
DSTYLE
1002
{
1070
   287
1070
     3
1070
     3
1000
(<>)
1070
    40
1040
15.0
1070
   143
1040
0.039
1070
   172
1070
     1
1070
   271
1070
     0
1070
   279
1070
     0
1002
}
  0
DIMENSION
  5
8512
330
19
100
AcDbEntity
  8
3
100
AcDbDimension
280
     0
  2
*D23
 10
1599.881487114348
 20
2178.165967782881
 30
0.0
 11
1117.381487114348
 21
2215.665967782881
 31
0.0
 70
    32
 71
     5
 42
-1.0
 73
     0
 74
     0
 75
     0
  3
IGA
100
AcDbAlignedDimension
 13
634.8814871143486
 23
1743.72358594887
 33
0.0
 14
1599.881487114348
 24
1416.334755623913
 34
0.0
100
AcDbRotatedDimension
1001
ACAD
1000
DSTYLE
1002
{
1070
   287
1070
     3
1070
    40
1040
15.0
1070
   143
1040
0.039
1070
   172
1070
     1
1070
   271
1070
     0
1070
   279
1070
     0
1002
}
  0
ENDSEC
  0
SECTION
  2
OBJECTS
  0
DICTIONARY
  5
C
330
0
100
AcDbDictionary
281
     1
  3
ACAD_CIP_PREVIOUS_PRODUCT_INFO
350
8609
  3
ACAD_COLOR
350
85EC
  3
ACAD_DETAILVIEWSTYLE
350
8605
  3
ACAD_GROUP
350
D
  3
ACAD_LAYOUT
350
8517
  3
ACAD_MATERIAL
350
85BA
  3
ACAD_MLEADERSTYLE
350
8601
  3
ACAD_MLINESTYLE
350
E
  3
ACAD_PLOTSETTINGS
350
8518
  3
ACAD_PLOTSTYLENAME
350
8515
  3
ACAD_SCALELIST
350
85EF
  3
ACAD_SECTIONVIEWSTYLE
350
8603
  3
ACAD_TABLESTYLE
350
85ED
  3
ACAD_VISUALSTYLE
350
85D3
  3
ACDB_RECOMPOSE_DATA
350
8651
  3
AcDbVariableDictionary
350
8640
  3
AcDsDecomposeData
350
8657
  0
DICTIONARY
  5
8634
330
2
100
AcDbDictionary
280
     1
281
     1
  3
ACAD_LAYERSTATES
360
8635
  0
DICTIONARY
  5
8627
330
F
100
AcDbDictionary
280
     1
281
     1
  3
ADSK_XREC_LAYER_RECONCILED
360
8628
  0
DICTIONARY
  5
8629
330
31
100
AcDbDictionary
280
     1
281
     1
  3
ADSK_XREC_LAYER_RECONCILED
360
862A
  0
DICTIONARY
  5
862B
330
76D0
100
AcDbDictionary
280
     1
281
     1
  3
ADSK_XREC_LAYER_RECONCILED
360
862C
  0
DICTIONARY
  5
862D
330
76D1
100
AcDbDictionary
280
     1
281
     1
  3
ADSK_XREC_LAYER_RECONCILED
360
862E
  0
DICTIONARY
  5
862F
330
76D2
100
AcDbDictionary
280
     1
281
     1
  3
ADSK_XREC_LAYER_RECONCILED
360
8630
  0
DICTIONARY
  5
8544
330
19
100
AcDbDictionary
280
     1
281
     1
  3
ACAD_LAYOUTSELFREF
360
8545
  3
ACAD_SORTENTS
360
860B
  0
DICTIONARY
  5
8542
330
16
100
AcDbDictionary
280
     1
281
     1
  3
ACAD_LAYOUTSELFREF
360
8543
  0
XRECORD
  5
8609
102
{ACAD_REACTORS
330
C
102
}
330
C
100
AcDbXrecord
280
     1
300
ACDLT
300
2023
300

  0
DICTIONARY
  5
85EC
102
{ACAD_REACTORS
330
C
102
}
330
C
100
AcDbDictionary
281
     1
  0
DICTIONARY
  5
8605
102
{ACAD_REACTORS
330
C
102
}
330
C
100
AcDbDictionary
281
     1
  3
Metric50
350
8606
  0
DICTIONARY
  5
D
102
{ACAD_REACTORS
330
C
102
}
330
C
100
AcDbDictionary
281
     1
  0
DICTIONARY
  5
8517
102
{ACAD_REACTORS
330
C
102
}
330
C
100
AcDbDictionary
281
     1
  3
Model
350
8519
  3
ﾚｲｱｳﾄ1
350
851A
  0
DICTIONARY
  5
85BA
102
{ACAD_REACTORS
330
C
102
}
330
C
100
AcDbDictionary
281
     1
  3
ByBlock
350
85C3
  3
ByLayer
350
85BB
  3
Global
350
85CB
  0
DICTIONARY
  5
8601
102
{ACAD_REACTORS
330
C
102
}
330
C
100
AcDbDictionary
281
     1
  3
Standard
350
8602
  0
DICTIONARY
  5
E
102
{ACAD_REACTORS
330
C
102
}
330
C
100
AcDbDictionary
281
     1
  3
STANDARD
350
1C
  0
DICTIONARY
  5
8518
102
{ACAD_REACTORS
330
C
102
}
330
C
100
AcDbDictionary
281
     1
  0
ACDBDICTIONARYWDFLT
  5
8515
102
{ACAD_REACTORS
330
C
102
}
330
C
100
AcDbDictionary
281
     1
  3
Normal
350
8516
100
AcDbDictionaryWithDefault
340
8516
  0
DICTIONARY
  5
85EF
102
{ACAD_REACTORS
330
C
102
}
330
C
100
AcDbDictionary
281
     1
  3
A0
350
85F0
  3
A1
350
85F1
  3
A2
350
85F2
  3
A3
350
85F3
  3
A4
350
85F4
  3
A5
350
85F5
  3
A6
350
85F6
  3
A7
350
85F7
  3
A8
350
85F8
  3
A9
350
85F9
  3
B0
350
85FA
  3
B1
350
85FB
  3
B2
350
85FC
  3
B3
350
85FD
  3
B4
350
85FE
  3
B5
350
85FF
  3
B6
350
8600
  0
DICTIONARY
  5
8603
102
{ACAD_REACTORS
330
C
102
}
330
C
100
AcDbDictionary
281
     1
  3
Metric50
350
8604
  0
DICTIONARY
  5
85ED
102
{ACAD_REACTORS
330
C
102
}
330
C
100
AcDbDictionary
281
     1
  3
Standard
350
85EE
  0
DICTIONARY
  5
85D3
102
{ACAD_REACTORS
330
C
102
}
330
C
100
AcDbDictionary
281
     1
  3
2dWireframe
350
85D9
  3
Basic
350
85D8
  3
Brighten
350
85DF
  3
ColorChange
350
85E3
  3
Conceptual
350
85DC
  3
Dim
350
85DE
  3
EdgeColorOff
350
85EB
  3
Facepattern
350
85E2
  3
Flat
350
85D4
  3
FlatWithEdges
350
85D5
  3
Gouraud
350
85D6
  3
GouraudWithEdges
350
85D7
  3
Hidden
350
85DB
  3
JitterOff
350
85E9
  3
Linepattern
350
85E1
  3
OverhangOff
350
85EA
  3
Realistic
350
85DD
  3
Shaded
350
85E8
  3
Shaded with edges
350
85E7
  3
Shades of Gray
350
85E4
  3
Sketchy
350
85E5
  3
Thicken
350
85E0
  3
Wireframe
350
85DA
  3
X-Ray
350
85E6
  0
XRECORD
  5
8651
102
{ACAD_REACTORS
330
C
102
}
330
C
100
AcDbXrecord
280
     1
 90
        1
330
8220
330
822A
330
85EE
  0
DICTIONARY
  5
8640
102
{ACAD_REACTORS
330
C
102
}
330
C
100
AcDbDictionary
281
     1
  3
CANNOSCALE
350
8646
  3
CMLEADERSTYLE
350
8642
  3
CTABLESTYLE
350
8641
  3
CVIEWDETAILSTYLE
350
8643
  3
CVIEWSECTIONSTYLE
350
8644
  3
LAYEREVAL
350
8648
  3
LAYERNOTIFY
350
8649
  3
LIGHTINGUNITS
350
8647
  3
MARKUPASSISTMODE
350
864E
  3
MSLTSCALE
350
8645
  0
DICTIONARY
  5
8657
102
{ACAD_REACTORS
330
C
102
}
330
C
100
AcDbDictionary
281
     1
  3
AcDsRecords
350
8659
  3
AcDsSchemas
350
8658
1001
ACAD
1070
     2
  0
DICTIONARY
  5
8635
102
{ACAD_REACTORS
330
8634
102
}
330
8634
100
AcDbDictionary
281
     1
  0
XRECORD
  5
8628
102
{ACAD_REACTORS
330
8627
102
}
330
8627
100
AcDbXrecord
280
     1
290
     1
  0
XRECORD
  5
862A
102
{ACAD_REACTORS
330
8629
102
}
330
8629
100
AcDbXrecord
280
     1
290
     1
  0
XRECORD
  5
862C
102
{ACAD_REACTORS
330
862B
102
}
330
862B
100
AcDbXrecord
280
     1
290
     1
  0
XRECORD
  5
862E
102
{ACAD_REACTORS
330
862D
102
}
330
862D
100
AcDbXrecord
280
     1
290
     1
  0
XRECORD
  5
8630
102
{ACAD_REACTORS
330
862F
102
}
330
862F
100
AcDbXrecord
280
     1
290
     1
  0
XRECORD
  5
8545
102
{ACAD_REACTORS
330
8544
102
}
330
8544
100
AcDbXrecord
280
     1
340
19
  0
SORTENTSTABLE
  5
860B
102
{ACAD_REACTORS
330
8544
102
}
330
8544
100
AcDbSortentsTable
330
19
331
81F1
  5
81F2
331
81F2
  5
81F3
331
81F3
  5
81F4
331
81F4
  5
81F5
331
81F5
  5
81F6
331
81F6
  5
81F7
331
81F7
  5
81F8
331
81F8
  5
81F9
331
81F9
  5
81FA
331
81FA
  5
81FB
331
81FB
  5
81FC
331
81FC
  5
81FD
331
81FD
  5
81FE
331
81FE
  5
81FF
331
81FF
  5
8200
331
8200
  5
8201
331
8201
  5
8202
331
8202
  5
8203
331
8203
  5
8204
331
8204
  5
8205
331
8205
  5
8206
331
8206
  5
8207
331
8207
  5
8208
331
8208
  5
820F
331
820F
  5
8210
331
8210
  5
8211
331
8211
  5
8212
331
8212
  5
8213
331
8213
  5
8214
331
8214
  5
8215
331
8215
  5
8216
331
8216
  5
8217
331
8217
  5
8218
331
8218
  5
8219
331
8219
  5
821A
331
821A
  5
821B
331
821B
  5
821C
331
821C
  5
821D
331
821D
  5
821E
331
821E
  5
821F
331
821F
  5
8220
331
8220
  5
8221
331
8221
  5
8222
331
8222
  5
8223
331
8223
  5
8224
331
8224
  5
8225
331
8225
  5
8226
331
8226
  5
8229
331
8229
  5
822A
331
822A
  5
822C
331
822C
  5
822D
331
822D
  5
822E
331
822E
  5
822F
331
822F
  5
8230
331
8230
  5
8231
331
8231
  5
8235
331
8235
  5
8237
331
8237
  5
8238
331
8238
  5
8239
331
8239
  5
823A
331
823A
  5
823B
331
823B
  5
823C
331
823C
  5
823D
331
823D
  5
823E
331
823E
  5
823F
331
823F
  5
8240
331
8240
  5
8241
331
8241
  5
8242
331
8242
  5
8243
331
8243
  5
8244
331
8244
  5
8245
331
8245
  5
8246
331
8246
  5
8247
331
8247
  5
8248
331
8248
  5
8249
331
8249
  5
824A
331
824A
  5
824B
331
824B
  5
824C
331
824C
  5
824D
331
824D
  5
824E
331
824E
  5
824F
331
824F
  5
8250
331
8250
  5
8251
331
8251
  5
8252
331
8252
  5
8253
331
8253
  5
8254
331
8254
  5
8255
331
8255
  5
8256
331
8256
  5
8257
331
8257
  5
8258
331
8258
  5
8259
331
8259
  5
825A
331
825A
  5
825B
331
825B
  5
825C
331
825C
  5
825D
331
825D
  5
825E
331
825E
  5
825F
331
825F
  5
8260
331
8260
  5
8261
331
8261
  5
8262
331
8262
  5
8263
331
8263
  5
8264
331
8264
  5
8265
331
8265
  5
8266
331
8266
  5
8267
331
8267
  5
8268
331
8268
  5
8269
331
8269
  5
826A
331
826A
  5
826B
331
826B
  5
826C
331
826C
  5
826D
331
826D
  5
826E
331
826E
  5
826F
331
826F
  5
8270
331
8270
  5
8271
331
8271
  5
8272
331
8272
  5
8273
331
8273
  5
8274
331
8274
  5
8275
331
8275
  5
8276
331
8276
  5
8277
331
8277
  5
8278
331
8278
  5
8279
331
8279
  5
827A
331
827A
  5
827B
331
827B
  5
827C
331
827C
  5
827D
331
827D
  5
827E
331
827E
  5
827F
331
827F
  5
8280
331
8280
  5
8281
331
8281
  5
8282
331
8282
  5
8283
331
8283
  5
8284
331
8284
  5
8285
331
8285
  5
8286
331
8286
  5
8287
331
8287
  5
8288
331
8288
  5
8289
331
8289
  5
828A
331
828A
  5
828B
331
828B
  5
828C
331
828C
  5
828D
331
828D
  5
828E
331
828E
  5
84B1
331
84B1
  5
84BE
331
84BE
  5
84CB
331
84CB
  5
84D8
331
84D8
  5
84E5
331
84E5
  5
84F3
331
84F3
  5
8500
331
8500
  5
8512
331
8512
  5
860A
  0
XRECORD
  5
8543
102
{ACAD_REACTORS
330
8542
102
}
330
8542
100
AcDbXrecord
280
     1
340
16
  0
ACDBDETAILVIEWSTYLE
  5
8606
102
{ACAD_XDICTIONARY
360
865C
102
}
102
{ACAD_REACTORS
330
8605
102
}
330
8605
100
AcDbModelDocViewStyle
 70
     0
  3
Metric50
290
     0
100
AcDbDetailViewStyle
 70
     0
 71
     0
 90
        3
 71
     1
340
10
 62
   256
 40
5.0
340
0
 62
   256
 40
5.0
300

 40
0.0
280
     1
 71
     2
340
15
 90
       25
 62
   256
 71
     3
340
10
 62
   256
 40
5.0
 90
        0
 40
15.0
 90
        1
300
%<\AcVar ViewDetailId>% (%<\AcVar ViewScale \f "%sn">%)
 71
     4
340
15
 90
       25
 62
   256
340
15
 90
       25
 62
   256
280
     0
  0
LAYOUT
  5
8519
102
{ACAD_REACTORS
330
8517
102
}
330
8517
100
AcDbPlotSettings
  1

  2
EPSON LP-9300
  4

  6

 40
0.0
 41
0.0
 42
0.0
 43
0.0
 44
0.0
 45
0.0
 46
0.0
 47
0.0
 48
0.0
 49
0.0
140
0.0
141
0.0
142
1.0
143
1.0
 70
  1712
 72
     0
 73
     0
 74
     0
  7

 75
     0
147
1.0
 76
     0
 77
     2
 78
   300
148
0.0
149
0.0
100
AcDbLayout
  1
Model
 70
     1
 71
     0
 10
0.0
 20
0.0
 11
12.0
 21
9.0
 12
0.0
 22
0.0
 32
0.0
 14
0.0
 24
0.0
 34
0.0
 15
0.0
 25
0.0
 35
0.0
146
0.0
 13
0.0
 23
0.0
 33
0.0
 16
1.0
 26
0.0
 36
0.0
 17
0.0
 27
1.0
 37
0.0
 76
     0
330
19
331
85B8
  0
LAYOUT
  5
851A
102
{ACAD_REACTORS
330
8517
102
}
330
8517
100
AcDbPlotSettings
  1

  2
EPSON LP-9300
  4

  6

 40
0.0
 41
0.0
 42
0.0
 43
0.0
 44
0.0
 45
0.0
 46
0.0
 47
0.0
 48
0.0
 49
0.0
140
0.0
141
0.0
142
1.0
143
1.0
 70
   688
 72
     0
 73
     0
 74
     5
  7

 75
    16
147
1.0
 76
     0
 77
     2
 78
   300
148
0.0
149
0.0
100
AcDbLayout
  1
ﾚｲｱｳﾄ1
 70
     1
 71
     1
 10
0.0
 20
0.0
 11
12.0
 21
9.0
 12
0.0
 22
0.0
 32
0.0
 14
1.000000000000000E+20
 24
1.000000000000000E+20
 34
1.000000000000000E+20
 15
-1.000000000000000E+20
 25
-1.000000000000000E+20
 35
-1.000000000000000E+20
146
0.0
 13
0.0
 23
0.0
 33
0.0
 16
1.0
 26
0.0
 36
0.0
 17
0.0
 27
1.0
 37
0.0
 76
     0
330
16
  0
MATERIAL
  5
85C3
102
{ACAD_XDICTIONARY
360
85C4
102
}
102
{ACAD_REACTORS
330
85BA
102
}
330
85BA
100
AcDbMaterial
  1
ByBlock
 72
     0
 43
0.0208333333333333
 43
0.0
 43
0.0
 43
0.0
 43
0.0
 43
0.0208333333333333
 43
0.0
 43
0.0
 43
0.0
 43
0.0
 43
1.0
 43
0.0
 43
0.0
 43
0.0
 43
0.0
 43
1.0
 77
     0
 47
0.0208333333333333
 47
0.0
 47
0.0
 47
0.0
 47
0.0
 47
0.0208333333333333
 47
0.0
 47
0.0
 47
0.0
 47
0.0
 47
1.0
 47
0.0
 47
0.0
 47
0.0
 47
0.0
 47
1.0
171
     0
 49
0.0208333333333333
 49
0.0
 49
0.0
 49
0.0
 49
0.0
 49
0.0208333333333333
 49
0.0
 49
0.0
 49
0.0
 49
0.0
 49
1.0
 49
0.0
 49
0.0
 49
0.0
 49
0.0
 49
1.0
175
     0
142
0.0208333333333333
142
0.0
142
0.0
142
0.0
142
0.0
142
0.0208333333333333
142
0.0
142
0.0
142
0.0
142
0.0
142
1.0
142
0.0
142
0.0
142
0.0
142
0.0
142
1.0
179
     0
144
0.0208333333333333
144
0.0
144
0.0
144
0.0
144
0.0
144
0.0208333333333333
144
0.0
144
0.0
144
0.0
144
0.0
144
1.0
144
0.0
144
0.0
144
0.0
144
0.0
144
1.0
147
0.0208333333333333
147
0.0
147
0.0
147
0.0
147
0.0
147
0.0208333333333333
147
0.0
147
0.0
147
0.0
147
0.0
147
1.0
147
0.0
147
0.0
147
0.0
147
0.0
147
1.0
  0
MATERIAL
  5
85BB
102
{ACAD_XDICTIONARY
360
85BC
102
}
102
{ACAD_REACTORS
330
85BA
102
}
330
85BA
100
AcDbMaterial
  1
ByLayer
 72
     0
 43
0.0208333333333333
 43
0.0
 43
0.0
 43
0.0
 43
0.0
 43
0.0208333333333333
 43
0.0
 43
0.0
 43
0.0
 43
0.0
 43
1.0
 43
0.0
 43
0.0
 43
0.0
 43
0.0
 43
1.0
 77
     0
 47
0.0208333333333333
 47
0.0
 47
0.0
 47
0.0
 47
0.0
 47
0.0208333333333333
 47
0.0
 47
0.0
 47
0.0
 47
0.0
 47
1.0
 47
0.0
 47
0.0
 47
0.0
 47
0.0
 47
1.0
171
     0
 49
0.0208333333333333
 49
0.0
 49
0.0
 49
0.0
 49
0.0
 49
0.0208333333333333
 49
0.0
 49
0.0
 49
0.0
 49
0.0
 49
1.0
 49
0.0
 49
0.0
 49
0.0
 49
0.0
 49
1.0
175
     0
142
0.0208333333333333
142
0.0
142
0.0
142
0.0
142
0.0
142
0.0208333333333333
142
0.0
142
0.0
142
0.0
142
0.0
142
1.0
142
0.0
142
0.0
142
0.0
142
0.0
142
1.0
179
     0
144
0.0208333333333333
144
0.0
144
0.0
144
0.0
144
0.0
144
0.0208333333333333
144
0.0
144
0.0
144
0.0
144
0.0
144
1.0
144
0.0
144
0.0
144
0.0
144
0.0
144
1.0
147
0.0208333333333333
147
0.0
147
0.0
147
0.0
147
0.0
147
0.0208333333333333
147
0.0
147
0.0
147
0.0
147
0.0
147
1.0
147
0.0
147
0.0
147
0.0
147
0.0
147
1.0
  0
MATERIAL
  5
85CB
102
{ACAD_XDICTIONARY
360
85CC
102
}
102
{ACAD_REACTORS
330
85BA
102
}
330
85BA
100
AcDbMaterial
  1
Global
 72
     0
 43
0.0208333333333333
 43
0.0
 43
0.0
 43
0.0
 43
0.0
 43
0.0208333333333333
 43
0.0
 43
0.0
 43
0.0
 43
0.0
 43
1.0
 43
0.0
 43
0.0
 43
0.0
 43
0.0
 43
1.0
 77
     0
 47
0.0208333333333333
 47
0.0
 47
0.0
 47
0.0
 47
0.0
 47
0.0208333333333333
 47
0.0
 47
0.0
 47
0.0
 47
0.0
 47
1.0
 47
0.0
 47
0.0
 47
0.0
 47
0.0
 47
1.0
171
     0
 49
0.0208333333333333
 49
0.0
 49
0.0
 49
0.0
 49
0.0
 49
0.0208333333333333
 49
0.0
 49
0.0
 49
0.0
 49
0.0
 49
1.0
 49
0.0
 49
0.0
 49
0.0
 49
0.0
 49
1.0
175
     0
142
0.0208333333333333
142
0.0
142
0.0
142
0.0
142
0.0
142
0.0208333333333333
142
0.0
142
0.0
142
0.0
142
0.0
142
1.0
142
0.0
142
0.0
142
0.0
142
0.0
142
1.0
179
     0
144
0.0208333333333333
144
0.0
144
0.0
144
0.0
144
0.0
144
0.0208333333333333
144
0.0
144
0.0
144
0.0
144
0.0
144
1.0
144
0.0
144
0.0
144
0.0
144
0.0
144
1.0
147
0.0208333333333333
147
0.0
147
0.0
147
0.0
147
0.0
147
0.0208333333333333
147
0.0
147
0.0
147
0.0
147
0.0
147
1.0
147
0.0
147
0.0
147
0.0
147
0.0
147
1.0
  0
MLEADERSTYLE
  5
8602
102
{ACAD_REACTORS
330
8601
102
}
330
8601
100
AcDbMLeaderStyle
179
     2
170
     2
171
     1
172
     0
 90
        2
 40
0.0
 41
0.0
173
     1
 91
-1056964608
340
13
 92
       -2
290
     1
 42
2.0
291
     1
 43
0.36
  3
Standard
 44
4.0
300

342
10
174
     1
178
     6
175
     1
176
     0
 93
-1056964608
 45
4.0
292
     0
297
     0
 46
4.0
 94
-1056964608
 47
1.0
 49
1.0
140
1.0
293
     1
141
0.0
294
     1
177
     0
142
1.0
295
     0
296
     0
143
0.125
271
     0
272
     9
273
     9
298
     1
  0
MLINESTYLE
  5
1C
102
{ACAD_REACTORS
330
E
102
}
330
E
100
AcDbMlineStyle
  2
STANDARD
 70
     0
  3

 62
     0
 51
90.0
 52
90.0
 71
     2
 49
0.5
 62
   256
  6
BYLAYER
 49
-0.5
 62
   256
  6
BYLAYER
  0
ACDBPLACEHOLDER
  5
8516
102
{ACAD_REACTORS
330
8515
102
}
330
8515
  0
SCALE
  5
85F0
102
{ACAD_REACTORS
330
85EF
102
}
330
85EF
100
AcDbScale
 70
     0
300
1:1
140
1.0
141
1.0
290
     1
  0
SCALE
  5
85F1
102
{ACAD_REACTORS
330
85EF
102
}
330
85EF
100
AcDbScale
 70
     0
300
1:2
140
1.0
141
2.0
290
     0
  0
SCALE
  5
85F2
102
{ACAD_REACTORS
330
85EF
102
}
330
85EF
100
AcDbScale
 70
     0
300
1:4
140
1.0
141
4.0
290
     0
  0
SCALE
  5
85F3
102
{ACAD_REACTORS
330
85EF
102
}
330
85EF
100
AcDbScale
 70
     0
300
1:5
140
1.0
141
5.0
290
     0
  0
SCALE
  5
85F4
102
{ACAD_REACTORS
330
85EF
102
}
330
85EF
100
AcDbScale
 70
     0
300
1:8
140
1.0
141
8.0
290
     0
  0
SCALE
  5
85F5
102
{ACAD_REACTORS
330
85EF
102
}
330
85EF
100
AcDbScale
 70
     0
300
1:10
140
1.0
141
10.0
290
     0
  0
SCALE
  5
85F6
102
{ACAD_REACTORS
330
85EF
102
}
330
85EF
100
AcDbScale
 70
     0
300
1:16
140
1.0
141
16.0
290
     0
  0
SCALE
  5
85F7
102
{ACAD_REACTORS
330
85EF
102
}
330
85EF
100
AcDbScale
 70
     0
300
1:20
140
1.0
141
20.0
290
     0
  0
SCALE
  5
85F8
102
{ACAD_REACTORS
330
85EF
102
}
330
85EF
100
AcDbScale
 70
     0
300
1:30
140
1.0
141
30.0
290
     0
  0
SCALE
  5
85F9
102
{ACAD_REACTORS
330
85EF
102
}
330
85EF
100
AcDbScale
 70
     0
300
1:40
140
1.0
141
40.0
290
     0
  0
SCALE
  5
85FA
102
{ACAD_REACTORS
330
85EF
102
}
330
85EF
100
AcDbScale
 70
     0
300
1:50
140
1.0
141
50.0
290
     0
  0
SCALE
  5
85FB
102
{ACAD_REACTORS
330
85EF
102
}
330
85EF
100
AcDbScale
 70
     0
300
1:100
140
1.0
141
100.0
290
     0
  0
SCALE
  5
85FC
102
{ACAD_REACTORS
330
85EF
102
}
330
85EF
100
AcDbScale
 70
     0
300
2:1
140
2.0
141
1.0
290
     0
  0
SCALE
  5
85FD
102
{ACAD_REACTORS
330
85EF
102
}
330
85EF
100
AcDbScale
 70
     0
300
4:1
140
4.0
141
1.0
290
     0
  0
SCALE
  5
85FE
102
{ACAD_REACTORS
330
85EF
102
}
330
85EF
100
AcDbScale
 70
     0
300
8:1
140
8.0
141
1.0
290
     0
  0
SCALE
  5
85FF
102
{ACAD_REACTORS
330
85EF
102
}
330
85EF
100
AcDbScale
 70
     0
300
10:1
140
10.0
141
1.0
290
     0
  0
SCALE
  5
8600
102
{ACAD_REACTORS
330
85EF
102
}
330
85EF
100
AcDbScale
 70
     0
300
100:1
140
100.0
141
1.0
290
     0
  0
ACDBSECTIONVIEWSTYLE
  5
8604
102
{ACAD_XDICTIONARY
360
865A
102
}
102
{ACAD_REACTORS
330
8603
102
}
330
8603
100
AcDbModelDocViewStyle
 70
     0
  3
Metric50
290
     0
100
AcDbSectionViewStyle
 70
     0
 71
     0
 90
      102
 71
     1
340
10
 62
   256
 40
5.0
340
0
340
0
 62
   256
 40
5.0
300
I, O, Q, S, X, Z
 40
10.0
 90
        0
 40
2.5
 90
        0
 71
     2
340
15
 90
       25
 62
   256
340
15
 90
       50
 62
   256
 40
5.0
 40
2.5
 40
5.0
 71
     3
340
10
 62
   256
 40
5.0
 90
        0
 40
15.0
 90
        1
300
%<\AcVar ViewSectionStartId>%-%<\AcVar ViewSectionEndId>% (%<\AcVar ViewScale \f "%sn">%)
 71
     4
 62
   256
 62
   257
300
ANSI31
 40
1.0
 90
        0
290
     0
290
     0
 90
        6
 40
0.0
 40
1.570796326794896
 40
0.2617993877991494
 40
1.308996938995747
 40
-0.2617993877991494
 40
1.832595714594046
  0
TABLESTYLE
  5
85EE
102
{ACAD_XDICTIONARY
360
864F
102
}
102
{ACAD_REACTORS
330
85ED
102
}
330
85ED
100
AcDbTableStyle
280
     0
  3
Standard
 70
     0
 71
     0
 40
1.5
 41
1.5
280
     0
281
     0
  7
STANDARD
140
4.5
170
     2
 62
     0
 63
     7
283
     0
 90
      512
 91
        0
  1

274
    -2
284
     1
 64
     0
275
    -2
285
     1
 65
     0
276
    -2
286
     1
 66
     0
277
    -2
287
     1
 67
     0
278
    -2
288
     1
 68
     0
279
    -2
289
     1
 69
     0
  7
STANDARD
140
6.0
170
     5
 62
     0
 63
     7
283
     0
 90
      512
 91
        0
  1

274
    -2
284
     1
 64
     0
275
    -2
285
     1
 65
     0
276
    -2
286
     1
 66
     0
277
    -2
287
     1
 67
     0
278
    -2
288
     1
 68
     0
279
    -2
289
     1
 69
     0
  7
STANDARD
140
4.5
170
     5
 62
     0
 63
     7
283
     0
 90
      512
 91
        0
  1

274
    -2
284
     1
 64
     0
275
    -2
285
     1
 65
     0
276
    -2
286
     1
 66
     0
277
    -2
287
     1
 67
     0
278
    -2
288
     1
 68
     0
279
    -2
289
     1
 69
     0
  0
VISUALSTYLE
  5
85D9
102
{ACAD_REACTORS
330
85D3
102
}
330
85D3
100
AcDbVisualStyle
  2
2dWireframe
 70
     4
177
     3
291
     0
 70
    58
 90
        0
176
     1
 90
        2
176
     1
 90
        0
176
     1
 90
        0
176
     1
 40
0.6
176
     1
 40
30.0
176
     1
 62
     7
420
 16777215
176
     1
 90
        1
176
     1
 90
        4
176
     1
 62
     7
176
     1
 62
   257
176
     1
 90
        1
176
     1
 90
        1
176
     1
 40
1.0
176
     1
 90
        0
176
     1
 62
   257
176
     1
 40
1.0
176
     1
 90
        1
176
     1
 90
        6
176
     1
 90
        2
176
     1
 62
     7
176
     1
 90
        5
176
     1
 90
        0
176
     1
 90
        0
176
     1
290
     0
176
     1
 90
        1
176
     1
 40
0.0
176
     1
 90
        0
176
     1
290
     1
176
     1
290
     1
176
     1
290
     0
176
     1
290
     0
176
     1
290
     0
176
     1
290
     0
176
     1
290
     0
176
     1
290
     0
176
     1
290
     0
176
     1
 90
       50
176
     1
 40
0.0
176
     1
 40
1.0
176
     1
 90
        0
176
     1
 62
    18
420
        0
176
     1
 90
       50
176
     1
 90
        3
176
     1
 62
     5
420
      255
176
     1
290
     0
176
     1
 90
       50
176
     1
 90
       50
176
     1
 90
       50
176
     1
290
     0
176
     1
 90
       50
176
     1
 62
   256
176
     0
 40
1.0
176
     0
 90
        2
176
     1
  1
strokes_ogs.tif
176
     1
290
     0
176
     1
 40
1.0
176
     1
 40
1.0
176
     1
1001
ACAD
1000
AcDbSavedByObjectVersion
1070
     0
  0
VISUALSTYLE
  5
85D8
102
{ACAD_REACTORS
330
85D3
102
}
330
85D3
100
AcDbVisualStyle
  2
Basic
 70
     7
177
     3
291
     1
 70
    58
 90
        1
176
     1
 90
        0
176
     1
 90
        1
176
     1
 90
        0
176
     1
 40
0.6
176
     1
 40
30.0
176
     1
 62
     7
420
 16777215
176
     1
 90
        0
176
     1
 90
        4
176
     1
 62
     7
176
     1
 62
   257
176
     1
 90
        1
176
     1
 90
        1
176
     1
 40
1.0
176
     1
 90
        8
176
     1
 62
     7
176
     1
 40
1.0
176
     1
 90
        1
176
     1
 90
        6
176
     1
 90
        2
176
     1
 62
     7
176
     1
 90
        5
176
     1
 90
        0
176
     1
 90
        0
176
     1
290
     0
176
     1
 90
        1
176
     1
 40
0.0
176
     1
 90
        0
176
     1
290
     0
176
     1
290
     1
176
     1
290
     1
176
     1
290
     0
176
     1
290
     0
176
     1
290
     0
176
     1
290
     0
176
     1
290
     0
176
     1
290
     0
176
     1
 90
       50
176
     1
 40
0.0
176
     1
 40
1.0
176
     1
 90
        0
176
     1
 62
    18
420
        0
176
     1
 90
       50
176
     1
 90
        3
176
     1
 62
     5
420
      255
176
     1
290
     0
176
     1
 90
       50
176
     1
 90
       50
176
     1
 90
       50
176
     1
290
     0
176
     1
 90
       50
176
     1
 62
   256
176
     0
 40
1.0
176
     0
 90
        2
176
     1
  1
strokes_ogs.tif
176
     1
290
     0
176
     1
 40
1.0
176
     1
 40
1.0
176
     1
1001
ACAD
1000
AcDbSavedByObjectVersion
1070
     0
  0
VISUALSTYLE
  5
85DF
102
{ACAD_REACTORS
330
85D3
102
}
330
85D3
100
AcDbVisualStyle
  2
Brighten
 70
    12
177
     3
291
     1
 70
    58
 90
        2
176
     1
 90
        2
176
     1
 90
        0
176
     1
 90
        0
176
     1
 40
0.6
176
     1
 40
30.0
176
     1
 62
     7
420
 16777215
176
     1
 90
        1
176
     1
 90
        4
176
     1
 62
     7
176
     1
 62
   257
176
     1
 90
        1
176
     1
 90
        1
176
     1
 40
1.0
176
     1
 90
        8
176
     1
 62
     7
176
     1
 40
1.0
176
     1
 90
        1
176
     1
 90
        6
176
     1
 90
        2
176
     1
 62
     7
176
     1
 90
        5
176
     1
 90
        0
176
     1
 90
        0
176
     1
290
     0
176
     1
 90
        1
176
     1
 40
50.0
176
     1
 90
        0
176
     1
290
     0
176
     1
290
     1
176
     1
290
     1
176
     1
290
     0
176
     1
290
     0
176
     1
290
     0
176
     1
290
     0
176
     1
290
     0
176
     1
290
     0
176
     1
 90
       50
176
     1
 40
0.0
176
     1
 40
1.0
176
     1
 90
        0
176
     1
 62
    18
420
        0
176
     1
 90
       50
176
     1
 90
        3
176
     1
 62
     5
420
      255
176
     1
290
     0
176
     1
 90
       50
176
     1
 90
       50
176
     1
 90
       50
176
     1
290
     0
176
     1
 90
       50
176
     1
 62
   256
176
     0
 40
1.0
176
     0
 90
        2
176
     1
  1
strokes_ogs.tif
176
     1
290
     0
176
     1
 40
1.0
176
     1
 40
1.0
176
     1
1001
ACAD
1000
AcDbSavedByObjectVersion
1070
     0
  0
VISUALSTYLE
  5
85E3
102
{ACAD_REACTORS
330
85D3
102
}
330
85D3
100
AcDbVisualStyle
  2
ColorChange
 70
    16
177
     3
291
     1
 70
    58
 90
        2
176
     1
 90
        2
176
     1
 90
        3
176
     1
 90
        0
176
     1
 40
0.6
176
     1
 40
30.0
176
     1
 62
     8
420
  8421504
176
     1
 90
        1
176
     1
 90
        4
176
     1
 62
     7
176
     1
 62
   257
176
     1
 90
        1
176
     1
 90
        1
176
     1
 40
1.0
176
     1
 90
        8
176
     1
 62
     8
420
  8421504
176
     1
 40
1.0
176
     1
 90
        1
176
     1
 90
        6
176
     1
 90
        2
176
     1
 62
     7
176
     1
 90
        5
176
     1
 90
        0
176
     1
 90
        0
176
     1
290
     0
176
     1
 90
        1
176
     1
 40
0.0
176
     1
 90
        0
176
     1
290
     0
176
     1
290
     1
176
     1
290
     1
176
     1
290
     0
176
     1
290
     0
176
     1
290
     0
176
     1
290
     0
176
     1
290
     0
176
     1
290
     0
176
     1
 90
       50
176
     1
 40
0.0
176
     1
 40
1.0
176
     1
 90
        0
176
     1
 62
    18
420
        0
176
     1
 90
       50
176
     1
 90
        3
176
     1
 62
     5
420
      255
176
     1
290
     0
176
     1
 90
       50
176
     1
 90
       50
176
     1
 90
       50
176
     1
290
     0
176
     1
 90
       50
176
     1
 62
   256
176
     0
 40
1.0
176
     0
 90
        2
176
     1
  1
strokes_ogs.tif
176
     1
290
     0
176
     1
 40
1.0
176
     1
 40
1.0
176
     1
1001
ACAD
1000
AcDbSavedByObjectVersion
1070
     0
  0
VISUALSTYLE
  5
85DC
102
{ACAD_REACTORS
330
85D3
102
}
330
85D3
100
AcDbVisualStyle
  2
Conceptual
 70
     9
177
     3
291
     0
 70
    58
 90
        3
176
     1
 90
        2
176
     1
 90
        0
176
     1
 90
        0
176
     1
 40
0.6
176
     1
 40
30.0
176
     1
 62
     7
420
 16777215
176
     1
 90
        2
176
     1
 90
        2
176
     1
 62
     7
176
     1
 62
   257
176
     1
 90
        1
176
     1
 90
        1
176
     1
 40
179.0
176
     1
 90
        8
176
     1
 62
     7
176
     1
 40
1.0
176
     1
 90
        1
176
     1
 90
        6
176
     1
 90
        2
176
     1
 62
     7
176
     1
 90
        3
176
     1
 90
        0
176
     1
 90
        0
176
     1
290
     0
176
     1
 90
        1
176
     1
 40
0.0
176
     1
 90
        0
176
     1
290
     0
176
     1
290
     1
176
     1
290
     1
176
     1
290
     0
176
     1
290
     0
176
     1
290
     0
176
     1
290
     0
176
     1
290
     0
176
     1
290
     0
176
     1
 90
       50
176
     1
 40
0.0
176
     1
 40
1.0
176
     1
 90
        0
176
     1
 62
    18
420
        0
176
     1
 90
       50
176
     1
 90
        3
176
     1
 62
     5
420
      255
176
     1
290
     0
176
     1
 90
       50
176
     1
 90
       50
176
     1
 90
       50
176
     1
290
     0
176
     1
 90
       50
176
     1
 62
   256
176
     0
 40
1.0
176
     0
 90
        2
176
     1
  1
strokes_ogs.tif
176
     1
290
     0
176
     1
 40
1.0
176
     1
 40
1.0
176
     1
1001
ACAD
1000
AcDbSavedByObjectVersion
1070
     0
  0
VISUALSTYLE
  5
85DE
102
{ACAD_REACTORS
330
85D3
102
}
330
85D3
100
AcDbVisualStyle
  2
Dim
 70
    11
177
     3
291
     1
 70
    58
 90
        2
176
     1
 90
        2
176
     1
 90
        0
176
     1
 90
        0
176
     1
 40
0.6
176
     1
 40
30.0
176
     1
 62
     7
420
 16777215
176
     1
 90
        1
176
     1
 90
        4
176
     1
 62
     7
176
     1
 62
   257
176
     1
 90
        1
176
     1
 90
        1
176
     1
 40
1.0
176
     1
 90
        8
176
     1
 62
     7
176
     1
 40
1.0
176
     1
 90
        1
176
     1
 90
        6
176
     1
 90
        2
176
     1
 62
     7
176
     1
 90
        5
176
     1
 90
        0
176
     1
 90
        0
176
     1
290
     0
176
     1
 90
        1
176
     1
 40
-50.0
176
     1
 90
        0
176
     1
290
     0
176
     1
290
     1
176
     1
290
     1
176
     1
290
     0
176
     1
290
     0
176
     1
290
     0
176
     1
290
     0
176
     1
290
     0
176
     1
290
     0
176
     1
 90
       50
176
     1
 40
0.0
176
     1
 40
1.0
176
     1
 90
        0
176
     1
 62
    18
420
        0
176
     1
 90
       50
176
     1
 90
        3
176
     1
 62
     5
420
      255
176
     1
290
     0
176
     1
 90
       50
176
     1
 90
       50
176
     1
 90
       50
176
     1
290
     0
176
     1
 90
       50
176
     1
 62
   256
176
     0
 40
1.0
176
     0
 90
        2
176
     1
  1
strokes_ogs.tif
176
     1
290
     0
176
     1
 40
1.0
176
     1
 40
1.0
176
     1
1001
ACAD
1000
AcDbSavedByObjectVersion
1070
     0
  0
VISUALSTYLE
  5
85EB
102
{ACAD_REACTORS
330
85D3
102
}
330
85D3
100
AcDbVisualStyle
  2
EdgeColorOff
 70
    22
177
     3
291
     1
 70
    58
 90
        2
176
     0
 90
        2
176
     0
 90
        0
176
     0
 90
        0
176
     0
 40
0.6
176
     0
 40
30.0
176
     0
 62
     7
420
 16777215
176
     0
 90
        1
176
     0
 90
        4
176
     0
 62
     7
176
     0
 62
   257
176
     0
 90
        1
176
     0
 90
        1
176
     0
 40
1.0
176
     0
 90
        8
176
     2
 62
     7
176
     0
 40
1.0
176
     0
 90
        1
176
     0
 90
        6
176
     0
 90
        2
176
     0
 62
     7
176
     0
 90
        5
176
     0
 90
        0
176
     0
 90
        0
176
     0
290
     0
176
     0
 90
        1
176
     0
 40
0.0
176
     0
 90
        0
176
     0
290
     0
176
     0
290
     1
176
     0
290
     1
176
     0
290
     0
176
     0
290
     0
176
     0
290
     0
176
     0
290
     0
176
     0
290
     0
176
     0
290
     0
176
     0
 90
       50
176
     0
 40
0.0
176
     0
 40
1.0
176
     0
 90
        0
176
     0
 62
    18
420
        0
176
     0
 90
       50
176
     0
 90
        3
176
     0
 62
     5
420
      255
176
     0
290
     0
176
     0
 90
       50
176
     0
 90
       50
176
     0
 90
       50
176
     0
290
     0
176
     0
 90
       50
176
     0
 62
   256
176
     0
 40
1.0
176
     0
 90
        2
176
     0
  1
strokes_ogs.tif
176
     0
290
     0
176
     0
 40
1.0
176
     0
 40
1.0
176
     0
1001
ACAD
1000
AcDbSavedByObjectVersion
1070
     0
  0
VISUALSTYLE
  5
85E2
102
{ACAD_REACTORS
330
85D3
102
}
330
85D3
100
AcDbVisualStyle
  2
Facepattern
 70
    15
177
     3
291
     1
 70
    58
 90
        2
176
     1
 90
        2
176
     1
 90
        0
176
     1
 90
        0
176
     1
 40
0.6
176
     1
 40
30.0
176
     1
 62
     7
420
 16777215
176
     1
 90
        1
176
     1
 90
        4
176
     1
 62
     7
176
     1
 62
   257
176
     1
 90
        1
176
     1
 90
        1
176
     1
 40
1.0
176
     1
 90
        8
176
     1
 62
     7
176
     1
 40
1.0
176
     1
 90
        1
176
     1
 90
        6
176
     1
 90
        2
176
     1
 62
     7
176
     1
 90
        5
176
     1
 90
        0
176
     1
 90
        0
176
     1
290
     0
176
     1
 90
        1
176
     1
 40
0.0
176
     1
 90
        0
176
     1
290
     0
176
     1
290
     1
176
     1
290
     1
176
     1
290
     0
176
     1
290
     0
176
     1
290
     0
176
     1
290
     0
176
     1
290
     0
176
     1
290
     0
176
     1
 90
       50
176
     1
 40
0.0
176
     1
 40
1.0
176
     1
 90
        0
176
     1
 62
    18
420
        0
176
     1
 90
       50
176
     1
 90
        3
176
     1
 62
     5
420
      255
176
     1
290
     0
176
     1
 90
       50
176
     1
 90
       50
176
     1
 90
       50
176
     1
290
     0
176
     1
 90
       50
176
     1
 62
   256
176
     0
 40
1.0
176
     0
 90
        2
176
     1
  1
strokes_ogs.tif
176
     1
290
     0
176
     1
 40
1.0
176
     1
 40
1.0
176
     1
1001
ACAD
1000
AcDbSavedByObjectVersion
1070
     0
  0
VISUALSTYLE
  5
85D4
102
{ACAD_REACTORS
330
85D3
102
}
330
85D3
100
AcDbVisualStyle
  2
Flat
 70
     0
177
     3
291
     1
 70
    58
 90
        2
176
     1
 90
        1
176
     1
 90
        1
176
     1
 90
        2
176
     1
 40
0.6
176
     1
 40
30.0
176
     1
 62
     7
420
 16777215
176
     1
 90
        0
176
     1
 90
        0
176
     1
 62
     7
176
     1
 62
   257
176
     1
 90
        1
176
     1
 90
        1
176
     1
 40
1.0
176
     1
 90
        8
176
     1
 62
     7
176
     1
 40
1.0
176
     1
 90
        1
176
     1
 90
        6
176
     1
 90
        2
176
     1
 62
     7
176
     1
 90
        5
176
     1
 90
        0
176
     1
 90
        0
176
     1
290
     0
176
     1
 90
       13
176
     1
 40
0.0
176
     1
 90
        0
176
     1
290
     0
176
     1
290
     1
176
     1
290
     1
176
     1
290
     0
176
     1
290
     0
176
     1
290
     0
176
     1
290
     0
176
     1
290
     0
176
     1
290
     0
176
     1
 90
       50
176
     1
 40
0.0
176
     1
 40
1.0
176
     1
 90
        0
176
     1
 62
    18
420
        0
176
     1
 90
       50
176
     1
 90
        3
176
     1
 62
     5
420
      255
176
     1
290
     0
176
     1
 90
       50
176
     1
 90
       50
176
     1
 90
       50
176
     1
290
     0
176
     1
 90
       50
176
     1
 62
   256
176
     0
 40
1.0
176
     0
 90
        2
176
     1
  1
strokes_ogs.tif
176
     1
290
     0
176
     1
 40
1.0
176
     1
 40
1.0
176
     1
1001
ACAD
1000
AcDbSavedByObjectVersion
1070
     0
  0
VISUALSTYLE
  5
85D5
102
{ACAD_REACTORS
330
85D3
102
}
330
85D3
100
AcDbVisualStyle
  2
FlatWithEdges
 70
     1
177
     3
291
     1
 70
    58
 90
        2
176
     1
 90
        1
176
     1
 90
        1
176
     1
 90
        2
176
     1
 40
0.6
176
     1
 40
30.0
176
     1
 62
     7
420
 16777215
176
     1
 90
        1
176
     1
 90
        0
176
     1
 62
     7
176
     1
 62
   257
176
     1
 90
        1
176
     1
 90
        1
176
     1
 40
1.0
176
     1
 90
        0
176
     1
 62
   257
176
     1
 40
1.0
176
     1
 90
        1
176
     1
 90
        6
176
     1
 90
        2
176
     1
 62
     7
176
     1
 90
        5
176
     1
 90
        0
176
     1
 90
        0
176
     1
290
     0
176
     1
 90
       13
176
     1
 40
0.0
176
     1
 90
        0
176
     1
290
     0
176
     1
290
     1
176
     1
290
     1
176
     1
290
     0
176
     1
290
     0
176
     1
290
     0
176
     1
290
     0
176
     1
290
     0
176
     1
290
     0
176
     1
 90
       50
176
     1
 40
0.0
176
     1
 40
1.0
176
     1
 90
        0
176
     1
 62
    18
420
        0
176
     1
 90
       50
176
     1
 90
        3
176
     1
 62
     5
420
      255
176
     1
290
     0
176
     1
 90
       50
176
     1
 90
       50
176
     1
 90
       50
176
     1
290
     0
176
     1
 90
       50
176
     1
 62
   256
176
     0
 40
1.0
176
     0
 90
        2
176
     1
  1
strokes_ogs.tif
176
     1
290
     0
176
     1
 40
1.0
176
     1
 40
1.0
176
     1
1001
ACAD
1000
AcDbSavedByObjectVersion
1070
     0
  0
VISUALSTYLE
  5
85D6
102
{ACAD_REACTORS
330
85D3
102
}
330
85D3
100
AcDbVisualStyle
  2
Gouraud
 70
     2
177
     3
291
     1
 70
    58
 90
        2
176
     1
 90
        2
176
     1
 90
        1
176
     1
 90
        2
176
     1
 40
0.6
176
     1
 40
30.0
176
     1
 62
     7
420
 16777215
176
     1
 90
        0
176
     1
 90
        0
176
     1
 62
     7
176
     1
 62
   257
176
     1
 90
        1
176
     1
 90
        1
176
     1
 40
1.0
176
     1
 90
        0
176
     1
 62
     7
176
     1
 40
1.0
176
     1
 90
        1
176
     1
 90
        6
176
     1
 90
        2
176
     1
 62
     7
176
     1
 90
        5
176
     1
 90
        0
176
     1
 90
        0
176
     1
290
     0
176
     1
 90
       13
176
     1
 40
0.0
176
     1
 90
        0
176
     1
290
     0
176
     1
290
     1
176
     1
290
     1
176
     1
290
     0
176
     1
290
     0
176
     1
290
     0
176
     1
290
     0
176
     1
290
     0
176
     1
290
     0
176
     1
 90
       50
176
     1
 40
0.0
176
     1
 40
1.0
176
     1
 90
        0
176
     1
 62
    18
420
        0
176
     1
 90
       50
176
     1
 90
        3
176
     1
 62
     5
420
      255
176
     1
290
     0
176
     1
 90
       50
176
     1
 90
       50
176
     1
 90
       50
176
     1
290
     0
176
     1
 90
       50
176
     1
 62
   256
176
     0
 40
1.0
176
     0
 90
        2
176
     1
  1
strokes_ogs.tif
176
     1
290
     0
176
     1
 40
1.0
176
     1
 40
1.0
176
     1
1001
ACAD
1000
AcDbSavedByObjectVersion
1070
     0
  0
VISUALSTYLE
  5
85D7
102
{ACAD_REACTORS
330
85D3
102
}
330
85D3
100
AcDbVisualStyle
  2
GouraudWithEdges
 70
     3
177
     3
291
     1
 70
    58
 90
        2
176
     1
 90
        2
176
     1
 90
        1
176
     1
 90
        2
176
     1
 40
0.6
176
     1
 40
30.0
176
     1
 62
     7
420
 16777215
176
     1
 90
        1
176
     1
 90
        0
176
     1
 62
     7
176
     1
 62
   257
176
     1
 90
        1
176
     1
 90
        1
176
     1
 40
1.0
176
     1
 90
        0
176
     1
 62
   257
176
     1
 40
1.0
176
     1
 90
        1
176
     1
 90
        6
176
     1
 90
        2
176
     1
 62
     7
176
     1
 90
        5
176
     1
 90
        0
176
     1
 90
        0
176
     1
290
     0
176
     1
 90
       13
176
     1
 40
0.0
176
     1
 90
        0
176
     1
290
     0
176
     1
290
     1
176
     1
290
     1
176
     1
290
     0
176
     1
290
     0
176
     1
290
     0
176
     1
290
     0
176
     1
290
     0
176
     1
290
     0
176
     1
 90
       50
176
     1
 40
0.0
176
     1
 40
1.0
176
     1
 90
        0
176
     1
 62
    18
420
        0
176
     1
 90
       50
176
     1
 90
        3
176
     1
 62
     5
420
      255
176
     1
290
     0
176
     1
 90
       50
176
     1
 90
       50
176
     1
 90
       50
176
     1
290
     0
176
     1
 90
       50
176
     1
 62
   256
176
     0
 40
1.0
176
     0
 90
        2
176
     1
  1
strokes_ogs.tif
176
     1
290
     0
176
     1
 40
1.0
176
     1
 40
1.0
176
     1
1001
ACAD
1000
AcDbSavedByObjectVersion
1070
     0
  0
VISUALSTYLE
  5
85DB
102
{ACAD_REACTORS
330
85D3
102
}
330
85D3
100
AcDbVisualStyle
  2
Hidden
 70
     6
177
     3
291
     0
 70
    58
 90
        1
176
     1
 90
        2
176
     1
 90
        2
176
     1
 90
        0
176
     1
 40
0.6
176
     1
 40
30.0
176
     1
 62
     7
420
 16777215
176
     1
 90
        2
176
     1
 90
        2
176
     1
 62
     7
176
     1
 62
   257
176
     1
 90
        2
176
     1
 90
        1
176
     1
 40
40.0
176
     1
 90
        0
176
     1
 62
   257
176
     1
 40
1.0
176
     1
 90
        1
176
     1
 90
        6
176
     1
 90
        2
176
     1
 62
     7
176
     1
 90
        3
176
     1
 90
        0
176
     1
 90
        0
176
     1
290
     0
176
     1
 90
        1
176
     1
 40
0.0
176
     1
 90
        0
176
     1
290
     0
176
     1
290
     1
176
     1
290
     1
176
     1
290
     0
176
     1
290
     0
176
     1
290
     0
176
     1
290
     0
176
     1
290
     0
176
     1
290
     0
176
     1
 90
       50
176
     1
 40
0.0
176
     1
 40
1.0
176
     1
 90
        0
176
     1
 62
    18
420
        0
176
     1
 90
       50
176
     1
 90
        3
176
     1
 62
     5
420
      255
176
     1
290
     0
176
     1
 90
       50
176
     1
 90
       50
176
     1
 90
       50
176
     1
290
     0
176
     1
 90
       50
176
     1
 62
   256
176
     0
 40
1.0
176
     0
 90
        2
176
     1
  1
strokes_ogs.tif
176
     1
290
     0
176
     1
 40
1.0
176
     1
 40
1.0
176
     1
1001
ACAD
1000
AcDbSavedByObjectVersion
1070
     0
  0
VISUALSTYLE
  5
85E9
102
{ACAD_REACTORS
330
85D3
102
}
330
85D3
100
AcDbVisualStyle
  2
JitterOff
 70
    20
177
     3
291
     1
 70
    58
 90
        2
176
     0
 90
        2
176
     0
 90
        0
176
     0
 90
        0
176
     0
 40
0.6
176
     0
 40
30.0
176
     0
 62
     7
420
 16777215
176
     0
 90
        1
176
     0
 90
        4
176
     0
 62
     7
176
     0
 62
   257
176
     0
 90
        1
176
     0
 90
        1
176
     0
 40
1.0
176
     0
 90
       10
176
     2
 62
     7
176
     0
 40
1.0
176
     0
 90
        1
176
     0
 90
        6
176
     0
 90
        2
176
     0
 62
     7
176
     0
 90
        5
176
     0
 90
        0
176
     0
 90
        0
176
     0
290
     0
176
     0
 90
        1
176
     0
 40
0.0
176
     0
 90
        0
176
     0
290
     0
176
     0
290
     1
176
     0
290
     1
176
     0
290
     0
176
     0
290
     0
176
     0
290
     0
176
     0
290
     0
176
     0
290
     0
176
     0
290
     0
176
     0
 90
       50
176
     0
 40
0.0
176
     0
 40
1.0
176
     0
 90
        0
176
     0
 62
    18
420
        0
176
     0
 90
       50
176
     0
 90
        3
176
     0
 62
     5
420
      255
176
     0
290
     0
176
     0
 90
       50
176
     0
 90
       50
176
     0
 90
       50
176
     0
290
     0
176
     0
 90
       50
176
     0
 62
   256
176
     0
 40
1.0
176
     0
 90
        2
176
     0
  1
strokes_ogs.tif
176
     0
290
     0
176
     0
 40
1.0
176
     0
 40
1.0
176
     0
1001
ACAD
1000
AcDbSavedByObjectVersion
1070
     0
  0
VISUALSTYLE
  5
85E1
102
{ACAD_REACTORS
330
85D3
102
}
330
85D3
100
AcDbVisualStyle
  2
Linepattern
 70
    14
177
     3
291
     1
 70
    58
 90
        2
176
     1
 90
        2
176
     1
 90
        0
176
     1
 90
        0
176
     1
 40
0.6
176
     1
 40
30.0
176
     1
 62
     7
420
 16777215
176
     1
 90
        1
176
     1
 90
        4
176
     1
 62
     7
176
     1
 62
   257
176
     1
 90
        7
176
     1
 90
        7
176
     1
 40
1.0
176
     1
 90
        8
176
     1
 62
     7
176
     1
 40
1.0
176
     1
 90
        1
176
     1
 90
        6
176
     1
 90
        2
176
     1
 62
     7
176
     1
 90
        5
176
     1
 90
        0
176
     1
 90
        0
176
     1
290
     0
176
     1
 90
        1
176
     1
 40
0.0
176
     1
 90
        0
176
     1
290
     0
176
     1
290
     1
176
     1
290
     1
176
     1
290
     0
176
     1
290
     0
176
     1
290
     0
176
     1
290
     0
176
     1
290
     0
176
     1
290
     0
176
     1
 90
       50
176
     1
 40
0.0
176
     1
 40
1.0
176
     1
 90
        0
176
     1
 62
    18
420
        0
176
     1
 90
       50
176
     1
 90
        3
176
     1
 62
     5
420
      255
176
     1
290
     0
176
     1
 90
       50
176
     1
 90
       50
176
     1
 90
       50
176
     1
290
     0
176
     1
 90
       50
176
     1
 62
   256
176
     0
 40
1.0
176
     0
 90
        2
176
     1
  1
strokes_ogs.tif
176
     1
290
     0
176
     1
 40
1.0
176
     1
 40
1.0
176
     1
1001
ACAD
1000
AcDbSavedByObjectVersion
1070
     0
  0
VISUALSTYLE
  5
85EA
102
{ACAD_REACTORS
330
85D3
102
}
330
85D3
100
AcDbVisualStyle
  2
OverhangOff
 70
    21
177
     3
291
     1
 70
    58
 90
        2
176
     0
 90
        2
176
     0
 90
        0
176
     0
 90
        0
176
     0
 40
0.6
176
     0
 40
30.0
176
     0
 62
     7
420
 16777215
176
     0
 90
        1
176
     0
 90
        4
176
     0
 62
     7
176
     0
 62
   257
176
     0
 90
        1
176
     0
 90
        1
176
     0
 40
1.0
176
     0
 90
        9
176
     2
 62
     7
176
     0
 40
1.0
176
     0
 90
        1
176
     0
 90
        6
176
     0
 90
        2
176
     0
 62
     7
176
     0
 90
        5
176
     0
 90
        0
176
     0
 90
        0
176
     0
290
     0
176
     0
 90
        1
176
     0
 40
0.0
176
     0
 90
        0
176
     0
290
     0
176
     0
290
     1
176
     0
290
     1
176
     0
290
     0
176
     0
290
     0
176
     0
290
     0
176
     0
290
     0
176
     0
290
     0
176
     0
290
     0
176
     0
 90
       50
176
     0
 40
0.0
176
     0
 40
1.0
176
     0
 90
        0
176
     0
 62
    18
420
        0
176
     0
 90
       50
176
     0
 90
        3
176
     0
 62
     5
420
      255
176
     0
290
     0
176
     0
 90
       50
176
     0
 90
       50
176
     0
 90
       50
176
     0
290
     0
176
     0
 90
       50
176
     0
 62
   256
176
     0
 40
1.0
176
     0
 90
        2
176
     0
  1
strokes_ogs.tif
176
     0
290
     0
176
     0
 40
1.0
176
     0
 40
1.0
176
     0
1001
ACAD
1000
AcDbSavedByObjectVersion
1070
     0
  0
VISUALSTYLE
  5
85DD
102
{ACAD_REACTORS
330
85D3
102
}
330
85D3
100
AcDbVisualStyle
  2
Realistic
 70
     8
177
     3
291
     0
 70
    58
 90
        2
176
     1
 90
        3
176
     1
 90
        0
176
     1
 90
        2
176
     1
 40
0.6
176
     1
 40
30.0
176
     1
 62
     7
420
 16777215
176
     1
 90
        0
176
     1
 90
        0
176
     1
 62
     7
176
     1
 62
   257
176
     1
 90
        1
176
     1
 90
        1
176
     1
 40
1.0
176
     1
 90
        8
176
     1
 62
   257
176
     1
 40
1.0
176
     1
 90
        1
176
     1
 90
        6
176
     1
 90
        2
176
     1
 62
     7
176
     1
 90
        3
176
     1
 90
        0
176
     1
 90
        0
176
     1
290
     0
176
     1
 90
       13
176
     1
 40
0.0
176
     1
 90
        0
176
     1
290
     0
176
     1
290
     1
176
     1
290
     1
176
     1
290
     0
176
     1
290
     0
176
     1
290
     0
176
     1
290
     0
176
     1
290
     0
176
     1
290
     0
176
     1
 90
       50
176
     1
 40
0.0
176
     1
 40
1.0
176
     1
 90
        0
176
     1
 62
    18
420
        0
176
     1
 90
       50
176
     1
 90
        3
176
     1
 62
     5
420
      255
176
     1
290
     0
176
     1
 90
       50
176
     1
 90
       50
176
     1
 90
       50
176
     1
290
     0
176
     1
 90
       50
176
     1
 62
   256
176
     0
 40
1.0
176
     0
 90
        2
176
     1
  1
strokes_ogs.tif
176
     1
290
     0
176
     1
 40
1.0
176
     1
 40
1.0
176
     1
1001
ACAD
1000
AcDbSavedByObjectVersion
1070
     0
  0
VISUALSTYLE
  5
85E8
102
{ACAD_REACTORS
330
85D3
102
}
330
85D3
100
AcDbVisualStyle
  2
Shaded
 70
    27
177
     3
291
     0
 70
    58
 90
        2
176
     1
 90
        2
176
     1
 90
        1
176
     1
 90
        2
176
     1
 40
0.6
176
     1
 40
30.0
176
     1
 62
     7
420
 16777215
176
     1
 90
        0
176
     1
 90
        4
176
     1
 62
     7
176
     1
 62
   257
176
     1
 90
        1
176
     1
 90
        1
176
     1
 40
1.0
176
     1
 90
        8
176
     1
 62
   257
176
     1
 40
1.0
176
     1
 90
        1
176
     1
 90
        6
176
     1
 90
        2
176
     1
 62
     8
420
  7895160
176
     1
 90
        3
176
     1
 90
        0
176
     1
 90
        0
176
     1
290
     0
176
     1
 90
        5
176
     1
 40
0.0
176
     1
 90
        0
176
     1
290
     0
176
     1
290
     1
176
     1
290
     1
176
     1
290
     0
176
     1
290
     0
176
     1
290
     0
176
     1
290
     0
176
     1
290
     0
176
     1
290
     0
176
     1
 90
       50
176
     1
 40
0.0
176
     1
 40
1.0
176
     1
 90
        0
176
     1
 62
    18
420
        0
176
     1
 90
       50
176
     1
 90
        3
176
     1
 62
     5
420
      255
176
     1
290
     0
176
     1
 90
       50
176
     1
 90
       50
176
     1
 90
       50
176
     1
290
     0
176
     1
 90
       50
176
     1
 62
   256
176
     0
 40
1.0
176
     0
 90
        2
176
     1
  1
strokes_ogs.tif
176
     1
290
     0
176
     1
 40
1.0
176
     1
 40
1.0
176
     1
1001
ACAD
1000
AcDbSavedByObjectVersion
1070
     0
  0
VISUALSTYLE
  5
85E7
102
{ACAD_REACTORS
330
85D3
102
}
330
85D3
100
AcDbVisualStyle
  2
Shaded with edges
 70
    26
177
     3
291
     0
 70
    58
 90
        2
176
     1
 90
        2
176
     1
 90
        1
176
     1
 90
        2
176
     1
 40
0.6
176
     1
 40
30.0
176
     1
 62
     7
420
 16777215
176
     1
 90
        1
176
     1
 90
        2
176
     1
 62
     7
176
     1
 62
   257
176
     1
 90
        2
176
     1
 90
        1
176
     1
 40
1.0
176
     1
 90
        8
176
     1
 62
   257
176
     1
 40
1.0
176
     1
 90
        1
176
     1
 90
        6
176
     1
 90
        2
176
     1
 62
     7
176
     1
 90
        3
176
     1
 90
        0
176
     1
 90
        0
176
     1
290
     0
176
     1
 90
        5
176
     1
 40
0.0
176
     1
 90
        0
176
     1
290
     0
176
     1
290
     1
176
     1
290
     1
176
     1
290
     0
176
     1
290
     0
176
     1
290
     0
176
     1
290
     0
176
     1
290
     0
176
     1
290
     0
176
     1
 90
       50
176
     1
 40
0.0
176
     1
 40
1.0
176
     1
 90
        0
176
     1
 62
    18
420
        0
176
     1
 90
       50
176
     1
 90
        3
176
     1
 62
     5
420
      255
176
     1
290
     0
176
     1
 90
       50
176
     1
 90
       50
176
     1
 90
       50
176
     1
290
     0
176
     1
 90
       50
176
     1
 62
   256
176
     0
 40
1.0
176
     0
 90
        2
176
     1
  1
strokes_ogs.tif
176
     1
290
     0
176
     1
 40
1.0
176
     1
 40
1.0
176
     1
1001
ACAD
1000
AcDbSavedByObjectVersion
1070
     0
  0
VISUALSTYLE
  5
85E4
102
{ACAD_REACTORS
330
85D3
102
}
330
85D3
100
AcDbVisualStyle
  2
Shades of Gray
 70
    23
177
     3
291
     0
 70
    58
 90
        2
176
     1
 90
        2
176
     1
 90
        3
176
     1
 90
        0
176
     1
 40
0.6
176
     1
 40
30.0
176
     1
 62
     7
420
 16777215
176
     1
 90
        2
176
     1
 90
        2
176
     1
 62
     7
176
     1
 62
     7
176
     1
 90
        1
176
     1
 90
        1
176
     1
 40
40.0
176
     1
 90
        8
176
     1
 62
     7
176
     1
 40
1.0
176
     1
 90
        1
176
     1
 90
        6
176
     1
 90
        2
176
     1
 62
     7
176
     1
 90
        3
176
     1
 90
        0
176
     1
 90
        0
176
     1
290
     0
176
     1
 90
        1
176
     1
 40
0.0
176
     1
 90
        0
176
     1
290
     0
176
     1
290
     1
176
     1
290
     1
176
     1
290
     0
176
     1
290
     0
176
     1
290
     0
176
     1
290
     0
176
     1
290
     0
176
     1
290
     0
176
     1
 90
       50
176
     1
 40
0.0
176
     1
 40
1.0
176
     1
 90
        0
176
     1
 62
    18
420
        0
176
     1
 90
       50
176
     1
 90
        3
176
     1
 62
     5
420
      255
176
     1
290
     0
176
     1
 90
       50
176
     1
 90
       50
176
     1
 90
       50
176
     1
290
     0
176
     1
 90
       50
176
     1
 62
   256
176
     0
 40
1.0
176
     0
 90
        2
176
     1
  1
strokes_ogs.tif
176
     1
290
     0
176
     1
 40
1.0
176
     1
 40
1.0
176
     1
1001
ACAD
1000
AcDbSavedByObjectVersion
1070
     0
  0
VISUALSTYLE
  5
85E5
102
{ACAD_REACTORS
330
85D3
102
}
330
85D3
100
AcDbVisualStyle
  2
Sketchy
 70
    24
177
     3
291
     0
 70
    58
 90
        1
176
     1
 90
        2
176
     1
 90
        2
176
     1
 90
        0
176
     1
 40
0.6
176
     1
 40
30.0
176
     1
 62
     7
420
 16777215
176
     1
 90
        2
176
     1
 90
        2
176
     1
 62
     7
176
     1
 62
     7
176
     1
 90
        1
176
     1
 90
        1
176
     1
 40
40.0
176
     1
 90
       11
176
     1
 62
     7
176
     1
 40
1.0
176
     1
 90
        1
176
     1
 90
        6
176
     1
 90
        2
176
     1
 62
     7
176
     1
 90
        6
176
     1
 90
        0
176
     1
 90
        0
176
     1
290
     0
176
     1
 90
        1
176
     1
 40
0.0
176
     1
 90
        0
176
     1
290
     0
176
     1
290
     1
176
     1
290
     1
176
     1
290
     0
176
     1
290
     0
176
     1
290
     0
176
     1
290
     0
176
     1
290
     0
176
     1
290
     0
176
     1
 90
       50
176
     1
 40
0.0
176
     1
 40
1.0
176
     1
 90
        0
176
     1
 62
    18
420
        0
176
     1
 90
       50
176
     1
 90
        3
176
     1
 62
     5
420
      255
176
     1
290
     0
176
     1
 90
       50
176
     1
 90
       50
176
     1
 90
       50
176
     1
290
     0
176
     1
 90
       50
176
     1
 62
   256
176
     0
 40
1.0
176
     0
 90
        2
176
     1
  1
strokes_ogs.tif
176
     1
290
     0
176
     1
 40
1.0
176
     1
 40
1.0
176
     1
1001
ACAD
1000
AcDbSavedByObjectVersion
1070
     0
  0
VISUALSTYLE
  5
85E0
102
{ACAD_REACTORS
330
85D3
102
}
330
85D3
100
AcDbVisualStyle
  2
Thicken
 70
    13
177
     3
291
     1
 70
    58
 90
        2
176
     1
 90
        2
176
     1
 90
        0
176
     1
 90
        0
176
     1
 40
0.6
176
     1
 40
30.0
176
     1
 62
     7
420
 16777215
176
     1
 90
        1
176
     1
 90
        4
176
     1
 62
     7
176
     1
 62
   257
176
     1
 90
        1
176
     1
 90
        1
176
     1
 40
1.0
176
     1
 90
       12
176
     1
 62
     7
176
     1
 40
1.0
176
     1
 90
        1
176
     1
 90
        6
176
     1
 90
        2
176
     1
 62
     7
176
     1
 90
        5
176
     1
 90
        0
176
     1
 90
        0
176
     1
290
     0
176
     1
 90
        1
176
     1
 40
0.0
176
     1
 90
        0
176
     1
290
     0
176
     1
290
     1
176
     1
290
     1
176
     1
290
     0
176
     1
290
     0
176
     1
290
     0
176
     1
290
     0
176
     1
290
     0
176
     1
290
     0
176
     1
 90
       50
176
     1
 40
0.0
176
     1
 40
1.0
176
     1
 90
        0
176
     1
 62
    18
420
        0
176
     1
 90
       50
176
     1
 90
        3
176
     1
 62
     5
420
      255
176
     1
290
     0
176
     1
 90
       50
176
     1
 90
       50
176
     1
 90
       50
176
     1
290
     0
176
     1
 90
       50
176
     1
 62
   256
176
     0
 40
1.0
176
     0
 90
        2
176
     1
  1
strokes_ogs.tif
176
     1
290
     0
176
     1
 40
1.0
176
     1
 40
1.0
176
     1
1001
ACAD
1000
AcDbSavedByObjectVersion
1070
     0
  0
VISUALSTYLE
  5
85DA
102
{ACAD_REACTORS
330
85D3
102
}
330
85D3
100
AcDbVisualStyle
  2
Wireframe
 70
     5
177
     3
291
     0
 70
    58
 90
        0
176
     1
 90
        2
176
     1
 90
        0
176
     1
 90
        0
176
     1
 40
0.6
176
     1
 40
30.0
176
     1
 62
     7
420
 16777215
176
     1
 90
        1
176
     1
 90
        4
176
     1
 62
     7
176
     1
 62
   257
176
     1
 90
        1
176
     1
 90
        1
176
     1
 40
1.0
176
     1
 90
        0
176
     1
 62
   257
176
     1
 40
1.0
176
     1
 90
        1
176
     1
 90
        6
176
     1
 90
        2
176
     1
 62
     7
176
     1
 90
        3
176
     1
 90
        0
176
     1
 90
        0
176
     1
290
     0
176
     1
 90
        1
176
     1
 40
0.0
176
     1
 90
        0
176
     1
290
     0
176
     1
290
     1
176
     1
290
     1
176
     1
290
     0
176
     1
290
     0
176
     1
290
     0
176
     1
290
     0
176
     1
290
     0
176
     1
290
     0
176
     1
 90
       50
176
     1
 40
0.0
176
     1
 40
1.0
176
     1
 90
        0
176
     1
 62
    18
420
        0
176
     1
 90
       50
176
     1
 90
        3
176
     1
 62
     5
420
      255
176
     1
290
     0
176
     1
 90
       50
176
     1
 90
       50
176
     1
 90
       50
176
     1
290
     0
176
     1
 90
       50
176
     1
 62
   256
176
     0
 40
1.0
176
     0
 90
        2
176
     1
  1
strokes_ogs.tif
176
     1
290
     0
176
     1
 40
1.0
176
     1
 40
1.0
176
     1
1001
ACAD
1000
AcDbSavedByObjectVersion
1070
     0
  0
VISUALSTYLE
  5
85E6
102
{ACAD_REACTORS
330
85D3
102
}
330
85D3
100
AcDbVisualStyle
  2
X-Ray
 70
    25
177
     3
291
     0
 70
    58
 90
        2
176
     1
 90
        2
176
     1
 90
        1
176
     1
 90
        1
176
     1
 40
0.5
176
     1
 40
30.0
176
     1
 62
     7
420
 16777215
176
     1
 90
        1
176
     1
 90
        0
176
     1
 62
     7
176
     1
 62
   257
176
     1
 90
        1
176
     1
 90
        1
176
     1
 40
1.0
176
     1
 90
        8
176
     1
 62
     7
176
     1
 40
1.0
176
     1
 90
        1
176
     1
 90
        6
176
     1
 90
        2
176
     1
 62
     7
176
     1
 90
        3
176
     1
 90
        0
176
     1
 90
        0
176
     1
290
     0
176
     1
 90
       13
176
     1
 40
0.0
176
     1
 90
        0
176
     1
290
     0
176
     1
290
     1
176
     1
290
     1
176
     1
290
     0
176
     1
290
     0
176
     1
290
     0
176
     1
290
     0
176
     1
290
     0
176
     1
290
     0
176
     1
 90
       50
176
     1
 40
0.0
176
     1
 40
1.0
176
     1
 90
        0
176
     1
 62
    18
420
        0
176
     1
 90
       50
176
     1
 90
        3
176
     1
 62
     5
420
      255
176
     1
290
     0
176
     1
 90
       50
176
     1
 90
       50
176
     1
 90
       50
176
     1
290
     0
176
     1
 90
       50
176
     1
 62
   256
176
     0
 40
1.0
176
     0
 90
        2
176
     1
  1
strokes_ogs.tif
176
     1
290
     0
176
     1
 40
1.0
176
     1
 40
1.0
176
     1
1001
ACAD
1000
AcDbSavedByObjectVersion
1070
     0
  0
DICTIONARYVAR
  5
8646
102
{ACAD_REACTORS
330
8640
102
}
330
8640
100
DictionaryVariables
280
     0
  1
1:1
  0
DICTIONARYVAR
  5
8642
102
{ACAD_REACTORS
330
8640
102
}
330
8640
100
DictionaryVariables
280
     0
  1
STANDARD
  0
DICTIONARYVAR
  5
8641
102
{ACAD_REACTORS
330
8640
102
}
330
8640
100
DictionaryVariables
280
     0
  1
STANDARD
  0
DICTIONARYVAR
  5
8643
102
{ACAD_REACTORS
330
8640
102
}
330
8640
100
DictionaryVariables
280
     0
  1
Metric50
  0
DICTIONARYVAR
  5
8644
102
{ACAD_REACTORS
330
8640
102
}
330
8640
100
DictionaryVariables
280
     0
  1
Metric50
  0
DICTIONARYVAR
  5
8648
102
{ACAD_REACTORS
330
8640
102
}
330
8640
100
DictionaryVariables
280
     0
  1
1
  0
DICTIONARYVAR
  5
8649
102
{ACAD_REACTORS
330
8640
102
}
330
8640
100
DictionaryVariables
280
     0
  1
15
  0
DICTIONARYVAR
  5
8647
102
{ACAD_REACTORS
330
8640
102
}
330
8640
100
DictionaryVariables
280
     0
  1
0
  0
DICTIONARYVAR
  5
864E
102
{ACAD_REACTORS
330
8640
102
}
330
8640
100
DictionaryVariables
280
     0
  1
0
  0
DICTIONARYVAR
  5
8645
102
{ACAD_REACTORS
330
8640
102
}
330
8640
100
DictionaryVariables
280
     0
  1
0
  0
DICTIONARY
  5
8659
102
{ACAD_REACTORS
330
8657
102
}
330
8657
100
AcDbDictionary
281
     1
  0
DICTIONARY
  5
8658
102
{ACAD_REACTORS
330
8657
102
}
330
8657
100
AcDbDictionary
281
     1
  3
2002587842336
350
8652
  3
2002587842352
350
8653
  3
2002587842368
350
8654
  3
2002587842384
350
8655
  3
2002587842400
350
8656
  0
DICTIONARY
  5
865C
330
8606
100
AcDbDictionary
280
     1
281
     1
  3
ACAD_XREC_ROUNDTRIP
360
865D
  0
DICTIONARY
  5
85C4
330
85C3
100
AcDbDictionary
280
     1
281
     1
  3
BUMPTILE
360
85C6
  3
DIFFUSETILE
360
85C5
  3
OPACITYTILE
360
85C9
  3
REFLECTIONTILE
360
85C8
  3
REFRACTIONTILE
360
85CA
  3
SPECULARTILE
360
85C7
  0
DICTIONARY
  5
85BC
330
85BB
100
AcDbDictionary
280
     1
281
     1
  3
BUMPTILE
360
85BE
  3
DIFFUSETILE
360
85BD
  3
OPACITYTILE
360
85C1
  3
REFLECTIONTILE
360
85C0
  3
REFRACTIONTILE
360
85C2
  3
SPECULARTILE
360
85BF
  0
DICTIONARY
  5
85CC
330
85CB
100
AcDbDictionary
280
     1
281
     1
  3
BUMPTILE
360
85CE
  3
DIFFUSETILE
360
85CD
  3
OPACITYTILE
360
85D1
  3
REFLECTIONTILE
360
85D0
  3
REFRACTIONTILE
360
85D2
  3
SPECULARTILE
360
85CF
  0
DICTIONARY
  5
865A
330
8604
100
AcDbDictionary
280
     1
281
     1
  3
ACAD_XREC_ROUNDTRIP
360
865B
  0
DICTIONARY
  5
864F
330
85EE
100
AcDbDictionary
280
     1
281
     1
  3
ACAD_ROUNDTRIP_2008_TABLESTYLE_CELLSTYLEMAP
360
8650
  0
XRECORD
  5
8652
102
{ACAD_REACTORS
330
8658
102
}
330
8658
100
AcDbXrecord
280
     1
  1
AcDb_Thumbnail_Schema
102
{ATTRRECORD
341
8653
  2
AcDbDs::TreatedAsObjectData
280
     1
291
     1
102
ATTRRECORD}
102
{ATTRRECORD
341
8654
  2
AcDbDs::Legacy
280
     1
291
     1
102
ATTRRECORD}
  2
AcDbDs::ID
280
    10
 91
        8
102
{ATTRRECORD
341
8655
  2
AcDs:Indexable
280
     1
291
     1
102
ATTRRECORD}
102
{ATTRRECORD
341
8656
  2
AcDbDs::HandleAttribute
280
     7
282
     1
102
ATTRRECORD}
  2
Thumbnail_Data
280
    15
 91
        0
  0
XRECORD
  5
8653
102
{ACAD_REACTORS
330
8658
102
}
330
8658
100
AcDbXrecord
280
     1
  1
AcDbDs::TreatedAsObjectDataSchema
  2
AcDbDs::TreatedAsObjectData
280
     1
 91
        0
  0
XRECORD
  5
8654
102
{ACAD_REACTORS
330
8658
102
}
330
8658
100
AcDbXrecord
280
     1
  1
AcDbDs::LegacySchema
  2
AcDbDs::Legacy
280
     1
 91
        0
  0
XRECORD
  5
8655
102
{ACAD_REACTORS
330
8658
102
}
330
8658
100
AcDbXrecord
280
     1
  1
AcDbDs::IndexedPropertySchema
  2
AcDs:Indexable
280
     1
 91
        0
  0
XRECORD
  5
8656
102
{ACAD_REACTORS
330
8658
102
}
330
8658
100
AcDbXrecord
280
     1
  1
AcDbDs::HandleAttributeSchema
  2
AcDbDs::HandleAttribute
280
     7
 91
        1
284
     1
  0
XRECORD
  5
865D
102
{ACAD_REACTORS
330
865C
102
}
330
865C
100
AcDbXrecord
280
     1
102
DISPLAYNAME
  1
Metric50
102
FLAGS
 90
        0
  0
XRECORD
  5
85C6
102
{ACAD_REACTORS
330
85C4
102
}
330
85C4
100
AcDbXrecord
280
     1
270
     1
271
     1
  0
XRECORD
  5
85C5
102
{ACAD_REACTORS
330
85C4
102
}
330
85C4
100
AcDbXrecord
280
     1
270
     1
271
     1
  0
XRECORD
  5
85C9
102
{ACAD_REACTORS
330
85C4
102
}
330
85C4
100
AcDbXrecord
280
     1
270
     1
271
     1
  0
XRECORD
  5
85C8
102
{ACAD_REACTORS
330
85C4
102
}
330
85C4
100
AcDbXrecord
280
     1
270
     1
271
     1
  0
XRECORD
  5
85CA
102
{ACAD_REACTORS
330
85C4
102
}
330
85C4
100
AcDbXrecord
280
     1
270
     1
271
     1
  0
XRECORD
  5
85C7
102
{ACAD_REACTORS
330
85C4
102
}
330
85C4
100
AcDbXrecord
280
     1
270
     1
271
     1
  0
XRECORD
  5
85BE
102
{ACAD_REACTORS
330
85BC
102
}
330
85BC
100
AcDbXrecord
280
     1
270
     1
271
     1
  0
XRECORD
  5
85BD
102
{ACAD_REACTORS
330
85BC
102
}
330
85BC
100
AcDbXrecord
280
     1
270
     1
271
     1
  0
XRECORD
  5
85C1
102
{ACAD_REACTORS
330
85BC
102
}
330
85BC
100
AcDbXrecord
280
     1
270
     1
271
     1
  0
XRECORD
  5
85C0
102
{ACAD_REACTORS
330
85BC
102
}
330
85BC
100
AcDbXrecord
280
     1
270
     1
271
     1
  0
XRECORD
  5
85C2
102
{ACAD_REACTORS
330
85BC
102
}
330
85BC
100
AcDbXrecord
280
     1
270
     1
271
     1
  0
XRECORD
  5
85BF
102
{ACAD_REACTORS
330
85BC
102
}
330
85BC
100
AcDbXrecord
280
     1
270
     1
271
     1
  0
XRECORD
  5
85CE
102
{ACAD_REACTORS
330
85CC
102
}
330
85CC
100
AcDbXrecord
280
     1
270
     1
271
     1
  0
XRECORD
  5
85CD
102
{ACAD_REACTORS
330
85CC
102
}
330
85CC
100
AcDbXrecord
280
     1
270
     1
271
     1
  0
XRECORD
  5
85D1
102
{ACAD_REACTORS
330
85CC
102
}
330
85CC
100
AcDbXrecord
280
     1
270
     1
271
     1
  0
XRECORD
  5
85D0
102
{ACAD_REACTORS
330
85CC
102
}
330
85CC
100
AcDbXrecord
280
     1
270
     1
271
     1
  0
XRECORD
  5
85D2
102
{ACAD_REACTORS
330
85CC
102
}
330
85CC
100
AcDbXrecord
280
     1
270
     1
271
     1
  0
XRECORD
  5
85CF
102
{ACAD_REACTORS
330
85CC
102
}
330
85CC
100
AcDbXrecord
280
     1
270
     1
271
     1
  0
XRECORD
  5
865B
102
{ACAD_REACTORS
330
865A
102
}
330
865A
100
AcDbXrecord
280
     1
102
DISPLAYNAME
  1
Metric50
102
FLAGS
 90
        0
  0
CELLSTYLEMAP
  5
8650
102
{ACAD_REACTORS
330
864F
102
}
330
864F
100
AcDbCellStyleMap
 90
        3
300
CELLSTYLE
  1
TABLEFORMAT_BEGIN
 90
        5
170
     1
 91
        0
 92
    32768
 62
   257
 93
        1
300
CONTENTFORMAT
  1
CONTENTFORMAT_BEGIN
 90
        0
 91
        0
 92
      512
 93
        0
300

 40
0.0
140
1.0
 94
        5
 62
     0
340
10
144
6.0
309
CONTENTFORMAT_END
171
     1
301
MARGIN
  1
CELLMARGIN_BEGIN
 40
1.5
 40
1.5
 40
1.5
 40
1.5
 40
4.5
 40
4.5
309
CELLMARGIN_END
 94
        6
 95
        1
302
GRIDFORMAT
  1
GRIDFORMAT_BEGIN
 90
        0
 91
        1
 62
     0
 92
       -2
340
0
 93
        0
 40
1.125
309
GRIDFORMAT_END
 95
        2
302
GRIDFORMAT
  1
GRIDFORMAT_BEGIN
 90
        0
 91
        1
 62
     0
 92
       -2
340
0
 93
        0
 40
1.125
309
GRIDFORMAT_END
 95
        4
302
GRIDFORMAT
  1
GRIDFORMAT_BEGIN
 90
        0
 91
        1
 62
     0
 92
       -2
340
0
 93
        0
 40
1.125
309
GRIDFORMAT_END
 95
        8
302
GRIDFORMAT
  1
GRIDFORMAT_BEGIN
 90
        0
 91
        1
 62
     0
 92
       -2
340
0
 93
        0
 40
1.125
309
GRIDFORMAT_END
 95
       16
302
GRIDFORMAT
  1
GRIDFORMAT_BEGIN
 90
        0
 91
        1
 62
     0
 92
       -2
340
0
 93
        0
 40
1.125
309
GRIDFORMAT_END
 95
       32
302
GRIDFORMAT
  1
GRIDFORMAT_BEGIN
 90
        0
 91
        1
 62
     0
 92
       -2
340
0
 93
        0
 40
1.125
309
GRIDFORMAT_END
309
TABLEFORMAT_END
  1
CELLSTYLE_BEGIN
 90
        1
 91
        1
300
_TITLE
309
CELLSTYLE_END
300
CELLSTYLE
  1
TABLEFORMAT_BEGIN
 90
        5
170
     1
 91
        0
 92
        0
 62
   257
 93
        1
300
CONTENTFORMAT
  1
CONTENTFORMAT_BEGIN
 90
        0
 91
        0
 92
      512
 93
        0
300

 40
0.0
140
1.0
 94
        5
 62
     0
340
10
144
4.5
309
CONTENTFORMAT_END
171
     1
301
MARGIN
  1
CELLMARGIN_BEGIN
 40
1.5
 40
1.5
 40
1.5
 40
1.5
 40
4.5
 40
4.5
309
CELLMARGIN_END
 94
        6
 95
        1
302
GRIDFORMAT
  1
GRIDFORMAT_BEGIN
 90
        0
 91
        1
 62
     0
 92
       -2
340
0
 93
        0
 40
1.125
309
GRIDFORMAT_END
 95
        2
302
GRIDFORMAT
  1
GRIDFORMAT_BEGIN
 90
        0
 91
        1
 62
     0
 92
       -2
340
0
 93
        0
 40
1.125
309
GRIDFORMAT_END
 95
        4
302
GRIDFORMAT
  1
GRIDFORMAT_BEGIN
 90
        0
 91
        1
 62
     0
 92
       -2
340
0
 93
        0
 40
1.125
309
GRIDFORMAT_END
 95
        8
302
GRIDFORMAT
  1
GRIDFORMAT_BEGIN
 90
        0
 91
        1
 62
     0
 92
       -2
340
0
 93
        0
 40
1.125
309
GRIDFORMAT_END
 95
       16
302
GRIDFORMAT
  1
GRIDFORMAT_BEGIN
 90
        0
 91
        1
 62
     0
 92
       -2
340
0
 93
        0
 40
1.125
309
GRIDFORMAT_END
 95
       32
302
GRIDFORMAT
  1
GRIDFORMAT_BEGIN
 90
        0
 91
        1
 62
     0
 92
       -2
340
0
 93
        0
 40
1.125
309
GRIDFORMAT_END
309
TABLEFORMAT_END
  1
CELLSTYLE_BEGIN
 90
        2
 91
        1
300
_HEADER
309
CELLSTYLE_END
300
CELLSTYLE
  1
TABLEFORMAT_BEGIN
 90
        5
170
     1
 91
        0
 92
        0
 62
   257
 93
        1
300
CONTENTFORMAT
  1
CONTENTFORMAT_BEGIN
 90
        0
 91
        0
 92
      512
 93
        0
300

 40
0.0
140
1.0
 94
        2
 62
     0
340
10
144
4.5
309
CONTENTFORMAT_END
171
     1
301
MARGIN
  1
CELLMARGIN_BEGIN
 40
1.5
 40
1.5
 40
1.5
 40
1.5
 40
4.5
 40
4.5
309
CELLMARGIN_END
 94
        6
 95
        1
302
GRIDFORMAT
  1
GRIDFORMAT_BEGIN
 90
        0
 91
        1
 62
     0
 92
       -2
340
0
 93
        0
 40
1.125
309
GRIDFORMAT_END
 95
        2
302
GRIDFORMAT
  1
GRIDFORMAT_BEGIN
 90
        0
 91
        1
 62
     0
 92
       -2
340
0
 93
        0
 40
1.125
309
GRIDFORMAT_END
 95
        4
302
GRIDFORMAT
  1
GRIDFORMAT_BEGIN
 90
        0
 91
        1
 62
     0
 92
       -2
340
0
 93
        0
 40
1.125
309
GRIDFORMAT_END
 95
        8
302
GRIDFORMAT
  1
GRIDFORMAT_BEGIN
 90
        0
 91
        1
 62
     0
 92
       -2
340
0
 93
        0
 40
1.125
309
GRIDFORMAT_END
 95
       16
302
GRIDFORMAT
  1
GRIDFORMAT_BEGIN
 90
        0
 91
        1
 62
     0
 92
       -2
340
0
 93
        0
 40
1.125
309
GRIDFORMAT_END
 95
       32
302
GRIDFORMAT
  1
GRIDFORMAT_BEGIN
 90
        0
 91
        1
 62
     0
 92
       -2
340
0
 93
        0
 40
1.125
309
GRIDFORMAT_END
309
TABLEFORMAT_END
  1
CELLSTYLE_BEGIN
 90
        3
 91
        2
300
_DATA
309
CELLSTYLE_END
  0
ENDSEC
  0
SECTION
  2
ACDSDATA
 70
     2
 71
     8
  0
ACDSSCHEMA
 90
        0
  1
AcDb_Thumbnail_Schema
  2
AcDbDs::ID
280
    10
 91
        8
  2
Thumbnail_Data
280
    15
 91
        0
101
ACDSRECORD
 95
        0
 90
        1
  2
AcDbDs::TreatedAsObjectData
280
     1
291
     1
101
ACDSRECORD
 95
        0
 90
        2
  2
AcDbDs::Legacy
280
     1
291
     1
101
ACDSRECORD
  1
AcDbDs::ID
 90
        3
  2
AcDs:Indexable
280
     1
291
     1
101
ACDSRECORD
  1
AcDbDs::ID
 90
        4
  2
AcDbDs::HandleAttribute
280
     7
282
     1
  0
ACDSSCHEMA
 90
        1
  1
AcDbDs::TreatedAsObjectDataSchema
  2
AcDbDs::TreatedAsObjectData
280
     1
 91
        0
  0
ACDSSCHEMA
 90
        2
  1
AcDbDs::LegacySchema
  2
AcDbDs::Legacy
280
     1
 91
        0
  0
ACDSSCHEMA
 90
        3
  1
AcDbDs::IndexedPropertySchema
  2
AcDs:Indexable
280
     1
 91
        0
  0
ACDSSCHEMA
 90
        4
  1
AcDbDs::HandleAttributeSchema
  2
AcDbDs::HandleAttribute
280
     7
 91
        1
284
     1
  0
ACDSRECORD
 90
        0
  2
AcDbDs::ID
280
    10
320
8519
  2
Thumbnail_Data
280
    15
 94
     1714
310
89504E470D0A1A0A0000000D49484452000001000000007C0803000000B13B9E5A00000300504C5445000000000000C8C8C80000000000000000000000000000000000000000000000000000330000660000990000CC0000FF0033000033330033660033990033CC0033FF0066000066330066660066990066CC0066FF0099
310
000099330099660099990099CC0099FF00CC0000CC3300CC6600CC9900CCCC00CCFF00FF0000FF3300FF6600FF9900FFCC00FFFF3300003300333300663300993300CC3300FF3333003333333333663333993333CC3333FF3366003366333366663366993366CC3366FF3399003399333399663399993399CC3399FF33CC00
310
33CC3333CC6633CC9933CCCC33CCFF33FF0033FF3333FF6633FF9933FFCC33FFFF6600006600336600666600996600CC6600FF6633006633336633666633996633CC6633FF6666006666336666666666996666CC6666FF6699006699336699666699996699CC6699FF66CC0066CC3366CC6666CC9966CCCC66CCFF66FF0066
310
FF3366FF6666FF9966FFCC66FFFF9900009900339900669900999900CC9900FF9933009933339933669933999933CC9933FF9966009966339966669966999966CC9966FF9999009999339999669999999999CC9999FF99CC0099CC3399CC6699CC9999CCCC99CCFF99FF0099FF3399FF6699FF9999FFCC99FFFFCC0000CC00
310
33CC0066CC0099CC00CCCC00FFCC3300CC3333CC3366CC3399CC33CCCC33FFCC6600CC6633CC6666CC6699CC66CCCC66FFCC9900CC9933CC9966CC9999CC99CCCC99FFCCCC00CCCC33CCCC66CCCC99CCCCCCCCCCFFCCFF00CCFF33CCFF66CCFF99CCFFCCCCFFFFFF0000FF0033FF0066FF0099FF00CCFF00FFFF3300FF3333
310
FF3366FF3399FF33CCFF33FFFF6600FF6633FF6666FF6699FF66CCFF66FFFF9900FF9933FF9966FF9999FF99CCFF99FFFFCC00FFCC33FFCC66FFCC99FFCCCCFFCCFFFFFF00FFFF33FFFF66FFFF99FFFFCCFFFFFF0000000D0D0D1A1A1A2828283535354343435050505D5D5D6B6B6B787878868686939393A1A1A1AEAEAEBB
310
BBBBC9C9C9D6D6D6E4E4E4F1F1F1FFFFFF00000000000000000000000000000000000000000000000000000000000008F1915C0000036D4944415478DAED9D516EC3200C867D1C5EB8FF657C0DDED7044C0C81B4D23A69B67FA4AD4DC8D0FCC536D84E29D1F75BF9AB46465A31362E00000000000000FC9B7FF461F20B0360
310
375A240D080FA084064085DC00F86A046012C0374703009B004EA32ECA1806BBA0B3B35DDBF5FD52FDE202C05D721A019CE2CA51A92354320E7CC0B37F3B2FA84AA035403A9C00685ADE26B8AE03D785E5611C3841AC032286C3C55538BCF27DF32DEEE7E8EA0F03A0CF06322FD2E822ED9BC024ED0840CD7A97F8E44A03BE
310
3500728200000000000000000000601C00BF5A3C00BC6D51006CF52114801412C0A9E879D7220078FD4C52ABDE1C04006913000000388D22CDE6100B403D0200F7008EB55E4A39E996533FF37A090020BC0600009C20008407708B05C20198D7BDABC0C8318097E8BB7838483E609F10089211EA3A30DB000502B04A890503
310
40A101FCDA05A032E41E00534F93ABB7EE00ECCB41AA54B42C1A1906C0FCAE36C61A003700EC0CC0EAF677001F140E2D03A07647AB543CAF94A753DD10DC9AC016C07895270D18EEE8030095377008200503B0756B7B00E32AD13E00F1F22CC2D5D4C80300A501F60154AF7F6585B2205800904E0D60F697B6011CC2A55350
310
CA3B0DC8770D7003E00CFCE4575E68404D1CCE00D81100EA05F1CC8A8173003213A443FA5A0C95BC786320008E8E34353F009A834B546F322B53D01A30664A8E27A84C03E8911D71BE5C4063703C2152610C00FA822957976819000F00486E7A96D258D38A0700D907806A025DBE5E1ACBE9A4F0A401647A1AACF11C0F003A
310
83E6F1B206701C5D4F91D85F08CD0048CAA1A207896613A0BB06907513B80120E50E54C0E310405F0855272882E529E8D351D0340D7A00502743E5036E51EF140CA97A891F006D21A46A83592F78756B9AB2AE1A19042079BDFCD094F46FEA662601B4792C0F2931D22E71BEFDB47CA8DA3080ED0312B787A5A79E0C00D601
310
F00C80EF0086E4509F19D61FA731FAA4A88AFA1745515EBD5F548BAC02B812E1BAD2A3D6F81300299DAD0A43B6017CF2C1C9771FAAB40D401DDC2D643C9044A20B1F40FC47E39A014000000000000000000000207DD17794DC4B5686BF5E89ED18C09B8D775D01A0BEAFF24845EF28596493618F00E003165F9C55AE4D349F
310
36D2F4EC0348ED361E06C0E264300DC0CED2580A03000000000000000000000000803300D1BF79DA54FB01DA5EEF2931241E4B0000000049454E44AE426082
  0
ENDSEC
  0
EOF
