  0
SECTION
  2
HEADER
  9
$ACADVER
  1
AC1027
  9
$ACADMAINTVER
 70
   125
  9
$DWGCODEPAGE
  3
ANSI_932
  9
$LASTSAVEDBY
  1
yasukiyo.ogawa
  9
$REQUIREDVERSIONS
160
                 0
  9
$INSBASE
 10
0.0
 20
0.0
 30
0.0
  9
$EXTMIN
 10
0.0
 20
0.0
 30
0.0
  9
$EXTMAX
 10
3150.0
 20
4425.0
 30
0.0
  9
$LIMMIN
 10
0.0
 20
0.0
  9
$LIMMAX
 10
297.0
 20
210.0
  9
$ORTHOMODE
 70
     1
  9
$REGENMODE
 70
     1
  9
$FILLMODE
 70
     0
  9
$QTEXTMODE
 70
     0
  9
$MIRRTEXT
 70
     1
  9
$LTSCALE
 40
100.0
  9
$ATTMODE
 70
     1
  9
$TEXTSIZE
 40
180.0
  9
$TRACEWID
 40
0.05
  9
$TEXTSTYLE
  7
STANDARD
  9
$CLAYER
  8
3
  9
$CELTYPE
  6
BYLAYER
  9
$CECOLOR
 62
   256
  9
$CELTSCALE
 40
1.0
  9
$DISPSILH
 70
     0
  9
$DIMSCALE
 40
15.0
  9
$DIMASZ
 40
2.0
  9
$DIMEXO
 40
0.5
  9
$DIMDLI
 40
10.0
  9
$DIMRND
 40
0.0
  9
$DIMDLE
 40
0.0
  9
$DIMEXE
 40
1.0
  9
$DIMTP
 40
1.0
  9
$DIMTM
 40
1.0
  9
$DIMTXT
 40
3.0
  9
$DIMCEN
 40
0.0
  9
$DIMTSZ
 40
0.0
  9
$DIMTOL
 70
     0
  9
$DIMLIM
 70
     0
  9
$DIMTIH
 70
     0
  9
$DIMTOH
 70
     0
  9
$DIMSE1
 70
     0
  9
$DIMSE2
 70
     0
  9
$DIMTAD
 70
     1
  9
$DIMZIN
 70
     8
  9
$DIMBLK
  1

  9
$DIMASO
 70
     1
  9
$DIMSHO
 70
     1
  9
$DIMPOST
  1

  9
$DIMAPOST
  1

  9
$DIMALT
 70
     0
  9
$DIMALTD
 70
     2
  9
$DIMALTF
 40
0.039
  9
$DIMLFAC
 40
1.0
  9
$DIMTOFL
 70
     1
  9
$DIMTVP
 40
0.0
  9
$DIMTIX
 70
     0
  9
$DIMSOXD
 70
     0
  9
$DIMSAH
 70
     1
  9
$DIMBLK1
  1
OPEN
  9
$DIMBLK2
  1
OPEN
  9
$DIMSTYLE
  2
IGA
  9
$DIMCLRD
 70
     0
  9
$DIMCLRE
 70
     0
  9
$DIMCLRT
 70
     0
  9
$DIMTFAC
 40
10.0
  9
$DIMGAP
 40
1.0
  9
$DIMJUST
 70
     0
  9
$DIMSD1
 70
     0
  9
$DIMSD2
 70
     0
  9
$DIMTOLJ
 70
     1
  9
$DIMTZIN
 70
     8
  9
$DIMALTZ
 70
     0
  9
$DIMALTTZ
 70
     0
  9
$DIMUPT
 70
     0
  9
$DIMDEC
 70
     0
  9
$DIMTDEC
 70
     0
  9
$DIMALTU
 70
     2
  9
$DIMALTTD
 70
     2
  9
$DIMTXSTY
  7
STANDARD
  9
$DIMAUNIT
 70
     0
  9
$DIMADEC
 70
     0
  9
$DIMALTRND
 40
0.0
  9
$DIMAZIN
 70
     0
  9
$DIMDSEP
 70
    46
  9
$DIMATFIT
 70
     3
  9
$DIMFRAC
 70
     0
  9
$DIMLDRBLK
  1
OPEN
  9
$DIMLUNIT
 70
     2
  9
$DIMLWD
 70
    -2
  9
$DIMLWE
 70
    -2
  9
$DIMTMOVE
 70
     0
  9
$DIMFXL
 40
1.0
  9
$DIMFXLON
 70
     0
  9
$DIMJOGANG
 40
0.7853981633974483
  9
$DIMTFILL
 70
     0
  9
$DIMTFILLCLR
 70
     0
  9
$DIMARCSYM
 70
     0
  9
$DIMLTYPE
  6

  9
$DIMLTEX1
  6

  9
$DIMLTEX2
  6

  9
$DIMTXTDIRECTION
 70
     0
  9
$LUNITS
 70
     2
  9
$LUPREC
 70
     3
  9
$SKETCHINC
 40
0.1
  9
$FILLETRAD
 40
50.0
  9
$AUNITS
 70
     0
  9
$AUPREC
 70
     0
  9
$MENU
  1
acad
  9
$ELEVATION
 40
0.0
  9
$PELEVATION
 40
0.0
  9
$THICKNESS
 40
0.0
  9
$LIMCHECK
 70
     0
  9
$CHAMFERA
 40
0.5
  9
$CHAMFERB
 40
0.5
  9
$CHAMFERC
 40
20.0
  9
$CHAMFERD
 40
0.0
  9
$SKPOLY
 70
     0
  9
$TDCREATE
 40
2451372.390439815
  9
$TDUCREATE
 40
2451372.015443866
  9
$TDUPDATE
 40
2460216.482314815
  9
$TDUUPDATE
 40
2460216.107317153
  9
$TDINDWG
 40
0.0306969329
  9
$TDUSRTIMER
 40
0.0306969329
  9
$USRTIMER
 70
     1
  9
$ANGBASE
 50
0.0
  9
$ANGDIR
 70
     0
  9
$PDMODE
 70
     0
  9
$PDSIZE
 40
0.0
  9
$PLINEWID
 40
0.0
  9
$SPLFRAME
 70
     0
  9
$SPLINETYPE
 70
     6
  9
$SPLINESEGS
 70
     8
  9
$HANDSEED
  5
8642
  9
$SURFTAB1
 70
     6
  9
$SURFTAB2
 70
     6
  9
$SURFTYPE
 70
     6
  9
$SURFU
 70
     6
  9
$SURFV
 70
     6
  9
$UCSBASE
  2

  9
$UCSNAME
  2

  9
$UCSORG
 10
0.0
 20
0.0
 30
0.0
  9
$UCSXDIR
 10
1.0
 20
0.0
 30
0.0
  9
$UCSYDIR
 10
0.0
 20
1.0
 30
0.0
  9
$UCSORTHOREF
  2

  9
$UCSORTHOVIEW
 70
     0
  9
$UCSORGTOP
 10
0.0
 20
0.0
 30
0.0
  9
$UCSORGBOTTOM
 10
0.0
 20
0.0
 30
0.0
  9
$UCSORGLEFT
 10
0.0
 20
0.0
 30
0.0
  9
$UCSORGRIGHT
 10
0.0
 20
0.0
 30
0.0
  9
$UCSORGFRONT
 10
0.0
 20
0.0
 30
0.0
  9
$UCSORGBACK
 10
0.0
 20
0.0
 30
0.0
  9
$PUCSBASE
  2

  9
$PUCSNAME
  2

  9
$PUCSORG
 10
0.0
 20
0.0
 30
0.0
  9
$PUCSXDIR
 10
1.0
 20
0.0
 30
0.0
  9
$PUCSYDIR
 10
0.0
 20
1.0
 30
0.0
  9
$PUCSORTHOREF
  2

  9
$PUCSORTHOVIEW
 70
     0
  9
$PUCSORGTOP
 10
0.0
 20
0.0
 30
0.0
  9
$PUCSORGBOTTOM
 10
0.0
 20
0.0
 30
0.0
  9
$PUCSORGLEFT
 10
0.0
 20
0.0
 30
0.0
  9
$PUCSORGRIGHT
 10
0.0
 20
0.0
 30
0.0
  9
$PUCSORGFRONT
 10
0.0
 20
0.0
 30
0.0
  9
$PUCSORGBACK
 10
0.0
 20
0.0
 30
0.0
  9
$USERI1
 70
     0
  9
$USERI2
 70
     0
  9
$USERI3
 70
     0
  9
$USERI4
 70
     0
  9
$USERI5
 70
     0
  9
$USERR1
 40
0.0
  9
$USERR2
 40
0.0
  9
$USERR3
 40
0.0
  9
$USERR4
 40
0.0
  9
$USERR5
 40
0.0
  9
$WORLDVIEW
 70
     1
  9
$SHADEDGE
 70
     3
  9
$SHADEDIF
 70
    70
  9
$TILEMODE
 70
     1
  9
$MAXACTVP
 70
    16
  9
$PINSBASE
 10
0.0
 20
0.0
 30
0.0
  9
$PLIMCHECK
 70
     0
  9
$PEXTMIN
 10
1.000000000000000E+20
 20
1.000000000000000E+20
 30
1.000000000000000E+20
  9
$PEXTMAX
 10
-1.000000000000000E+20
 20
-1.000000000000000E+20
 30
-1.000000000000000E+20
  9
$PLIMMIN
 10
0.0
 20
0.0
  9
$PLIMMAX
 10
12.0
 20
9.0
  9
$UNITMODE
 70
     0
  9
$VISRETAIN
 70
     0
  9
$PLINEGEN
 70
     0
  9
$PSLTSCALE
 70
     1
  9
$TREEDEPTH
 70
  3020
  9
$CMLSTYLE
  2
STANDARD
  9
$CMLJUST
 70
     0
  9
$CMLSCALE
 40
20.0
  9
$PROXYGRAPHICS
 70
     1
  9
$MEASUREMENT
 70
     1
  9
$CELWEIGHT
370
    -1
  9
$ENDCAPS
280
     0
  9
$JOINSTYLE
280
     0
  9
$LWDISPLAY
290
     0
  9
$INSUNITS
 70
     0
  9
$HYPERLINKBASE
  1

  9
$STYLESHEET
  1

  9
$XEDIT
290
     1
  9
$CEPSNTYPE
380
     0
  9
$PSTYLEMODE
290
     1
  9
$FINGERPRINTGUID
  2
{4CDD7F2E-37AD-4130-87E6-F99F652DEF22}
  9
$VERSIONGUID
  2
{C920DE3F-AD40-4A65-8BF9-3E36D346D367}
  9
$EXTNAMES
290
     1
  9
$PSVPSCALE
 40
0.0
  9
$OLESTARTUP
290
     0
  9
$SORTENTS
280
   127
  9
$INDEXCTL
280
     0
  9
$HIDETEXT
280
     0
  9
$XCLIPFRAME
280
     2
  9
$HALOGAP
280
     0
  9
$OBSCOLOR
 70
   257
  9
$OBSLTYPE
280
     0
  9
$INTERSECTIONDISPLAY
280
     0
  9
$INTERSECTIONCOLOR
 70
   257
  9
$DIMASSOC
280
     1
  9
$PROJECTNAME
  1

  9
$CAMERADISPLAY
290
     0
  9
$LENSLENGTH
 40
50.0
  9
$CAMERAHEIGHT
 40
0.0
  9
$STEPSPERSEC
 40
2.0
  9
$STEPSIZE
 40
6.0
  9
$3DDWFPREC
 40
2.0
  9
$PSOLWIDTH
 40
0.25
  9
$PSOLHEIGHT
 40
4.0
  9
$LOFTANG1
 40
1.570796326794896
  9
$LOFTANG2
 40
1.570796326794896
  9
$LOFTMAG1
 40
0.0
  9
$LOFTMAG2
 40
0.0
  9
$LOFTPARAM
 70
     7
  9
$LOFTNORMALS
280
     1
  9
$LATITUDE
 40
37.795
  9
$LONGITUDE
 40
-122.394
  9
$NORTHDIRECTION
 40
0.0
  9
$TIMEZONE
 70
 -8000
  9
$LIGHTGLYPHDISPLAY
280
     1
  9
$TILEMODELIGHTSYNCH
280
     1
  9
$CMATERIAL
347
859F
  9
$SOLIDHIST
280
     0
  9
$SHOWHIST
280
     1
  9
$DWFFRAME
280
     2
  9
$DGNFRAME
280
     0
  9
$REALWORLDSCALE
290
     1
  9
$INTERFERECOLOR
 62
     1
  9
$INTERFEREOBJVS
345
85C1
  9
$INTERFEREVPVS
346
85BE
  9
$CSHADOW
280
     0
  9
$SHADOWPLANELOCATION
 40
0.0
  0
ENDSEC
  0
SECTION
  2
CLASSES
  0
CLASS
  1
ACDBDICTIONARYWDFLT
  2
AcDbDictionaryWithDefault
  3
ObjectDBX Classes
 90
        0
 91
        1
280
     0
281
     0
  0
CLASS
  1
MATERIAL
  2
AcDbMaterial
  3
ObjectDBX Classes
 90
     1153
 91
        3
280
     0
281
     0
  0
CLASS
  1
VISUALSTYLE
  2
AcDbVisualStyle
  3
ObjectDBX Classes
 90
     4095
 91
       24
280
     0
281
     0
  0
CLASS
  1
TABLESTYLE
  2
AcDbTableStyle
  3
ObjectDBX Classes
 90
     4095
 91
        1
280
     0
281
     0
  0
CLASS
  1
SCALE
  2
AcDbScale
  3
ObjectDBX Classes
 90
     1153
 91
       17
280
     0
281
     0
  0
CLASS
  1
MLEADERSTYLE
  2
AcDbMLeaderStyle
  3
ACDB_MLEADERSTYLE_CLASS
 90
     4095
 91
        1
280
     0
281
     0
  0
CLASS
  1
ACDBSECTIONVIEWSTYLE
  2
AcDbSectionViewStyle
  3
ObjectDBX Classes
 90
     1025
 91
        1
280
     0
281
     0
  0
CLASS
  1
ACDBDETAILVIEWSTYLE
  2
AcDbDetailViewStyle
  3
ObjectDBX Classes
 90
     1025
 91
        1
280
     0
281
     0
  0
CLASS
  1
SORTENTSTABLE
  2
AcDbSortentsTable
  3
ObjectDBX Classes
 90
        0
 91
        1
280
     0
281
     0
  0
CLASS
  1
DICTIONARYVAR
  2
AcDbDictionaryVar
  3
ObjectDBX Classes
 90
        0
 91
       10
280
     0
281
     0
  0
CLASS
  1
CELLSTYLEMAP
  2
AcDbCellStyleMap
  3
ObjectDBX Classes
 90
     1152
 91
        1
280
     0
281
     0
  0
ENDSEC
  0
SECTION
  2
TABLES
  0
TABLE
  2
VPORT
  5
8
330
0
100
AcDbSymbolTable
 70
     1
1001
ACAD
1000
DbSaveVer
1071
      278
  0
VPORT
  5
859C
330
8
100
AcDbSymbolTableRecord
100
AcDbViewportTableRecord
  2
*Active
 70
     0
 10
0.0
 20
0.0
 11
1.0
 21
1.0
 12
2020.585139495969
 22
2212.500010302757
 13
0.0
 23
0.0
 14
10.0
 24
10.0
 15
10.0
 25
10.0
 16
0.0
 26
0.0
 36
1.0
 17
0.0
 27
0.0
 37
0.0
 40
4453.60692206448
 41
2.250314465408805
 42
50.0
 43
0.0
 44
0.0
 50
0.0
 51
0.0
 71
     0
 72
   100
 73
     1
 74
     0
 75
     0
 76
     0
 77
     0
 78
     0
281
     0
 65
     1
110
0.0
120
0.0
130
0.0
111
1.0
121
0.0
131
0.0
112
0.0
122
1.0
132
0.0
 79
     0
146
0.0
348
85BD
 60
     3
 61
     5
292
     1
282
     1
141
0.0
142
0.0
 63
   250
421
  3355443
1001
ACAD_NAV_VCDISPLAY
1070
     3
  0
ENDTAB
  0
TABLE
  2
LTYPE
  5
5
330
0
100
AcDbSymbolTable
 70
     2
  0
LTYPE
  5
13
330
5
100
AcDbSymbolTableRecord
100
AcDbLinetypeTableRecord
  2
BYBLOCK
 70
     0
  3

 72
    65
 73
     0
 40
0.0
  0
LTYPE
  5
14
330
5
100
AcDbSymbolTableRecord
100
AcDbLinetypeTableRecord
  2
BYLAYER
 70
     0
  3

 72
    65
 73
     0
 40
0.0
  0
LTYPE
  5
15
330
5
100
AcDbSymbolTableRecord
100
AcDbLinetypeTableRecord
  2
CONTINUOUS
 70
     0
  3
Solid line
 72
    65
 73
     0
 40
0.0
  0
LTYPE
  5
1F
330
5
100
AcDbSymbolTableRecord
100
AcDbLinetypeTableRecord
  2
CENTER
 70
     0
  3
____ _ ____ _ ____ _ ____ _ ____ _ ____ _ ____ 
 72
    65
 73
     4
 40
2.0
 49
1.25
 74
     0
 49
-0.25
 74
     0
 49
0.25
 74
     0
 49
-0.25
 74
     0
  0
ENDTAB
  0
TABLE
  2
LAYER
  5
2
102
{ACAD_XDICTIONARY
360
8618
102
}
330
0
100
AcDbSymbolTable
 70
     6
  0
LAYER
  5
F
102
{ACAD_XDICTIONARY
360
860B
102
}
330
2
100
AcDbSymbolTableRecord
100
AcDbLayerTableRecord
  2
0
 70
     0
 62
     7
  6
CONTINUOUS
370
    -3
390
84FA
347
85AF
348
0
  0
LAYER
  5
31
102
{ACAD_XDICTIONARY
360
860D
102
}
330
2
100
AcDbSymbolTableRecord
100
AcDbLayerTableRecord
  2
3
 70
     0
 62
     2
  6
CONTINUOUS
370
    -3
390
84FA
347
85AF
348
0
  0
LAYER
  5
76D0
102
{ACAD_XDICTIONARY
360
860F
102
}
330
2
100
AcDbSymbolTableRecord
100
AcDbLayerTableRecord
  2
2
 70
     0
 62
     3
  6
CENTER
370
    -3
390
84FA
347
85AF
348
0
  0
LAYER
  5
76D1
102
{ACAD_XDICTIONARY
360
8611
102
}
330
2
100
AcDbSymbolTableRecord
100
AcDbLayerTableRecord
  2
1
 70
     0
 62
     4
  6
CONTINUOUS
370
    -3
390
84FA
347
85AF
348
0
  0
LAYER
  5
76D2
102
{ACAD_XDICTIONARY
360
8613
102
}
330
2
100
AcDbSymbolTableRecord
100
AcDbLayerTableRecord
  2
4
 70
     0
 62
     7
  6
CONTINUOUS
370
    -3
390
84FA
347
85AF
348
0
  0
LAYER
  5
7B0B
330
2
100
AcDbSymbolTableRecord
100
AcDbLayerTableRecord
  2
DEFPOINTS
 70
     0
 62
     7
  6
CONTINUOUS
290
     0
370
    -3
390
84FA
347
85AF
348
0
  0
ENDTAB
  0
TABLE
  2
STYLE
  5
3
330
0
100
AcDbSymbolTable
 70
     1
  0
STYLE
  5
10
330
3
100
AcDbSymbolTableRecord
100
AcDbTextStyleTableRecord
  2
STANDARD
 70
     0
 40
0.0
 41
1.0
 50
0.0
 71
     0
 42
180.0
  3
simplex.shx
  4
extfont.shx
  0
ENDTAB
  0
TABLE
  2
VIEW
  5
6
330
0
100
AcDbSymbolTable
 70
     0
  0
ENDTAB
  0
TABLE
  2
UCS
  5
7
330
0
100
AcDbSymbolTable
 70
     0
  0
ENDTAB
  0
TABLE
  2
APPID
  5
9
330
0
100
AcDbSymbolTable
 70
     4
  0
APPID
  5
11
330
9
100
AcDbSymbolTableRecord
100
AcDbRegAppTableRecord
  2
ACAD
 70
     0
  0
APPID
  5
85F0
330
9
100
AcDbSymbolTableRecord
100
AcDbRegAppTableRecord
  2
AcadAnnoMonitorAlertIconDisabled
 70
     0
  0
APPID
  5
85F1
330
9
100
AcDbSymbolTableRecord
100
AcDbRegAppTableRecord
  2
ACAD_EXEMPT_FROM_CAD_STANDARDS
 70
     0
  0
APPID
  5
861E
330
9
100
AcDbSymbolTableRecord
100
AcDbRegAppTableRecord
  2
ACAD_NAV_VCDISPLAY
 70
     0
  0
ENDTAB
  0
TABLE
  2
DIMSTYLE
  5
A
330
0
100
AcDbSymbolTable
 70
     2
100
AcDbDimStyleTable
 71
     1
340
1D
  0
DIMSTYLE
105
1D
102
{ACAD_REACTORS
330
8203
330
8266
330
84A5
330
84B2
330
84BF
330
84CC
330
84D9
330
84E6
102
}
330
A
100
AcDbSymbolTableRecord
100
AcDbDimStyleTableRecord
  2
IGA
 70
     0
 40
2.0
 41
2.0
 42
0.5
 43
10.0
 44
1.0
 47
1.0
 48
1.0
 73
     0
 74
     0
 77
     1
 78
     8
140
3.0
141
0.0
143
0.03937
146
10.0
147
1.0
173
     1
271
     1
272
     0
279
     2
284
     8
340
10
341
79FC
343
79FC
344
79FC
  0
DIMSTYLE
105
7B0D
102
{ACAD_REACTORS
330
819F
330
81A3
330
81A4
330
81D5
330
81DC
330
81E8
330
81E9
330
81EA
330
81EF
330
81F1
330
81F5
102
}
330
A
100
AcDbSymbolTableRecord
100
AcDbDimStyleTableRecord
  2
MATSU
 70
     0
 41
2.0
 42
1.0
 43
10.0
 44
1.0
 73
     0
 74
     0
 77
     1
 78
     8
140
3.0
141
0.0
143
0.03937
147
0.5
172
     1
173
     1
176
   256
177
   256
178
   256
284
     8
289
     0
340
10
341
79FC
343
79FC
344
79FC
  0
ENDTAB
  0
TABLE
  2
BLOCK_RECORD
  5
1
330
0
100
AcDbSymbolTable
 70
    23
  0
BLOCK_RECORD
  5
19
102
{ACAD_XDICTIONARY
360
8528
102
}
330
1
100
AcDbSymbolTableRecord
100
AcDbBlockTableRecord
  2
*MODEL_SPACE
340
84FD
 70
     0
280
     1
281
     0
  0
BLOCK_RECORD
  5
16
102
{ACAD_XDICTIONARY
360
8526
102
}
330
1
100
AcDbSymbolTableRecord
100
AcDbBlockTableRecord
  2
*PAPER_SPACE
340
84FE
 70
     0
280
     1
281
     0
  0
BLOCK_RECORD
  5
79FC
330
1
100
AcDbSymbolTableRecord
100
AcDbBlockTableRecord
  2
_OPEN
340
0
102
{BLKREFS
331
8394
331
8395
331
839F
331
83A0
331
83AA
331
83AB
331
8605
331
8606
331
853D
331
853E
331
8545
331
8546
331
8551
331
8559
331
855A
331
8562
331
8563
331
856B
331
856C
331
8574
331
8575
331
857D
331
857E
331
8586
331
8587
331
83B5
331
83B6
331
8400
331
8401
331
840B
331
840C
331
8416
331
8417
331
8421
331
8422
102
}
 70
     0
280
     1
281
     0
  0
BLOCK_RECORD
  5
7EDC
330
1
100
AcDbSymbolTableRecord
100
AcDbBlockTableRecord
  2
_DOT
340
0
102
{BLKREFS
331
8550
102
}
 70
     0
280
     1
281
     0
  0
BLOCK_RECORD
  5
8058
330
1
100
AcDbSymbolTableRecord
100
AcDbBlockTableRecord
  2
YA_N
340
0
102
{BLKREFS
331
820C
331
820D
331
820E
331
820F
331
8210
331
8211
331
8212
102
}
 70
     0
280
     1
281
     0
  0
BLOCK_RECORD
  5
8295
330
1
100
AcDbSymbolTableRecord
100
AcDbBlockTableRecord
  2
*D3
340
0
 70
     0
280
     1
281
     0
  0
BLOCK_RECORD
  5
82A1
330
1
100
AcDbSymbolTableRecord
100
AcDbBlockTableRecord
  2
*D4
340
0
 70
     0
280
     1
281
     0
  0
BLOCK_RECORD
  5
82AD
330
1
100
AcDbSymbolTableRecord
100
AcDbBlockTableRecord
  2
*D5
340
0
 70
     0
280
     1
281
     0
  0
BLOCK_RECORD
  5
82B9
330
1
100
AcDbSymbolTableRecord
100
AcDbBlockTableRecord
  2
*D6
340
0
 70
     0
280
     1
281
     0
  0
BLOCK_RECORD
  5
830B
330
1
100
AcDbSymbolTableRecord
100
AcDbBlockTableRecord
  2
*D7
340
0
 70
     0
280
     1
281
     0
  0
BLOCK_RECORD
  5
8317
330
1
100
AcDbSymbolTableRecord
100
AcDbBlockTableRecord
  2
*D8
340
0
 70
     0
280
     1
281
     0
  0
BLOCK_RECORD
  5
8323
330
1
100
AcDbSymbolTableRecord
100
AcDbBlockTableRecord
  2
*D9
340
0
 70
     0
280
     1
281
     0
  0
BLOCK_RECORD
  5
832F
330
1
100
AcDbSymbolTableRecord
100
AcDbBlockTableRecord
  2
*D10
340
0
 70
     0
280
     1
281
     0
  0
BLOCK_RECORD
  5
833B
330
1
100
AcDbSymbolTableRecord
100
AcDbBlockTableRecord
  2
*D11
340
0
 70
     0
280
     1
281
     0
  0
BLOCK_RECORD
  5
8346
330
1
100
AcDbSymbolTableRecord
100
AcDbBlockTableRecord
  2
*D12
340
0
 70
     0
280
     1
281
     0
  0
BLOCK_RECORD
  5
835D
330
1
100
AcDbSymbolTableRecord
100
AcDbBlockTableRecord
  2
*D13
340
0
 70
     0
280
     1
281
     0
  0
BLOCK_RECORD
  5
8376
330
1
100
AcDbSymbolTableRecord
100
AcDbBlockTableRecord
  2
*D14
340
0
 70
     0
280
     1
281
     0
  0
BLOCK_RECORD
  5
8384
330
1
100
AcDbSymbolTableRecord
100
AcDbBlockTableRecord
  2
*D15
340
0
 70
     0
280
     1
281
     0
  0
BLOCK_RECORD
  5
8499
330
1
100
AcDbSymbolTableRecord
100
AcDbBlockTableRecord
  2
*D16
340
0
 70
     0
280
     1
281
     0
  0
BLOCK_RECORD
  5
84A6
330
1
100
AcDbSymbolTableRecord
100
AcDbBlockTableRecord
  2
*D17
340
0
 70
     0
280
     1
281
     0
  0
BLOCK_RECORD
  5
84B3
330
1
100
AcDbSymbolTableRecord
100
AcDbBlockTableRecord
  2
*D18
340
0
 70
     0
280
     1
281
     0
  0
BLOCK_RECORD
  5
84C0
330
1
100
AcDbSymbolTableRecord
100
AcDbBlockTableRecord
  2
*D19
340
0
 70
     0
280
     1
281
     0
  0
BLOCK_RECORD
  5
84CD
330
1
100
AcDbSymbolTableRecord
100
AcDbBlockTableRecord
  2
_NONE
340
0
 70
     0
280
     1
281
     0
  0
BLOCK_RECORD
  5
84D1
330
1
100
AcDbSymbolTableRecord
100
AcDbBlockTableRecord
  2
*D21
340
0
 70
     0
280
     1
281
     0
  0
BLOCK_RECORD
  5
84DA
330
1
100
AcDbSymbolTableRecord
100
AcDbBlockTableRecord
  2
*D22
340
0
 70
     0
280
     1
281
     0
  0
ENDTAB
  0
ENDSEC
  0
SECTION
  2
BLOCKS
  0
BLOCK
  5
1A
330
19
100
AcDbEntity
  8
0
100
AcDbBlockBegin
  2
*MODEL_SPACE
 70
     0
 10
0.0
 20
0.0
 30
0.0
  3
*MODEL_SPACE
  1

  0
ENDBLK
  5
1B
330
19
100
AcDbEntity
  8
0
100
AcDbBlockEnd
  0
BLOCK
  5
17
330
16
100
AcDbEntity
 67
     1
  8
0
100
AcDbBlockBegin
  2
*PAPER_SPACE
 70
     0
 10
0.0
 20
0.0
 30
0.0
  3
*PAPER_SPACE
  1

  0
ENDBLK
  5
18
330
16
100
AcDbEntity
 67
     1
  8
0
100
AcDbBlockEnd
  0
BLOCK
  5
7A00
330
79FC
100
AcDbEntity
  8
0
100
AcDbBlockBegin
  2
_OPEN
 70
     0
 10
0.0
 20
0.0
 30
0.0
  3
_OPEN
  1

  0
LINE
  5
79FD
330
79FC
100
AcDbEntity
  8
0
  6
ByBlock
 62
     0
100
AcDbLine
 10
-1.0
 20
0.1666666666666666
 30
0.0
 11
0.0
 21
0.0
 31
0.0
  0
LINE
  5
79FE
330
79FC
100
AcDbEntity
  8
0
  6
ByBlock
 62
     0
100
AcDbLine
 10
0.0
 20
0.0
 30
0.0
 11
-1.0
 21
-0.1666666666666666
 31
0.0
  0
LINE
  5
79FF
330
79FC
100
AcDbEntity
  8
0
  6
ByBlock
 62
     0
100
AcDbLine
 10
0.0
 20
0.0
 30
0.0
 11
-1.0
 21
0.0
 31
0.0
  0
ENDBLK
  5
7A01
330
79FC
100
AcDbEntity
  8
0
100
AcDbBlockEnd
  0
BLOCK
  5
7EDD
330
7EDC
100
AcDbEntity
  8
0
100
AcDbBlockBegin
  2
_DOT
 70
     0
 10
0.0
 20
0.0
 30
0.0
  3
_DOT
  1

  0
LWPOLYLINE
  5
7F3A
330
7EDC
100
AcDbEntity
  8
0
  6
ByBlock
 62
     0
100
AcDbPolyline
 90
        2
 70
     1
 43
0.25
 10
-0.125
 20
0.0
 42
1.0
 10
0.125
 20
0.0
 42
1.0
  0
LINE
  5
7F3E
330
7EDC
100
AcDbEntity
  8
0
  6
ByBlock
 62
     0
100
AcDbLine
 10
-0.25
 20
0.0
 30
0.0
 11
-1.0
 21
0.0
 31
0.0
  0
ENDBLK
  5
7EE3
330
7EDC
100
AcDbEntity
  8
0
100
AcDbBlockEnd
  0
BLOCK
  5
8059
330
8058
100
AcDbEntity
  8
0
100
AcDbBlockBegin
  2
YA_N
 70
     0
 10
0.0
 20
0.0
 30
0.0
  3
YA_N
  1

  0
ENDBLK
  5
805A
330
8058
100
AcDbEntity
  8
0
100
AcDbBlockEnd
  0
BLOCK
  5
8390
330
8295
100
AcDbEntity
  8
0
100
AcDbBlockBegin
  2
*D3
 70
     1
 10
0.0
 20
0.0
 30
0.0
  3
*D3
  1

  0
LINE
  5
8391
330
8295
100
AcDbEntity
  8
0
  6
ByBlock
440
 16777216
100
AcDbLine
 10
6296.008625556374
 20
1864.053023725597
 30
0.0
 11
6472.051346669778
 21
1864.053023725597
 31
0.0
  0
LINE
  5
8392
330
8295
100
AcDbEntity
  8
0
  6
ByBlock
440
 16777216
100
AcDbLine
 10
6296.008625556375
 20
1549.053023725597
 30
0.0
 11
6472.051346669778
 21
1549.053023725597
 31
0.0
  0
LINE
  5
8393
330
8295
100
AcDbEntity
  8
0
  6
ByBlock
440
 16777216
100
AcDbLine
 10
6457.051346669778
 20
1834.053023725597
 30
0.0
 11
6457.051346669778
 21
1579.053023725597
 31
0.0
  0
INSERT
  5
8394
330
8295
100
AcDbEntity
  8
0
  6
ByBlock
440
 16777216
100
AcDbBlockReference
  2
_OPEN
 10
6457.051346669778
 20
1864.053023725597
 30
0.0
 41
30.0
 42
30.0
 43
30.0
 50
90.0
  0
INSERT
  5
8395
330
8295
100
AcDbEntity
  8
0
  6
ByBlock
440
 16777216
100
AcDbBlockReference
  2
_OPEN
 10
6457.051346669778
 20
1549.053023725597
 30
0.0
 41
30.0
 42
30.0
 43
30.0
 50
270.0
  0
MTEXT
  5
8396
330
8295
100
AcDbEntity
  8
0
  6
ByBlock
440
 16777216
100
AcDbMText
 10
6427.051346669777
 20
1706.553023725598
 30
0.0
 40
45.0
 41
0.0
 46
0.0
 71
     5
 72
     5
  1
\A1;φ 315
 11
0.0
 21
1.0
 31
0.0
 73
     1
 44
1.0
  0
POINT
  5
8397
330
8295
100
AcDbEntity
  8
DEFPOINTS
  6
ByBlock
 62
     0
440
 16777216
100
AcDbPoint
 10
6281.008625556374
 20
1864.053023725597
 30
0.0
  0
POINT
  5
8398
330
8295
100
AcDbEntity
  8
DEFPOINTS
  6
ByBlock
 62
     0
440
 16777216
100
AcDbPoint
 10
6281.008625556374
 20
1549.053023725597
 30
0.0
  0
POINT
  5
8399
330
8295
100
AcDbEntity
  8
DEFPOINTS
  6
ByBlock
 62
     0
440
 16777216
100
AcDbPoint
 10
6457.051346669778
 20
1549.053023725597
 30
0.0
  0
ENDBLK
  5
839A
330
8295
100
AcDbEntity
  8
0
100
AcDbBlockEnd
  0
BLOCK
  5
839B
330
82A1
100
AcDbEntity
  8
0
100
AcDbBlockBegin
  2
*D4
 70
     1
 10
0.0
 20
0.0
 30
0.0
  3
*D4
  1

  0
LINE
  5
839C
330
82A1
100
AcDbEntity
  8
0
  6
ByBlock
440
 16777216
100
AcDbLine
 10
4650.209471210223
 20
1966.553023725597
 30
0.0
 11
4650.209471210223
 21
2093.584882300338
 31
0.0
  0
LINE
  5
839D
330
82A1
100
AcDbEntity
  8
0
  6
ByBlock
440
 16777216
100
AcDbLine
 10
5001.209471210223
 20
1996.546848101545
 30
0.0
 11
5001.209471210223
 21
2093.584882300338
 31
0.0
  0
LINE
  5
839E
330
82A1
100
AcDbEntity
  8
0
  6
ByBlock
440
 16777216
100
AcDbLine
 10
4680.209471210222
 20
2078.584882300338
 30
0.0
 11
4971.209471210222
 21
2078.584882300338
 31
0.0
  0
INSERT
  5
839F
330
82A1
100
AcDbEntity
  8
0
  6
ByBlock
440
 16777216
100
AcDbBlockReference
  2
_OPEN
 10
4650.209471210223
 20
2078.584882300338
 30
0.0
 41
30.0
 42
30.0
 43
30.0
 50
180.0
  0
INSERT
  5
83A0
330
82A1
100
AcDbEntity
  8
0
  6
ByBlock
440
 16777216
100
AcDbBlockReference
  2
_OPEN
 10
5001.209471210223
 20
2078.584882300338
 30
0.0
 41
30.0
 42
30.0
 43
30.0
  0
MTEXT
  5
83A1
330
82A1
100
AcDbEntity
  8
0
  6
ByBlock
440
 16777216
100
AcDbMText
 10
4825.709471210223
 20
2108.584882300338
 30
0.0
 40
45.0
 41
0.0
 46
0.0
 71
     5
 72
     5
  1
\A1;351
 73
     1
 44
1.0
  0
POINT
  5
83A2
330
82A1
100
AcDbEntity
  8
DEFPOINTS
  6
ByBlock
 62
     0
440
 16777216
100
AcDbPoint
 10
4650.209471210223
 20
1951.553023725597
 30
0.0
  0
POINT
  5
83A3
330
82A1
100
AcDbEntity
  8
DEFPOINTS
  6
ByBlock
 62
     0
440
 16777216
100
AcDbPoint
 10
5001.209471210223
 20
1981.546848101545
 30
0.0
  0
POINT
  5
83A4
330
82A1
100
AcDbEntity
  8
DEFPOINTS
  6
ByBlock
 62
     0
440
 16777216
100
AcDbPoint
 10
5001.209471210223
 20
2078.584882300338
 30
0.0
  0
ENDBLK
  5
83A5
330
82A1
100
AcDbEntity
  8
0
100
AcDbBlockEnd
  0
BLOCK
  5
83A6
330
82AD
100
AcDbEntity
  8
0
100
AcDbBlockBegin
  2
*D5
 70
     1
 10
0.0
 20
0.0
 30
0.0
  3
*D5
  1

  0
LINE
  5
83A7
330
82AD
100
AcDbEntity
  8
0
  6
ByBlock
440
 16777216
100
AcDbLine
 10
4650.209471210223
 20
1966.553023725597
 30
0.0
 11
4650.209471210223
 21
2016.053389164383
 31
0.0
  0
LINE
  5
83A8
330
82AD
100
AcDbEntity
  8
0
  6
ByBlock
440
 16777216
100
AcDbLine
 10
4975.209471210223
 20
1966.553023725597
 30
0.0
 11
4975.209471210223
 21
2016.053389164383
 31
0.0
  0
LINE
  5
83A9
330
82AD
100
AcDbEntity
  8
0
  6
ByBlock
440
 16777216
100
AcDbLine
 10
4680.209471210222
 20
2001.053389164383
 30
0.0
 11
4945.209471210223
 21
2001.053389164383
 31
0.0
  0
INSERT
  5
83AA
330
82AD
100
AcDbEntity
  8
0
  6
ByBlock
440
 16777216
100
AcDbBlockReference
  2
_OPEN
 10
4650.209471210223
 20
2001.053389164383
 30
0.0
 41
30.0
 42
30.0
 43
30.0
 50
180.0
  0
INSERT
  5
83AB
330
82AD
100
AcDbEntity
  8
0
  6
ByBlock
440
 16777216
100
AcDbBlockReference
  2
_OPEN
 10
4975.209471210223
 20
2001.053389164383
 30
0.0
 41
30.0
 42
30.0
 43
30.0
  0
MTEXT
  5
83AC
330
82AD
100
AcDbEntity
  8
0
  6
ByBlock
440
 16777216
100
AcDbMText
 10
4812.709471210222
 20
2031.053389164383
 30
0.0
 40
45.0
 41
0.0
 46
0.0
 71
     5
 72
     5
  1
\A1;325
 73
     1
 44
1.0
  0
POINT
  5
83AD
330
82AD
100
AcDbEntity
  8
DEFPOINTS
  6
ByBlock
 62
     0
440
 16777216
100
AcDbPoint
 10
4650.209471210223
 20
1951.553023725597
 30
0.0
  0
POINT
  5
83AE
330
82AD
100
AcDbEntity
  8
DEFPOINTS
  6
ByBlock
 62
     0
440
 16777216
100
AcDbPoint
 10
4975.209471210223
 20
1951.553023725597
 30
0.0
  0
POINT
  5
83AF
330
82AD
100
AcDbEntity
  8
DEFPOINTS
  6
ByBlock
 62
     0
440
 16777216
100
AcDbPoint
 10
4975.209471210223
 20
2001.053389164383
 30
0.0
  0
ENDBLK
  5
83B0
330
82AD
100
AcDbEntity
  8
0
100
AcDbBlockEnd
  0
BLOCK
  5
83B1
330
82B9
100
AcDbEntity
  8
0
100
AcDbBlockBegin
  2
*D6
 70
     1
 10
0.0
 20
0.0
 30
0.0
  3
*D6
  1

  0
LINE
  5
83B2
330
82B9
100
AcDbEntity
  8
0
  6
ByBlock
440
 16777216
100
AcDbLine
 10
5291.20329558617
 20
1706.553023725598
 30
0.0
 11
5462.745514330485
 21
1706.553023725598
 31
0.0
  0
LINE
  5
83B3
330
82B9
100
AcDbEntity
  8
0
  6
ByBlock
440
 16777216
100
AcDbLine
 10
5228.209471210223
 20
1376.553023725597
 30
0.0
 11
5462.745514330485
 21
1376.553023725597
 31
0.0
  0
LINE
  5
83B4
330
82B9
100
AcDbEntity
  8
0
  6
ByBlock
440
 16777216
100
AcDbLine
 10
5447.745514330485
 20
1676.553023725597
 30
0.0
 11
5447.745514330485
 21
1406.553023725597
 31
0.0
  0
INSERT
  5
83B5
330
82B9
100
AcDbEntity
  8
0
  6
ByBlock
440
 16777216
100
AcDbBlockReference
  2
_OPEN
 10
5447.745514330485
 20
1706.553023725598
 30
0.0
 41
30.0
 42
30.0
 43
30.0
 50
90.0
  0
INSERT
  5
83B6
330
82B9
100
AcDbEntity
  8
0
  6
ByBlock
440
 16777216
100
AcDbBlockReference
  2
_OPEN
 10
5447.745514330485
 20
1376.553023725597
 30
0.0
 41
30.0
 42
30.0
 43
30.0
 50
270.0
  0
MTEXT
  5
83B7
330
82B9
100
AcDbEntity
  8
0
  6
ByBlock
440
 16777216
100
AcDbMText
 10
5417.745514330485
 20
1541.553023725597
 30
0.0
 40
45.0
 41
0.0
 46
0.0
 71
     5
 72
     5
  1
\A1;330
 11
0.0
 21
1.0
 31
0.0
 73
     1
 44
1.0
  0
POINT
  5
83B8
330
82B9
100
AcDbEntity
  8
DEFPOINTS
  6
ByBlock
 62
     0
440
 16777216
100
AcDbPoint
 10
5276.203295586171
 20
1706.553023725598
 30
0.0
  0
POINT
  5
83B9
330
82B9
100
AcDbEntity
  8
DEFPOINTS
  6
ByBlock
 62
     0
440
 16777216
100
AcDbPoint
 10
5213.209471210223
 20
1376.553023725597
 30
0.0
  0
POINT
  5
83BA
330
82B9
100
AcDbEntity
  8
DEFPOINTS
  6
ByBlock
 62
     0
440
 16777216
100
AcDbPoint
 10
5447.745514330485
 20
1376.553023725597
 30
0.0
  0
ENDBLK
  5
83BB
330
82B9
100
AcDbEntity
  8
0
100
AcDbBlockEnd
  0
BLOCK
  5
83FC
330
830B
100
AcDbEntity
  8
0
100
AcDbBlockBegin
  2
*D7
 70
     1
 10
0.0
 20
0.0
 30
0.0
  3
*D7
  1

  0
LINE
  5
83FD
330
830B
100
AcDbEntity
  8
0
  6
ByBlock
440
 16777216
100
AcDbLine
 10
6276.808625556373
 20
1966.553023725597
 30
0.0
 11
6276.808625556373
 21
2056.074375890859
 31
0.0
  0
LINE
  5
83FE
330
830B
100
AcDbEntity
  8
0
  6
ByBlock
440
 16777216
100
AcDbLine
 10
5851.808625556373
 20
1966.553023725597
 30
0.0
 11
5851.808625556373
 21
2056.074375890859
 31
0.0
  0
LINE
  5
83FF
330
830B
100
AcDbEntity
  8
0
  6
ByBlock
440
 16777216
100
AcDbLine
 10
6246.808625556374
 20
2041.074375890859
 30
0.0
 11
5881.808625556374
 21
2041.074375890859
 31
0.0
  0
INSERT
  5
8400
330
830B
100
AcDbEntity
  8
0
  6
ByBlock
440
 16777216
100
AcDbBlockReference
  2
_OPEN
 10
6276.808625556373
 20
2041.074375890859
 30
0.0
 41
30.0
 42
30.0
 43
30.0
  0
INSERT
  5
8401
330
830B
100
AcDbEntity
  8
0
  6
ByBlock
440
 16777216
100
AcDbBlockReference
  2
_OPEN
 10
5851.808625556373
 20
2041.074375890859
 30
0.0
 41
30.0
 42
30.0
 43
30.0
 50
180.0
  0
MTEXT
  5
8402
330
830B
100
AcDbEntity
  8
0
  6
ByBlock
440
 16777216
100
AcDbMText
 10
6064.308625556374
 20
2071.074375890859
 30
0.0
 40
45.0
 41
0.0
 46
0.0
 71
     5
 72
     5
  1
\A1;425
 73
     1
 44
1.0
  0
POINT
  5
8403
330
830B
100
AcDbEntity
  8
DEFPOINTS
  6
ByBlock
 62
     0
440
 16777216
100
AcDbPoint
 10
6276.808625556373
 20
1951.553023725597
 30
0.0
  0
POINT
  5
8404
330
830B
100
AcDbEntity
  8
DEFPOINTS
  6
ByBlock
 62
     0
440
 16777216
100
AcDbPoint
 10
5851.808625556373
 20
1951.553023725597
 30
0.0
  0
POINT
  5
8405
330
830B
100
AcDbEntity
  8
DEFPOINTS
  6
ByBlock
 62
     0
440
 16777216
100
AcDbPoint
 10
5851.808625556373
 20
2041.074375890859
 30
0.0
  0
ENDBLK
  5
8406
330
830B
100
AcDbEntity
  8
0
100
AcDbBlockEnd
  0
BLOCK
  5
8407
330
8317
100
AcDbEntity
  8
0
100
AcDbBlockBegin
  2
*D8
 70
     1
 10
0.0
 20
0.0
 30
0.0
  3
*D8
  1

  0
LINE
  5
8408
330
8317
100
AcDbEntity
  8
0
  6
ByBlock
440
 16777216
100
AcDbLine
 10
6354.308625556374
 20
1699.553023725598
 30
0.0
 11
6354.308625556374
 21
2148.00646286332
 31
0.0
  0
LINE
  5
8409
330
8317
100
AcDbEntity
  8
0
  6
ByBlock
440
 16777216
100
AcDbLine
 10
6064.308625556374
 20
2119.031382960489
 30
0.0
 11
6064.308625556374
 21
2148.00646286332
 31
0.0
  0
LINE
  5
840A
330
8317
100
AcDbEntity
  8
0
  6
ByBlock
440
 16777216
100
AcDbLine
 10
6324.308625556374
 20
2133.00646286332
 30
0.0
 11
6094.308625556374
 21
2133.00646286332
 31
0.0
  0
INSERT
  5
840B
330
8317
100
AcDbEntity
  8
0
  6
ByBlock
440
 16777216
100
AcDbBlockReference
  2
_OPEN
 10
6354.308625556374
 20
2133.00646286332
 30
0.0
 41
30.0
 42
30.0
 43
30.0
  0
INSERT
  5
840C
330
8317
100
AcDbEntity
  8
0
  6
ByBlock
440
 16777216
100
AcDbBlockReference
  2
_OPEN
 10
6064.308625556374
 20
2133.00646286332
 30
0.0
 41
30.0
 42
30.0
 43
30.0
 50
180.0
  0
MTEXT
  5
840D
330
8317
100
AcDbEntity
  8
0
  6
ByBlock
440
 16777216
100
AcDbMText
 10
6209.308625556374
 20
2174.792177149035
 30
0.0
 40
45.0
 41
0.0
 46
0.0
 71
     5
 72
     5
  1
\A1;(290)
 73
     1
 44
1.0
  0
POINT
  5
840E
330
8317
100
AcDbEntity
  8
DEFPOINTS
  6
ByBlock
 62
     0
440
 16777216
100
AcDbPoint
 10
6354.308625556374
 20
1684.553023725598
 30
0.0
  0
POINT
  5
840F
330
8317
100
AcDbEntity
  8
DEFPOINTS
  6
ByBlock
 62
     0
440
 16777216
100
AcDbPoint
 10
6064.308625556374
 20
2104.031382960489
 30
0.0
  0
POINT
  5
8410
330
8317
100
AcDbEntity
  8
DEFPOINTS
  6
ByBlock
 62
     0
440
 16777216
100
AcDbPoint
 10
6064.308625556374
 20
2133.00646286332
 30
0.0
  0
ENDBLK
  5
8411
330
8317
100
AcDbEntity
  8
0
100
AcDbBlockEnd
  0
BLOCK
  5
8412
330
8323
100
AcDbEntity
  8
0
100
AcDbBlockBegin
  2
*D9
 70
     1
 10
0.0
 20
0.0
 30
0.0
  3
*D9
  1

  0
LINE
  5
8413
330
8323
100
AcDbEntity
  8
0
  6
ByBlock
440
 16777216
100
AcDbLine
 10
4313.209471210222
 20
3039.131986173009
 30
0.0
 11
4313.209471210222
 21
3235.801270138626
 31
0.0
  0
LINE
  5
8414
330
8323
100
AcDbEntity
  8
0
  6
ByBlock
440
 16777216
100
AcDbLine
 10
5213.209471210223
 20
3039.131986173009
 30
0.0
 11
5213.209471210223
 21
3235.801270138626
 31
0.0
  0
LINE
  5
8415
330
8323
100
AcDbEntity
  8
0
  6
ByBlock
440
 16777216
100
AcDbLine
 10
4343.209471210222
 20
3220.801270138626
 30
0.0
 11
5183.209471210222
 21
3220.801270138626
 31
0.0
  0
INSERT
  5
8416
330
8323
100
AcDbEntity
  8
0
  6
ByBlock
440
 16777216
100
AcDbBlockReference
  2
_OPEN
 10
4313.209471210222
 20
3220.801270138626
 30
0.0
 41
30.0
 42
30.0
 43
30.0
 50
180.0
  0
INSERT
  5
8417
330
8323
100
AcDbEntity
  8
0
  6
ByBlock
440
 16777216
100
AcDbBlockReference
  2
_OPEN
 10
5213.209471210223
 20
3220.801270138626
 30
0.0
 41
30.0
 42
30.0
 43
30.0
  0
MTEXT
  5
8418
330
8323
100
AcDbEntity
  8
0
  6
ByBlock
440
 16777216
100
AcDbMText
 10
4763.209471210222
 20
3250.801270138627
 30
0.0
 40
45.0
 41
0.0
 46
0.0
 71
     5
 72
     5
  1
\A1;900
 73
     1
 44
1.0
  0
POINT
  5
8419
330
8323
100
AcDbEntity
  8
DEFPOINTS
  6
ByBlock
 62
     0
440
 16777216
100
AcDbPoint
 10
4313.209471210222
 20
3024.131986173009
 30
0.0
  0
POINT
  5
841A
330
8323
100
AcDbEntity
  8
DEFPOINTS
  6
ByBlock
 62
     0
440
 16777216
100
AcDbPoint
 10
5213.209471210223
 20
3024.131986173009
 30
0.0
  0
POINT
  5
841B
330
8323
100
AcDbEntity
  8
DEFPOINTS
  6
ByBlock
 62
     0
440
 16777216
100
AcDbPoint
 10
5213.209471210223
 20
3220.801270138626
 30
0.0
  0
ENDBLK
  5
841C
330
8323
100
AcDbEntity
  8
0
100
AcDbBlockEnd
  0
BLOCK
  5
841D
330
832F
100
AcDbEntity
  8
0
100
AcDbBlockBegin
  2
*D10
 70
     1
 10
0.0
 20
0.0
 30
0.0
  3
*D10
  1

  0
LINE
  5
841E
330
832F
100
AcDbEntity
  8
0
  6
ByBlock
440
 16777216
100
AcDbLine
 10
5228.209471210223
 20
3024.131986173009
 30
0.0
 11
5411.697975345487
 21
3024.131986173009
 31
0.0
  0
LINE
  5
841F
330
832F
100
AcDbEntity
  8
0
  6
ByBlock
440
 16777216
100
AcDbLine
 10
5228.209471210223
 20
2434.131986173008
 30
0.0
 11
5411.697975345487
 21
2434.131986173008
 31
0.0
  0
LINE
  5
8420
330
832F
100
AcDbEntity
  8
0
  6
ByBlock
440
 16777216
100
AcDbLine
 10
5396.697975345487
 20
2994.131986173009
 30
0.0
 11
5396.697975345487
 21
2464.131986173008
 31
0.0
  0
INSERT
  5
8421
330
832F
100
AcDbEntity
  8
0
  6
ByBlock
440
 16777216
100
AcDbBlockReference
  2
_OPEN
 10
5396.697975345487
 20
3024.131986173009
 30
0.0
 41
30.0
 42
30.0
 43
30.0
 50
90.0
  0
INSERT
  5
8422
330
832F
100
AcDbEntity
  8
0
  6
ByBlock
440
 16777216
100
AcDbBlockReference
  2
_OPEN
 10
5396.697975345487
 20
2434.131986173008
 30
0.0
 41
30.0
 42
30.0
 43
30.0
 50
270.0
  0
MTEXT
  5
8423
330
832F
100
AcDbEntity
  8
0
  6
ByBlock
440
 16777216
100
AcDbMText
 10
5366.697975345488
 20
2729.131986173008
 30
0.0
 40
45.0
 41
0.0
 46
0.0
 71
     5
 72
     5
  1
\A1;590
 11
0.0
 21
1.0
 31
0.0
 73
     1
 44
1.0
  0
POINT
  5
8424
330
832F
100
AcDbEntity
  8
DEFPOINTS
  6
ByBlock
 62
     0
440
 16777216
100
AcDbPoint
 10
5213.209471210223
 20
3024.131986173009
 30
0.0
  0
POINT
  5
8425
330
832F
100
AcDbEntity
  8
DEFPOINTS
  6
ByBlock
 62
     0
440
 16777216
100
AcDbPoint
 10
5213.209471210223
 20
2434.131986173008
 30
0.0
  0
POINT
  5
8426
330
832F
100
AcDbEntity
  8
DEFPOINTS
  6
ByBlock
 62
     0
440
 16777216
100
AcDbPoint
 10
5396.697975345487
 20
2434.131986173008
 30
0.0
  0
ENDBLK
  5
8427
330
832F
100
AcDbEntity
  8
0
100
AcDbBlockEnd
  0
BLOCK
  5
847A
330
833B
100
AcDbEntity
  8
0
100
AcDbBlockBegin
  2
*D11
 70
     1
 10
0.0
 20
0.0
 30
0.0
  3
*D11
  1

  0
LINE
  5
8603
330
833B
100
AcDbEntity
  8
3
440
 16777216
370
    -2
100
AcDbLine
 10
1768.370280853016
 20
1862.075274134442
 30
0.0
 11
1768.370280853016
 21
2148.00646286332
 31
0.0
  0
LINE
  5
8604
330
833B
100
AcDbEntity
  8
3
440
 16777216
370
    -2
100
AcDbLine
 10
2208.370280853016
 20
2133.00646286332
 30
0.0
 11
1798.370280853016
 21
2133.00646286332
 31
0.0
  0
INSERT
  5
8605
330
833B
100
AcDbEntity
  8
3
440
 16777216
370
    -2
100
AcDbBlockReference
  2
_OPEN
 10
2238.370280853016
 20
2133.00646286332
 30
0.0
 41
30.0
 42
30.0
 43
30.0
  0
INSERT
  5
8606
330
833B
100
AcDbEntity
  8
3
440
 16777216
370
    -2
100
AcDbBlockReference
  2
_OPEN
 10
1768.370280853016
 20
2133.00646286332
 30
0.0
 41
30.0
 42
30.0
 43
30.0
 50
180.0
  0
MTEXT
  5
8607
330
833B
100
AcDbEntity
  8
3
440
 16777216
100
AcDbMText
 10
2003.370280853016
 20
2174.792177149035
 30
0.0
 40
45.0
 41
0.0
 46
0.0
 71
     5
 72
     1
  1
\A1;(470)
 73
     1
 44
1.0
  0
POINT
  5
8608
330
833B
100
AcDbEntity
  8
DEFPOINTS
 62
     0
440
 16777216
100
AcDbPoint
 10
2238.370280853016
 20
2104.031382960489
 30
0.0
  0
POINT
  5
8609
330
833B
100
AcDbEntity
  8
DEFPOINTS
 62
     0
440
 16777216
100
AcDbPoint
 10
1768.370280853016
 20
1847.075274134442
 30
0.0
  0
POINT
  5
860A
330
833B
100
AcDbEntity
  8
DEFPOINTS
 62
     0
440
 16777216
100
AcDbPoint
 10
1768.370280853016
 20
2133.00646286332
 30
0.0
  0
ENDBLK
  5
8483
330
833B
100
AcDbEntity
  8
0
100
AcDbBlockEnd
  0
BLOCK
  5
8432
330
8346
100
AcDbEntity
  8
0
100
AcDbBlockBegin
  2
*D12
 70
     1
 10
0.0
 20
0.0
 30
0.0
  3
*D12
  1

  0
LINE
  5
853B
330
8346
100
AcDbEntity
  8
3
440
 16777216
100
AcDbLine
 10
1192.65995683182
 20
1951.553023725597
 30
0.0
 11
1636.807169627127
 21
1951.553023725597
 31
0.0
  0
LINE
  5
853C
330
8346
100
AcDbEntity
  8
3
440
 16777216
100
AcDbLine
 10
1621.807169627127
 20
1736.553023725597
 30
0.0
 11
1621.807169627127
 21
1921.553023725597
 31
0.0
  0
INSERT
  5
853D
330
8346
100
AcDbEntity
  8
3
440
 16777216
100
AcDbBlockReference
  2
_OPEN
 10
1621.807169627127
 20
1706.553023725597
 30
0.0
 41
30.0
 42
30.0
 43
30.0
 50
270.0
  0
INSERT
  5
853E
330
8346
100
AcDbEntity
  8
3
440
 16777216
100
AcDbBlockReference
  2
_OPEN
 10
1621.807169627127
 20
1951.553023725597
 30
0.0
 41
30.0
 42
30.0
 43
30.0
 50
90.0
  0
MTEXT
  5
853F
330
8346
100
AcDbEntity
  8
3
440
 16777216
100
AcDbMText
 10
1591.807169627126
 20
1829.053023725597
 30
0.0
 40
45.0
 41
0.0
 46
0.0
 71
     5
 72
     5
  1
\A1;245
 11
0.0000000000000001
 21
1.0
 31
0.0
 73
     1
 44
1.0
  0
POINT
  5
8540
330
8346
100
AcDbEntity
  8
DEFPOINTS
 62
     0
440
 16777216
100
AcDbPoint
 10
1450.264950882812
 20
1706.553023725598
 30
0.0
  0
POINT
  5
8541
330
8346
100
AcDbEntity
  8
DEFPOINTS
 62
     0
440
 16777216
100
AcDbPoint
 10
1177.65995683182
 20
1951.553023725597
 30
0.0
  0
POINT
  5
8542
330
8346
100
AcDbEntity
  8
DEFPOINTS
 62
     0
440
 16777216
100
AcDbPoint
 10
1621.807169627127
 20
1951.553023725597
 30
0.0
  0
ENDBLK
  5
843B
330
8346
100
AcDbEntity
  8
0
100
AcDbBlockEnd
  0
BLOCK
  5
8447
330
835D
100
AcDbEntity
  8
0
100
AcDbBlockBegin
  2
*D13
 70
     1
 10
0.0
 20
0.0
 30
0.0
  3
*D13
  1

  0
LINE
  5
8543
330
835D
100
AcDbEntity
  8
3
440
 16777216
100
AcDbLine
 10
1403.930030734695
 20
1702.788071140907
 30
0.0
 11
1403.930030734695
 21
2093.584882300338
 31
0.0
  0
LINE
  5
8544
330
835D
100
AcDbEntity
  8
3
440
 16777216
100
AcDbLine
 10
1205.271126506864
 20
2078.584882300338
 30
0.0
 11
1373.930030734695
 21
2078.584882300338
 31
0.0
  0
INSERT
  5
8545
330
835D
100
AcDbEntity
  8
3
440
 16777216
100
AcDbBlockReference
  2
_OPEN
 10
1175.271126506864
 20
2078.584882300338
 30
0.0
 41
30.0
 42
30.0
 43
30.0
 50
180.0
  0
INSERT
  5
8546
330
835D
100
AcDbEntity
  8
3
440
 16777216
100
AcDbBlockReference
  2
_OPEN
 10
1403.930030734695
 20
2078.584882300338
 30
0.0
 41
30.0
 42
30.0
 43
30.0
  0
MTEXT
  5
8547
330
835D
100
AcDbEntity
  8
3
440
 16777216
100
AcDbMText
 10
1289.60057862078
 20
2108.584882300338
 30
0.0
 40
45.0
 41
0.0
 46
0.0
 71
     5
 72
     5
  1
\A1;226
 73
     1
 44
1.0
  0
POINT
  5
8548
330
835D
100
AcDbEntity
  8
DEFPOINTS
 62
     0
440
 16777216
100
AcDbPoint
 10
1175.271126506864
 20
1981.546848101545
 30
0.0
  0
POINT
  5
8549
330
835D
100
AcDbEntity
  8
DEFPOINTS
 62
     0
440
 16777216
100
AcDbPoint
 10
1403.930030734695
 20
1687.788071140907
 30
0.0
  0
POINT
  5
854A
330
835D
100
AcDbEntity
  8
DEFPOINTS
 62
     0
440
 16777216
100
AcDbPoint
 10
1403.930030734695
 20
2078.584882300338
 30
0.0
  0
ENDBLK
  5
8450
330
835D
100
AcDbEntity
  8
0
100
AcDbBlockEnd
  0
BLOCK
  5
845E
330
8376
100
AcDbEntity
  8
0
100
AcDbBlockBegin
  2
*D14
 70
     1
 10
0.0
 20
0.0
 30
0.0
  3
*D14
  1

  0
LINE
  5
854B
330
8376
100
AcDbEntity
  8
3
 62
     0
440
 16777216
100
AcDbLine
 10
1394.771126506865
 20
1340.553023725597
 30
0.0
 11
1636.807169627127
 21
1340.553023725597
 31
0.0
  0
LINE
  5
854C
330
8376
100
AcDbEntity
  8
3
 62
     0
440
 16777216
100
AcDbLine
 10
1394.771126506865
 20
1275.553023725597
 30
0.0
 11
1636.807169627127
 21
1275.553023725597
 31
0.0
  0
LINE
  5
854D
330
8376
100
AcDbEntity
  8
3
 62
     0
440
 16777216
100
AcDbLine
 10
1621.807169627127
 20
1370.553023725597
 30
0.0
 11
1621.807169627127
 21
1400.553023725597
 31
0.0
  0
LINE
  5
854E
330
8376
100
AcDbEntity
  8
3
 62
     0
440
 16777216
100
AcDbLine
 10
1621.807169627127
 20
1245.553023725597
 30
0.0
 11
1621.807169627127
 21
1112.695880868454
 31
0.0
  0
LINE
  5
854F
330
8376
100
AcDbEntity
  8
3
 62
     0
440
 16777216
100
AcDbLine
 10
1621.807169627127
 20
1340.553023725597
 30
0.0
 11
1621.807169627127
 21
1275.553023725597
 31
0.0
  0
INSERT
  5
8550
330
8376
100
AcDbEntity
  8
3
 62
     0
440
 16777216
100
AcDbBlockReference
  2
_DOT
 10
1621.807169627127
 20
1340.553023725597
 30
0.0
 41
30.0
 42
30.0
 43
30.0
 50
270.0
  0
INSERT
  5
8551
330
8376
100
AcDbEntity
  8
3
 62
     0
440
 16777216
100
AcDbBlockReference
  2
_OPEN
 10
1621.807169627127
 20
1275.553023725597
 30
0.0
 41
30.0
 42
30.0
 43
30.0
 50
90.0
  0
MTEXT
  5
8552
330
8376
100
AcDbEntity
  8
3
 62
     0
440
 16777216
100
AcDbMText
 10
1584.307169627127
 20
1164.124452297026
 30
0.0
 40
45.0
 41
0.0
 46
0.0
 71
     5
 72
     5
  1
\A1;65
 11
0.0000000000000001
 21
1.0
 31
0.0
 73
     1
 44
1.0
  0
POINT
  5
8553
330
8376
100
AcDbEntity
  8
DEFPOINTS
 62
     0
440
 16777216
100
AcDbPoint
 10
1387.271126506864
 20
1340.553023725597
 30
0.0
  0
POINT
  5
8554
330
8376
100
AcDbEntity
  8
DEFPOINTS
 62
     0
440
 16777216
100
AcDbPoint
 10
1387.271126506864
 20
1275.553023725597
 30
0.0
  0
POINT
  5
8555
330
8376
100
AcDbEntity
  8
DEFPOINTS
 62
     0
440
 16777216
100
AcDbPoint
 10
1621.807169627127
 20
1275.553023725597
 30
0.0
  0
ENDBLK
  5
846A
330
8376
100
AcDbEntity
  8
0
100
AcDbBlockEnd
  0
BLOCK
  5
846B
330
8384
100
AcDbEntity
  8
0
100
AcDbBlockBegin
  2
*D15
 70
     1
 10
0.0
 20
0.0
 30
0.0
  3
*D15
  1

  0
LINE
  5
8556
330
8384
100
AcDbEntity
  8
3
 62
     0
440
 16777216
100
AcDbLine
 10
1403.930030734695
 20
1695.288071140907
 30
0.0
 11
1403.930030734695
 21
2165.731120768501
 31
0.0
  0
LINE
  5
8557
330
8384
100
AcDbEntity
  8
3
 62
     0
440
 16777216
100
AcDbLine
 10
455.2711265068646
 20
1499.053023725597
 30
0.0
 11
455.2711265068647
 21
2165.731120768501
 31
0.0
  0
LINE
  5
8558
330
8384
100
AcDbEntity
  8
3
 62
     0
440
 16777216
100
AcDbLine
 10
1373.930030734695
 20
2150.731120768502
 30
0.0
 11
485.2711265068647
 21
2150.731120768502
 31
0.0
  0
INSERT
  5
8559
330
8384
100
AcDbEntity
  8
3
 62
     0
440
 16777216
100
AcDbBlockReference
  2
_OPEN
 10
1403.930030734695
 20
2150.731120768502
 30
0.0
 41
30.0
 42
30.0
 43
30.0
  0
INSERT
  5
855A
330
8384
100
AcDbEntity
  8
3
 62
     0
440
 16777216
100
AcDbBlockReference
  2
_OPEN
 10
455.2711265068647
 20
2150.731120768502
 30
0.0
 41
30.0
 42
30.0
 43
30.0
 50
180.0
  0
MTEXT
  5
855B
330
8384
100
AcDbEntity
  8
3
 62
     0
440
 16777216
100
AcDbMText
 10
925.5558196706825
 20
2188.231120768502
 30
0.0
 40
45.0
 41
0.0
 46
0.0
 71
     5
 72
     5
  1
\A1;949
 73
     1
 44
1.0
  0
POINT
  5
855C
330
8384
100
AcDbEntity
  8
DEFPOINTS
 62
     0
440
 16777216
100
AcDbPoint
 10
1403.930030734695
 20
1687.788071140907
 30
0.0
  0
POINT
  5
855D
330
8384
100
AcDbEntity
  8
DEFPOINTS
 62
     0
440
 16777216
100
AcDbPoint
 10
455.2711265068646
 20
1491.553023725597
 30
0.0
  0
POINT
  5
855E
330
8384
100
AcDbEntity
  8
DEFPOINTS
 62
     0
440
 16777216
100
AcDbPoint
 10
455.2711265068647
 20
2150.731120768502
 30
0.0
  0
ENDBLK
  5
8475
330
8384
100
AcDbEntity
  8
0
100
AcDbBlockEnd
  0
BLOCK
  5
849A
330
8499
100
AcDbEntity
  8
0
100
AcDbBlockBegin
  2
*D16
 70
     1
 10
0.0
 20
0.0
 30
0.0
  3
*D16
  1

  0
LINE
  5
855F
330
8499
100
AcDbEntity
  8
3
 62
     0
440
 16777216
100
AcDbLine
 10
487.2711265068646
 20
1268.053023725597
 30
0.0
 11
487.2711265068646
 21
1157.005038111068
 31
0.0
  0
LINE
  5
8560
330
8499
100
AcDbEntity
  8
3
 62
     0
440
 16777216
100
AcDbLine
 10
1175.271126506865
 20
1268.053023725597
 30
0.0
 11
1175.271126506865
 21
1157.005038111068
 31
0.0
  0
LINE
  5
8561
330
8499
100
AcDbEntity
  8
3
 62
     0
440
 16777216
100
AcDbLine
 10
517.2711265068646
 20
1172.005038111068
 30
0.0
 11
1145.271126506865
 21
1172.005038111068
 31
0.0
  0
INSERT
  5
8562
330
8499
100
AcDbEntity
  8
3
 62
     0
440
 16777216
100
AcDbBlockReference
  2
_OPEN
 10
487.2711265068646
 20
1172.005038111068
 30
0.0
 41
30.0
 42
30.0
 43
30.0
 50
180.0
  0
INSERT
  5
8563
330
8499
100
AcDbEntity
  8
3
 62
     0
440
 16777216
100
AcDbBlockReference
  2
_OPEN
 10
1175.271126506865
 20
1172.005038111068
 30
0.0
 41
30.0
 42
30.0
 43
30.0
  0
MTEXT
  5
8564
330
8499
100
AcDbEntity
  8
3
 62
     0
440
 16777216
100
AcDbMText
 10
831.2711265068648
 20
1209.505038111069
 30
0.0
 40
45.0
 41
0.0
 46
0.0
 71
     5
 72
     5
  1
\A1;688
 73
     1
 44
1.0
  0
POINT
  5
8565
330
8499
100
AcDbEntity
  8
DEFPOINTS
 62
     0
440
 16777216
100
AcDbPoint
 10
487.2711265068646
 20
1275.553023725597
 30
0.0
  0
POINT
  5
8566
330
8499
100
AcDbEntity
  8
DEFPOINTS
 62
     0
440
 16777216
100
AcDbPoint
 10
1175.271126506865
 20
1275.553023725597
 30
0.0
  0
POINT
  5
8567
330
8499
100
AcDbEntity
  8
DEFPOINTS
 62
     0
440
 16777216
100
AcDbPoint
 10
1175.271126506865
 20
1172.005038111068
 30
0.0
  0
ENDBLK
  5
84A4
330
8499
100
AcDbEntity
  8
0
100
AcDbBlockEnd
  0
BLOCK
  5
84A7
330
84A6
100
AcDbEntity
  8
0
100
AcDbBlockBegin
  2
*D17
 70
     1
 10
0.0
 20
0.0
 30
0.0
  3
*D17
  1

  0
LINE
  5
8568
330
84A6
100
AcDbEntity
  8
3
 62
     0
440
 16777216
100
AcDbLine
 10
1175.271126506865
 20
1268.053023725597
 30
0.0
 11
1175.271126506865
 21
1157.005038111068
 31
0.0
  0
LINE
  5
8569
330
84A6
100
AcDbEntity
  8
3
 62
     0
440
 16777216
100
AcDbLine
 10
1387.271126506864
 20
1268.053023725597
 30
0.0
 11
1387.271126506864
 21
1157.005038111068
 31
0.0
  0
LINE
  5
856A
330
84A6
100
AcDbEntity
  8
3
 62
     0
440
 16777216
100
AcDbLine
 10
1205.271126506865
 20
1172.005038111068
 30
0.0
 11
1357.271126506865
 21
1172.005038111068
 31
0.0
  0
INSERT
  5
856B
330
84A6
100
AcDbEntity
  8
3
 62
     0
440
 16777216
100
AcDbBlockReference
  2
_OPEN
 10
1175.271126506865
 20
1172.005038111068
 30
0.0
 41
30.0
 42
30.0
 43
30.0
 50
180.0
  0
INSERT
  5
856C
330
84A6
100
AcDbEntity
  8
3
 62
     0
440
 16777216
100
AcDbBlockReference
  2
_OPEN
 10
1387.271126506864
 20
1172.005038111068
 30
0.0
 41
30.0
 42
30.0
 43
30.0
  0
MTEXT
  5
856D
330
84A6
100
AcDbEntity
  8
3
 62
     0
440
 16777216
100
AcDbMText
 10
1281.271126506865
 20
1209.505038111069
 30
0.0
 40
45.0
 41
0.0
 46
0.0
 71
     5
 72
     5
  1
\A1;212
 73
     1
 44
1.0
  0
POINT
  5
856E
330
84A6
100
AcDbEntity
  8
DEFPOINTS
 62
     0
440
 16777216
100
AcDbPoint
 10
1175.271126506865
 20
1275.553023725597
 30
0.0
  0
POINT
  5
856F
330
84A6
100
AcDbEntity
  8
DEFPOINTS
 62
     0
440
 16777216
100
AcDbPoint
 10
1387.271126506864
 20
1275.553023725597
 30
0.0
  0
POINT
  5
8570
330
84A6
100
AcDbEntity
  8
DEFPOINTS
 62
     0
440
 16777216
100
AcDbPoint
 10
1387.271126506864
 20
1172.005038111068
 30
0.0
  0
ENDBLK
  5
84B1
330
84A6
100
AcDbEntity
  8
0
100
AcDbBlockEnd
  0
BLOCK
  5
84B4
330
84B3
100
AcDbEntity
  8
0
100
AcDbBlockBegin
  2
*D18
 70
     1
 10
0.0
 20
0.0
 30
0.0
  3
*D18
  1

  0
LINE
  5
8571
330
84B3
100
AcDbEntity
  8
3
 62
     0
440
 16777216
100
AcDbLine
 10
1903.370280853016
 20
1268.053023725597
 30
0.0
 11
1903.370280853016
 21
1157.005038111068
 31
0.0
  0
LINE
  5
8572
330
84B3
100
AcDbEntity
  8
3
 62
     0
440
 16777216
100
AcDbLine
 10
2238.370280853016
 20
1268.053023725597
 30
0.0
 11
2238.370280853016
 21
1157.005038111068
 31
0.0
  0
LINE
  5
8573
330
84B3
100
AcDbEntity
  8
3
 62
     0
440
 16777216
100
AcDbLine
 10
1933.370280853016
 20
1172.005038111068
 30
0.0
 11
2208.370280853015
 21
1172.005038111068
 31
0.0
  0
INSERT
  5
8574
330
84B3
100
AcDbEntity
  8
3
 62
     0
440
 16777216
100
AcDbBlockReference
  2
_OPEN
 10
1903.370280853016
 20
1172.005038111068
 30
0.0
 41
30.0
 42
30.0
 43
30.0
 50
180.0
  0
INSERT
  5
8575
330
84B3
100
AcDbEntity
  8
3
 62
     0
440
 16777216
100
AcDbBlockReference
  2
_OPEN
 10
2238.370280853016
 20
1172.005038111068
 30
0.0
 41
30.0
 42
30.0
 43
30.0
  0
MTEXT
  5
8576
330
84B3
100
AcDbEntity
  8
3
 62
     0
440
 16777216
100
AcDbMText
 10
2070.870280853016
 20
1209.505038111069
 30
0.0
 40
45.0
 41
0.0
 46
0.0
 71
     5
 72
     5
  1
\A1;335
 73
     1
 44
1.0
  0
POINT
  5
8577
330
84B3
100
AcDbEntity
  8
DEFPOINTS
 62
     0
440
 16777216
100
AcDbPoint
 10
1903.370280853016
 20
1275.553023725597
 30
0.0
  0
POINT
  5
8578
330
84B3
100
AcDbEntity
  8
DEFPOINTS
 62
     0
440
 16777216
100
AcDbPoint
 10
2238.370280853016
 20
1275.553023725597
 30
0.0
  0
POINT
  5
8579
330
84B3
100
AcDbEntity
  8
DEFPOINTS
 62
     0
440
 16777216
100
AcDbPoint
 10
2238.370280853016
 20
1172.005038111068
 30
0.0
  0
ENDBLK
  5
84BE
330
84B3
100
AcDbEntity
  8
0
100
AcDbBlockEnd
  0
BLOCK
  5
84C1
330
84C0
100
AcDbEntity
  8
0
100
AcDbBlockBegin
  2
*D19
 70
     1
 10
0.0
 20
0.0
 30
0.0
  3
*D19
  1

  0
LINE
  5
857A
330
84C0
100
AcDbEntity
  8
3
 62
     0
440
 16777216
100
AcDbLine
 10
2238.370280853016
 20
1268.053023725597
 30
0.0
 11
2238.370280853016
 21
1157.005038111068
 31
0.0
  0
LINE
  5
857B
330
84C0
100
AcDbEntity
  8
3
 62
     0
440
 16777216
100
AcDbLine
 10
2493.370280853016
 20
1268.053023725597
 30
0.0
 11
2493.370280853016
 21
1157.005038111068
 31
0.0
  0
LINE
  5
857C
330
84C0
100
AcDbEntity
  8
3
 62
     0
440
 16777216
100
AcDbLine
 10
2268.370280853016
 20
1172.005038111068
 30
0.0
 11
2463.370280853016
 21
1172.005038111068
 31
0.0
  0
INSERT
  5
857D
330
84C0
100
AcDbEntity
  8
3
 62
     0
440
 16777216
100
AcDbBlockReference
  2
_OPEN
 10
2238.370280853016
 20
1172.005038111068
 30
0.0
 41
30.0
 42
30.0
 43
30.0
 50
180.0
  0
INSERT
  5
857E
330
84C0
100
AcDbEntity
  8
3
 62
     0
440
 16777216
100
AcDbBlockReference
  2
_OPEN
 10
2493.370280853016
 20
1172.005038111068
 30
0.0
 41
30.0
 42
30.0
 43
30.0
  0
MTEXT
  5
857F
330
84C0
100
AcDbEntity
  8
3
 62
     0
440
 16777216
100
AcDbMText
 10
2365.870280853016
 20
1209.505038111069
 30
0.0
 40
45.0
 41
0.0
 46
0.0
 71
     5
 72
     5
  1
\A1;255
 73
     1
 44
1.0
  0
POINT
  5
8580
330
84C0
100
AcDbEntity
  8
DEFPOINTS
 62
     0
440
 16777216
100
AcDbPoint
 10
2238.370280853016
 20
1275.553023725597
 30
0.0
  0
POINT
  5
8581
330
84C0
100
AcDbEntity
  8
DEFPOINTS
 62
     0
440
 16777216
100
AcDbPoint
 10
2493.370280853016
 20
1275.553023725597
 30
0.0
  0
POINT
  5
8582
330
84C0
100
AcDbEntity
  8
DEFPOINTS
 62
     0
440
 16777216
100
AcDbPoint
 10
2493.370280853016
 20
1172.005038111068
 30
0.0
  0
ENDBLK
  5
84CB
330
84C0
100
AcDbEntity
  8
0
100
AcDbBlockEnd
  0
BLOCK
  5
84CE
330
84CD
100
AcDbEntity
  8
0
100
AcDbBlockBegin
  2
_NONE
 70
     0
 10
0.0
 20
0.0
 30
0.0
  3
_NONE
  1

  0
CIRCLE
  5
84CF
330
84CD
100
AcDbEntity
  8
0
  6
ByBlock
 62
     0
100
AcDbCircle
 10
0.0
 20
0.0
 30
0.0
 40
0.25
  0
ENDBLK
  5
84D0
330
84CD
100
AcDbEntity
  8
0
100
AcDbBlockEnd
  0
BLOCK
  5
84D2
330
84D1
100
AcDbEntity
  8
0
100
AcDbBlockBegin
  2
*D21
 70
     1
 10
0.0
 20
0.0
 30
0.0
  3
*D21
  1

  0
LINE
  5
84D3
330
84D1
100
AcDbEntity
  8
0
  6
ByBlock
 62
     0
440
 16777216
100
AcDbLine
 10
1621.430465847457
 20
1340.553023725597
 30
0.0
 11
1621.430465847457
 21
1376.553023725597
 31
0.0
  0
MTEXT
  5
84D4
330
84D1
100
AcDbEntity
  8
0
  6
ByBlock
 62
     0
440
 16777216
100
AcDbMText
 10
1693.216180133171
 20
1358.553023725597
 30
0.0
 40
45.0
 41
0.0
 46
0.0
 71
     5
 72
     5
  1
\A1;(36)
 11
0.0
 21
1.0
 31
0.0
 73
     1
 44
1.0
  0
POINT
  5
84D5
330
84D1
100
AcDbEntity
  8
DEFPOINTS
  6
ByBlock
 62
     0
440
 16777216
100
AcDbPoint
 10
1387.271126506864
 20
1340.553023725597
 30
0.0
  0
POINT
  5
84D6
330
84D1
100
AcDbEntity
  8
DEFPOINTS
  6
ByBlock
 62
     0
440
 16777216
100
AcDbPoint
 10
1387.271126506864
 20
1376.553023725597
 30
0.0
  0
POINT
  5
84D7
330
84D1
100
AcDbEntity
  8
DEFPOINTS
  6
ByBlock
 62
     0
440
 16777216
100
AcDbPoint
 10
1621.430465847457
 20
1376.553023725597
 30
0.0
  0
ENDBLK
  5
84D8
330
84D1
100
AcDbEntity
  8
0
100
AcDbBlockEnd
  0
BLOCK
  5
84DB
330
84DA
100
AcDbEntity
  8
0
100
AcDbBlockBegin
  2
*D22
 70
     1
 10
0.0
 20
0.0
 30
0.0
  3
*D22
  1

  0
LINE
  5
8583
330
84DA
100
AcDbEntity
  8
3
 62
     0
440
 16777216
100
AcDbLine
 10
1185.15995683182
 20
1951.553023725597
 30
0.0
 11
1755.891518794779
 21
1951.553023725597
 31
0.0
  0
LINE
  5
8584
330
84DA
100
AcDbEntity
  8
3
 62
     0
440
 16777216
100
AcDbLine
 10
1394.771126506865
 20
1275.553023725597
 30
0.0
 11
1755.891518794778
 21
1275.553023725597
 31
0.0
  0
LINE
  5
8585
330
84DA
100
AcDbEntity
  8
3
 62
     0
440
 16777216
100
AcDbLine
 10
1740.891518794779
 20
1921.553023725597
 30
0.0
 11
1740.891518794779
 21
1305.553023725597
 31
0.0
  0
INSERT
  5
8586
330
84DA
100
AcDbEntity
  8
3
 62
     0
440
 16777216
100
AcDbBlockReference
  2
_OPEN
 10
1740.891518794779
 20
1951.553023725597
 30
0.0
 41
30.0
 42
30.0
 43
30.0
 50
90.0
  0
INSERT
  5
8587
330
84DA
100
AcDbEntity
  8
3
 62
     0
440
 16777216
100
AcDbBlockReference
  2
_OPEN
 10
1740.891518794779
 20
1275.553023725597
 30
0.0
 41
30.0
 42
30.0
 43
30.0
 50
270.0
  0
MTEXT
  5
8588
330
84DA
100
AcDbEntity
  8
3
 62
     0
440
 16777216
100
AcDbMText
 10
1691.605804509064
 20
1613.553023725597
 30
0.0
 40
45.0
 41
0.0
 46
0.0
 71
     5
 72
     5
  1
\A1;(676)
 11
0.0000000000000001
 21
1.0
 31
0.0
 73
     1
 44
1.0
  0
POINT
  5
8589
330
84DA
100
AcDbEntity
  8
DEFPOINTS
 62
     0
440
 16777216
100
AcDbPoint
 10
1177.65995683182
 20
1951.553023725597
 30
0.0
  0
POINT
  5
858A
330
84DA
100
AcDbEntity
  8
DEFPOINTS
 62
     0
440
 16777216
100
AcDbPoint
 10
1387.271126506864
 20
1275.553023725597
 30
0.0
  0
POINT
  5
858B
330
84DA
100
AcDbEntity
  8
DEFPOINTS
 62
     0
440
 16777216
100
AcDbPoint
 10
1740.891518794779
 20
1275.553023725597
 30
0.0
  0
ENDBLK
  5
84E5
330
84DA
100
AcDbEntity
  8
0
100
AcDbBlockEnd
  0
ENDSEC
  0
SECTION
  2
ENTITIES
  0
LINE
  5
7E73
330
19
100
AcDbEntity
  8
4
100
AcDbLine
 10
2775.0
 20
750.0
 30
0.0
 11
2775.0
 21
450.0
 31
0.0
  0
LINE
  5
7E74
330
19
100
AcDbEntity
  8
4
100
AcDbLine
 10
1725.0
 20
750.0
 30
0.0
 11
1725.0
 21
450.0
 31
0.0
  0
LINE
  5
7E75
330
19
100
AcDbEntity
  8
4
100
AcDbLine
 10
975.0
 20
750.0
 30
0.0
 11
975.0
 21
450.0
 31
0.0
  0
LINE
  5
7E78
330
19
100
AcDbEntity
  8
4
100
AcDbLine
 10
975.0
 20
450.0
 30
0.0
 11
2775.0
 21
450.0
 31
0.0
  0
LINE
  5
7E79
330
19
100
AcDbEntity
  8
4
100
AcDbLine
 10
975.0
 20
600.0
 30
0.0
 11
2775.0
 21
600.0
 31
0.0
  0
TEXT
  5
7E7A
330
19
100
AcDbEntity
  8
4
100
AcDbText
 10
1032.753121270352
 20
647.3145387999193
 30
0.0
 40
75.0
  1
機器名称
100
AcDbText
  0
TEXT
  5
7E7B
330
19
100
AcDbEntity
  8
4
100
AcDbText
 10
1029.387159037196
 20
482.4677350980164
 30
0.0
 40
75.0
  1
機器型番
100
AcDbText
  0
TEXT
  5
7E7C
330
19
100
AcDbEntity
  8
4
100
AcDbText
 10
1768.217525670529
 20
650.3624129390452
 30
0.0
 40
60.0
  1
ミツヤリミットロードファン
100
AcDbText
  0
TEXT
  5
7E7D
330
19
100
AcDbEntity
  8
4
100
AcDbText
 10
1779.981743378221
 20
475.739376419915
 30
0.0
 40
75.0
  1
LL#2-5
100
AcDbText
  0
TEXT
  5
7E7F
330
19
100
AcDbEntity
  8
4
100
AcDbText
 10
1206.686190474769
 20
3575.143261998774
 30
0.0
 40
80.99999999999999
  1
床置防振ベット
100
AcDbText
  0
TEXT
  5
7E80
330
19
100
AcDbEntity
  8
4
100
AcDbText
 10
450.4894254281207
 20
3800.821464298947
 30
0.0
 40
108.0
  1
遠心式両吸込両持リミットロードファン
100
AcDbText
  0
LINE
  5
7E81
330
19
100
AcDbEntity
  8
4
100
AcDbLine
 10
375.0
 20
3704.113131397207
 30
0.0
 11
2775.0
 21
3704.113131397207
 31
0.0
  0
LINE
  5
7E82
330
19
100
AcDbEntity
  8
4
100
AcDbLine
 10
375.0
 20
4004.113131397207
 30
0.0
 11
2775.0
 21
4004.113131397207
 31
0.0
  0
LINE
  5
7E83
330
19
100
AcDbEntity
  8
4
100
AcDbLine
 10
975.0
 20
750.0
 30
0.0
 11
2775.0
 21
750.0
 31
0.0
  0
LINE
  5
7E84
330
19
100
AcDbEntity
  8
4
100
AcDbLine
 10
375.0
 20
4004.113131397207
 30
0.0
 11
375.0
 21
3704.113131397207
 31
0.0
  0
TEXT
  5
7E85
330
19
100
AcDbEntity
  8
4
100
AcDbText
 10
552.897942110716
 20
3573.479216319515
 30
0.0
 40
80.99999999999999
  1
右回転上向
100
AcDbText
  0
TEXT
  5
7E86
330
19
100
AcDbEntity
  8
4
100
AcDbText
 10
2203.454338873935
 20
4059.091622242963
 30
0.0
 40
84.00000000000002
  1
No.
100
AcDbText
  0
TEXT
  5
7E87
330
19
100
AcDbEntity
  8
4
100
AcDbText
 10
1966.94409390002
 20
3575.143261998774
 30
0.0
 40
80.99999999999999
  1
縮尺：1/15
100
AcDbText
  0
LINE
  5
7E88
330
19
100
AcDbEntity
  8
4
100
AcDbLine
 10
2775.0
 20
4004.113131397207
 30
0.0
 11
2775.0
 21
3704.113131397207
 31
0.0
  0
LINE
  5
7E89
330
19
100
AcDbEntity
  8
4
100
AcDbLine
 10
3150.0
 20
4425.0
 30
0.0
 11
3150.0
 21
4425.0
 31
0.0
  0
LINE
  5
7E8A
330
19
100
AcDbEntity
  8
4
100
AcDbLine
 10
2160.926133539797
 20
4021.895374688102
 30
0.0
 11
2160.926133539797
 21
4179.978392324628
 31
0.0
  0
LINE
  5
7E8B
330
19
100
AcDbEntity
  8
4
100
AcDbLine
 10
2160.926133539797
 20
4179.978392324628
 30
0.0
 11
2775.0
 21
4179.978392324628
 31
0.0
  0
LINE
  5
7E8C
330
19
100
AcDbEntity
  8
4
100
AcDbLine
 10
2775.0
 20
4179.978392324628
 30
0.0
 11
2775.0
 21
4021.895374688102
 31
0.0
  0
LINE
  5
7E8D
330
19
100
AcDbEntity
  8
4
100
AcDbLine
 10
2775.0
 20
4021.895374688102
 30
0.0
 11
2160.926133539797
 21
4021.895374688102
 31
0.0
  0
LINE
  5
7E8E
330
19
100
AcDbEntity
  8
4
100
AcDbLine
 10
0.0
 20
0.0
 30
0.0
 11
0.0
 21
4425.0
 31
0.0
  0
LINE
  5
7E8F
330
19
100
AcDbEntity
  8
4
100
AcDbLine
 10
0.0
 20
4425.0
 30
0.0
 11
3150.0
 21
4425.0
 31
0.0
  0
LINE
  5
7E90
330
19
100
AcDbEntity
  8
4
100
AcDbLine
 10
3150.0
 20
4425.0
 30
0.0
 11
3150.0
 21
0.0
 31
0.0
  0
LINE
  5
7E91
330
19
100
AcDbEntity
  8
4
100
AcDbLine
 10
3150.0
 20
0.0
 30
0.0
 11
0.0
 21
0.0
 31
0.0
  0
DIMENSION
  5
819F
330
19
100
AcDbEntity
  8
3
100
AcDbDimension
280
     0
  2
*D3
 10
2631.11300196642
 20
1549.053023725597
 30
0.0
 11
2601.11300196642
 21
1706.553023725598
 31
0.0
 12
-3825.938344703358
 22
0.0
 32
0.0
 70
    32
  1
φ <>
 71
     5
 42
-1.0
 73
     0
 74
     0
 75
     0
  3
MATSU
100
AcDbAlignedDimension
 13
2455.070280853016
 23
1864.053023725597
 33
0.0
 14
2455.070280853017
 24
1549.053023725597
 34
0.0
 50
90.0
100
AcDbRotatedDimension
1001
ACAD
1000
DSTYLE
1002
{
1070
    40
1040
15.0
1002
}
  0
LINE
  5
81A0
330
19
100
AcDbEntity
  8
1
100
AcDbLine
 10
2025.870280853016
 20
1951.553023725597
 30
0.0
 11
2025.870280853016
 21
1451.553023725597
 31
0.0
  0
LINE
  5
81A1
330
19
100
AcDbEntity
  8
1
100
AcDbLine
 10
2450.870280853016
 20
1951.553023725597
 30
0.0
 11
2450.870280853016
 21
1451.553023725597
 31
0.0
  0
LINE
  5
81A2
330
19
100
AcDbEntity
  8
2
100
AcDbLine
 10
1450.264950882812
 20
1706.553023725598
 30
0.0
 11
882.2192174206847
 21
1706.553023725598
 31
0.0
  0
DIMENSION
  5
81A3
330
19
100
AcDbEntity
  8
3
100
AcDbDimension
280
     0
  2
*D4
 10
1175.271126506864
 20
2078.584882300338
 30
0.0
 11
999.7711265068646
 21
2108.584882300338
 31
0.0
 12
-3825.938344703358
 22
0.0
 32
0.0
 70
    32
  1
351
 71
     5
 42
-1.0
 73
     0
 74
     0
 75
     0
  3
MATSU
100
AcDbAlignedDimension
 13
824.2711265068646
 23
1951.553023725597
 33
0.0
 14
1175.271126506864
 24
1981.546848101545
 34
0.0
100
AcDbRotatedDimension
1001
ACAD
1000
DSTYLE
1002
{
1070
    40
1040
15.0
1002
}
  0
DIMENSION
  5
81A4
330
19
100
AcDbEntity
  8
3
100
AcDbDimension
280
     0
  2
*D5
 10
1149.271126506865
 20
2001.053389164383
 30
0.0
 11
986.7711265068647
 21
2031.053389164383
 31
0.0
 12
-3825.938344703358
 22
0.0
 32
0.0
 70
    32
  1
325
 71
     5
 42
-1.0
 73
     0
 74
     0
 75
     0
  3
MATSU
100
AcDbAlignedDimension
 13
824.2711265068646
 23
1951.553023725597
 33
0.0
 14
1149.271126506865
 24
1951.553023725597
 34
0.0
100
AcDbRotatedDimension
1001
ACAD
1000
DSTYLE
1002
{
1070
    40
1040
15.0
1002
}
  0
LINE
  5
81A5
330
19
100
AcDbEntity
  8
1
100
AcDbLine
 10
1149.271126506865
 20
1951.553023725597
 30
0.0
 11
1149.271126506865
 21
1891.93219735547
 31
0.0
  0
LINE
  5
81A6
330
19
100
AcDbEntity
  8
1
100
AcDbLine
 10
824.2711265068646
 20
1951.553023725597
 30
0.0
 11
797.6599568318206
 21
1951.553023725597
 31
0.0
  0
LINE
  5
81A7
330
19
100
AcDbEntity
  8
1
100
AcDbLine
 10
1177.65995683182
 20
1951.553023725597
 30
0.0
 11
1177.65995683182
 21
1948.553023725597
 31
0.0
  0
LINE
  5
81A8
330
19
100
AcDbEntity
  8
1
100
AcDbLine
 10
1152.65995683182
 20
1951.553023725597
 30
0.0
 11
1177.65995683182
 21
1951.553023725597
 31
0.0
  0
LINE
  5
81A9
330
19
100
AcDbEntity
  8
2
100
AcDbLine
 10
1753.846896282406
 20
1706.553023725598
 30
0.0
 11
2504.659531905983
 21
1706.553023725598
 31
0.0
  0
LINE
  5
81AA
330
19
100
AcDbEntity
  8
1
100
AcDbLine
 10
826.2303101803345
 20
1926.553023725597
 30
0.0
 11
827.2303101803345
 21
1926.553023725597
 31
0.0
  0
LINE
  5
81AB
330
19
100
AcDbEntity
  8
1
100
AcDbLine
 10
827.0660113050125
 20
1926.553023725597
 30
0.0
 11
1149.271126506865
 21
1926.553023725597
 31
0.0
  0
LINE
  5
81AC
330
19
100
AcDbEntity
  8
2
100
AcDbLine
 10
1175.271126506864
 20
1982.413143814121
 30
0.0
 11
1175.271126506865
 21
1275.553023725597
 31
0.0
  0
LINE
  5
81AD
330
19
100
AcDbEntity
  8
1
100
AcDbLine
 10
1157.65995683182
 20
1951.553023725597
 30
0.0
 11
818.7716693863512
 21
1951.553023725597
 31
0.0
  0
LINE
  5
81B6
330
19
100
AcDbEntity
  8
1
100
AcDbLine
 10
1177.65995683182
 20
1948.553023725597
 30
0.0
 11
797.6599568318206
 21
1948.553023725597
 31
0.0
  0
LINE
  5
81B7
330
19
100
AcDbEntity
  8
1
100
AcDbLine
 10
797.6599568318206
 20
1951.553023725597
 30
0.0
 11
797.6599568318206
 21
1948.553023725597
 31
0.0
  0
LINE
  5
81B8
330
19
100
AcDbEntity
  8
1
100
AcDbLine
 10
1903.370280853016
 20
1376.553023725597
 30
0.0
 11
2493.370280853016
 21
1376.553023725597
 31
0.0
  0
LINE
  5
81B9
330
19
100
AcDbEntity
  8
1
100
AcDbLine
 10
1903.370280853016
 20
1340.553023725597
 30
0.0
 11
2493.370280853016
 21
1340.553023725597
 31
0.0
  0
LINE
  5
81BA
330
19
100
AcDbEntity
  8
1
100
AcDbLine
 10
1903.370280853016
 20
1275.553023725597
 30
0.0
 11
2493.370280853016
 21
1275.553023725597
 31
0.0
  0
LINE
  5
81BB
330
19
100
AcDbEntity
  8
2
100
AcDbLine
 10
2238.370280853016
 20
2033.058124551364
 30
0.0
 11
2238.370280853016
 21
1275.553023725597
 31
0.0
  0
LINE
  5
81BC
330
19
100
AcDbEntity
  8
1
100
AcDbLine
 10
2493.370280853017
 20
1451.553023725597
 30
0.0
 11
2493.370280853017
 21
1376.553023725597
 31
0.0
  0
LINE
  5
81BD
330
19
100
AcDbEntity
  8
1
100
AcDbLine
 10
1903.370280853016
 20
1451.553023725597
 30
0.0
 11
1903.370280853016
 21
1376.553023725597
 31
0.0
  0
LINE
  5
81BE
330
19
100
AcDbEntity
  8
1
100
AcDbLine
 10
1903.370280853016
 20
1340.553023725597
 30
0.0
 11
1903.370280853016
 21
1275.553023725597
 31
0.0
  0
LINE
  5
81BF
330
19
100
AcDbEntity
  8
1
100
AcDbLine
 10
2493.370280853016
 20
1340.553023725597
 30
0.0
 11
2493.370280853016
 21
1275.553023725597
 31
0.0
  0
LINE
  5
81C0
330
19
100
AcDbEntity
  8
1
100
AcDbLine
 10
2000.870280853016
 20
1951.553023725598
 30
0.0
 11
2475.870280853016
 21
1951.553023725597
 31
0.0
  0
LINE
  5
81C1
330
19
100
AcDbEntity
  8
1
100
AcDbLine
 10
1387.271126506864
 20
1376.553023725597
 30
0.0
 11
487.2711265068646
 21
1376.553023725597
 31
0.0
  0
LINE
  5
81C2
330
19
100
AcDbEntity
  8
1
100
AcDbLine
 10
1387.271126506864
 20
1340.553023725597
 30
0.0
 11
487.2711265068646
 21
1340.553023725597
 31
0.0
  0
LINE
  5
81C3
330
19
100
AcDbEntity
  8
1
100
AcDbLine
 10
1387.271126506864
 20
1275.553023725597
 30
0.0
 11
487.2711265068646
 21
1275.553023725597
 31
0.0
  0
LINE
  5
81C4
330
19
100
AcDbEntity
  8
1
100
AcDbLine
 10
1387.271126506864
 20
1451.553023725597
 30
0.0
 11
1387.271126506864
 21
1376.553023725597
 31
0.0
  0
LINE
  5
81C5
330
19
100
AcDbEntity
  8
1
100
AcDbLine
 10
487.2711265068646
 20
1451.553023725597
 30
0.0
 11
487.2711265068646
 21
1376.553023725597
 31
0.0
  0
LINE
  5
81C6
330
19
100
AcDbEntity
  8
1
100
AcDbLine
 10
487.2711265068646
 20
1340.553023725597
 30
0.0
 11
487.2711265068646
 21
1275.553023725597
 31
0.0
  0
LINE
  5
81C7
330
19
100
AcDbEntity
  8
1
100
AcDbLine
 10
1387.271126506864
 20
1340.553023725597
 30
0.0
 11
1387.271126506864
 21
1275.553023725597
 31
0.0
  0
LINE
  5
81C8
330
19
100
AcDbEntity
  8
2
100
AcDbLine
 10
655.2711265068646
 20
1821.951023725597
 30
0.0
 11
655.2711265068646
 21
1275.553023725597
 31
0.0
  0
LINE
  5
81C9
330
19
100
AcDbEntity
  8
2
100
AcDbLine
 10
464.639798005528
 20
1658.553023725598
 30
0.0
 11
863.1700265068648
 21
1658.553023725598
 31
0.0
  0
LINE
  5
81CA
330
19
100
AcDbEntity
  8
2
100
AcDbLine
 10
1175.271126506864
 20
2385.467625494581
 30
0.0
 11
1175.271126506864
 21
3114.089896746962
 31
0.0
  0
LINE
  5
81CB
330
19
100
AcDbEntity
  8
1
100
AcDbLine
 10
487.2711265068646
 20
3024.131986173009
 30
0.0
 11
1387.271126506864
 21
3024.131986173009
 31
0.0
  0
LINE
  5
81CC
330
19
100
AcDbEntity
  8
1
100
AcDbLine
 10
487.2711265068646
 20
2434.131986173009
 30
0.0
 11
1387.271126506864
 21
2434.131986173008
 31
0.0
  0
LINE
  5
81CD
330
19
100
AcDbEntity
  8
1
100
AcDbLine
 10
1387.271126506864
 20
2434.131986173008
 30
0.0
 11
1387.271126506864
 21
2556.631986173009
 31
0.0
  0
LINE
  5
81CE
330
19
100
AcDbEntity
  8
1
100
AcDbLine
 10
487.2711265068646
 20
2434.131986173008
 30
0.0
 11
487.2711265068646
 21
3024.131986173009
 31
0.0
  0
LINE
  5
81CF
330
19
100
AcDbEntity
  8
1
100
AcDbLine
 10
1955.370280853017
 20
1691.553023725597
 30
0.0
 11
1975.870280853017
 21
1691.553023725597
 31
0.0
  0
LINE
  5
81D0
330
19
100
AcDbEntity
  8
1
100
AcDbLine
 10
1955.370280853016
 20
1611.553023725597
 30
0.0
 11
2015.370280853016
 21
1611.553023725598
 31
0.0
  0
LINE
  5
81D1
330
19
100
AcDbEntity
  8
1
100
AcDbLine
 10
1945.370280853017
 20
1681.553023725598
 30
0.0
 11
1945.370280853016
 21
1621.553023725597
 31
0.0
  0
LINE
  5
81D2
330
19
100
AcDbEntity
  8
1
100
AcDbLine
 10
2528.370280853016
 20
1681.553023725598
 30
0.0
 11
2528.370280853015
 21
1621.553023725597
 31
0.0
  0
LINE
  5
81D3
330
19
100
AcDbEntity
  8
1
100
AcDbLine
 10
2458.370280853015
 20
1611.553023725597
 30
0.0
 11
2518.370280853015
 21
1611.553023725597
 31
0.0
  0
LINE
  5
81D4
330
19
100
AcDbEntity
  8
1
100
AcDbLine
 10
2458.370280853016
 20
1691.553023725597
 30
0.0
 11
2518.370280853016
 21
1691.553023725597
 31
0.0
  0
DIMENSION
  5
81D5
330
19
100
AcDbEntity
  8
3
100
AcDbDimension
280
     0
  2
*D6
 10
1621.807169627127
 20
1376.553023725597
 30
0.0
 11
1591.807169627127
 21
1541.553023725597
 31
0.0
 12
-3825.938344703358
 22
0.0
 32
0.0
 70
    32
 71
     5
 42
-1.0
 73
     0
 74
     0
 75
     0
  3
MATSU
100
AcDbAlignedDimension
 13
1450.264950882812
 23
1706.553023725598
 33
0.0
 14
1387.271126506864
 24
1376.553023725597
 34
0.0
 50
90.0
100
AcDbRotatedDimension
1001
ACAD
1000
DSTYLE
1002
{
1070
    40
1040
15.0
1002
}
  0
DIMENSION
  5
81DC
330
19
100
AcDbEntity
  8
3
100
AcDbDimension
280
     0
  2
*D7
 10
2025.870280853016
 20
2041.074375890859
 30
0.0
 11
2238.370280853016
 21
2071.074375890859
 31
0.0
 12
-3825.938344703358
 22
0.0
 32
0.0
 70
    32
 71
     5
 42
-1.0
 73
     0
 74
     0
 75
     0
  3
MATSU
100
AcDbAlignedDimension
 13
2450.870280853016
 23
1951.553023725597
 33
0.0
 14
2025.870280853016
 24
1951.553023725597
 34
0.0
100
AcDbRotatedDimension
1001
ACAD
1000
DSTYLE
1002
{
1070
    40
1040
15.0
1002
}
  0
LINE
  5
81DD
330
19
100
AcDbEntity
  8
1
100
AcDbLine
 10
1768.370280853016
 20
1866.267442478996
 30
0.0
 11
1768.370280853016
 21
1508.553023725598
 31
0.0
  0
CIRCLE
  5
81DE
330
19
100
AcDbEntity
  8
1
100
AcDbCircle
 10
1175.271126506864
 20
1706.553023725598
 30
0.0
 40
182.5
  0
LINE
  5
81DF
330
19
100
AcDbEntity
  8
1
100
AcDbLine
 10
1955.370280853017
 20
1691.553023725597
 30
0.0
 11
1945.370280853017
 21
1681.553023725598
 31
0.0
  0
LINE
  5
81E0
330
19
100
AcDbEntity
  8
1
100
AcDbLine
 10
1945.370280853016
 20
1621.553023725597
 30
0.0
 11
1955.370280853016
 21
1611.553023725597
 31
0.0
  0
LINE
  5
81E1
330
19
100
AcDbEntity
  8
1
100
AcDbLine
 10
2518.370280853016
 20
1691.553023725597
 30
0.0
 11
2528.370280853016
 21
1681.553023725598
 31
0.0
  0
LINE
  5
81E2
330
19
100
AcDbEntity
  8
1
100
AcDbLine
 10
2528.370280853015
 20
1621.553023725597
 30
0.0
 11
2518.370280853015
 21
1611.553023725597
 31
0.0
  0
LINE
  5
81E3
330
19
100
AcDbEntity
  8
2
100
AcDbLine
 10
1751.827031575945
 20
1658.553023725598
 30
0.0
 11
2107.884607971044
 21
1658.553023725598
 31
0.0
  0
LINE
  5
81E4
330
19
100
AcDbEntity
  8
1
100
AcDbLine
 10
1959.370280853017
 20
1691.553023725597
 30
0.0
 11
2015.370280853017
 21
1691.553023725597
 31
0.0
  0
LINE
  5
81E5
330
19
100
AcDbEntity
  8
1
100
AcDbLine
 10
2015.370280853017
 20
1691.553023725597
 30
0.0
 11
2015.370280853016
 21
1611.553023725598
 31
0.0
  0
LINE
  5
81E6
330
19
100
AcDbEntity
  8
1
100
AcDbLine
 10
2458.370280853016
 20
1691.553023725597
 30
0.0
 11
2458.370280853015
 21
1611.553023725597
 31
0.0
  0
LINE
  5
81E7
330
19
100
AcDbEntity
  8
1
100
AcDbLine
 10
512.7711265068646
 20
2299.131986173008
 30
0.0
 11
1325.271126506865
 21
2299.131986173008
 31
0.0
  0
DIMENSION
  5
81E8
330
19
100
AcDbEntity
  8
3
100
AcDbDimension
280
     0
  2
*D8
 10
2238.370280853016
 20
2133.00646286332
 30
0.0
 11
2383.370280853016
 21
2174.792177149035
 31
0.0
 12
-3825.938344703358
 22
0.0
 32
0.0
 70
    32
  1
(<>)
 71
     5
 42
-1.0
 73
     0
 74
     0
 75
     0
  3
MATSU
100
AcDbAlignedDimension
 13
2528.370280853016
 23
1684.553023725598
 33
0.0
 14
2238.370280853016
 24
2104.031382960489
 34
0.0
100
AcDbRotatedDimension
1001
ACAD
1000
DSTYLE
1002
{
1070
    40
1040
15.0
1002
}
  0
DIMENSION
  5
81E9
330
19
100
AcDbEntity
  8
3
100
AcDbDimension
280
     0
  2
*D9
 10
1387.271126506864
 20
3220.801270138626
 30
0.0
 11
937.2711265068646
 21
3250.801270138627
 31
0.0
 12
-3825.938344703358
 22
0.0
 32
0.0
 70
    32
 71
     5
 42
-1.0
 73
     0
 74
     0
 75
     0
  3
MATSU
100
AcDbAlignedDimension
 13
487.2711265068646
 23
3024.131986173009
 33
0.0
 14
1387.271126506864
 24
3024.131986173009
 34
0.0
100
AcDbRotatedDimension
1001
ACAD
1000
DSTYLE
1002
{
1070
    40
1040
15.0
1002
}
  0
DIMENSION
  5
81EA
330
19
100
AcDbEntity
  8
3
100
AcDbDimension
280
     0
  2
*D10
 10
1570.759630642129
 20
2434.131986173008
 30
0.0
 11
1540.759630642129
 21
2729.131986173008
 31
0.0
 12
-3825.938344703358
 22
0.0
 32
0.0
 70
    32
 71
     5
 42
-1.0
 73
     0
 74
     0
 75
     0
  3
MATSU
100
AcDbAlignedDimension
 13
1387.271126506864
 23
3024.131986173009
 33
0.0
 14
1387.271126506864
 24
2434.131986173008
 34
0.0
 50
90.0
100
AcDbRotatedDimension
1001
ACAD
1000
DSTYLE
1002
{
1070
    40
1040
15.0
1002
}
  0
LINE
  5
81EB
330
19
100
AcDbEntity
  8
1
100
AcDbLine
 10
1190.271126506864
 20
2490.131986173009
 30
0.0
 11
1190.271126506864
 21
2556.631986173009
 31
0.0
  0
LINE
  5
81EC
330
19
100
AcDbEntity
  8
1
100
AcDbLine
 10
1160.271126506865
 20
2490.131986173009
 30
0.0
 11
1160.271126506865
 21
2556.631986173009
 31
0.0
  0
LINE
  5
81ED
330
19
100
AcDbEntity
  8
1
100
AcDbLine
 10
1768.370280853016
 20
1508.553023725597
 30
0.0
 11
1960.370280853016
 21
1508.553023725597
 31
0.0
  0
LINE
  5
81EE
330
19
100
AcDbEntity
  8
1
100
AcDbLine
 10
1960.370280853016
 20
1856.553023725597
 30
0.0
 11
1960.370280853016
 21
1833.768445965438
 31
0.0
  0
DIMENSION
  5
81EF
330
19
100
AcDbEntity
  8
3
100
AcDbDimension
280
     0
  2
*D11
 10
1768.370280853016
 20
2133.00646286332
 30
0.0
 11
2003.370280853016
 21
2174.792177149035
 31
0.0
 70
    32
  1
(<>)
 71
     5
 42
470.0
 73
     0
 74
     0
 75
     0
  3
MATSU
100
AcDbAlignedDimension
 13
2238.370280853016
 23
2104.031382960489
 33
0.0
 14
1768.370280853016
 24
1847.075274134442
 34
0.0
100
AcDbRotatedDimension
1001
ACAD
1000
DSTYLE
1002
{
1070
   287
1070
     4
1070
    40
1040
15.0
1070
    75
1070
     1
1070
   279
1070
     1
1070
   289
1070
     3
1002
}
  0
LINE
  5
81F0
330
19
100
AcDbEntity
  8
2
100
AcDbLine
 10
462.1924281019365
 20
2769.131986173009
 30
0.0
 11
1490.194681953521
 21
2769.131986173009
 31
0.0
  0
DIMENSION
  5
81F1
330
19
100
AcDbEntity
  8
3
100
AcDbDimension
280
     0
  2
*D12
 10
1621.807169627127
 20
1951.553023725597
 30
0.0
 11
1591.807169627126
 21
1829.053023725597
 31
0.0
 70
    32
 71
     5
 42
-1.0
 73
     0
 74
     0
 75
     0
  3
MATSU
100
AcDbAlignedDimension
 13
1450.264950882812
 23
1706.553023725598
 33
0.0
 14
1177.65995683182
 24
1951.553023725597
 34
0.0
 50
90.0
100
AcDbRotatedDimension
1001
ACAD
1000
DSTYLE
1002
{
1070
   287
1070
     4
1070
    40
1040
15.0
1070
    75
1070
     1
1070
   279
1070
     1
1070
   289
1070
     3
1002
}
  0
LINE
  5
81F3
330
19
100
AcDbEntity
  8
1
100
AcDbLine
 10
1768.370280853016
 20
1856.553023725598
 30
0.0
 11
1960.370280853016
 21
1856.553023725597
 31
0.0
  0
LINE
  5
81F4
330
19
100
AcDbEntity
  8
1
100
AcDbLine
 10
1960.370280853016
 20
1541.801315094286
 30
0.0
 11
1960.370280853016
 21
1508.553023725597
 31
0.0
  0
DIMENSION
  5
81F5
330
19
100
AcDbEntity
  8
3
100
AcDbDimension
280
     0
  2
*D13
 10
1403.930030734695
 20
2078.584882300338
 30
0.0
 11
1289.60057862078
 21
2108.584882300338
 31
0.0
 70
    32
  1
226
 71
     5
 42
-1.0
 73
     0
 74
     0
 75
     0
  3
MATSU
100
AcDbAlignedDimension
 13
1175.271126506864
 23
1981.546848101545
 33
0.0
 14
1403.930030734695
 24
1687.788071140907
 34
0.0
100
AcDbRotatedDimension
1001
ACAD
1000
DSTYLE
1002
{
1070
   287
1070
     4
1070
    40
1040
15.0
1070
    75
1070
     1
1070
   279
1070
     1
1070
   289
1070
     3
1002
}
  0
LINE
  5
81F6
330
19
100
AcDbEntity
  8
1
100
AcDbLine
 10
1441.271126506865
 20
2556.631986173009
 30
0.0
 11
1441.271126506865
 21
2981.631986173009
 31
0.0
  0
LINE
  5
81F7
330
19
100
AcDbEntity
  8
1
100
AcDbLine
 10
824.2711265068646
 20
2556.631986173009
 30
0.0
 11
824.2711265068646
 21
2981.631986173009
 31
0.0
  0
LINE
  5
81F8
330
19
100
AcDbEntity
  8
1
100
AcDbLine
 10
824.2711265068646
 20
2981.631986173009
 30
0.0
 11
1441.271126506865
 21
2981.631986173009
 31
0.0
  0
LINE
  5
81F9
330
19
100
AcDbEntity
  8
1
100
AcDbLine
 10
824.2711265068646
 20
2556.631986173009
 30
0.0
 11
1441.271126506865
 21
2556.631986173009
 31
0.0
  0
LINE
  5
81FA
330
19
100
AcDbEntity
  8
1
100
AcDbLine
 10
1149.271126506865
 20
2556.631986173009
 30
0.0
 11
1149.271126506865
 21
2981.631986173009
 31
0.0
  0
LINE
  5
81FB
330
19
100
AcDbEntity
  8
1
100
AcDbLine
 10
1149.271126506865
 20
2981.631986173009
 30
0.0
 11
824.2711265068646
 21
2556.631986173009
 31
0.0
  0
LINE
  5
81FC
330
19
100
AcDbEntity
  8
1
100
AcDbLine
 10
824.2711265068646
 20
2981.631986173009
 30
0.0
 11
1149.271126506865
 21
2556.631986173009
 31
0.0
  0
LINE
  5
81FD
330
19
100
AcDbEntity
  8
1
100
AcDbLine
 10
2000.870280853016
 20
1951.553023725597
 30
0.0
 11
2000.870280853016
 21
1948.553023725598
 31
0.0
  0
LINE
  5
81FE
330
19
100
AcDbEntity
  8
1
100
AcDbLine
 10
2475.870280853016
 20
1951.553023725597
 30
0.0
 11
2475.870280853016
 21
1948.553023725597
 31
0.0
  0
LINE
  5
81FF
330
19
100
AcDbEntity
  8
1
100
AcDbLine
 10
2000.870280853016
 20
1948.553023725598
 30
0.0
 11
2475.870280853016
 21
1948.553023725597
 31
0.0
  0
LINE
  5
8200
330
19
100
AcDbEntity
  8
1
100
AcDbLine
 10
2025.870280853016
 20
1926.553023725597
 30
0.0
 11
2450.870280853016
 21
1926.553023725597
 31
0.0
  0
LINE
  5
8201
330
19
100
AcDbEntity
  8
1
100
AcDbLine
 10
1387.271126506864
 20
2981.631986173009
 30
0.0
 11
1387.271126506864
 21
3024.131986173009
 31
0.0
  0
DIMENSION
  5
8203
330
19
100
AcDbEntity
  8
3
100
AcDbDimension
280
     0
  2
*D14
 10
1621.807169627127
 20
1275.553023725597
 30
0.0
 11
1584.307169627127
 21
1164.124452297026
 31
0.0
 70
    32
 71
     5
 42
-1.0
 73
     0
 74
     0
 75
     0
  3
IGA
100
AcDbAlignedDimension
 13
1387.271126506864
 23
1340.553023725597
 33
0.0
 14
1387.271126506864
 24
1275.553023725597
 34
0.0
 50
90.0
100
AcDbRotatedDimension
1001
ACAD
1000
DSTYLE
1002
{
1070
   287
1070
     3
1070
    40
1040
15.0
1070
   143
1040
0.039
1070
   172
1070
     1
1070
   271
1070
     0
1070
   279
1070
     0
1070
   288
1070
     1
1070
     6
1000
DOT
1002
}
  0
LINE
  5
8204
330
19
100
AcDbEntity
  8
1
100
AcDbLine
 10
1387.271126506864
 20
1451.553023725597
 30
0.0
 11
455.2711265068646
 21
1451.553023725597
 31
0.0
  0
LINE
  5
8205
330
19
100
AcDbEntity
  8
1
100
AcDbLine
 10
1903.370280853016
 20
1451.553023725597
 30
0.0
 11
2493.370280853016
 21
1451.553023725597
 31
0.0
  0
LINE
  5
8206
330
19
100
AcDbEntity
  8
1
100
AcDbLine
 10
855.2711265068646
 20
1491.553023725597
 30
0.0
 11
455.2711265068646
 21
1491.553023725597
 31
0.0
  0
LINE
  5
8207
330
19
100
AcDbEntity
  8
1
100
AcDbLine
 10
855.2711265068646
 20
1491.553023725597
 30
0.0
 11
855.2711265068646
 21
1451.553023725597
 31
0.0
  0
LINE
  5
8208
330
19
100
AcDbEntity
  8
1
100
AcDbLine
 10
455.2711265068646
 20
1491.553023725597
 30
0.0
 11
455.2711265068646
 21
1451.553023725597
 31
0.0
  0
LINE
  5
8209
330
19
100
AcDbEntity
  8
1
100
AcDbLine
 10
820.2711265068646
 20
1526.553023725598
 30
0.0
 11
490.2711265068647
 21
1526.553023725597
 31
0.0
  0
LINE
  5
820A
330
19
100
AcDbEntity
  8
1
100
AcDbLine
 10
820.2711265068646
 20
1526.553023725597
 30
0.0
 11
830.2711265068646
 21
1491.553023725597
 31
0.0
  0
LINE
  5
820B
330
19
100
AcDbEntity
  8
1
100
AcDbLine
 10
490.2711265068647
 20
1526.553023725597
 30
0.0
 11
480.2711265068646
 21
1491.553023725597
 31
0.0
  0
INSERT
  5
820C
330
19
100
AcDbEntity
  8
0
100
AcDbBlockReference
  2
YA_N
 10
7918.247448503284
 20
38.23280406054437
 30
0.0
  0
INSERT
  5
820D
330
19
100
AcDbEntity
  8
0
100
AcDbBlockReference
  2
YA_N
 10
7918.247448503284
 20
38.23280406054437
 30
0.0
  0
INSERT
  5
820E
330
19
100
AcDbEntity
  8
0
100
AcDbBlockReference
  2
YA_N
 10
9564.35787882172
 20
387.0926162497724
 30
0.0
  0
INSERT
  5
820F
330
19
100
AcDbEntity
  8
0
100
AcDbBlockReference
  2
YA_N
 10
7702.843811833914
 20
-1411.251204184942
 30
0.0
 41
10.0
 42
10.0
 43
10.0
  0
INSERT
  5
8210
330
19
100
AcDbEntity
  8
0
100
AcDbBlockReference
  2
YA_N
 10
7702.843811833914
 20
-1411.251204184942
 30
0.0
 41
10.0
 42
10.0
 43
10.0
  0
INSERT
  5
8211
330
19
100
AcDbEntity
  8
0
  6
ByBlock
 62
     2
100
AcDbBlockReference
  2
YA_N
 10
9074.157490520864
 20
-361.8658796879411
 30
0.0
 41
30.0
 42
30.0
 43
30.0
 50
90.0
  0
INSERT
  5
8212
330
19
100
AcDbEntity
  8
0
  6
ByBlock
 62
     2
100
AcDbBlockReference
  2
YA_N
 10
9074.157490520864
 20
-361.8658796879411
 30
0.0
 41
30.0
 42
30.0
 43
30.0
 50
90.0
  0
ARC
  5
824E
330
19
100
AcDbEntity
  8
1
100
AcDbCircle
 10
1175.271126506864
 20
1706.553023725598
 30
0.0
 40
150.0
100
AcDbArc
 50
275.2738959573518
 51
95.27389595735177
  0
CIRCLE
  5
824F
330
19
100
AcDbEntity
  8
1
100
AcDbCircle
 10
1175.271126506864
 20
1706.553023725598
 30
0.0
 40
75.0
  0
ARC
  5
8250
330
19
100
AcDbEntity
  8
1
100
AcDbCircle
 10
655.2711265068646
 20
1658.553023725598
 30
0.0
 40
142.5
100
AcDbArc
 50
180.0
 51
244.787
  0
LINE
  5
8251
330
19
100
AcDbEntity
  8
2
100
AcDbLine
 10
464.639798005528
 20
1658.553023725598
 30
0.0
 11
863.1700265068648
 21
1658.553023725598
 31
0.0
  0
LINE
  5
8252
330
19
100
AcDbEntity
  8
1
100
AcDbLine
 10
820.2711265068646
 20
1526.553023725597
 30
0.0
 11
490.2711265068647
 21
1526.553023725597
 31
0.0
  0
LINE
  5
8253
330
19
100
AcDbEntity
  8
1
100
AcDbLine
 10
855.2711265068646
 20
1491.553023725597
 30
0.0
 11
455.2711265068646
 21
1491.553023725597
 31
0.0
  0
LINE
  5
8254
330
19
100
AcDbEntity
  8
1
100
AcDbLine
 10
490.2711265068647
 20
1526.553023725597
 30
0.0
 11
480.2711265068646
 21
1491.553023725597
 31
0.0
  0
LINE
  5
8255
330
19
100
AcDbEntity
  8
1
100
AcDbLine
 10
455.2711265068646
 20
1491.553023725597
 30
0.0
 11
455.2711265068646
 21
1451.553023725596
 31
0.0
  0
CIRCLE
  5
8256
330
19
100
AcDbEntity
  8
1
100
AcDbCircle
 10
655.2711265068646
 20
1658.553023725598
 30
0.0
 40
75.0
  0
ARC
  5
8257
330
19
100
AcDbEntity
  8
1
100
AcDbCircle
 10
655.2711265068646
 20
1658.553023725598
 30
0.0
 40
150.0
100
AcDbArc
 50
95.27389595735177
 51
275.2738959573518
  0
ARC
  5
8258
330
19
100
AcDbEntity
  8
1
100
AcDbCircle
 10
655.2711265068646
 20
1658.553023725598
 30
0.0
 40
142.5
100
AcDbArc
 50
295.1874
 51
180.0
  0
LINE
  5
8259
330
19
100
AcDbEntity
  8
1
100
AcDbLine
 10
594.7298265068647
 20
1529.553023725597
 30
0.0
 11
715.8124265068645
 21
1529.553023725597
 31
0.0
  0
LINE
  5
825A
330
19
100
AcDbEntity
  8
1
100
AcDbLine
 10
525.2711265068646
 20
1526.553023725597
 30
0.0
 11
575.2711265068646
 21
1526.553023725597
 31
0.0
  0
LINE
  5
825B
330
19
100
AcDbEntity
  8
1
100
AcDbLine
 10
525.2711265068646
 20
1541.355623725597
 30
0.0
 11
525.2711265068646
 21
1526.553023725597
 31
0.0
  0
LINE
  5
825C
330
19
100
AcDbEntity
  8
1
100
AcDbLine
 10
535.7455265068647
 20
1580.644323725597
 30
0.0
 11
525.2711265068646
 21
1541.553023725597
 31
0.0
  0
LINE
  5
825D
330
19
100
AcDbEntity
  8
1
100
AcDbLine
 10
785.2711265068647
 20
1541.355623725597
 30
0.0
 11
785.2711265068647
 21
1526.553023725597
 31
0.0
  0
LINE
  5
825E
330
19
100
AcDbEntity
  8
1
100
AcDbLine
 10
774.7539265068644
 20
1580.803623725597
 30
0.0
 11
785.2711265068647
 21
1541.553023725597
 31
0.0
  0
LINE
  5
825F
330
19
100
AcDbEntity
  8
1
100
AcDbLine
 10
785.2711265068647
 20
1526.553023725597
 30
0.0
 11
735.2711265068647
 21
1526.553023725597
 31
0.0
  0
LINE
  5
8260
330
19
100
AcDbEntity
  8
1
100
AcDbLine
 10
820.2711265068646
 20
1526.553023725597
 30
0.0
 11
830.2711265068646
 21
1491.553023725597
 31
0.0
  0
LINE
  5
8261
330
19
100
AcDbEntity
  8
1
100
AcDbLine
 10
855.2711265068646
 20
1491.553023725597
 30
0.0
 11
855.2711265068646
 21
1451.553023725597
 31
0.0
  0
LINE
  5
8262
330
19
100
AcDbEntity
  8
1
100
AcDbLine
 10
1161.483587874308
 20
1855.918025578293
 30
0.0
 11
641.4835878743079
 21
1807.918025578293
 31
0.0
  0
LINE
  5
8263
330
19
100
AcDbEntity
  8
1
100
AcDbLine
 10
1189.058665139421
 20
1557.188021872902
 30
0.0
 11
669.0586651394214
 21
1509.188021872902
 31
0.0
  0
LINE
  5
8264
330
19
100
AcDbEntity
  8
1
100
AcDbLine
 10
1182.164895823142
 20
1631.87052279925
 30
0.0
 11
662.1648958231426
 21
1583.87052279925
 31
0.0
  0
LINE
  5
8265
330
19
100
AcDbEntity
  8
1
100
AcDbLine
 10
1168.377357190586
 20
1781.235524651945
 30
0.0
 11
648.3773571905867
 21
1733.235524651945
 31
0.0
  0
DIMENSION
  5
8266
330
19
100
AcDbEntity
  8
3
100
AcDbDimension
280
     0
  2
*D15
 10
455.2711265068647
 20
2150.731120768502
 30
0.0
 11
925.5558196706825
 21
2150.731120768502
 31
0.0
 70
   160
 71
     5
 42
-1.0
 73
     0
 74
     0
 75
     0
  3
IGA
100
AcDbAlignedDimension
 13
1403.930030734695
 23
1687.788071140907
 33
0.0
 14
455.2711265068646
 24
1491.553023725597
 34
0.0
100
AcDbRotatedDimension
1001
ACAD
1000
DSTYLE
1002
{
1070
   287
1070
     3
1070
    40
1040
15.0
1070
   143
1040
0.039
1070
   172
1070
     1
1070
   271
1070
     0
1070
   279
1070
     0
1070
   288
1070
     1
1002
}
  0
LINE
  5
8267
330
19
100
AcDbEntity
  8
1
100
AcDbLine
 10
1868.370280853016
 20
1781.553023725598
 30
0.0
 11
1868.370280853016
 21
1583.553023725597
 31
0.0
  0
LINE
  5
8268
330
19
100
AcDbEntity
  8
1
100
AcDbLine
 10
1928.370280853017
 20
1781.553023725598
 30
0.0
 11
1928.370280853016
 21
1583.553023725597
 31
0.0
  0
LINE
  5
8269
330
19
100
AcDbEntity
  8
1
100
AcDbLine
 10
1868.370280853016
 20
1781.553023725598
 30
0.0
 11
1928.370280853017
 21
1781.553023725598
 31
0.0
  0
LINE
  5
826A
330
19
100
AcDbEntity
  8
1
100
AcDbLine
 10
1868.370280853016
 20
1583.553023725597
 30
0.0
 11
1928.370280853017
 21
1583.553023725597
 31
0.0
  0
LINE
  5
826B
330
19
100
AcDbEntity
  8
1
100
AcDbLine
 10
1994.010782176878
 20
1800.553023725598
 30
0.0
 11
1994.010782176878
 21
1691.553023725597
 31
0.0
  0
LINE
  5
826C
330
19
100
AcDbEntity
  8
1
100
AcDbLine
 10
1984.010782176878
 20
1600.553023725597
 30
0.0
 11
1984.010782176878
 21
1611.553023725598
 31
0.0
  0
LINE
  5
826D
330
19
100
AcDbEntity
  8
1
100
AcDbLine
 10
2025.870280853016
 20
1526.553023725598
 30
0.0
 11
1994.010782176877
 21
1526.553023725598
 31
0.0
  0
LINE
  5
826E
330
19
100
AcDbEntity
  8
1
100
AcDbLine
 10
1994.010782176878
 20
1599.553023725597
 30
0.0
 11
1985.010782176878
 21
1599.553023725597
 31
0.0
  0
ARC
  5
826F
330
19
100
AcDbEntity
  8
1
100
AcDbCircle
 10
1985.010782176878
 20
1600.553023725597
 30
0.0
 40
0.9999
100
AcDbArc
 50
179.9965
 51
270.007
  0
LINE
  5
8270
330
19
100
AcDbEntity
  8
1
100
AcDbLine
 10
2025.870280853016
 20
1800.553023725597
 30
0.0
 11
1994.010782176877
 21
1800.553023725597
 31
0.0
  0
LINE
  5
8271
330
19
100
AcDbEntity
  8
2
100
AcDbLine
 10
2350.520482176877
 20
1658.553023725598
 30
0.0
 11
1891.136782176878
 21
1658.553023725598
 31
0.0
  0
LINE
  5
8272
330
19
100
AcDbEntity
  8
1
100
AcDbLine
 10
1945.370280853016
 20
1639.553023725597
 30
0.0
 11
1928.370280853016
 21
1639.553023725597
 31
0.0
  0
LINE
  5
8273
330
19
100
AcDbEntity
  8
1
100
AcDbLine
 10
1945.370280853017
 20
1677.553023725597
 30
0.0
 11
1928.370280853016
 21
1677.553023725597
 31
0.0
  0
LINE
  5
8274
330
19
100
AcDbEntity
  8
1
100
AcDbLine
 10
1945.370280853017
 20
1680.553023725597
 30
0.0
 11
1928.370280853016
 21
1680.553023725597
 31
0.0
  0
LINE
  5
8275
330
19
100
AcDbEntity
  8
1
100
AcDbLine
 10
1994.010782176878
 20
1717.553023725598
 30
0.0
 11
1985.010782176878
 21
1717.553023725598
 31
0.0
  0
ARC
  5
8276
330
19
100
AcDbEntity
  8
1
100
AcDbCircle
 10
1985.009782176877
 20
1716.553023725597
 30
0.0
 40
0.9998000000000001
100
AcDbArc
 50
89.98600000000001
 51
180.007
  0
LINE
  5
8277
330
19
100
AcDbEntity
  8
1
100
AcDbLine
 10
1984.010782176878
 20
1691.553023725597
 30
0.0
 11
1984.010782176878
 21
1716.553023725597
 31
0.0
  0
LINE
  5
8278
330
19
100
AcDbEntity
  8
1
100
AcDbLine
 10
1994.010782176878
 20
1611.553023725598
 30
0.0
 11
1994.010782176878
 21
1526.553023725597
 31
0.0
  0
LINE
  5
8279
330
19
100
AcDbEntity
  8
1
100
AcDbLine
 10
580.2711265068646
 20
2399.131986173009
 30
0.0
 11
730.2711265068646
 21
2399.131986173008
 31
0.0
  0
LINE
  5
827A
330
19
100
AcDbEntity
  8
1
100
AcDbLine
 10
580.2711265068646
 20
2459.131986173009
 30
0.0
 11
730.2711265068646
 21
2459.131986173008
 31
0.0
  0
LINE
  5
827B
330
19
100
AcDbEntity
  8
1
100
AcDbLine
 10
512.7711265068646
 20
2491.131986173008
 30
0.0
 11
1325.271126506865
 21
2491.131986173008
 31
0.0
  0
LINE
  5
827C
330
19
100
AcDbEntity
  8
1
100
AcDbLine
 10
512.7711265068646
 20
2299.131986173008
 30
0.0
 11
512.7711265068646
 21
2491.131986173008
 31
0.0
  0
LINE
  5
827D
330
19
100
AcDbEntity
  8
1
100
AcDbLine
 10
1325.271126506865
 20
2299.131986173008
 30
0.0
 11
1325.271126506865
 21
2491.131986173008
 31
0.0
  0
LINE
  5
827E
330
19
100
AcDbEntity
  8
1
100
AcDbLine
 10
580.2711265068646
 20
2399.131986173008
 30
0.0
 11
580.2711265068646
 21
2459.131986173008
 31
0.0
  0
LINE
  5
827F
330
19
100
AcDbEntity
  8
1
100
AcDbLine
 10
1250.271126506865
 20
2399.131986173008
 30
0.0
 11
1250.271126506865
 21
2459.131986173008
 31
0.0
  0
LINE
  5
8280
330
19
100
AcDbEntity
  8
1
100
AcDbLine
 10
730.2711265068646
 20
2399.131986173008
 30
0.0
 11
730.2711265068646
 21
2459.131986173008
 31
0.0
  0
LINE
  5
8281
330
19
100
AcDbEntity
  8
1
100
AcDbLine
 10
1100.271126506864
 20
2399.131986173008
 30
0.0
 11
1100.271126506864
 21
2459.131986173008
 31
0.0
  0
LINE
  5
8282
330
19
100
AcDbEntity
  8
1
100
AcDbLine
 10
1100.271126506864
 20
2399.131986173008
 30
0.0
 11
1250.271126506865
 21
2399.131986173008
 31
0.0
  0
LINE
  5
8283
330
19
100
AcDbEntity
  8
1
100
AcDbLine
 10
1100.271126506864
 20
2459.131986173008
 30
0.0
 11
1250.271126506865
 21
2459.131986173008
 31
0.0
  0
LINE
  5
8284
330
19
100
AcDbEntity
  8
1
100
AcDbLine
 10
513.2711265068646
 20
2871.372279607692
 30
0.0
 11
787.2711265068646
 21
2871.372279607692
 31
0.0
  0
LINE
  5
8285
330
19
100
AcDbEntity
  8
1
100
AcDbLine
 10
513.2711265068646
 20
2519.372579607693
 30
0.0
 11
787.2711265068646
 21
2519.372579607693
 31
0.0
  0
LINE
  5
8286
330
19
100
AcDbEntity
  8
1
100
AcDbLine
 10
513.2711265068646
 20
2871.372279607692
 30
0.0
 11
513.2711265068646
 21
2519.372579607692
 31
0.0
  0
LINE
  5
8287
330
19
100
AcDbEntity
  8
2
100
AcDbLine
 10
655.2711265068646
 20
2923.88733332306
 30
0.0
 11
655.2711265068646
 21
2384.437646342906
 31
0.0
  0
LINE
  5
8288
330
19
100
AcDbEntity
  8
1
100
AcDbLine
 10
674.2711265068646
 20
2502.372579607693
 30
0.0
 11
674.2711265068646
 21
2459.131986173008
 31
0.0
  0
LINE
  5
8289
330
19
100
AcDbEntity
  8
1
100
AcDbLine
 10
636.2711265068647
 20
2502.372579607693
 30
0.0
 11
636.2711265068647
 21
2459.131986173008
 31
0.0
  0
LINE
  5
828A
330
19
100
AcDbEntity
  8
1
100
AcDbLine
 10
633.2711265068646
 20
2485.372579607693
 30
0.0
 11
633.2711265068646
 21
2459.131986173009
 31
0.0
  0
LINE
  5
828B
330
19
100
AcDbEntity
  8
1
100
AcDbLine
 10
675.2711265068646
 20
2502.372579607693
 30
0.0
 11
635.2711265068647
 21
2502.372579607693
 31
0.0
  0
LINE
  5
828C
330
19
100
AcDbEntity
  8
1
100
AcDbLine
 10
713.2711265068646
 20
2509.372579607692
 30
0.0
 11
597.2711265068646
 21
2509.372579607692
 31
0.0
  0
LINE
  5
828D
330
19
100
AcDbEntity
  8
1
100
AcDbLine
 10
596.2711265068646
 20
2519.372579607693
 30
0.0
 11
596.2711265068646
 21
2510.372579607693
 31
0.0
  0
ARC
  5
828E
330
19
100
AcDbEntity
  8
1
100
AcDbCircle
 10
597.2711265068646
 20
2510.371579607693
 30
0.0
 40
0.9998000000000001
100
AcDbArc
 50
179.986
 51
270.007
  0
LINE
  5
828F
330
19
100
AcDbEntity
  8
1
100
AcDbLine
 10
636.2711265068647
 20
2485.372579607693
 30
0.0
 11
633.2711265068646
 21
2485.372579607693
 31
0.0
  0
LINE
  5
8290
330
19
100
AcDbEntity
  8
1
100
AcDbLine
 10
635.2711265068647
 20
2509.372579607692
 30
0.0
 11
635.2711265068647
 21
2502.372579607693
 31
0.0
  0
LINE
  5
8291
330
19
100
AcDbEntity
  8
1
100
AcDbLine
 10
675.2711265068646
 20
2509.372579607692
 30
0.0
 11
675.2711265068646
 21
2502.372579607693
 31
0.0
  0
LINE
  5
8292
330
19
100
AcDbEntity
  8
1
100
AcDbLine
 10
714.2711265068647
 20
2519.372579607693
 30
0.0
 11
714.2711265068647
 21
2510.372579607693
 31
0.0
  0
ARC
  5
8293
330
19
100
AcDbEntity
  8
1
100
AcDbCircle
 10
713.2711265068646
 20
2510.372579607693
 30
0.0
 40
0.9999
100
AcDbArc
 50
269.9965
 51
0.0069999999999659
  0
LINE
  5
8294
330
19
100
AcDbEntity
  8
1
100
AcDbLine
 10
787.2711265068646
 20
2871.372279607692
 30
0.0
 11
787.2711265068646
 21
2519.372579607692
 31
0.0
  0
DIMENSION
  5
84A5
330
19
100
AcDbEntity
  8
3
100
AcDbDimension
280
     0
  2
*D16
 10
1175.271126506865
 20
1172.005038111068
 30
0.0
 11
831.2711265068648
 21
1209.505038111069
 31
0.0
 70
    32
 71
     5
 42
-1.0
 73
     0
 74
     0
 75
     0
  3
IGA
100
AcDbAlignedDimension
 13
487.2711265068646
 23
1275.553023725597
 33
0.0
 14
1175.271126506865
 24
1275.553023725597
 34
0.0
100
AcDbRotatedDimension
1001
ACAD
1000
DSTYLE
1002
{
1070
   287
1070
     3
1070
    40
1040
15.0
1070
   143
1040
0.039
1070
   172
1070
     1
1070
   271
1070
     0
1070
   279
1070
     0
1002
}
  0
DIMENSION
  5
84B2
330
19
100
AcDbEntity
  8
3
100
AcDbDimension
280
     0
  2
*D17
 10
1387.271126506864
 20
1172.005038111068
 30
0.0
 11
1281.271126506865
 21
1209.505038111069
 31
0.0
 70
    32
 71
     5
 42
-1.0
 73
     0
 74
     0
 75
     0
  3
IGA
100
AcDbAlignedDimension
 13
1175.271126506865
 23
1275.553023725597
 33
0.0
 14
1387.271126506864
 24
1275.553023725597
 34
0.0
100
AcDbRotatedDimension
1001
ACAD
1000
DSTYLE
1002
{
1070
   287
1070
     3
1070
    40
1040
15.0
1070
   143
1040
0.039
1070
   172
1070
     1
1070
   271
1070
     0
1070
   279
1070
     0
1002
}
  0
DIMENSION
  5
84BF
330
19
100
AcDbEntity
  8
3
100
AcDbDimension
280
     0
  2
*D18
 10
2238.370280853016
 20
1172.005038111068
 30
0.0
 11
2070.870280853016
 21
1209.505038111069
 31
0.0
 70
    32
 71
     5
 42
-1.0
 73
     0
 74
     0
 75
     0
  3
IGA
100
AcDbAlignedDimension
 13
1903.370280853016
 23
1275.553023725597
 33
0.0
 14
2238.370280853016
 24
1275.553023725597
 34
0.0
100
AcDbRotatedDimension
1001
ACAD
1000
DSTYLE
1002
{
1070
   287
1070
     3
1070
    40
1040
15.0
1070
   143
1040
0.039
1070
   172
1070
     1
1070
   271
1070
     0
1070
   279
1070
     0
1002
}
  0
DIMENSION
  5
84CC
330
19
100
AcDbEntity
  8
3
100
AcDbDimension
280
     0
  2
*D19
 10
2493.370280853016
 20
1172.005038111068
 30
0.0
 11
2365.870280853016
 21
1209.505038111069
 31
0.0
 70
    32
 71
     5
 42
-1.0
 73
     0
 74
     0
 75
     0
  3
IGA
100
AcDbAlignedDimension
 13
2238.370280853016
 23
1275.553023725597
 33
0.0
 14
2493.370280853016
 24
1275.553023725597
 34
0.0
100
AcDbRotatedDimension
1001
ACAD
1000
DSTYLE
1002
{
1070
   287
1070
     3
1070
    40
1040
15.0
1070
   143
1040
0.039
1070
   172
1070
     1
1070
   271
1070
     0
1070
   279
1070
     0
1002
}
  0
DIMENSION
  5
84D9
330
19
100
AcDbEntity
  8
3
100
AcDbDimension
280
     0
  2
*D21
 10
1621.430465847457
 20
1376.553023725597
 30
0.0
 11
1693.216180133171
 21
1358.553023725597
 31
0.0
 70
    32
 71
     5
 42
-1.0
 73
     0
 74
     0
 75
     0
  3
IGA
100
AcDbAlignedDimension
 13
1387.271126506864
 23
1340.553023725597
 33
0.0
 14
1387.271126506864
 24
1376.553023725597
 34
0.0
 50
90.0
100
AcDbRotatedDimension
1001
ACAD
1000
DSTYLE
1002
{
1070
   172
1070
     1
1070
    76
1070
     1
1070
    75
1070
     1
1070
    40
1040
15.0
1070
     3
1000
(<>)
1070
   271
1070
     0
1070
     7
1000
_NONE
1070
     6
1000
_NONE
1070
   143
1040
0.039
1002
}
  0
DIMENSION
  5
84E6
330
19
100
AcDbEntity
  8
3
100
AcDbDimension
280
     0
  2
*D22
 10
1740.891518794779
 20
1275.553023725597
 30
0.0
 11
1691.605804509064
 21
1613.553023725597
 31
0.0
 70
    32
 71
     5
 42
-1.0
 73
     0
 74
     0
 75
     0
  3
IGA
100
AcDbAlignedDimension
 13
1177.65995683182
 23
1951.553023725597
 33
0.0
 14
1387.271126506864
 24
1275.553023725597
 34
0.0
 50
90.0
100
AcDbRotatedDimension
1001
ACAD
1000
DSTYLE
1002
{
1070
   287
1070
     3
1070
     3
1000
(<>)
1070
    40
1040
15.0
1070
   143
1040
0.039
1070
   172
1070
     1
1070
   271
1070
     0
1070
   279
1070
     0
1002
}
  0
LWPOLYLINE
  5
84EC
330
19
100
AcDbEntity
  8
1
100
AcDbPolyline
 90
        3
 70
     0
 43
0.0
 10
824.2711265068646
 20
1951.553023725597
 10
851.6787008022557
 20
1706.394669492611
 42
0.2846394214926813
 10
1039.475564793448
 20
1451.553023725597
 42
0.4468309864143491
  0
LWPOLYLINE
  5
84F1
330
19
100
AcDbEntity
  8
1
100
AcDbPolyline
 90
        4
 70
     0
 43
0.0
 10
1249.425638590486
 20
1451.553023725597
 42
0.3337803246909841
 10
1401.747303202725
 20
1721.267587768591
 42
0.3826939024088523
 10
1193.771126506865
 20
1897.763499931847
 42
0.0652413708697207
 10
1149.271126506865
 20
1891.93219735547
 42
0.1475914163848442
  0
ENDSEC
  0
SECTION
  2
OBJECTS
  0
DICTIONARY
  5
C
330
0
100
AcDbDictionary
281
     1
  3
ACAD_CIP_PREVIOUS_PRODUCT_INFO
350
85ED
  3
ACAD_COLOR
350
85D0
  3
ACAD_DETAILVIEWSTYLE
350
85E9
  3
ACAD_GROUP
350
D
  3
ACAD_LAYOUT
350
84FB
  3
ACAD_MATERIAL
350
859E
  3
ACAD_MLEADERSTYLE
350
85E5
  3
ACAD_MLINESTYLE
350
E
  3
ACAD_PLOTSETTINGS
350
84FC
  3
ACAD_PLOTSTYLENAME
350
84F9
  3
ACAD_SCALELIST
350
85D3
  3
ACAD_SECTIONVIEWSTYLE
350
85E7
  3
ACAD_TABLESTYLE
350
85D1
  3
ACAD_VISUALSTYLE
350
85B7
  3
ACDB_RECOMPOSE_DATA
350
8635
  3
AcDbVariableDictionary
350
8624
  3
AcDsDecomposeData
350
863B
  0
DICTIONARY
  5
8618
330
2
100
AcDbDictionary
280
     1
281
     1
  3
ACAD_LAYERSTATES
360
8619
  0
DICTIONARY
  5
860B
330
F
100
AcDbDictionary
280
     1
281
     1
  3
ADSK_XREC_LAYER_RECONCILED
360
860C
  0
DICTIONARY
  5
860D
330
31
100
AcDbDictionary
280
     1
281
     1
  3
ADSK_XREC_LAYER_RECONCILED
360
860E
  0
DICTIONARY
  5
860F
330
76D0
100
AcDbDictionary
280
     1
281
     1
  3
ADSK_XREC_LAYER_RECONCILED
360
8610
  0
DICTIONARY
  5
8611
330
76D1
100
AcDbDictionary
280
     1
281
     1
  3
ADSK_XREC_LAYER_RECONCILED
360
8612
  0
DICTIONARY
  5
8613
330
76D2
100
AcDbDictionary
280
     1
281
     1
  3
ADSK_XREC_LAYER_RECONCILED
360
8614
  0
DICTIONARY
  5
8528
330
19
100
AcDbDictionary
280
     1
281
     1
  3
ACAD_LAYOUTSELFREF
360
8529
  3
ACAD_SORTENTS
360
85EF
  0
DICTIONARY
  5
8526
330
16
100
AcDbDictionary
280
     1
281
     1
  3
ACAD_LAYOUTSELFREF
360
8527
  0
XRECORD
  5
85ED
102
{ACAD_REACTORS
330
C
102
}
330
C
100
AcDbXrecord
280
     1
300
ACDLT
300
2023
300

  0
DICTIONARY
  5
85D0
102
{ACAD_REACTORS
330
C
102
}
330
C
100
AcDbDictionary
281
     1
  0
DICTIONARY
  5
85E9
102
{ACAD_REACTORS
330
C
102
}
330
C
100
AcDbDictionary
281
     1
  3
Metric50
350
85EA
  0
DICTIONARY
  5
D
102
{ACAD_REACTORS
330
C
102
}
330
C
100
AcDbDictionary
281
     1
  0
DICTIONARY
  5
84FB
102
{ACAD_REACTORS
330
C
102
}
330
C
100
AcDbDictionary
281
     1
  3
Model
350
84FD
  3
ﾚｲｱｳﾄ1
350
84FE
  0
DICTIONARY
  5
859E
102
{ACAD_REACTORS
330
C
102
}
330
C
100
AcDbDictionary
281
     1
  3
ByBlock
350
85A7
  3
ByLayer
350
859F
  3
Global
350
85AF
  0
DICTIONARY
  5
85E5
102
{ACAD_REACTORS
330
C
102
}
330
C
100
AcDbDictionary
281
     1
  3
Standard
350
85E6
  0
DICTIONARY
  5
E
102
{ACAD_REACTORS
330
C
102
}
330
C
100
AcDbDictionary
281
     1
  3
STANDARD
350
1C
  0
DICTIONARY
  5
84FC
102
{ACAD_REACTORS
330
C
102
}
330
C
100
AcDbDictionary
281
     1
  0
ACDBDICTIONARYWDFLT
  5
84F9
102
{ACAD_REACTORS
330
C
102
}
330
C
100
AcDbDictionary
281
     1
  3
Normal
350
84FA
100
AcDbDictionaryWithDefault
340
84FA
  0
DICTIONARY
  5
85D3
102
{ACAD_REACTORS
330
C
102
}
330
C
100
AcDbDictionary
281
     1
  3
A0
350
85D4
  3
A1
350
85D5
  3
A2
350
85D6
  3
A3
350
85D7
  3
A4
350
85D8
  3
A5
350
85D9
  3
A6
350
85DA
  3
A7
350
85DB
  3
A8
350
85DC
  3
A9
350
85DD
  3
B0
350
85DE
  3
B1
350
85DF
  3
B2
350
85E0
  3
B3
350
85E1
  3
B4
350
85E2
  3
B5
350
85E3
  3
B6
350
85E4
  0
DICTIONARY
  5
85E7
102
{ACAD_REACTORS
330
C
102
}
330
C
100
AcDbDictionary
281
     1
  3
Metric50
350
85E8
  0
DICTIONARY
  5
85D1
102
{ACAD_REACTORS
330
C
102
}
330
C
100
AcDbDictionary
281
     1
  3
Standard
350
85D2
  0
DICTIONARY
  5
85B7
102
{ACAD_REACTORS
330
C
102
}
330
C
100
AcDbDictionary
281
     1
  3
2dWireframe
350
85BD
  3
Basic
350
85BC
  3
Brighten
350
85C3
  3
ColorChange
350
85C7
  3
Conceptual
350
85C0
  3
Dim
350
85C2
  3
EdgeColorOff
350
85CF
  3
Facepattern
350
85C6
  3
Flat
350
85B8
  3
FlatWithEdges
350
85B9
  3
Gouraud
350
85BA
  3
GouraudWithEdges
350
85BB
  3
Hidden
350
85BF
  3
JitterOff
350
85CD
  3
Linepattern
350
85C5
  3
OverhangOff
350
85CE
  3
Realistic
350
85C1
  3
Shaded
350
85CC
  3
Shaded with edges
350
85CB
  3
Shades of Gray
350
85C8
  3
Sketchy
350
85C9
  3
Thicken
350
85C4
  3
Wireframe
350
85BE
  3
X-Ray
350
85CA
  0
XRECORD
  5
8635
102
{ACAD_REACTORS
330
C
102
}
330
C
100
AcDbXrecord
280
     1
 90
        1
330
81EF
330
81F1
330
81F5
330
85D2
  0
DICTIONARY
  5
8624
102
{ACAD_REACTORS
330
C
102
}
330
C
100
AcDbDictionary
281
     1
  3
CANNOSCALE
350
862A
  3
CMLEADERSTYLE
350
8626
  3
CTABLESTYLE
350
8625
  3
CVIEWDETAILSTYLE
350
8627
  3
CVIEWSECTIONSTYLE
350
8628
  3
LAYEREVAL
350
862C
  3
LAYERNOTIFY
350
862D
  3
LIGHTINGUNITS
350
862B
  3
MARKUPASSISTMODE
350
8632
  3
MSLTSCALE
350
8629
  0
DICTIONARY
  5
863B
102
{ACAD_REACTORS
330
C
102
}
330
C
100
AcDbDictionary
281
     1
  3
AcDsRecords
350
863D
  3
AcDsSchemas
350
863C
1001
ACAD
1070
     2
  0
DICTIONARY
  5
8619
102
{ACAD_REACTORS
330
8618
102
}
330
8618
100
AcDbDictionary
281
     1
  0
XRECORD
  5
860C
102
{ACAD_REACTORS
330
860B
102
}
330
860B
100
AcDbXrecord
280
     1
290
     1
  0
XRECORD
  5
860E
102
{ACAD_REACTORS
330
860D
102
}
330
860D
100
AcDbXrecord
280
     1
290
     1
  0
XRECORD
  5
8610
102
{ACAD_REACTORS
330
860F
102
}
330
860F
100
AcDbXrecord
280
     1
290
     1
  0
XRECORD
  5
8612
102
{ACAD_REACTORS
330
8611
102
}
330
8611
100
AcDbXrecord
280
     1
290
     1
  0
XRECORD
  5
8614
102
{ACAD_REACTORS
330
8613
102
}
330
8613
100
AcDbXrecord
280
     1
290
     1
  0
XRECORD
  5
8529
102
{ACAD_REACTORS
330
8528
102
}
330
8528
100
AcDbXrecord
280
     1
340
19
  0
SORTENTSTABLE
  5
85EF
102
{ACAD_REACTORS
330
8528
102
}
330
8528
100
AcDbSortentsTable
330
19
331
81BC
  5
81BD
331
81BD
  5
81BE
331
81BE
  5
81BF
331
81BF
  5
81C0
331
81C0
  5
81C1
331
81C1
  5
81C2
331
81C2
  5
81C3
331
81C3
  5
81C4
331
81C4
  5
81C5
331
81C5
  5
81C6
331
81C6
  5
81C7
331
81C7
  5
81C8
331
81C8
  5
81C9
331
81C9
  5
81CA
331
81CA
  5
81CB
331
81CB
  5
81CC
331
81CC
  5
81CD
331
81CD
  5
81CE
331
81CE
  5
81CF
331
81CF
  5
81D0
331
81D0
  5
81D1
331
81D1
  5
81D2
331
81D2
  5
81D3
331
81D3
  5
81D4
331
81D4
  5
81D5
331
81D5
  5
81DC
331
81DC
  5
81DD
331
81DD
  5
81DE
331
81DE
  5
81DF
331
81DF
  5
81E0
331
81E0
  5
81E1
331
81E1
  5
81E2
331
81E2
  5
81E3
331
81E3
  5
81E4
331
81E4
  5
81E5
331
81E5
  5
81E6
331
81E6
  5
81E7
331
81E7
  5
81E8
331
81E8
  5
81E9
331
81E9
  5
81EA
331
81EA
  5
81EB
331
81EB
  5
81EC
331
81EC
  5
81ED
331
81ED
  5
81EE
331
81EE
  5
81EF
331
81EF
  5
81F0
331
81F0
  5
81F1
331
81F1
  5
81F3
331
81F3
  5
81F4
331
81F4
  5
81F5
331
81F5
  5
81F6
331
81F6
  5
81F7
331
81F7
  5
81F8
331
81F8
  5
81F9
331
81F9
  5
81FA
331
81FA
  5
81FB
331
81FB
  5
81FC
331
81FC
  5
81FD
331
81FD
  5
81FE
331
81FE
  5
81FF
331
81FF
  5
8200
331
8200
  5
8201
331
8201
  5
8203
331
8203
  5
8204
331
8204
  5
8205
331
8205
  5
8206
331
8206
  5
8207
331
8207
  5
8208
331
8208
  5
8209
331
8209
  5
820A
331
820A
  5
820B
331
820B
  5
820C
331
820C
  5
820D
331
820D
  5
820E
331
820E
  5
820F
331
820F
  5
8210
331
8210
  5
8211
331
8211
  5
8212
331
8212
  5
824E
331
824E
  5
824F
331
824F
  5
8250
331
8250
  5
8251
331
8251
  5
8252
331
8252
  5
8253
331
8253
  5
8254
331
8254
  5
8255
331
8255
  5
8256
331
8256
  5
8257
331
8257
  5
8258
331
8258
  5
8259
331
8259
  5
825A
331
825A
  5
825B
331
825B
  5
825C
331
825C
  5
825D
331
825D
  5
825E
331
825E
  5
825F
331
825F
  5
8260
331
8260
  5
8261
331
8261
  5
8262
331
8262
  5
8263
331
8263
  5
8264
331
8264
  5
8265
331
8265
  5
8266
331
8266
  5
8267
331
8267
  5
8268
331
8268
  5
8269
331
8269
  5
826A
331
826A
  5
826B
331
826B
  5
826C
331
826C
  5
826D
331
826D
  5
826E
331
826E
  5
826F
331
826F
  5
8270
331
8270
  5
8271
331
8271
  5
8272
331
8272
  5
8273
331
8273
  5
8274
331
8274
  5
8275
331
8275
  5
8276
331
8276
  5
8277
331
8277
  5
8278
331
8278
  5
8279
331
8279
  5
827A
331
827A
  5
827B
331
827B
  5
827C
331
827C
  5
827D
331
827D
  5
827E
331
827E
  5
827F
331
827F
  5
8280
331
8280
  5
8281
331
8281
  5
8282
331
8282
  5
8283
331
8283
  5
8284
331
8284
  5
8285
331
8285
  5
8286
331
8286
  5
8287
331
8287
  5
8288
331
8288
  5
8289
331
8289
  5
828A
331
828A
  5
828B
331
828B
  5
828C
331
828C
  5
828D
331
828D
  5
828E
331
828E
  5
828F
331
828F
  5
8290
331
8290
  5
8291
331
8291
  5
8292
331
8292
  5
8293
331
8293
  5
8294
331
8294
  5
84A5
331
84A5
  5
84B2
331
84B2
  5
84BF
331
84BF
  5
84CC
331
84CC
  5
84D9
331
84D9
  5
84E6
331
84E6
  5
84EC
331
84EC
  5
84F1
331
84F1
  5
85EE
  0
XRECORD
  5
8527
102
{ACAD_REACTORS
330
8526
102
}
330
8526
100
AcDbXrecord
280
     1
340
16
  0
ACDBDETAILVIEWSTYLE
  5
85EA
102
{ACAD_XDICTIONARY
360
8640
102
}
102
{ACAD_REACTORS
330
85E9
102
}
330
85E9
100
AcDbModelDocViewStyle
 70
     0
  3
Metric50
290
     0
100
AcDbDetailViewStyle
 70
     0
 71
     0
 90
        3
 71
     1
340
10
 62
   256
 40
5.0
340
0
 62
   256
 40
5.0
300

 40
0.0
280
     1
 71
     2
340
15
 90
       25
 62
   256
 71
     3
340
10
 62
   256
 40
5.0
 90
        0
 40
15.0
 90
        1
300
%<\AcVar ViewDetailId>% (%<\AcVar ViewScale \f "%sn">%)
 71
     4
340
15
 90
       25
 62
   256
340
15
 90
       25
 62
   256
280
     0
  0
LAYOUT
  5
84FD
102
{ACAD_REACTORS
330
84FB
102
}
330
84FB
100
AcDbPlotSettings
  1

  2
EPSON LP-9300
  4

  6

 40
0.0
 41
0.0
 42
0.0
 43
0.0
 44
0.0
 45
0.0
 46
0.0
 47
0.0
 48
0.0
 49
0.0
140
0.0
141
0.0
142
1.0
143
1.0
 70
  1712
 72
     0
 73
     0
 74
     0
  7

 75
     0
147
1.0
 76
     0
 77
     2
 78
   300
148
0.0
149
0.0
100
AcDbLayout
  1
Model
 70
     1
 71
     0
 10
0.0
 20
0.0
 11
12.0
 21
9.0
 12
0.0
 22
0.0
 32
0.0
 14
0.0
 24
0.0
 34
0.0
 15
0.0
 25
0.0
 35
0.0
146
0.0
 13
0.0
 23
0.0
 33
0.0
 16
1.0
 26
0.0
 36
0.0
 17
0.0
 27
1.0
 37
0.0
 76
     0
330
19
331
859C
  0
LAYOUT
  5
84FE
102
{ACAD_REACTORS
330
84FB
102
}
330
84FB
100
AcDbPlotSettings
  1

  2
EPSON LP-9300
  4

  6

 40
0.0
 41
0.0
 42
0.0
 43
0.0
 44
0.0
 45
0.0
 46
0.0
 47
0.0
 48
0.0
 49
0.0
140
0.0
141
0.0
142
1.0
143
1.0
 70
   688
 72
     0
 73
     0
 74
     5
  7

 75
    16
147
1.0
 76
     0
 77
     2
 78
   300
148
0.0
149
0.0
100
AcDbLayout
  1
ﾚｲｱｳﾄ1
 70
     1
 71
     1
 10
0.0
 20
0.0
 11
12.0
 21
9.0
 12
0.0
 22
0.0
 32
0.0
 14
1.000000000000000E+20
 24
1.000000000000000E+20
 34
1.000000000000000E+20
 15
-1.000000000000000E+20
 25
-1.000000000000000E+20
 35
-1.000000000000000E+20
146
0.0
 13
0.0
 23
0.0
 33
0.0
 16
1.0
 26
0.0
 36
0.0
 17
0.0
 27
1.0
 37
0.0
 76
     0
330
16
  0
MATERIAL
  5
85A7
102
{ACAD_XDICTIONARY
360
85A8
102
}
102
{ACAD_REACTORS
330
859E
102
}
330
859E
100
AcDbMaterial
  1
ByBlock
 72
     0
 43
0.0208333333333333
 43
0.0
 43
0.0
 43
0.0
 43
0.0
 43
0.0208333333333333
 43
0.0
 43
0.0
 43
0.0
 43
0.0
 43
1.0
 43
0.0
 43
0.0
 43
0.0
 43
0.0
 43
1.0
 77
     0
 47
0.0208333333333333
 47
0.0
 47
0.0
 47
0.0
 47
0.0
 47
0.0208333333333333
 47
0.0
 47
0.0
 47
0.0
 47
0.0
 47
1.0
 47
0.0
 47
0.0
 47
0.0
 47
0.0
 47
1.0
171
     0
 49
0.0208333333333333
 49
0.0
 49
0.0
 49
0.0
 49
0.0
 49
0.0208333333333333
 49
0.0
 49
0.0
 49
0.0
 49
0.0
 49
1.0
 49
0.0
 49
0.0
 49
0.0
 49
0.0
 49
1.0
175
     0
142
0.0208333333333333
142
0.0
142
0.0
142
0.0
142
0.0
142
0.0208333333333333
142
0.0
142
0.0
142
0.0
142
0.0
142
1.0
142
0.0
142
0.0
142
0.0
142
0.0
142
1.0
179
     0
144
0.0208333333333333
144
0.0
144
0.0
144
0.0
144
0.0
144
0.0208333333333333
144
0.0
144
0.0
144
0.0
144
0.0
144
1.0
144
0.0
144
0.0
144
0.0
144
0.0
144
1.0
147
0.0208333333333333
147
0.0
147
0.0
147
0.0
147
0.0
147
0.0208333333333333
147
0.0
147
0.0
147
0.0
147
0.0
147
1.0
147
0.0
147
0.0
147
0.0
147
0.0
147
1.0
  0
MATERIAL
  5
859F
102
{ACAD_XDICTIONARY
360
85A0
102
}
102
{ACAD_REACTORS
330
859E
102
}
330
859E
100
AcDbMaterial
  1
ByLayer
 72
     0
 43
0.0208333333333333
 43
0.0
 43
0.0
 43
0.0
 43
0.0
 43
0.0208333333333333
 43
0.0
 43
0.0
 43
0.0
 43
0.0
 43
1.0
 43
0.0
 43
0.0
 43
0.0
 43
0.0
 43
1.0
 77
     0
 47
0.0208333333333333
 47
0.0
 47
0.0
 47
0.0
 47
0.0
 47
0.0208333333333333
 47
0.0
 47
0.0
 47
0.0
 47
0.0
 47
1.0
 47
0.0
 47
0.0
 47
0.0
 47
0.0
 47
1.0
171
     0
 49
0.0208333333333333
 49
0.0
 49
0.0
 49
0.0
 49
0.0
 49
0.0208333333333333
 49
0.0
 49
0.0
 49
0.0
 49
0.0
 49
1.0
 49
0.0
 49
0.0
 49
0.0
 49
0.0
 49
1.0
175
     0
142
0.0208333333333333
142
0.0
142
0.0
142
0.0
142
0.0
142
0.0208333333333333
142
0.0
142
0.0
142
0.0
142
0.0
142
1.0
142
0.0
142
0.0
142
0.0
142
0.0
142
1.0
179
     0
144
0.0208333333333333
144
0.0
144
0.0
144
0.0
144
0.0
144
0.0208333333333333
144
0.0
144
0.0
144
0.0
144
0.0
144
1.0
144
0.0
144
0.0
144
0.0
144
0.0
144
1.0
147
0.0208333333333333
147
0.0
147
0.0
147
0.0
147
0.0
147
0.0208333333333333
147
0.0
147
0.0
147
0.0
147
0.0
147
1.0
147
0.0
147
0.0
147
0.0
147
0.0
147
1.0
  0
MATERIAL
  5
85AF
102
{ACAD_XDICTIONARY
360
85B0
102
}
102
{ACAD_REACTORS
330
859E
102
}
330
859E
100
AcDbMaterial
  1
Global
 72
     0
 43
0.0208333333333333
 43
0.0
 43
0.0
 43
0.0
 43
0.0
 43
0.0208333333333333
 43
0.0
 43
0.0
 43
0.0
 43
0.0
 43
1.0
 43
0.0
 43
0.0
 43
0.0
 43
0.0
 43
1.0
 77
     0
 47
0.0208333333333333
 47
0.0
 47
0.0
 47
0.0
 47
0.0
 47
0.0208333333333333
 47
0.0
 47
0.0
 47
0.0
 47
0.0
 47
1.0
 47
0.0
 47
0.0
 47
0.0
 47
0.0
 47
1.0
171
     0
 49
0.0208333333333333
 49
0.0
 49
0.0
 49
0.0
 49
0.0
 49
0.0208333333333333
 49
0.0
 49
0.0
 49
0.0
 49
0.0
 49
1.0
 49
0.0
 49
0.0
 49
0.0
 49
0.0
 49
1.0
175
     0
142
0.0208333333333333
142
0.0
142
0.0
142
0.0
142
0.0
142
0.0208333333333333
142
0.0
142
0.0
142
0.0
142
0.0
142
1.0
142
0.0
142
0.0
142
0.0
142
0.0
142
1.0
179
     0
144
0.0208333333333333
144
0.0
144
0.0
144
0.0
144
0.0
144
0.0208333333333333
144
0.0
144
0.0
144
0.0
144
0.0
144
1.0
144
0.0
144
0.0
144
0.0
144
0.0
144
1.0
147
0.0208333333333333
147
0.0
147
0.0
147
0.0
147
0.0
147
0.0208333333333333
147
0.0
147
0.0
147
0.0
147
0.0
147
1.0
147
0.0
147
0.0
147
0.0
147
0.0
147
1.0
  0
MLEADERSTYLE
  5
85E6
102
{ACAD_REACTORS
330
85E5
102
}
330
85E5
100
AcDbMLeaderStyle
179
     2
170
     2
171
     1
172
     0
 90
        2
 40
0.0
 41
0.0
173
     1
 91
-1056964608
340
13
 92
       -2
290
     1
 42
2.0
291
     1
 43
0.36
  3
Standard
 44
4.0
300

342
10
174
     1
178
     6
175
     1
176
     0
 93
-1056964608
 45
4.0
292
     0
297
     0
 46
4.0
 94
-1056964608
 47
1.0
 49
1.0
140
1.0
293
     1
141
0.0
294
     1
177
     0
142
1.0
295
     0
296
     0
143
0.125
271
     0
272
     9
273
     9
298
     1
  0
MLINESTYLE
  5
1C
102
{ACAD_REACTORS
330
E
102
}
330
E
100
AcDbMlineStyle
  2
STANDARD
 70
     0
  3

 62
     0
 51
90.0
 52
90.0
 71
     2
 49
0.5
 62
   256
  6
BYLAYER
 49
-0.5
 62
   256
  6
BYLAYER
  0
ACDBPLACEHOLDER
  5
84FA
102
{ACAD_REACTORS
330
84F9
102
}
330
84F9
  0
SCALE
  5
85D4
102
{ACAD_REACTORS
330
85D3
102
}
330
85D3
100
AcDbScale
 70
     0
300
1:1
140
1.0
141
1.0
290
     1
  0
SCALE
  5
85D5
102
{ACAD_REACTORS
330
85D3
102
}
330
85D3
100
AcDbScale
 70
     0
300
1:2
140
1.0
141
2.0
290
     0
  0
SCALE
  5
85D6
102
{ACAD_REACTORS
330
85D3
102
}
330
85D3
100
AcDbScale
 70
     0
300
1:4
140
1.0
141
4.0
290
     0
  0
SCALE
  5
85D7
102
{ACAD_REACTORS
330
85D3
102
}
330
85D3
100
AcDbScale
 70
     0
300
1:5
140
1.0
141
5.0
290
     0
  0
SCALE
  5
85D8
102
{ACAD_REACTORS
330
85D3
102
}
330
85D3
100
AcDbScale
 70
     0
300
1:8
140
1.0
141
8.0
290
     0
  0
SCALE
  5
85D9
102
{ACAD_REACTORS
330
85D3
102
}
330
85D3
100
AcDbScale
 70
     0
300
1:10
140
1.0
141
10.0
290
     0
  0
SCALE
  5
85DA
102
{ACAD_REACTORS
330
85D3
102
}
330
85D3
100
AcDbScale
 70
     0
300
1:16
140
1.0
141
16.0
290
     0
  0
SCALE
  5
85DB
102
{ACAD_REACTORS
330
85D3
102
}
330
85D3
100
AcDbScale
 70
     0
300
1:20
140
1.0
141
20.0
290
     0
  0
SCALE
  5
85DC
102
{ACAD_REACTORS
330
85D3
102
}
330
85D3
100
AcDbScale
 70
     0
300
1:30
140
1.0
141
30.0
290
     0
  0
SCALE
  5
85DD
102
{ACAD_REACTORS
330
85D3
102
}
330
85D3
100
AcDbScale
 70
     0
300
1:40
140
1.0
141
40.0
290
     0
  0
SCALE
  5
85DE
102
{ACAD_REACTORS
330
85D3
102
}
330
85D3
100
AcDbScale
 70
     0
300
1:50
140
1.0
141
50.0
290
     0
  0
SCALE
  5
85DF
102
{ACAD_REACTORS
330
85D3
102
}
330
85D3
100
AcDbScale
 70
     0
300
1:100
140
1.0
141
100.0
290
     0
  0
SCALE
  5
85E0
102
{ACAD_REACTORS
330
85D3
102
}
330
85D3
100
AcDbScale
 70
     0
300
2:1
140
2.0
141
1.0
290
     0
  0
SCALE
  5
85E1
102
{ACAD_REACTORS
330
85D3
102
}
330
85D3
100
AcDbScale
 70
     0
300
4:1
140
4.0
141
1.0
290
     0
  0
SCALE
  5
85E2
102
{ACAD_REACTORS
330
85D3
102
}
330
85D3
100
AcDbScale
 70
     0
300
8:1
140
8.0
141
1.0
290
     0
  0
SCALE
  5
85E3
102
{ACAD_REACTORS
330
85D3
102
}
330
85D3
100
AcDbScale
 70
     0
300
10:1
140
10.0
141
1.0
290
     0
  0
SCALE
  5
85E4
102
{ACAD_REACTORS
330
85D3
102
}
330
85D3
100
AcDbScale
 70
     0
300
100:1
140
100.0
141
1.0
290
     0
  0
ACDBSECTIONVIEWSTYLE
  5
85E8
102
{ACAD_XDICTIONARY
360
863E
102
}
102
{ACAD_REACTORS
330
85E7
102
}
330
85E7
100
AcDbModelDocViewStyle
 70
     0
  3
Metric50
290
     0
100
AcDbSectionViewStyle
 70
     0
 71
     0
 90
      102
 71
     1
340
10
 62
   256
 40
5.0
340
0
340
0
 62
   256
 40
5.0
300
I, O, Q, S, X, Z
 40
10.0
 90
        0
 40
2.5
 90
        0
 71
     2
340
15
 90
       25
 62
   256
340
15
 90
       50
 62
   256
 40
5.0
 40
2.5
 40
5.0
 71
     3
340
10
 62
   256
 40
5.0
 90
        0
 40
15.0
 90
        1
300
%<\AcVar ViewSectionStartId>%-%<\AcVar ViewSectionEndId>% (%<\AcVar ViewScale \f "%sn">%)
 71
     4
 62
   256
 62
   257
300
ANSI31
 40
1.0
 90
        0
290
     0
290
     0
 90
        6
 40
0.0
 40
1.570796326794896
 40
0.2617993877991494
 40
1.308996938995747
 40
-0.2617993877991494
 40
1.832595714594046
  0
TABLESTYLE
  5
85D2
102
{ACAD_XDICTIONARY
360
8633
102
}
102
{ACAD_REACTORS
330
85D1
102
}
330
85D1
100
AcDbTableStyle
280
     0
  3
Standard
 70
     0
 71
     0
 40
1.5
 41
1.5
280
     0
281
     0
  7
STANDARD
140
4.5
170
     2
 62
     0
 63
     7
283
     0
 90
      512
 91
        0
  1

274
    -2
284
     1
 64
     0
275
    -2
285
     1
 65
     0
276
    -2
286
     1
 66
     0
277
    -2
287
     1
 67
     0
278
    -2
288
     1
 68
     0
279
    -2
289
     1
 69
     0
  7
STANDARD
140
6.0
170
     5
 62
     0
 63
     7
283
     0
 90
      512
 91
        0
  1

274
    -2
284
     1
 64
     0
275
    -2
285
     1
 65
     0
276
    -2
286
     1
 66
     0
277
    -2
287
     1
 67
     0
278
    -2
288
     1
 68
     0
279
    -2
289
     1
 69
     0
  7
STANDARD
140
4.5
170
     5
 62
     0
 63
     7
283
     0
 90
      512
 91
        0
  1

274
    -2
284
     1
 64
     0
275
    -2
285
     1
 65
     0
276
    -2
286
     1
 66
     0
277
    -2
287
     1
 67
     0
278
    -2
288
     1
 68
     0
279
    -2
289
     1
 69
     0
  0
VISUALSTYLE
  5
85BD
102
{ACAD_REACTORS
330
85B7
102
}
330
85B7
100
AcDbVisualStyle
  2
2dWireframe
 70
     4
177
     3
291
     0
 70
    58
 90
        0
176
     1
 90
        2
176
     1
 90
        0
176
     1
 90
        0
176
     1
 40
0.6
176
     1
 40
30.0
176
     1
 62
     7
420
 16777215
176
     1
 90
        1
176
     1
 90
        4
176
     1
 62
     7
176
     1
 62
   257
176
     1
 90
        1
176
     1
 90
        1
176
     1
 40
1.0
176
     1
 90
        0
176
     1
 62
   257
176
     1
 40
1.0
176
     1
 90
        1
176
     1
 90
        6
176
     1
 90
        2
176
     1
 62
     7
176
     1
 90
        5
176
     1
 90
        0
176
     1
 90
        0
176
     1
290
     0
176
     1
 90
        1
176
     1
 40
0.0
176
     1
 90
        0
176
     1
290
     1
176
     1
290
     1
176
     1
290
     0
176
     1
290
     0
176
     1
290
     0
176
     1
290
     0
176
     1
290
     0
176
     1
290
     0
176
     1
290
     0
176
     1
 90
       50
176
     1
 40
0.0
176
     1
 40
1.0
176
     1
 90
        0
176
     1
 62
    18
420
        0
176
     1
 90
       50
176
     1
 90
        3
176
     1
 62
     5
420
      255
176
     1
290
     0
176
     1
 90
       50
176
     1
 90
       50
176
     1
 90
       50
176
     1
290
     0
176
     1
 90
       50
176
     1
 62
   256
176
     0
 40
1.0
176
     0
 90
        2
176
     1
  1
strokes_ogs.tif
176
     1
290
     0
176
     1
 40
1.0
176
     1
 40
1.0
176
     1
1001
ACAD
1000
AcDbSavedByObjectVersion
1070
     0
  0
VISUALSTYLE
  5
85BC
102
{ACAD_REACTORS
330
85B7
102
}
330
85B7
100
AcDbVisualStyle
  2
Basic
 70
     7
177
     3
291
     1
 70
    58
 90
        1
176
     1
 90
        0
176
     1
 90
        1
176
     1
 90
        0
176
     1
 40
0.6
176
     1
 40
30.0
176
     1
 62
     7
420
 16777215
176
     1
 90
        0
176
     1
 90
        4
176
     1
 62
     7
176
     1
 62
   257
176
     1
 90
        1
176
     1
 90
        1
176
     1
 40
1.0
176
     1
 90
        8
176
     1
 62
     7
176
     1
 40
1.0
176
     1
 90
        1
176
     1
 90
        6
176
     1
 90
        2
176
     1
 62
     7
176
     1
 90
        5
176
     1
 90
        0
176
     1
 90
        0
176
     1
290
     0
176
     1
 90
        1
176
     1
 40
0.0
176
     1
 90
        0
176
     1
290
     0
176
     1
290
     1
176
     1
290
     1
176
     1
290
     0
176
     1
290
     0
176
     1
290
     0
176
     1
290
     0
176
     1
290
     0
176
     1
290
     0
176
     1
 90
       50
176
     1
 40
0.0
176
     1
 40
1.0
176
     1
 90
        0
176
     1
 62
    18
420
        0
176
     1
 90
       50
176
     1
 90
        3
176
     1
 62
     5
420
      255
176
     1
290
     0
176
     1
 90
       50
176
     1
 90
       50
176
     1
 90
       50
176
     1
290
     0
176
     1
 90
       50
176
     1
 62
   256
176
     0
 40
1.0
176
     0
 90
        2
176
     1
  1
strokes_ogs.tif
176
     1
290
     0
176
     1
 40
1.0
176
     1
 40
1.0
176
     1
1001
ACAD
1000
AcDbSavedByObjectVersion
1070
     0
  0
VISUALSTYLE
  5
85C3
102
{ACAD_REACTORS
330
85B7
102
}
330
85B7
100
AcDbVisualStyle
  2
Brighten
 70
    12
177
     3
291
     1
 70
    58
 90
        2
176
     1
 90
        2
176
     1
 90
        0
176
     1
 90
        0
176
     1
 40
0.6
176
     1
 40
30.0
176
     1
 62
     7
420
 16777215
176
     1
 90
        1
176
     1
 90
        4
176
     1
 62
     7
176
     1
 62
   257
176
     1
 90
        1
176
     1
 90
        1
176
     1
 40
1.0
176
     1
 90
        8
176
     1
 62
     7
176
     1
 40
1.0
176
     1
 90
        1
176
     1
 90
        6
176
     1
 90
        2
176
     1
 62
     7
176
     1
 90
        5
176
     1
 90
        0
176
     1
 90
        0
176
     1
290
     0
176
     1
 90
        1
176
     1
 40
50.0
176
     1
 90
        0
176
     1
290
     0
176
     1
290
     1
176
     1
290
     1
176
     1
290
     0
176
     1
290
     0
176
     1
290
     0
176
     1
290
     0
176
     1
290
     0
176
     1
290
     0
176
     1
 90
       50
176
     1
 40
0.0
176
     1
 40
1.0
176
     1
 90
        0
176
     1
 62
    18
420
        0
176
     1
 90
       50
176
     1
 90
        3
176
     1
 62
     5
420
      255
176
     1
290
     0
176
     1
 90
       50
176
     1
 90
       50
176
     1
 90
       50
176
     1
290
     0
176
     1
 90
       50
176
     1
 62
   256
176
     0
 40
1.0
176
     0
 90
        2
176
     1
  1
strokes_ogs.tif
176
     1
290
     0
176
     1
 40
1.0
176
     1
 40
1.0
176
     1
1001
ACAD
1000
AcDbSavedByObjectVersion
1070
     0
  0
VISUALSTYLE
  5
85C7
102
{ACAD_REACTORS
330
85B7
102
}
330
85B7
100
AcDbVisualStyle
  2
ColorChange
 70
    16
177
     3
291
     1
 70
    58
 90
        2
176
     1
 90
        2
176
     1
 90
        3
176
     1
 90
        0
176
     1
 40
0.6
176
     1
 40
30.0
176
     1
 62
     8
420
  8421504
176
     1
 90
        1
176
     1
 90
        4
176
     1
 62
     7
176
     1
 62
   257
176
     1
 90
        1
176
     1
 90
        1
176
     1
 40
1.0
176
     1
 90
        8
176
     1
 62
     8
420
  8421504
176
     1
 40
1.0
176
     1
 90
        1
176
     1
 90
        6
176
     1
 90
        2
176
     1
 62
     7
176
     1
 90
        5
176
     1
 90
        0
176
     1
 90
        0
176
     1
290
     0
176
     1
 90
        1
176
     1
 40
0.0
176
     1
 90
        0
176
     1
290
     0
176
     1
290
     1
176
     1
290
     1
176
     1
290
     0
176
     1
290
     0
176
     1
290
     0
176
     1
290
     0
176
     1
290
     0
176
     1
290
     0
176
     1
 90
       50
176
     1
 40
0.0
176
     1
 40
1.0
176
     1
 90
        0
176
     1
 62
    18
420
        0
176
     1
 90
       50
176
     1
 90
        3
176
     1
 62
     5
420
      255
176
     1
290
     0
176
     1
 90
       50
176
     1
 90
       50
176
     1
 90
       50
176
     1
290
     0
176
     1
 90
       50
176
     1
 62
   256
176
     0
 40
1.0
176
     0
 90
        2
176
     1
  1
strokes_ogs.tif
176
     1
290
     0
176
     1
 40
1.0
176
     1
 40
1.0
176
     1
1001
ACAD
1000
AcDbSavedByObjectVersion
1070
     0
  0
VISUALSTYLE
  5
85C0
102
{ACAD_REACTORS
330
85B7
102
}
330
85B7
100
AcDbVisualStyle
  2
Conceptual
 70
     9
177
     3
291
     0
 70
    58
 90
        3
176
     1
 90
        2
176
     1
 90
        0
176
     1
 90
        0
176
     1
 40
0.6
176
     1
 40
30.0
176
     1
 62
     7
420
 16777215
176
     1
 90
        2
176
     1
 90
        2
176
     1
 62
     7
176
     1
 62
   257
176
     1
 90
        1
176
     1
 90
        1
176
     1
 40
179.0
176
     1
 90
        8
176
     1
 62
     7
176
     1
 40
1.0
176
     1
 90
        1
176
     1
 90
        6
176
     1
 90
        2
176
     1
 62
     7
176
     1
 90
        3
176
     1
 90
        0
176
     1
 90
        0
176
     1
290
     0
176
     1
 90
        1
176
     1
 40
0.0
176
     1
 90
        0
176
     1
290
     0
176
     1
290
     1
176
     1
290
     1
176
     1
290
     0
176
     1
290
     0
176
     1
290
     0
176
     1
290
     0
176
     1
290
     0
176
     1
290
     0
176
     1
 90
       50
176
     1
 40
0.0
176
     1
 40
1.0
176
     1
 90
        0
176
     1
 62
    18
420
        0
176
     1
 90
       50
176
     1
 90
        3
176
     1
 62
     5
420
      255
176
     1
290
     0
176
     1
 90
       50
176
     1
 90
       50
176
     1
 90
       50
176
     1
290
     0
176
     1
 90
       50
176
     1
 62
   256
176
     0
 40
1.0
176
     0
 90
        2
176
     1
  1
strokes_ogs.tif
176
     1
290
     0
176
     1
 40
1.0
176
     1
 40
1.0
176
     1
1001
ACAD
1000
AcDbSavedByObjectVersion
1070
     0
  0
VISUALSTYLE
  5
85C2
102
{ACAD_REACTORS
330
85B7
102
}
330
85B7
100
AcDbVisualStyle
  2
Dim
 70
    11
177
     3
291
     1
 70
    58
 90
        2
176
     1
 90
        2
176
     1
 90
        0
176
     1
 90
        0
176
     1
 40
0.6
176
     1
 40
30.0
176
     1
 62
     7
420
 16777215
176
     1
 90
        1
176
     1
 90
        4
176
     1
 62
     7
176
     1
 62
   257
176
     1
 90
        1
176
     1
 90
        1
176
     1
 40
1.0
176
     1
 90
        8
176
     1
 62
     7
176
     1
 40
1.0
176
     1
 90
        1
176
     1
 90
        6
176
     1
 90
        2
176
     1
 62
     7
176
     1
 90
        5
176
     1
 90
        0
176
     1
 90
        0
176
     1
290
     0
176
     1
 90
        1
176
     1
 40
-50.0
176
     1
 90
        0
176
     1
290
     0
176
     1
290
     1
176
     1
290
     1
176
     1
290
     0
176
     1
290
     0
176
     1
290
     0
176
     1
290
     0
176
     1
290
     0
176
     1
290
     0
176
     1
 90
       50
176
     1
 40
0.0
176
     1
 40
1.0
176
     1
 90
        0
176
     1
 62
    18
420
        0
176
     1
 90
       50
176
     1
 90
        3
176
     1
 62
     5
420
      255
176
     1
290
     0
176
     1
 90
       50
176
     1
 90
       50
176
     1
 90
       50
176
     1
290
     0
176
     1
 90
       50
176
     1
 62
   256
176
     0
 40
1.0
176
     0
 90
        2
176
     1
  1
strokes_ogs.tif
176
     1
290
     0
176
     1
 40
1.0
176
     1
 40
1.0
176
     1
1001
ACAD
1000
AcDbSavedByObjectVersion
1070
     0
  0
VISUALSTYLE
  5
85CF
102
{ACAD_REACTORS
330
85B7
102
}
330
85B7
100
AcDbVisualStyle
  2
EdgeColorOff
 70
    22
177
     3
291
     1
 70
    58
 90
        2
176
     0
 90
        2
176
     0
 90
        0
176
     0
 90
        0
176
     0
 40
0.6
176
     0
 40
30.0
176
     0
 62
     7
420
 16777215
176
     0
 90
        1
176
     0
 90
        4
176
     0
 62
     7
176
     0
 62
   257
176
     0
 90
        1
176
     0
 90
        1
176
     0
 40
1.0
176
     0
 90
        8
176
     2
 62
     7
176
     0
 40
1.0
176
     0
 90
        1
176
     0
 90
        6
176
     0
 90
        2
176
     0
 62
     7
176
     0
 90
        5
176
     0
 90
        0
176
     0
 90
        0
176
     0
290
     0
176
     0
 90
        1
176
     0
 40
0.0
176
     0
 90
        0
176
     0
290
     0
176
     0
290
     1
176
     0
290
     1
176
     0
290
     0
176
     0
290
     0
176
     0
290
     0
176
     0
290
     0
176
     0
290
     0
176
     0
290
     0
176
     0
 90
       50
176
     0
 40
0.0
176
     0
 40
1.0
176
     0
 90
        0
176
     0
 62
    18
420
        0
176
     0
 90
       50
176
     0
 90
        3
176
     0
 62
     5
420
      255
176
     0
290
     0
176
     0
 90
       50
176
     0
 90
       50
176
     0
 90
       50
176
     0
290
     0
176
     0
 90
       50
176
     0
 62
   256
176
     0
 40
1.0
176
     0
 90
        2
176
     0
  1
strokes_ogs.tif
176
     0
290
     0
176
     0
 40
1.0
176
     0
 40
1.0
176
     0
1001
ACAD
1000
AcDbSavedByObjectVersion
1070
     0
  0
VISUALSTYLE
  5
85C6
102
{ACAD_REACTORS
330
85B7
102
}
330
85B7
100
AcDbVisualStyle
  2
Facepattern
 70
    15
177
     3
291
     1
 70
    58
 90
        2
176
     1
 90
        2
176
     1
 90
        0
176
     1
 90
        0
176
     1
 40
0.6
176
     1
 40
30.0
176
     1
 62
     7
420
 16777215
176
     1
 90
        1
176
     1
 90
        4
176
     1
 62
     7
176
     1
 62
   257
176
     1
 90
        1
176
     1
 90
        1
176
     1
 40
1.0
176
     1
 90
        8
176
     1
 62
     7
176
     1
 40
1.0
176
     1
 90
        1
176
     1
 90
        6
176
     1
 90
        2
176
     1
 62
     7
176
     1
 90
        5
176
     1
 90
        0
176
     1
 90
        0
176
     1
290
     0
176
     1
 90
        1
176
     1
 40
0.0
176
     1
 90
        0
176
     1
290
     0
176
     1
290
     1
176
     1
290
     1
176
     1
290
     0
176
     1
290
     0
176
     1
290
     0
176
     1
290
     0
176
     1
290
     0
176
     1
290
     0
176
     1
 90
       50
176
     1
 40
0.0
176
     1
 40
1.0
176
     1
 90
        0
176
     1
 62
    18
420
        0
176
     1
 90
       50
176
     1
 90
        3
176
     1
 62
     5
420
      255
176
     1
290
     0
176
     1
 90
       50
176
     1
 90
       50
176
     1
 90
       50
176
     1
290
     0
176
     1
 90
       50
176
     1
 62
   256
176
     0
 40
1.0
176
     0
 90
        2
176
     1
  1
strokes_ogs.tif
176
     1
290
     0
176
     1
 40
1.0
176
     1
 40
1.0
176
     1
1001
ACAD
1000
AcDbSavedByObjectVersion
1070
     0
  0
VISUALSTYLE
  5
85B8
102
{ACAD_REACTORS
330
85B7
102
}
330
85B7
100
AcDbVisualStyle
  2
Flat
 70
     0
177
     3
291
     1
 70
    58
 90
        2
176
     1
 90
        1
176
     1
 90
        1
176
     1
 90
        2
176
     1
 40
0.6
176
     1
 40
30.0
176
     1
 62
     7
420
 16777215
176
     1
 90
        0
176
     1
 90
        0
176
     1
 62
     7
176
     1
 62
   257
176
     1
 90
        1
176
     1
 90
        1
176
     1
 40
1.0
176
     1
 90
        8
176
     1
 62
     7
176
     1
 40
1.0
176
     1
 90
        1
176
     1
 90
        6
176
     1
 90
        2
176
     1
 62
     7
176
     1
 90
        5
176
     1
 90
        0
176
     1
 90
        0
176
     1
290
     0
176
     1
 90
       13
176
     1
 40
0.0
176
     1
 90
        0
176
     1
290
     0
176
     1
290
     1
176
     1
290
     1
176
     1
290
     0
176
     1
290
     0
176
     1
290
     0
176
     1
290
     0
176
     1
290
     0
176
     1
290
     0
176
     1
 90
       50
176
     1
 40
0.0
176
     1
 40
1.0
176
     1
 90
        0
176
     1
 62
    18
420
        0
176
     1
 90
       50
176
     1
 90
        3
176
     1
 62
     5
420
      255
176
     1
290
     0
176
     1
 90
       50
176
     1
 90
       50
176
     1
 90
       50
176
     1
290
     0
176
     1
 90
       50
176
     1
 62
   256
176
     0
 40
1.0
176
     0
 90
        2
176
     1
  1
strokes_ogs.tif
176
     1
290
     0
176
     1
 40
1.0
176
     1
 40
1.0
176
     1
1001
ACAD
1000
AcDbSavedByObjectVersion
1070
     0
  0
VISUALSTYLE
  5
85B9
102
{ACAD_REACTORS
330
85B7
102
}
330
85B7
100
AcDbVisualStyle
  2
FlatWithEdges
 70
     1
177
     3
291
     1
 70
    58
 90
        2
176
     1
 90
        1
176
     1
 90
        1
176
     1
 90
        2
176
     1
 40
0.6
176
     1
 40
30.0
176
     1
 62
     7
420
 16777215
176
     1
 90
        1
176
     1
 90
        0
176
     1
 62
     7
176
     1
 62
   257
176
     1
 90
        1
176
     1
 90
        1
176
     1
 40
1.0
176
     1
 90
        0
176
     1
 62
   257
176
     1
 40
1.0
176
     1
 90
        1
176
     1
 90
        6
176
     1
 90
        2
176
     1
 62
     7
176
     1
 90
        5
176
     1
 90
        0
176
     1
 90
        0
176
     1
290
     0
176
     1
 90
       13
176
     1
 40
0.0
176
     1
 90
        0
176
     1
290
     0
176
     1
290
     1
176
     1
290
     1
176
     1
290
     0
176
     1
290
     0
176
     1
290
     0
176
     1
290
     0
176
     1
290
     0
176
     1
290
     0
176
     1
 90
       50
176
     1
 40
0.0
176
     1
 40
1.0
176
     1
 90
        0
176
     1
 62
    18
420
        0
176
     1
 90
       50
176
     1
 90
        3
176
     1
 62
     5
420
      255
176
     1
290
     0
176
     1
 90
       50
176
     1
 90
       50
176
     1
 90
       50
176
     1
290
     0
176
     1
 90
       50
176
     1
 62
   256
176
     0
 40
1.0
176
     0
 90
        2
176
     1
  1
strokes_ogs.tif
176
     1
290
     0
176
     1
 40
1.0
176
     1
 40
1.0
176
     1
1001
ACAD
1000
AcDbSavedByObjectVersion
1070
     0
  0
VISUALSTYLE
  5
85BA
102
{ACAD_REACTORS
330
85B7
102
}
330
85B7
100
AcDbVisualStyle
  2
Gouraud
 70
     2
177
     3
291
     1
 70
    58
 90
        2
176
     1
 90
        2
176
     1
 90
        1
176
     1
 90
        2
176
     1
 40
0.6
176
     1
 40
30.0
176
     1
 62
     7
420
 16777215
176
     1
 90
        0
176
     1
 90
        0
176
     1
 62
     7
176
     1
 62
   257
176
     1
 90
        1
176
     1
 90
        1
176
     1
 40
1.0
176
     1
 90
        0
176
     1
 62
     7
176
     1
 40
1.0
176
     1
 90
        1
176
     1
 90
        6
176
     1
 90
        2
176
     1
 62
     7
176
     1
 90
        5
176
     1
 90
        0
176
     1
 90
        0
176
     1
290
     0
176
     1
 90
       13
176
     1
 40
0.0
176
     1
 90
        0
176
     1
290
     0
176
     1
290
     1
176
     1
290
     1
176
     1
290
     0
176
     1
290
     0
176
     1
290
     0
176
     1
290
     0
176
     1
290
     0
176
     1
290
     0
176
     1
 90
       50
176
     1
 40
0.0
176
     1
 40
1.0
176
     1
 90
        0
176
     1
 62
    18
420
        0
176
     1
 90
       50
176
     1
 90
        3
176
     1
 62
     5
420
      255
176
     1
290
     0
176
     1
 90
       50
176
     1
 90
       50
176
     1
 90
       50
176
     1
290
     0
176
     1
 90
       50
176
     1
 62
   256
176
     0
 40
1.0
176
     0
 90
        2
176
     1
  1
strokes_ogs.tif
176
     1
290
     0
176
     1
 40
1.0
176
     1
 40
1.0
176
     1
1001
ACAD
1000
AcDbSavedByObjectVersion
1070
     0
  0
VISUALSTYLE
  5
85BB
102
{ACAD_REACTORS
330
85B7
102
}
330
85B7
100
AcDbVisualStyle
  2
GouraudWithEdges
 70
     3
177
     3
291
     1
 70
    58
 90
        2
176
     1
 90
        2
176
     1
 90
        1
176
     1
 90
        2
176
     1
 40
0.6
176
     1
 40
30.0
176
     1
 62
     7
420
 16777215
176
     1
 90
        1
176
     1
 90
        0
176
     1
 62
     7
176
     1
 62
   257
176
     1
 90
        1
176
     1
 90
        1
176
     1
 40
1.0
176
     1
 90
        0
176
     1
 62
   257
176
     1
 40
1.0
176
     1
 90
        1
176
     1
 90
        6
176
     1
 90
        2
176
     1
 62
     7
176
     1
 90
        5
176
     1
 90
        0
176
     1
 90
        0
176
     1
290
     0
176
     1
 90
       13
176
     1
 40
0.0
176
     1
 90
        0
176
     1
290
     0
176
     1
290
     1
176
     1
290
     1
176
     1
290
     0
176
     1
290
     0
176
     1
290
     0
176
     1
290
     0
176
     1
290
     0
176
     1
290
     0
176
     1
 90
       50
176
     1
 40
0.0
176
     1
 40
1.0
176
     1
 90
        0
176
     1
 62
    18
420
        0
176
     1
 90
       50
176
     1
 90
        3
176
     1
 62
     5
420
      255
176
     1
290
     0
176
     1
 90
       50
176
     1
 90
       50
176
     1
 90
       50
176
     1
290
     0
176
     1
 90
       50
176
     1
 62
   256
176
     0
 40
1.0
176
     0
 90
        2
176
     1
  1
strokes_ogs.tif
176
     1
290
     0
176
     1
 40
1.0
176
     1
 40
1.0
176
     1
1001
ACAD
1000
AcDbSavedByObjectVersion
1070
     0
  0
VISUALSTYLE
  5
85BF
102
{ACAD_REACTORS
330
85B7
102
}
330
85B7
100
AcDbVisualStyle
  2
Hidden
 70
     6
177
     3
291
     0
 70
    58
 90
        1
176
     1
 90
        2
176
     1
 90
        2
176
     1
 90
        0
176
     1
 40
0.6
176
     1
 40
30.0
176
     1
 62
     7
420
 16777215
176
     1
 90
        2
176
     1
 90
        2
176
     1
 62
     7
176
     1
 62
   257
176
     1
 90
        2
176
     1
 90
        1
176
     1
 40
40.0
176
     1
 90
        0
176
     1
 62
   257
176
     1
 40
1.0
176
     1
 90
        1
176
     1
 90
        6
176
     1
 90
        2
176
     1
 62
     7
176
     1
 90
        3
176
     1
 90
        0
176
     1
 90
        0
176
     1
290
     0
176
     1
 90
        1
176
     1
 40
0.0
176
     1
 90
        0
176
     1
290
     0
176
     1
290
     1
176
     1
290
     1
176
     1
290
     0
176
     1
290
     0
176
     1
290
     0
176
     1
290
     0
176
     1
290
     0
176
     1
290
     0
176
     1
 90
       50
176
     1
 40
0.0
176
     1
 40
1.0
176
     1
 90
        0
176
     1
 62
    18
420
        0
176
     1
 90
       50
176
     1
 90
        3
176
     1
 62
     5
420
      255
176
     1
290
     0
176
     1
 90
       50
176
     1
 90
       50
176
     1
 90
       50
176
     1
290
     0
176
     1
 90
       50
176
     1
 62
   256
176
     0
 40
1.0
176
     0
 90
        2
176
     1
  1
strokes_ogs.tif
176
     1
290
     0
176
     1
 40
1.0
176
     1
 40
1.0
176
     1
1001
ACAD
1000
AcDbSavedByObjectVersion
1070
     0
  0
VISUALSTYLE
  5
85CD
102
{ACAD_REACTORS
330
85B7
102
}
330
85B7
100
AcDbVisualStyle
  2
JitterOff
 70
    20
177
     3
291
     1
 70
    58
 90
        2
176
     0
 90
        2
176
     0
 90
        0
176
     0
 90
        0
176
     0
 40
0.6
176
     0
 40
30.0
176
     0
 62
     7
420
 16777215
176
     0
 90
        1
176
     0
 90
        4
176
     0
 62
     7
176
     0
 62
   257
176
     0
 90
        1
176
     0
 90
        1
176
     0
 40
1.0
176
     0
 90
       10
176
     2
 62
     7
176
     0
 40
1.0
176
     0
 90
        1
176
     0
 90
        6
176
     0
 90
        2
176
     0
 62
     7
176
     0
 90
        5
176
     0
 90
        0
176
     0
 90
        0
176
     0
290
     0
176
     0
 90
        1
176
     0
 40
0.0
176
     0
 90
        0
176
     0
290
     0
176
     0
290
     1
176
     0
290
     1
176
     0
290
     0
176
     0
290
     0
176
     0
290
     0
176
     0
290
     0
176
     0
290
     0
176
     0
290
     0
176
     0
 90
       50
176
     0
 40
0.0
176
     0
 40
1.0
176
     0
 90
        0
176
     0
 62
    18
420
        0
176
     0
 90
       50
176
     0
 90
        3
176
     0
 62
     5
420
      255
176
     0
290
     0
176
     0
 90
       50
176
     0
 90
       50
176
     0
 90
       50
176
     0
290
     0
176
     0
 90
       50
176
     0
 62
   256
176
     0
 40
1.0
176
     0
 90
        2
176
     0
  1
strokes_ogs.tif
176
     0
290
     0
176
     0
 40
1.0
176
     0
 40
1.0
176
     0
1001
ACAD
1000
AcDbSavedByObjectVersion
1070
     0
  0
VISUALSTYLE
  5
85C5
102
{ACAD_REACTORS
330
85B7
102
}
330
85B7
100
AcDbVisualStyle
  2
Linepattern
 70
    14
177
     3
291
     1
 70
    58
 90
        2
176
     1
 90
        2
176
     1
 90
        0
176
     1
 90
        0
176
     1
 40
0.6
176
     1
 40
30.0
176
     1
 62
     7
420
 16777215
176
     1
 90
        1
176
     1
 90
        4
176
     1
 62
     7
176
     1
 62
   257
176
     1
 90
        7
176
     1
 90
        7
176
     1
 40
1.0
176
     1
 90
        8
176
     1
 62
     7
176
     1
 40
1.0
176
     1
 90
        1
176
     1
 90
        6
176
     1
 90
        2
176
     1
 62
     7
176
     1
 90
        5
176
     1
 90
        0
176
     1
 90
        0
176
     1
290
     0
176
     1
 90
        1
176
     1
 40
0.0
176
     1
 90
        0
176
     1
290
     0
176
     1
290
     1
176
     1
290
     1
176
     1
290
     0
176
     1
290
     0
176
     1
290
     0
176
     1
290
     0
176
     1
290
     0
176
     1
290
     0
176
     1
 90
       50
176
     1
 40
0.0
176
     1
 40
1.0
176
     1
 90
        0
176
     1
 62
    18
420
        0
176
     1
 90
       50
176
     1
 90
        3
176
     1
 62
     5
420
      255
176
     1
290
     0
176
     1
 90
       50
176
     1
 90
       50
176
     1
 90
       50
176
     1
290
     0
176
     1
 90
       50
176
     1
 62
   256
176
     0
 40
1.0
176
     0
 90
        2
176
     1
  1
strokes_ogs.tif
176
     1
290
     0
176
     1
 40
1.0
176
     1
 40
1.0
176
     1
1001
ACAD
1000
AcDbSavedByObjectVersion
1070
     0
  0
VISUALSTYLE
  5
85CE
102
{ACAD_REACTORS
330
85B7
102
}
330
85B7
100
AcDbVisualStyle
  2
OverhangOff
 70
    21
177
     3
291
     1
 70
    58
 90
        2
176
     0
 90
        2
176
     0
 90
        0
176
     0
 90
        0
176
     0
 40
0.6
176
     0
 40
30.0
176
     0
 62
     7
420
 16777215
176
     0
 90
        1
176
     0
 90
        4
176
     0
 62
     7
176
     0
 62
   257
176
     0
 90
        1
176
     0
 90
        1
176
     0
 40
1.0
176
     0
 90
        9
176
     2
 62
     7
176
     0
 40
1.0
176
     0
 90
        1
176
     0
 90
        6
176
     0
 90
        2
176
     0
 62
     7
176
     0
 90
        5
176
     0
 90
        0
176
     0
 90
        0
176
     0
290
     0
176
     0
 90
        1
176
     0
 40
0.0
176
     0
 90
        0
176
     0
290
     0
176
     0
290
     1
176
     0
290
     1
176
     0
290
     0
176
     0
290
     0
176
     0
290
     0
176
     0
290
     0
176
     0
290
     0
176
     0
290
     0
176
     0
 90
       50
176
     0
 40
0.0
176
     0
 40
1.0
176
     0
 90
        0
176
     0
 62
    18
420
        0
176
     0
 90
       50
176
     0
 90
        3
176
     0
 62
     5
420
      255
176
     0
290
     0
176
     0
 90
       50
176
     0
 90
       50
176
     0
 90
       50
176
     0
290
     0
176
     0
 90
       50
176
     0
 62
   256
176
     0
 40
1.0
176
     0
 90
        2
176
     0
  1
strokes_ogs.tif
176
     0
290
     0
176
     0
 40
1.0
176
     0
 40
1.0
176
     0
1001
ACAD
1000
AcDbSavedByObjectVersion
1070
     0
  0
VISUALSTYLE
  5
85C1
102
{ACAD_REACTORS
330
85B7
102
}
330
85B7
100
AcDbVisualStyle
  2
Realistic
 70
     8
177
     3
291
     0
 70
    58
 90
        2
176
     1
 90
        3
176
     1
 90
        0
176
     1
 90
        2
176
     1
 40
0.6
176
     1
 40
30.0
176
     1
 62
     7
420
 16777215
176
     1
 90
        0
176
     1
 90
        0
176
     1
 62
     7
176
     1
 62
   257
176
     1
 90
        1
176
     1
 90
        1
176
     1
 40
1.0
176
     1
 90
        8
176
     1
 62
   257
176
     1
 40
1.0
176
     1
 90
        1
176
     1
 90
        6
176
     1
 90
        2
176
     1
 62
     7
176
     1
 90
        3
176
     1
 90
        0
176
     1
 90
        0
176
     1
290
     0
176
     1
 90
       13
176
     1
 40
0.0
176
     1
 90
        0
176
     1
290
     0
176
     1
290
     1
176
     1
290
     1
176
     1
290
     0
176
     1
290
     0
176
     1
290
     0
176
     1
290
     0
176
     1
290
     0
176
     1
290
     0
176
     1
 90
       50
176
     1
 40
0.0
176
     1
 40
1.0
176
     1
 90
        0
176
     1
 62
    18
420
        0
176
     1
 90
       50
176
     1
 90
        3
176
     1
 62
     5
420
      255
176
     1
290
     0
176
     1
 90
       50
176
     1
 90
       50
176
     1
 90
       50
176
     1
290
     0
176
     1
 90
       50
176
     1
 62
   256
176
     0
 40
1.0
176
     0
 90
        2
176
     1
  1
strokes_ogs.tif
176
     1
290
     0
176
     1
 40
1.0
176
     1
 40
1.0
176
     1
1001
ACAD
1000
AcDbSavedByObjectVersion
1070
     0
  0
VISUALSTYLE
  5
85CC
102
{ACAD_REACTORS
330
85B7
102
}
330
85B7
100
AcDbVisualStyle
  2
Shaded
 70
    27
177
     3
291
     0
 70
    58
 90
        2
176
     1
 90
        2
176
     1
 90
        1
176
     1
 90
        2
176
     1
 40
0.6
176
     1
 40
30.0
176
     1
 62
     7
420
 16777215
176
     1
 90
        0
176
     1
 90
        4
176
     1
 62
     7
176
     1
 62
   257
176
     1
 90
        1
176
     1
 90
        1
176
     1
 40
1.0
176
     1
 90
        8
176
     1
 62
   257
176
     1
 40
1.0
176
     1
 90
        1
176
     1
 90
        6
176
     1
 90
        2
176
     1
 62
     8
420
  7895160
176
     1
 90
        3
176
     1
 90
        0
176
     1
 90
        0
176
     1
290
     0
176
     1
 90
        5
176
     1
 40
0.0
176
     1
 90
        0
176
     1
290
     0
176
     1
290
     1
176
     1
290
     1
176
     1
290
     0
176
     1
290
     0
176
     1
290
     0
176
     1
290
     0
176
     1
290
     0
176
     1
290
     0
176
     1
 90
       50
176
     1
 40
0.0
176
     1
 40
1.0
176
     1
 90
        0
176
     1
 62
    18
420
        0
176
     1
 90
       50
176
     1
 90
        3
176
     1
 62
     5
420
      255
176
     1
290
     0
176
     1
 90
       50
176
     1
 90
       50
176
     1
 90
       50
176
     1
290
     0
176
     1
 90
       50
176
     1
 62
   256
176
     0
 40
1.0
176
     0
 90
        2
176
     1
  1
strokes_ogs.tif
176
     1
290
     0
176
     1
 40
1.0
176
     1
 40
1.0
176
     1
1001
ACAD
1000
AcDbSavedByObjectVersion
1070
     0
  0
VISUALSTYLE
  5
85CB
102
{ACAD_REACTORS
330
85B7
102
}
330
85B7
100
AcDbVisualStyle
  2
Shaded with edges
 70
    26
177
     3
291
     0
 70
    58
 90
        2
176
     1
 90
        2
176
     1
 90
        1
176
     1
 90
        2
176
     1
 40
0.6
176
     1
 40
30.0
176
     1
 62
     7
420
 16777215
176
     1
 90
        1
176
     1
 90
        2
176
     1
 62
     7
176
     1
 62
   257
176
     1
 90
        2
176
     1
 90
        1
176
     1
 40
1.0
176
     1
 90
        8
176
     1
 62
   257
176
     1
 40
1.0
176
     1
 90
        1
176
     1
 90
        6
176
     1
 90
        2
176
     1
 62
     7
176
     1
 90
        3
176
     1
 90
        0
176
     1
 90
        0
176
     1
290
     0
176
     1
 90
        5
176
     1
 40
0.0
176
     1
 90
        0
176
     1
290
     0
176
     1
290
     1
176
     1
290
     1
176
     1
290
     0
176
     1
290
     0
176
     1
290
     0
176
     1
290
     0
176
     1
290
     0
176
     1
290
     0
176
     1
 90
       50
176
     1
 40
0.0
176
     1
 40
1.0
176
     1
 90
        0
176
     1
 62
    18
420
        0
176
     1
 90
       50
176
     1
 90
        3
176
     1
 62
     5
420
      255
176
     1
290
     0
176
     1
 90
       50
176
     1
 90
       50
176
     1
 90
       50
176
     1
290
     0
176
     1
 90
       50
176
     1
 62
   256
176
     0
 40
1.0
176
     0
 90
        2
176
     1
  1
strokes_ogs.tif
176
     1
290
     0
176
     1
 40
1.0
176
     1
 40
1.0
176
     1
1001
ACAD
1000
AcDbSavedByObjectVersion
1070
     0
  0
VISUALSTYLE
  5
85C8
102
{ACAD_REACTORS
330
85B7
102
}
330
85B7
100
AcDbVisualStyle
  2
Shades of Gray
 70
    23
177
     3
291
     0
 70
    58
 90
        2
176
     1
 90
        2
176
     1
 90
        3
176
     1
 90
        0
176
     1
 40
0.6
176
     1
 40
30.0
176
     1
 62
     7
420
 16777215
176
     1
 90
        2
176
     1
 90
        2
176
     1
 62
     7
176
     1
 62
     7
176
     1
 90
        1
176
     1
 90
        1
176
     1
 40
40.0
176
     1
 90
        8
176
     1
 62
     7
176
     1
 40
1.0
176
     1
 90
        1
176
     1
 90
        6
176
     1
 90
        2
176
     1
 62
     7
176
     1
 90
        3
176
     1
 90
        0
176
     1
 90
        0
176
     1
290
     0
176
     1
 90
        1
176
     1
 40
0.0
176
     1
 90
        0
176
     1
290
     0
176
     1
290
     1
176
     1
290
     1
176
     1
290
     0
176
     1
290
     0
176
     1
290
     0
176
     1
290
     0
176
     1
290
     0
176
     1
290
     0
176
     1
 90
       50
176
     1
 40
0.0
176
     1
 40
1.0
176
     1
 90
        0
176
     1
 62
    18
420
        0
176
     1
 90
       50
176
     1
 90
        3
176
     1
 62
     5
420
      255
176
     1
290
     0
176
     1
 90
       50
176
     1
 90
       50
176
     1
 90
       50
176
     1
290
     0
176
     1
 90
       50
176
     1
 62
   256
176
     0
 40
1.0
176
     0
 90
        2
176
     1
  1
strokes_ogs.tif
176
     1
290
     0
176
     1
 40
1.0
176
     1
 40
1.0
176
     1
1001
ACAD
1000
AcDbSavedByObjectVersion
1070
     0
  0
VISUALSTYLE
  5
85C9
102
{ACAD_REACTORS
330
85B7
102
}
330
85B7
100
AcDbVisualStyle
  2
Sketchy
 70
    24
177
     3
291
     0
 70
    58
 90
        1
176
     1
 90
        2
176
     1
 90
        2
176
     1
 90
        0
176
     1
 40
0.6
176
     1
 40
30.0
176
     1
 62
     7
420
 16777215
176
     1
 90
        2
176
     1
 90
        2
176
     1
 62
     7
176
     1
 62
     7
176
     1
 90
        1
176
     1
 90
        1
176
     1
 40
40.0
176
     1
 90
       11
176
     1
 62
     7
176
     1
 40
1.0
176
     1
 90
        1
176
     1
 90
        6
176
     1
 90
        2
176
     1
 62
     7
176
     1
 90
        6
176
     1
 90
        0
176
     1
 90
        0
176
     1
290
     0
176
     1
 90
        1
176
     1
 40
0.0
176
     1
 90
        0
176
     1
290
     0
176
     1
290
     1
176
     1
290
     1
176
     1
290
     0
176
     1
290
     0
176
     1
290
     0
176
     1
290
     0
176
     1
290
     0
176
     1
290
     0
176
     1
 90
       50
176
     1
 40
0.0
176
     1
 40
1.0
176
     1
 90
        0
176
     1
 62
    18
420
        0
176
     1
 90
       50
176
     1
 90
        3
176
     1
 62
     5
420
      255
176
     1
290
     0
176
     1
 90
       50
176
     1
 90
       50
176
     1
 90
       50
176
     1
290
     0
176
     1
 90
       50
176
     1
 62
   256
176
     0
 40
1.0
176
     0
 90
        2
176
     1
  1
strokes_ogs.tif
176
     1
290
     0
176
     1
 40
1.0
176
     1
 40
1.0
176
     1
1001
ACAD
1000
AcDbSavedByObjectVersion
1070
     0
  0
VISUALSTYLE
  5
85C4
102
{ACAD_REACTORS
330
85B7
102
}
330
85B7
100
AcDbVisualStyle
  2
Thicken
 70
    13
177
     3
291
     1
 70
    58
 90
        2
176
     1
 90
        2
176
     1
 90
        0
176
     1
 90
        0
176
     1
 40
0.6
176
     1
 40
30.0
176
     1
 62
     7
420
 16777215
176
     1
 90
        1
176
     1
 90
        4
176
     1
 62
     7
176
     1
 62
   257
176
     1
 90
        1
176
     1
 90
        1
176
     1
 40
1.0
176
     1
 90
       12
176
     1
 62
     7
176
     1
 40
1.0
176
     1
 90
        1
176
     1
 90
        6
176
     1
 90
        2
176
     1
 62
     7
176
     1
 90
        5
176
     1
 90
        0
176
     1
 90
        0
176
     1
290
     0
176
     1
 90
        1
176
     1
 40
0.0
176
     1
 90
        0
176
     1
290
     0
176
     1
290
     1
176
     1
290
     1
176
     1
290
     0
176
     1
290
     0
176
     1
290
     0
176
     1
290
     0
176
     1
290
     0
176
     1
290
     0
176
     1
 90
       50
176
     1
 40
0.0
176
     1
 40
1.0
176
     1
 90
        0
176
     1
 62
    18
420
        0
176
     1
 90
       50
176
     1
 90
        3
176
     1
 62
     5
420
      255
176
     1
290
     0
176
     1
 90
       50
176
     1
 90
       50
176
     1
 90
       50
176
     1
290
     0
176
     1
 90
       50
176
     1
 62
   256
176
     0
 40
1.0
176
     0
 90
        2
176
     1
  1
strokes_ogs.tif
176
     1
290
     0
176
     1
 40
1.0
176
     1
 40
1.0
176
     1
1001
ACAD
1000
AcDbSavedByObjectVersion
1070
     0
  0
VISUALSTYLE
  5
85BE
102
{ACAD_REACTORS
330
85B7
102
}
330
85B7
100
AcDbVisualStyle
  2
Wireframe
 70
     5
177
     3
291
     0
 70
    58
 90
        0
176
     1
 90
        2
176
     1
 90
        0
176
     1
 90
        0
176
     1
 40
0.6
176
     1
 40
30.0
176
     1
 62
     7
420
 16777215
176
     1
 90
        1
176
     1
 90
        4
176
     1
 62
     7
176
     1
 62
   257
176
     1
 90
        1
176
     1
 90
        1
176
     1
 40
1.0
176
     1
 90
        0
176
     1
 62
   257
176
     1
 40
1.0
176
     1
 90
        1
176
     1
 90
        6
176
     1
 90
        2
176
     1
 62
     7
176
     1
 90
        3
176
     1
 90
        0
176
     1
 90
        0
176
     1
290
     0
176
     1
 90
        1
176
     1
 40
0.0
176
     1
 90
        0
176
     1
290
     0
176
     1
290
     1
176
     1
290
     1
176
     1
290
     0
176
     1
290
     0
176
     1
290
     0
176
     1
290
     0
176
     1
290
     0
176
     1
290
     0
176
     1
 90
       50
176
     1
 40
0.0
176
     1
 40
1.0
176
     1
 90
        0
176
     1
 62
    18
420
        0
176
     1
 90
       50
176
     1
 90
        3
176
     1
 62
     5
420
      255
176
     1
290
     0
176
     1
 90
       50
176
     1
 90
       50
176
     1
 90
       50
176
     1
290
     0
176
     1
 90
       50
176
     1
 62
   256
176
     0
 40
1.0
176
     0
 90
        2
176
     1
  1
strokes_ogs.tif
176
     1
290
     0
176
     1
 40
1.0
176
     1
 40
1.0
176
     1
1001
ACAD
1000
AcDbSavedByObjectVersion
1070
     0
  0
VISUALSTYLE
  5
85CA
102
{ACAD_REACTORS
330
85B7
102
}
330
85B7
100
AcDbVisualStyle
  2
X-Ray
 70
    25
177
     3
291
     0
 70
    58
 90
        2
176
     1
 90
        2
176
     1
 90
        1
176
     1
 90
        1
176
     1
 40
0.5
176
     1
 40
30.0
176
     1
 62
     7
420
 16777215
176
     1
 90
        1
176
     1
 90
        0
176
     1
 62
     7
176
     1
 62
   257
176
     1
 90
        1
176
     1
 90
        1
176
     1
 40
1.0
176
     1
 90
        8
176
     1
 62
     7
176
     1
 40
1.0
176
     1
 90
        1
176
     1
 90
        6
176
     1
 90
        2
176
     1
 62
     7
176
     1
 90
        3
176
     1
 90
        0
176
     1
 90
        0
176
     1
290
     0
176
     1
 90
       13
176
     1
 40
0.0
176
     1
 90
        0
176
     1
290
     0
176
     1
290
     1
176
     1
290
     1
176
     1
290
     0
176
     1
290
     0
176
     1
290
     0
176
     1
290
     0
176
     1
290
     0
176
     1
290
     0
176
     1
 90
       50
176
     1
 40
0.0
176
     1
 40
1.0
176
     1
 90
        0
176
     1
 62
    18
420
        0
176
     1
 90
       50
176
     1
 90
        3
176
     1
 62
     5
420
      255
176
     1
290
     0
176
     1
 90
       50
176
     1
 90
       50
176
     1
 90
       50
176
     1
290
     0
176
     1
 90
       50
176
     1
 62
   256
176
     0
 40
1.0
176
     0
 90
        2
176
     1
  1
strokes_ogs.tif
176
     1
290
     0
176
     1
 40
1.0
176
     1
 40
1.0
176
     1
1001
ACAD
1000
AcDbSavedByObjectVersion
1070
     0
  0
DICTIONARYVAR
  5
862A
102
{ACAD_REACTORS
330
8624
102
}
330
8624
100
DictionaryVariables
280
     0
  1
1:1
  0
DICTIONARYVAR
  5
8626
102
{ACAD_REACTORS
330
8624
102
}
330
8624
100
DictionaryVariables
280
     0
  1
STANDARD
  0
DICTIONARYVAR
  5
8625
102
{ACAD_REACTORS
330
8624
102
}
330
8624
100
DictionaryVariables
280
     0
  1
STANDARD
  0
DICTIONARYVAR
  5
8627
102
{ACAD_REACTORS
330
8624
102
}
330
8624
100
DictionaryVariables
280
     0
  1
Metric50
  0
DICTIONARYVAR
  5
8628
102
{ACAD_REACTORS
330
8624
102
}
330
8624
100
DictionaryVariables
280
     0
  1
Metric50
  0
DICTIONARYVAR
  5
862C
102
{ACAD_REACTORS
330
8624
102
}
330
8624
100
DictionaryVariables
280
     0
  1
1
  0
DICTIONARYVAR
  5
862D
102
{ACAD_REACTORS
330
8624
102
}
330
8624
100
DictionaryVariables
280
     0
  1
15
  0
DICTIONARYVAR
  5
862B
102
{ACAD_REACTORS
330
8624
102
}
330
8624
100
DictionaryVariables
280
     0
  1
0
  0
DICTIONARYVAR
  5
8632
102
{ACAD_REACTORS
330
8624
102
}
330
8624
100
DictionaryVariables
280
     0
  1
0
  0
DICTIONARYVAR
  5
8629
102
{ACAD_REACTORS
330
8624
102
}
330
8624
100
DictionaryVariables
280
     0
  1
0
  0
DICTIONARY
  5
863D
102
{ACAD_REACTORS
330
863B
102
}
330
863B
100
AcDbDictionary
281
     1
  0
DICTIONARY
  5
863C
102
{ACAD_REACTORS
330
863B
102
}
330
863B
100
AcDbDictionary
281
     1
  3
2038013243488
350
8636
  3
2038013243504
350
8637
  3
2038013243520
350
8638
  3
2038013243536
350
8639
  3
2038013243552
350
863A
  0
DICTIONARY
  5
8640
330
85EA
100
AcDbDictionary
280
     1
281
     1
  3
ACAD_XREC_ROUNDTRIP
360
8641
  0
DICTIONARY
  5
85A8
330
85A7
100
AcDbDictionary
280
     1
281
     1
  3
BUMPTILE
360
85AA
  3
DIFFUSETILE
360
85A9
  3
OPACITYTILE
360
85AD
  3
REFLECTIONTILE
360
85AC
  3
REFRACTIONTILE
360
85AE
  3
SPECULARTILE
360
85AB
  0
DICTIONARY
  5
85A0
330
859F
100
AcDbDictionary
280
     1
281
     1
  3
BUMPTILE
360
85A2
  3
DIFFUSETILE
360
85A1
  3
OPACITYTILE
360
85A5
  3
REFLECTIONTILE
360
85A4
  3
REFRACTIONTILE
360
85A6
  3
SPECULARTILE
360
85A3
  0
DICTIONARY
  5
85B0
330
85AF
100
AcDbDictionary
280
     1
281
     1
  3
BUMPTILE
360
85B2
  3
DIFFUSETILE
360
85B1
  3
OPACITYTILE
360
85B5
  3
REFLECTIONTILE
360
85B4
  3
REFRACTIONTILE
360
85B6
  3
SPECULARTILE
360
85B3
  0
DICTIONARY
  5
863E
330
85E8
100
AcDbDictionary
280
     1
281
     1
  3
ACAD_XREC_ROUNDTRIP
360
863F
  0
DICTIONARY
  5
8633
330
85D2
100
AcDbDictionary
280
     1
281
     1
  3
ACAD_ROUNDTRIP_2008_TABLESTYLE_CELLSTYLEMAP
360
8634
  0
XRECORD
  5
8636
102
{ACAD_REACTORS
330
863C
102
}
330
863C
100
AcDbXrecord
280
     1
  1
AcDb_Thumbnail_Schema
102
{ATTRRECORD
341
8637
  2
AcDbDs::TreatedAsObjectData
280
     1
291
     1
102
ATTRRECORD}
102
{ATTRRECORD
341
8638
  2
AcDbDs::Legacy
280
     1
291
     1
102
ATTRRECORD}
  2
AcDbDs::ID
280
    10
 91
        8
102
{ATTRRECORD
341
8639
  2
AcDs:Indexable
280
     1
291
     1
102
ATTRRECORD}
102
{ATTRRECORD
341
863A
  2
AcDbDs::HandleAttribute
280
     7
282
     1
102
ATTRRECORD}
  2
Thumbnail_Data
280
    15
 91
        0
  0
XRECORD
  5
8637
102
{ACAD_REACTORS
330
863C
102
}
330
863C
100
AcDbXrecord
280
     1
  1
AcDbDs::TreatedAsObjectDataSchema
  2
AcDbDs::TreatedAsObjectData
280
     1
 91
        0
  0
XRECORD
  5
8638
102
{ACAD_REACTORS
330
863C
102
}
330
863C
100
AcDbXrecord
280
     1
  1
AcDbDs::LegacySchema
  2
AcDbDs::Legacy
280
     1
 91
        0
  0
XRECORD
  5
8639
102
{ACAD_REACTORS
330
863C
102
}
330
863C
100
AcDbXrecord
280
     1
  1
AcDbDs::IndexedPropertySchema
  2
AcDs:Indexable
280
     1
 91
        0
  0
XRECORD
  5
863A
102
{ACAD_REACTORS
330
863C
102
}
330
863C
100
AcDbXrecord
280
     1
  1
AcDbDs::HandleAttributeSchema
  2
AcDbDs::HandleAttribute
280
     7
 91
        1
284
     1
  0
XRECORD
  5
8641
102
{ACAD_REACTORS
330
8640
102
}
330
8640
100
AcDbXrecord
280
     1
102
DISPLAYNAME
  1
Metric50
102
FLAGS
 90
        0
  0
XRECORD
  5
85AA
102
{ACAD_REACTORS
330
85A8
102
}
330
85A8
100
AcDbXrecord
280
     1
270
     1
271
     1
  0
XRECORD
  5
85A9
102
{ACAD_REACTORS
330
85A8
102
}
330
85A8
100
AcDbXrecord
280
     1
270
     1
271
     1
  0
XRECORD
  5
85AD
102
{ACAD_REACTORS
330
85A8
102
}
330
85A8
100
AcDbXrecord
280
     1
270
     1
271
     1
  0
XRECORD
  5
85AC
102
{ACAD_REACTORS
330
85A8
102
}
330
85A8
100
AcDbXrecord
280
     1
270
     1
271
     1
  0
XRECORD
  5
85AE
102
{ACAD_REACTORS
330
85A8
102
}
330
85A8
100
AcDbXrecord
280
     1
270
     1
271
     1
  0
XRECORD
  5
85AB
102
{ACAD_REACTORS
330
85A8
102
}
330
85A8
100
AcDbXrecord
280
     1
270
     1
271
     1
  0
XRECORD
  5
85A2
102
{ACAD_REACTORS
330
85A0
102
}
330
85A0
100
AcDbXrecord
280
     1
270
     1
271
     1
  0
XRECORD
  5
85A1
102
{ACAD_REACTORS
330
85A0
102
}
330
85A0
100
AcDbXrecord
280
     1
270
     1
271
     1
  0
XRECORD
  5
85A5
102
{ACAD_REACTORS
330
85A0
102
}
330
85A0
100
AcDbXrecord
280
     1
270
     1
271
     1
  0
XRECORD
  5
85A4
102
{ACAD_REACTORS
330
85A0
102
}
330
85A0
100
AcDbXrecord
280
     1
270
     1
271
     1
  0
XRECORD
  5
85A6
102
{ACAD_REACTORS
330
85A0
102
}
330
85A0
100
AcDbXrecord
280
     1
270
     1
271
     1
  0
XRECORD
  5
85A3
102
{ACAD_REACTORS
330
85A0
102
}
330
85A0
100
AcDbXrecord
280
     1
270
     1
271
     1
  0
XRECORD
  5
85B2
102
{ACAD_REACTORS
330
85B0
102
}
330
85B0
100
AcDbXrecord
280
     1
270
     1
271
     1
  0
XRECORD
  5
85B1
102
{ACAD_REACTORS
330
85B0
102
}
330
85B0
100
AcDbXrecord
280
     1
270
     1
271
     1
  0
XRECORD
  5
85B5
102
{ACAD_REACTORS
330
85B0
102
}
330
85B0
100
AcDbXrecord
280
     1
270
     1
271
     1
  0
XRECORD
  5
85B4
102
{ACAD_REACTORS
330
85B0
102
}
330
85B0
100
AcDbXrecord
280
     1
270
     1
271
     1
  0
XRECORD
  5
85B6
102
{ACAD_REACTORS
330
85B0
102
}
330
85B0
100
AcDbXrecord
280
     1
270
     1
271
     1
  0
XRECORD
  5
85B3
102
{ACAD_REACTORS
330
85B0
102
}
330
85B0
100
AcDbXrecord
280
     1
270
     1
271
     1
  0
XRECORD
  5
863F
102
{ACAD_REACTORS
330
863E
102
}
330
863E
100
AcDbXrecord
280
     1
102
DISPLAYNAME
  1
Metric50
102
FLAGS
 90
        0
  0
CELLSTYLEMAP
  5
8634
102
{ACAD_REACTORS
330
8633
102
}
330
8633
100
AcDbCellStyleMap
 90
        3
300
CELLSTYLE
  1
TABLEFORMAT_BEGIN
 90
        5
170
     1
 91
        0
 92
    32768
 62
   257
 93
        1
300
CONTENTFORMAT
  1
CONTENTFORMAT_BEGIN
 90
        0
 91
        0
 92
      512
 93
        0
300

 40
0.0
140
1.0
 94
        5
 62
     0
340
10
144
6.0
309
CONTENTFORMAT_END
171
     1
301
MARGIN
  1
CELLMARGIN_BEGIN
 40
1.5
 40
1.5
 40
1.5
 40
1.5
 40
4.5
 40
4.5
309
CELLMARGIN_END
 94
        6
 95
        1
302
GRIDFORMAT
  1
GRIDFORMAT_BEGIN
 90
        0
 91
        1
 62
     0
 92
       -2
340
0
 93
        0
 40
1.125
309
GRIDFORMAT_END
 95
        2
302
GRIDFORMAT
  1
GRIDFORMAT_BEGIN
 90
        0
 91
        1
 62
     0
 92
       -2
340
0
 93
        0
 40
1.125
309
GRIDFORMAT_END
 95
        4
302
GRIDFORMAT
  1
GRIDFORMAT_BEGIN
 90
        0
 91
        1
 62
     0
 92
       -2
340
0
 93
        0
 40
1.125
309
GRIDFORMAT_END
 95
        8
302
GRIDFORMAT
  1
GRIDFORMAT_BEGIN
 90
        0
 91
        1
 62
     0
 92
       -2
340
0
 93
        0
 40
1.125
309
GRIDFORMAT_END
 95
       16
302
GRIDFORMAT
  1
GRIDFORMAT_BEGIN
 90
        0
 91
        1
 62
     0
 92
       -2
340
0
 93
        0
 40
1.125
309
GRIDFORMAT_END
 95
       32
302
GRIDFORMAT
  1
GRIDFORMAT_BEGIN
 90
        0
 91
        1
 62
     0
 92
       -2
340
0
 93
        0
 40
1.125
309
GRIDFORMAT_END
309
TABLEFORMAT_END
  1
CELLSTYLE_BEGIN
 90
        1
 91
        1
300
_TITLE
309
CELLSTYLE_END
300
CELLSTYLE
  1
TABLEFORMAT_BEGIN
 90
        5
170
     1
 91
        0
 92
        0
 62
   257
 93
        1
300
CONTENTFORMAT
  1
CONTENTFORMAT_BEGIN
 90
        0
 91
        0
 92
      512
 93
        0
300

 40
0.0
140
1.0
 94
        5
 62
     0
340
10
144
4.5
309
CONTENTFORMAT_END
171
     1
301
MARGIN
  1
CELLMARGIN_BEGIN
 40
1.5
 40
1.5
 40
1.5
 40
1.5
 40
4.5
 40
4.5
309
CELLMARGIN_END
 94
        6
 95
        1
302
GRIDFORMAT
  1
GRIDFORMAT_BEGIN
 90
        0
 91
        1
 62
     0
 92
       -2
340
0
 93
        0
 40
1.125
309
GRIDFORMAT_END
 95
        2
302
GRIDFORMAT
  1
GRIDFORMAT_BEGIN
 90
        0
 91
        1
 62
     0
 92
       -2
340
0
 93
        0
 40
1.125
309
GRIDFORMAT_END
 95
        4
302
GRIDFORMAT
  1
GRIDFORMAT_BEGIN
 90
        0
 91
        1
 62
     0
 92
       -2
340
0
 93
        0
 40
1.125
309
GRIDFORMAT_END
 95
        8
302
GRIDFORMAT
  1
GRIDFORMAT_BEGIN
 90
        0
 91
        1
 62
     0
 92
       -2
340
0
 93
        0
 40
1.125
309
GRIDFORMAT_END
 95
       16
302
GRIDFORMAT
  1
GRIDFORMAT_BEGIN
 90
        0
 91
        1
 62
     0
 92
       -2
340
0
 93
        0
 40
1.125
309
GRIDFORMAT_END
 95
       32
302
GRIDFORMAT
  1
GRIDFORMAT_BEGIN
 90
        0
 91
        1
 62
     0
 92
       -2
340
0
 93
        0
 40
1.125
309
GRIDFORMAT_END
309
TABLEFORMAT_END
  1
CELLSTYLE_BEGIN
 90
        2
 91
        1
300
_HEADER
309
CELLSTYLE_END
300
CELLSTYLE
  1
TABLEFORMAT_BEGIN
 90
        5
170
     1
 91
        0
 92
        0
 62
   257
 93
        1
300
CONTENTFORMAT
  1
CONTENTFORMAT_BEGIN
 90
        0
 91
        0
 92
      512
 93
        0
300

 40
0.0
140
1.0
 94
        2
 62
     0
340
10
144
4.5
309
CONTENTFORMAT_END
171
     1
301
MARGIN
  1
CELLMARGIN_BEGIN
 40
1.5
 40
1.5
 40
1.5
 40
1.5
 40
4.5
 40
4.5
309
CELLMARGIN_END
 94
        6
 95
        1
302
GRIDFORMAT
  1
GRIDFORMAT_BEGIN
 90
        0
 91
        1
 62
     0
 92
       -2
340
0
 93
        0
 40
1.125
309
GRIDFORMAT_END
 95
        2
302
GRIDFORMAT
  1
GRIDFORMAT_BEGIN
 90
        0
 91
        1
 62
     0
 92
       -2
340
0
 93
        0
 40
1.125
309
GRIDFORMAT_END
 95
        4
302
GRIDFORMAT
  1
GRIDFORMAT_BEGIN
 90
        0
 91
        1
 62
     0
 92
       -2
340
0
 93
        0
 40
1.125
309
GRIDFORMAT_END
 95
        8
302
GRIDFORMAT
  1
GRIDFORMAT_BEGIN
 90
        0
 91
        1
 62
     0
 92
       -2
340
0
 93
        0
 40
1.125
309
GRIDFORMAT_END
 95
       16
302
GRIDFORMAT
  1
GRIDFORMAT_BEGIN
 90
        0
 91
        1
 62
     0
 92
       -2
340
0
 93
        0
 40
1.125
309
GRIDFORMAT_END
 95
       32
302
GRIDFORMAT
  1
GRIDFORMAT_BEGIN
 90
        0
 91
        1
 62
     0
 92
       -2
340
0
 93
        0
 40
1.125
309
GRIDFORMAT_END
309
TABLEFORMAT_END
  1
CELLSTYLE_BEGIN
 90
        3
 91
        2
300
_DATA
309
CELLSTYLE_END
  0
ENDSEC
  0
SECTION
  2
ACDSDATA
 70
     2
 71
     8
  0
ACDSSCHEMA
 90
        0
  1
AcDb_Thumbnail_Schema
  2
AcDbDs::ID
280
    10
 91
        8
  2
Thumbnail_Data
280
    15
 91
        0
101
ACDSRECORD
 95
        0
 90
        1
  2
AcDbDs::TreatedAsObjectData
280
     1
291
     1
101
ACDSRECORD
 95
        0
 90
        2
  2
AcDbDs::Legacy
280
     1
291
     1
101
ACDSRECORD
  1
AcDbDs::ID
 90
        3
  2
AcDs:Indexable
280
     1
291
     1
101
ACDSRECORD
  1
AcDbDs::ID
 90
        4
  2
AcDbDs::HandleAttribute
280
     7
282
     1
  0
ACDSSCHEMA
 90
        1
  1
AcDbDs::TreatedAsObjectDataSchema
  2
AcDbDs::TreatedAsObjectData
280
     1
 91
        0
  0
ACDSSCHEMA
 90
        2
  1
AcDbDs::LegacySchema
  2
AcDbDs::Legacy
280
     1
 91
        0
  0
ACDSSCHEMA
 90
        3
  1
AcDbDs::IndexedPropertySchema
  2
AcDs:Indexable
280
     1
 91
        0
  0
ACDSSCHEMA
 90
        4
  1
AcDbDs::HandleAttributeSchema
  2
AcDbDs::HandleAttribute
280
     7
 91
        1
284
     1
  0
ACDSRECORD
 90
        0
  2
AcDbDs::ID
280
    10
320
84FD
  2
Thumbnail_Data
280
    15
 94
     1681
310
89504E470D0A1A0A0000000D49484452000001000000007C0803000000B13B9E5A00000300504C5445000000000000C8C8C80000000000000000000000000000000000000000000000000000330000660000990000CC0000FF0033000033330033660033990033CC0033FF0066000066330066660066990066CC0066FF0099
310
000099330099660099990099CC0099FF00CC0000CC3300CC6600CC9900CCCC00CCFF00FF0000FF3300FF6600FF9900FFCC00FFFF3300003300333300663300993300CC3300FF3333003333333333663333993333CC3333FF3366003366333366663366993366CC3366FF3399003399333399663399993399CC3399FF33CC00
310
33CC3333CC6633CC9933CCCC33CCFF33FF0033FF3333FF6633FF9933FFCC33FFFF6600006600336600666600996600CC6600FF6633006633336633666633996633CC6633FF6666006666336666666666996666CC6666FF6699006699336699666699996699CC6699FF66CC0066CC3366CC6666CC9966CCCC66CCFF66FF0066
310
FF3366FF6666FF9966FFCC66FFFF9900009900339900669900999900CC9900FF9933009933339933669933999933CC9933FF9966009966339966669966999966CC9966FF9999009999339999669999999999CC9999FF99CC0099CC3399CC6699CC9999CCCC99CCFF99FF0099FF3399FF6699FF9999FFCC99FFFFCC0000CC00
310
33CC0066CC0099CC00CCCC00FFCC3300CC3333CC3366CC3399CC33CCCC33FFCC6600CC6633CC6666CC6699CC66CCCC66FFCC9900CC9933CC9966CC9999CC99CCCC99FFCCCC00CCCC33CCCC66CCCC99CCCCCCCCCCFFCCFF00CCFF33CCFF66CCFF99CCFFCCCCFFFFFF0000FF0033FF0066FF0099FF00CCFF00FFFF3300FF3333
310
FF3366FF3399FF33CCFF33FFFF6600FF6633FF6666FF6699FF66CCFF66FFFF9900FF9933FF9966FF9999FF99CCFF99FFFFCC00FFCC33FFCC66FFCC99FFCCCCFFCCFFFFFF00FFFF33FFFF66FFFF99FFFFCCFFFFFF0000000D0D0D1A1A1A2828283535354343435050505D5D5D6B6B6B787878868686939393A1A1A1AEAEAEBB
310
BBBBC9C9C9D6D6D6E4E4E4F1F1F1FFFFFF00000000000000000000000000000000000000000000000000000000000008F1915C0000034C4944415478DAED9D5B72C3200C45590E3FDAFF66B40DFEEB0708F172D299A61374453A31B5634F38BE48202524840F94F4A112762969ABCB3A0007E0001C8003F89E77FAE0FC5000
310
74A7274805C00348C800BA5EB037803F9D016C09E0CB2EE600FE1FC025E241D5757BF5FA7C52D17B3E90CF3700A06D75AE0601100A8714F4DE9414130B003A10A5A90D072586B231D2058AB02B057D73D3C365DC08FA3800713A9C4C4D8727FDBE3189E51479917684B600A41140DE97641E28DED00E80D0F8C07E877279B5
310
F9C19402FEEA7C8F093A0007E0001C8003D819001F050F00AF00300A8065C15340D7211C002C80E800A000D0AAFCD6146E0A806A6D28A78F8002D06ECF431C3000C4BB469000CE126FC593E68003202BE0ACC81F2A80FC840420468A77A1AB4251ED898CAE0046B7016800062F0009006F1C20004047820AC0642E003212CC
310
CD6D2605F4DB39F1F600C6FB8F0D8041E201A7DB3B27432D113D4DB60FA004C16478DCC60910004C0A1080071B0801E0DB2FFB2DEF94AB53E4B97F349E1D564E71E11EF704C0FC4676943500CE00D80880A906BA16BE973DDE1EC0B302867E621040691DF7877842285856C00A401D2706B6A980497B71000CF3C0DE1AF4B3
310
45730A208DA21CBA6C02EB17C45CB70AA00D87DD469154EAB000183DE1CE00A212F8F9DF1923500038C70D7A055801A04320A57E345729E0DED103B0A2006A1470D4E2DD5A02017035EDEAE2775E5436F22121A62B755A72A6B9D801703CAE5E5FD282946D00C9F088A46B540590150091F23D3F1E050075006AF63C97DB24
310
1A548032042533B2540059B301B985B71B2C02E00AA03782C1881B6CA2A0EA1F0A0D809A3CB536106A23C1352B28001623412B2131D528F9884CAC29721D1F300AE039395A2340AFF306DB7F52544A738F05407B34D801503F293ACD0E0F0A88D614800E8047003CC485B4BBE04540C8D037467816195C470C8D0050E31A0E
310
3A0D565F5782E6F3A8B8CDEF0D2A2A2FBF5668B20B685918ED02AF0A7FE6B2FB00080EC001380007E0001C800370001800E057949CB7AC5B5D4F9EF3427B480064D9C5BCDEAE3D0061F2B349B29472902517CB3ACBA615806903A60AA8AB883E2DA469D906400258F40B2005F8CAD23E1476000EC001380007E0001C800370
310
000EC018808D7E7AFB07479AB4CD21B3C4710000000049454E44AE426082
  0
ENDSEC
  0
EOF
