  0
SECTION
  2
HEADER
  9
$ACADVER
  1
AC1027
  9
$ACADMAINTVER
 70
   125
  9
$DWGCODEPAGE
  3
ANSI_932
  9
$LASTSAVEDBY
  1
yasukiyo.ogawa
  9
$REQUIREDVERSIONS
160
                 0
  9
$INSBASE
 10
0.0
 20
0.0
 30
0.0
  9
$EXTMIN
 10
0.0
 20
0.0
 30
0.0
  9
$EXTMAX
 10
3150.0
 20
4425.0
 30
0.0
  9
$LIMMIN
 10
0.0
 20
0.0
  9
$LIMMAX
 10
297.0
 20
210.0
  9
$ORTHOMODE
 70
     1
  9
$REGENMODE
 70
     1
  9
$FILLMODE
 70
     0
  9
$QTEXTMODE
 70
     0
  9
$MIRRTEXT
 70
     1
  9
$LTSCALE
 40
100.0
  9
$ATTMODE
 70
     1
  9
$TEXTSIZE
 40
180.0
  9
$TRACEWID
 40
0.05
  9
$TEXTSTYLE
  7
STANDARD
  9
$CLAYER
  8
3
  9
$CELTYPE
  6
BYLAYER
  9
$CECOLOR
 62
   256
  9
$CELTSCALE
 40
1.0
  9
$DISPSILH
 70
     0
  9
$DIMSCALE
 40
15.0
  9
$DIMASZ
 40
2.0
  9
$DIMEXO
 40
0.5
  9
$DIMDLI
 40
10.0
  9
$DIMRND
 40
0.0
  9
$DIMDLE
 40
0.0
  9
$DIMEXE
 40
1.0
  9
$DIMTP
 40
1.0
  9
$DIMTM
 40
1.0
  9
$DIMTXT
 40
3.0
  9
$DIMCEN
 40
0.0
  9
$DIMTSZ
 40
0.0
  9
$DIMTOL
 70
     0
  9
$DIMLIM
 70
     0
  9
$DIMTIH
 70
     0
  9
$DIMTOH
 70
     0
  9
$DIMSE1
 70
     0
  9
$DIMSE2
 70
     0
  9
$DIMTAD
 70
     1
  9
$DIMZIN
 70
     8
  9
$DIMBLK
  1

  9
$DIMASO
 70
     1
  9
$DIMSHO
 70
     1
  9
$DIMPOST
  1

  9
$DIMAPOST
  1

  9
$DIMALT
 70
     0
  9
$DIMALTD
 70
     2
  9
$DIMALTF
 40
0.039
  9
$DIMLFAC
 40
1.0
  9
$DIMTOFL
 70
     1
  9
$DIMTVP
 40
0.0
  9
$DIMTIX
 70
     0
  9
$DIMSOXD
 70
     0
  9
$DIMSAH
 70
     1
  9
$DIMBLK1
  1
OPEN
  9
$DIMBLK2
  1
OPEN
  9
$DIMSTYLE
  2
IGA
  9
$DIMCLRD
 70
     0
  9
$DIMCLRE
 70
     0
  9
$DIMCLRT
 70
     0
  9
$DIMTFAC
 40
10.0
  9
$DIMGAP
 40
1.0
  9
$DIMJUST
 70
     0
  9
$DIMSD1
 70
     0
  9
$DIMSD2
 70
     0
  9
$DIMTOLJ
 70
     1
  9
$DIMTZIN
 70
     8
  9
$DIMALTZ
 70
     0
  9
$DIMALTTZ
 70
     0
  9
$DIMUPT
 70
     0
  9
$DIMDEC
 70
     0
  9
$DIMTDEC
 70
     0
  9
$DIMALTU
 70
     2
  9
$DIMALTTD
 70
     2
  9
$DIMTXSTY
  7
STANDARD
  9
$DIMAUNIT
 70
     0
  9
$DIMADEC
 70
     0
  9
$DIMALTRND
 40
0.0
  9
$DIMAZIN
 70
     0
  9
$DIMDSEP
 70
    46
  9
$DIMATFIT
 70
     0
  9
$DIMFRAC
 70
     0
  9
$DIMLDRBLK
  1
OPEN
  9
$DIMLUNIT
 70
     2
  9
$DIMLWD
 70
    -2
  9
$DIMLWE
 70
    -2
  9
$DIMTMOVE
 70
     0
  9
$DIMFXL
 40
1.0
  9
$DIMFXLON
 70
     0
  9
$DIMJOGANG
 40
0.7853981633974483
  9
$DIMTFILL
 70
     0
  9
$DIMTFILLCLR
 70
     0
  9
$DIMARCSYM
 70
     0
  9
$DIMLTYPE
  6

  9
$DIMLTEX1
  6

  9
$DIMLTEX2
  6

  9
$DIMTXTDIRECTION
 70
     0
  9
$LUNITS
 70
     2
  9
$LUPREC
 70
     3
  9
$SKETCHINC
 40
0.1
  9
$FILLETRAD
 40
50.0
  9
$AUNITS
 70
     0
  9
$AUPREC
 70
     0
  9
$MENU
  1
acad
  9
$ELEVATION
 40
0.0
  9
$PELEVATION
 40
0.0
  9
$THICKNESS
 40
0.0
  9
$LIMCHECK
 70
     0
  9
$CHAMFERA
 40
0.5
  9
$CHAMFERB
 40
0.5
  9
$CHAMFERC
 40
20.0
  9
$CHAMFERD
 40
0.0
  9
$SKPOLY
 70
     0
  9
$TDCREATE
 40
2451369.503101852
  9
$TDUCREATE
 40
2451369.128104167
  9
$TDUPDATE
 40
2460216.481273148
  9
$TDUUPDATE
 40
2460216.106283495
  9
$TDINDWG
 40
0.2159505903
  9
$TDUSRTIMER
 40
0.2159505903
  9
$USRTIMER
 70
     1
  9
$ANGBASE
 50
0.0
  9
$ANGDIR
 70
     0
  9
$PDMODE
 70
     0
  9
$PDSIZE
 40
0.0
  9
$PLINEWID
 40
0.0
  9
$SPLFRAME
 70
     0
  9
$SPLINETYPE
 70
     6
  9
$SPLINESEGS
 70
     8
  9
$HANDSEED
  5
8FDF
  9
$SURFTAB1
 70
     6
  9
$SURFTAB2
 70
     6
  9
$SURFTYPE
 70
     6
  9
$SURFU
 70
     6
  9
$SURFV
 70
     6
  9
$UCSBASE
  2

  9
$UCSNAME
  2

  9
$UCSORG
 10
0.0
 20
0.0
 30
0.0
  9
$UCSXDIR
 10
1.0
 20
0.0
 30
0.0
  9
$UCSYDIR
 10
0.0
 20
1.0
 30
0.0
  9
$UCSORTHOREF
  2

  9
$UCSORTHOVIEW
 70
     0
  9
$UCSORGTOP
 10
0.0
 20
0.0
 30
0.0
  9
$UCSORGBOTTOM
 10
0.0
 20
0.0
 30
0.0
  9
$UCSORGLEFT
 10
0.0
 20
0.0
 30
0.0
  9
$UCSORGRIGHT
 10
0.0
 20
0.0
 30
0.0
  9
$UCSORGFRONT
 10
0.0
 20
0.0
 30
0.0
  9
$UCSORGBACK
 10
0.0
 20
0.0
 30
0.0
  9
$PUCSBASE
  2

  9
$PUCSNAME
  2

  9
$PUCSORG
 10
0.0
 20
0.0
 30
0.0
  9
$PUCSXDIR
 10
1.0
 20
0.0
 30
0.0
  9
$PUCSYDIR
 10
0.0
 20
1.0
 30
0.0
  9
$PUCSORTHOREF
  2

  9
$PUCSORTHOVIEW
 70
     0
  9
$PUCSORGTOP
 10
0.0
 20
0.0
 30
0.0
  9
$PUCSORGBOTTOM
 10
0.0
 20
0.0
 30
0.0
  9
$PUCSORGLEFT
 10
0.0
 20
0.0
 30
0.0
  9
$PUCSORGRIGHT
 10
0.0
 20
0.0
 30
0.0
  9
$PUCSORGFRONT
 10
0.0
 20
0.0
 30
0.0
  9
$PUCSORGBACK
 10
0.0
 20
0.0
 30
0.0
  9
$USERI1
 70
     0
  9
$USERI2
 70
     0
  9
$USERI3
 70
     0
  9
$USERI4
 70
     0
  9
$USERI5
 70
     0
  9
$USERR1
 40
0.0
  9
$USERR2
 40
0.0
  9
$USERR3
 40
0.0
  9
$USERR4
 40
0.0
  9
$USERR5
 40
0.0
  9
$WORLDVIEW
 70
     1
  9
$SHADEDGE
 70
     3
  9
$SHADEDIF
 70
    70
  9
$TILEMODE
 70
     1
  9
$MAXACTVP
 70
    16
  9
$PINSBASE
 10
0.0
 20
0.0
 30
0.0
  9
$PLIMCHECK
 70
     0
  9
$PEXTMIN
 10
1.000000000000000E+20
 20
1.000000000000000E+20
 30
1.000000000000000E+20
  9
$PEXTMAX
 10
-1.000000000000000E+20
 20
-1.000000000000000E+20
 30
-1.000000000000000E+20
  9
$PLIMMIN
 10
0.0
 20
0.0
  9
$PLIMMAX
 10
12.0
 20
9.0
  9
$UNITMODE
 70
     0
  9
$VISRETAIN
 70
     0
  9
$PLINEGEN
 70
     0
  9
$PSLTSCALE
 70
     1
  9
$TREEDEPTH
 70
  3020
  9
$CMLSTYLE
  2
STANDARD
  9
$CMLJUST
 70
     0
  9
$CMLSCALE
 40
20.0
  9
$PROXYGRAPHICS
 70
     1
  9
$MEASUREMENT
 70
     1
  9
$CELWEIGHT
370
    -1
  9
$ENDCAPS
280
     0
  9
$JOINSTYLE
280
     0
  9
$LWDISPLAY
290
     0
  9
$INSUNITS
 70
     0
  9
$HYPERLINKBASE
  1

  9
$STYLESHEET
  1

  9
$XEDIT
290
     1
  9
$CEPSNTYPE
380
     0
  9
$PSTYLEMODE
290
     1
  9
$FINGERPRINTGUID
  2
{3AF534EF-7D5A-4E68-9484-C2FA251ED0D0}
  9
$VERSIONGUID
  2
{C6BA4847-A2C2-4175-A2B4-1936838CFAA3}
  9
$EXTNAMES
290
     1
  9
$PSVPSCALE
 40
0.0
  9
$OLESTARTUP
290
     0
  9
$SORTENTS
280
   127
  9
$INDEXCTL
280
     0
  9
$HIDETEXT
280
     0
  9
$XCLIPFRAME
280
     2
  9
$HALOGAP
280
     0
  9
$OBSCOLOR
 70
   257
  9
$OBSLTYPE
280
     0
  9
$INTERSECTIONDISPLAY
280
     0
  9
$INTERSECTIONCOLOR
 70
   257
  9
$DIMASSOC
280
     1
  9
$PROJECTNAME
  1

  9
$CAMERADISPLAY
290
     0
  9
$LENSLENGTH
 40
50.0
  9
$CAMERAHEIGHT
 40
0.0
  9
$STEPSPERSEC
 40
2.0
  9
$STEPSIZE
 40
6.0
  9
$3DDWFPREC
 40
2.0
  9
$PSOLWIDTH
 40
0.25
  9
$PSOLHEIGHT
 40
4.0
  9
$LOFTANG1
 40
1.570796326794896
  9
$LOFTANG2
 40
1.570796326794896
  9
$LOFTMAG1
 40
0.0
  9
$LOFTMAG2
 40
0.0
  9
$LOFTPARAM
 70
     7
  9
$LOFTNORMALS
280
     1
  9
$LATITUDE
 40
37.795
  9
$LONGITUDE
 40
-122.394
  9
$NORTHDIRECTION
 40
0.0
  9
$TIMEZONE
 70
 -8000
  9
$LIGHTGLYPHDISPLAY
280
     1
  9
$TILEMODELIGHTSYNCH
280
     1
  9
$CMATERIAL
347
8F3C
  9
$SOLIDHIST
280
     0
  9
$SHOWHIST
280
     1
  9
$DWFFRAME
280
     2
  9
$DGNFRAME
280
     0
  9
$REALWORLDSCALE
290
     1
  9
$INTERFERECOLOR
 62
     1
  9
$INTERFEREOBJVS
345
8F5E
  9
$INTERFEREVPVS
346
8F5B
  9
$CSHADOW
280
     0
  9
$SHADOWPLANELOCATION
 40
0.0
  0
ENDSEC
  0
SECTION
  2
CLASSES
  0
CLASS
  1
ACDBDICTIONARYWDFLT
  2
AcDbDictionaryWithDefault
  3
ObjectDBX Classes
 90
        0
 91
        1
280
     0
281
     0
  0
CLASS
  1
MATERIAL
  2
AcDbMaterial
  3
ObjectDBX Classes
 90
     1153
 91
        3
280
     0
281
     0
  0
CLASS
  1
VISUALSTYLE
  2
AcDbVisualStyle
  3
ObjectDBX Classes
 90
     4095
 91
       24
280
     0
281
     0
  0
CLASS
  1
TABLESTYLE
  2
AcDbTableStyle
  3
ObjectDBX Classes
 90
     4095
 91
        1
280
     0
281
     0
  0
CLASS
  1
SCALE
  2
AcDbScale
  3
ObjectDBX Classes
 90
     1153
 91
       17
280
     0
281
     0
  0
CLASS
  1
MLEADERSTYLE
  2
AcDbMLeaderStyle
  3
ACDB_MLEADERSTYLE_CLASS
 90
     4095
 91
        1
280
     0
281
     0
  0
CLASS
  1
ACDBSECTIONVIEWSTYLE
  2
AcDbSectionViewStyle
  3
ObjectDBX Classes
 90
     1025
 91
        1
280
     0
281
     0
  0
CLASS
  1
ACDBDETAILVIEWSTYLE
  2
AcDbDetailViewStyle
  3
ObjectDBX Classes
 90
     1025
 91
        1
280
     0
281
     0
  0
CLASS
  1
SORTENTSTABLE
  2
AcDbSortentsTable
  3
ObjectDBX Classes
 90
        0
 91
        1
280
     0
281
     0
  0
CLASS
  1
DICTIONARYVAR
  2
AcDbDictionaryVar
  3
ObjectDBX Classes
 90
        0
 91
       10
280
     0
281
     0
  0
CLASS
  1
CELLSTYLEMAP
  2
AcDbCellStyleMap
  3
ObjectDBX Classes
 90
     1152
 91
        1
280
     0
281
     0
  0
ENDSEC
  0
SECTION
  2
TABLES
  0
TABLE
  2
VPORT
  5
8
330
0
100
AcDbSymbolTable
 70
     1
1001
ACAD
1000
DbSaveVer
1071
      278
  0
VPORT
  5
8F39
330
8
100
AcDbSymbolTableRecord
100
AcDbViewportTableRecord
  2
*Active
 70
     0
 10
0.0
 20
0.0
 11
1.0
 21
1.0
 12
2020.585139495969
 22
2212.500010302757
 13
0.0
 23
0.0
 14
10.0
 24
10.0
 15
10.0
 25
10.0
 16
0.0
 26
0.0
 36
1.0
 17
0.0
 27
0.0
 37
0.0
 40
4453.60692206448
 41
2.250314465408805
 42
50.0
 43
0.0
 44
0.0
 50
0.0
 51
0.0
 71
     0
 72
   100
 73
     1
 74
     0
 75
     0
 76
     0
 77
     0
 78
     0
281
     0
 65
     1
110
0.0
120
0.0
130
0.0
111
1.0
121
0.0
131
0.0
112
0.0
122
1.0
132
0.0
 79
     0
146
0.0
348
8F5A
 60
     3
 61
     5
292
     1
282
     1
141
0.0
142
0.0
 63
   250
421
  3355443
1001
ACAD_NAV_VCDISPLAY
1070
     3
  0
ENDTAB
  0
TABLE
  2
LTYPE
  5
5
330
0
100
AcDbSymbolTable
 70
     2
  0
LTYPE
  5
13
330
5
100
AcDbSymbolTableRecord
100
AcDbLinetypeTableRecord
  2
BYBLOCK
 70
     0
  3

 72
    65
 73
     0
 40
0.0
  0
LTYPE
  5
14
330
5
100
AcDbSymbolTableRecord
100
AcDbLinetypeTableRecord
  2
BYLAYER
 70
     0
  3

 72
    65
 73
     0
 40
0.0
  0
LTYPE
  5
15
330
5
100
AcDbSymbolTableRecord
100
AcDbLinetypeTableRecord
  2
CONTINUOUS
 70
     0
  3
Solid line
 72
    65
 73
     0
 40
0.0
  0
LTYPE
  5
1F
330
5
100
AcDbSymbolTableRecord
100
AcDbLinetypeTableRecord
  2
CENTER
 70
     0
  3
____ _ ____ _ ____ _ ____ _ ____ _ ____ _ ____ 
 72
    65
 73
     4
 40
2.0
 49
1.25
 74
     0
 49
-0.25
 74
     0
 49
0.25
 74
     0
 49
-0.25
 74
     0
  0
ENDTAB
  0
TABLE
  2
LAYER
  5
2
102
{ACAD_XDICTIONARY
360
8FB5
102
}
330
0
100
AcDbSymbolTable
 70
     6
  0
LAYER
  5
F
102
{ACAD_XDICTIONARY
360
8FA8
102
}
330
2
100
AcDbSymbolTableRecord
100
AcDbLayerTableRecord
  2
0
 70
     0
 62
     7
  6
CONTINUOUS
370
    -3
390
8EB0
347
8F4C
348
0
  0
LAYER
  5
31
102
{ACAD_XDICTIONARY
360
8FAA
102
}
330
2
100
AcDbSymbolTableRecord
100
AcDbLayerTableRecord
  2
3
 70
     0
 62
     2
  6
CONTINUOUS
370
    -3
390
8EB0
347
8F4C
348
0
  0
LAYER
  5
76D0
102
{ACAD_XDICTIONARY
360
8FAC
102
}
330
2
100
AcDbSymbolTableRecord
100
AcDbLayerTableRecord
  2
2
 70
     0
 62
     3
  6
CENTER
370
    -3
390
8EB0
347
8F4C
348
0
  0
LAYER
  5
76D1
102
{ACAD_XDICTIONARY
360
8FAE
102
}
330
2
100
AcDbSymbolTableRecord
100
AcDbLayerTableRecord
  2
1
 70
     0
 62
     4
  6
CONTINUOUS
370
    -3
390
8EB0
347
8F4C
348
0
  0
LAYER
  5
76D2
102
{ACAD_XDICTIONARY
360
8FB0
102
}
330
2
100
AcDbSymbolTableRecord
100
AcDbLayerTableRecord
  2
4
 70
     0
 62
     7
  6
CONTINUOUS
370
    -3
390
8EB0
347
8F4C
348
0
  0
LAYER
  5
7F8A
330
2
100
AcDbSymbolTableRecord
100
AcDbLayerTableRecord
  2
DEFPOINTS
 70
     0
 62
     7
  6
CONTINUOUS
290
     0
370
    -3
390
8EB0
347
8F4C
348
0
  0
ENDTAB
  0
TABLE
  2
STYLE
  5
3
330
0
100
AcDbSymbolTable
 70
     1
  0
STYLE
  5
10
330
3
100
AcDbSymbolTableRecord
100
AcDbTextStyleTableRecord
  2
STANDARD
 70
     0
 40
0.0
 41
1.0
 50
0.0
 71
     0
 42
180.0
  3
simplex.shx
  4
extfont.shx
  0
ENDTAB
  0
TABLE
  2
VIEW
  5
6
330
0
100
AcDbSymbolTable
 70
     0
  0
ENDTAB
  0
TABLE
  2
UCS
  5
7
330
0
100
AcDbSymbolTable
 70
     0
  0
ENDTAB
  0
TABLE
  2
APPID
  5
9
330
0
100
AcDbSymbolTable
 70
     4
  0
APPID
  5
11
330
9
100
AcDbSymbolTableRecord
100
AcDbRegAppTableRecord
  2
ACAD
 70
     0
  0
APPID
  5
8F8D
330
9
100
AcDbSymbolTableRecord
100
AcDbRegAppTableRecord
  2
AcadAnnoMonitorAlertIconDisabled
 70
     0
  0
APPID
  5
8F8E
330
9
100
AcDbSymbolTableRecord
100
AcDbRegAppTableRecord
  2
ACAD_EXEMPT_FROM_CAD_STANDARDS
 70
     0
  0
APPID
  5
8FBB
330
9
100
AcDbSymbolTableRecord
100
AcDbRegAppTableRecord
  2
ACAD_NAV_VCDISPLAY
 70
     0
  0
ENDTAB
  0
TABLE
  2
DIMSTYLE
  5
A
330
0
100
AcDbSymbolTable
 70
     2
100
AcDbDimStyleTable
 71
     1
340
1D
  0
DIMSTYLE
105
1D
102
{ACAD_REACTORS
330
8BC5
330
8DFF
330
8E61
330
8E6E
330
8E7B
330
8E88
330
8E95
330
8EA2
102
}
330
A
100
AcDbSymbolTableRecord
100
AcDbDimStyleTableRecord
  2
IGA
 70
     0
 40
2.0
 41
2.0
 42
0.5
 43
10.0
 44
1.0
 47
1.0
 48
1.0
 73
     0
 74
     0
 77
     1
 78
     8
140
3.0
141
0.0
143
0.03937
146
10.0
147
1.0
173
     1
271
     1
272
     0
279
     2
284
     8
340
10
341
7E79
343
7E79
344
7E79
  0
DIMSTYLE
105
7F8C
102
{ACAD_REACTORS
330
8B64
330
8B65
330
8B69
330
8B6A
330
8B6B
330
8B96
330
8B9D
330
8BB1
330
8BB2
330
8BB3
330
8BBA
102
}
330
A
100
AcDbSymbolTableRecord
100
AcDbDimStyleTableRecord
  2
MATSU
 70
     0
 41
2.0
 42
1.0
 43
10.0
 44
1.0
 73
     0
 74
     0
 77
     1
 78
     8
140
3.0
141
0.0
143
0.03937
147
0.5
172
     1
173
     1
176
   256
177
   256
178
   256
284
     8
289
     0
340
10
341
7E79
343
7E79
344
7E79
  0
ENDTAB
  0
TABLE
  2
BLOCK_RECORD
  5
1
330
0
100
AcDbSymbolTable
 70
    23
  0
BLOCK_RECORD
  5
19
102
{ACAD_XDICTIONARY
360
8EDE
102
}
330
1
100
AcDbSymbolTableRecord
100
AcDbBlockTableRecord
  2
*MODEL_SPACE
340
8EB3
 70
     0
280
     1
281
     0
  0
BLOCK_RECORD
  5
16
102
{ACAD_XDICTIONARY
360
8EDC
102
}
330
1
100
AcDbSymbolTableRecord
100
AcDbBlockTableRecord
  2
*PAPER_SPACE
340
8EB4
 70
     0
280
     1
281
     0
  0
BLOCK_RECORD
  5
7E79
330
1
100
AcDbSymbolTableRecord
100
AcDbBlockTableRecord
  2
_OPEN
340
0
102
{BLKREFS
331
8D10
331
8D11
331
8D1B
331
8D1C
331
8D26
331
8D27
331
8D31
331
8D32
331
8D3C
331
8D3D
331
8D47
331
8D48
331
8D92
331
8D93
331
8DA8
331
8DA9
331
8DB3
331
8DB4
331
8DBE
331
8DBF
331
8EF7
331
8EFF
331
8F00
331
8F08
331
8F09
331
8F11
331
8F12
331
8F1A
331
8F1B
331
8F23
331
8F24
331
8F2C
331
8F2D
331
8FA2
331
8FA3
102
}
 70
     0
280
     1
281
     0
  0
BLOCK_RECORD
  5
83E9
330
1
100
AcDbSymbolTableRecord
100
AcDbBlockTableRecord
  2
_DOT
340
0
102
{BLKREFS
331
8EF6
102
}
 70
     0
280
     1
281
     0
  0
BLOCK_RECORD
  5
8969
330
1
100
AcDbSymbolTableRecord
100
AcDbBlockTableRecord
  2
YA_N
340
0
102
{BLKREFS
331
8B3E
331
8B3F
331
8B40
331
8B41
331
8B42
331
8B43
331
8B44
102
}
 70
     0
280
     1
281
     0
  0
BLOCK_RECORD
  5
8C10
330
1
100
AcDbSymbolTableRecord
100
AcDbBlockTableRecord
  2
*D3
340
0
 70
     0
280
     1
281
     0
  0
BLOCK_RECORD
  5
8C1C
330
1
100
AcDbSymbolTableRecord
100
AcDbBlockTableRecord
  2
*D4
340
0
 70
     0
280
     1
281
     0
  0
BLOCK_RECORD
  5
8C28
330
1
100
AcDbSymbolTableRecord
100
AcDbBlockTableRecord
  2
*D5
340
0
 70
     0
280
     1
281
     0
  0
BLOCK_RECORD
  5
8C34
330
1
100
AcDbSymbolTableRecord
100
AcDbBlockTableRecord
  2
*D6
340
0
 70
     0
280
     1
281
     0
  0
BLOCK_RECORD
  5
8C40
330
1
100
AcDbSymbolTableRecord
100
AcDbBlockTableRecord
  2
*D7
340
0
 70
     0
280
     1
281
     0
  0
BLOCK_RECORD
  5
8C4C
330
1
100
AcDbSymbolTableRecord
100
AcDbBlockTableRecord
  2
*D8
340
0
 70
     0
280
     1
281
     0
  0
BLOCK_RECORD
  5
8C9E
330
1
100
AcDbSymbolTableRecord
100
AcDbBlockTableRecord
  2
*D9
340
0
 70
     0
280
     1
281
     0
  0
BLOCK_RECORD
  5
8CB6
330
1
100
AcDbSymbolTableRecord
100
AcDbBlockTableRecord
  2
*D10
340
0
 70
     0
280
     1
281
     0
  0
BLOCK_RECORD
  5
8CC2
330
1
100
AcDbSymbolTableRecord
100
AcDbBlockTableRecord
  2
*D11
340
0
 70
     0
280
     1
281
     0
  0
BLOCK_RECORD
  5
8CCE
330
1
100
AcDbSymbolTableRecord
100
AcDbBlockTableRecord
  2
*D12
340
0
 70
     0
280
     1
281
     0
  0
BLOCK_RECORD
  5
8CDA
330
1
100
AcDbSymbolTableRecord
100
AcDbBlockTableRecord
  2
*D13
340
0
 70
     0
280
     1
281
     0
  0
BLOCK_RECORD
  5
8CFE
330
1
100
AcDbSymbolTableRecord
100
AcDbBlockTableRecord
  2
*D14
340
0
 70
     0
280
     1
281
     0
  0
BLOCK_RECORD
  5
8DF3
330
1
100
AcDbSymbolTableRecord
100
AcDbBlockTableRecord
  2
*D15
340
0
 70
     0
280
     1
281
     0
  0
BLOCK_RECORD
  5
8E55
330
1
100
AcDbSymbolTableRecord
100
AcDbBlockTableRecord
  2
*D16
340
0
 70
     0
280
     1
281
     0
  0
BLOCK_RECORD
  5
8E62
330
1
100
AcDbSymbolTableRecord
100
AcDbBlockTableRecord
  2
*D17
340
0
 70
     0
280
     1
281
     0
  0
BLOCK_RECORD
  5
8E6F
330
1
100
AcDbSymbolTableRecord
100
AcDbBlockTableRecord
  2
*D18
340
0
 70
     0
280
     1
281
     0
  0
BLOCK_RECORD
  5
8E7C
330
1
100
AcDbSymbolTableRecord
100
AcDbBlockTableRecord
  2
*D19
340
0
 70
     0
280
     1
281
     0
  0
BLOCK_RECORD
  5
8E89
330
1
100
AcDbSymbolTableRecord
100
AcDbBlockTableRecord
  2
_NONE
340
0
 70
     0
280
     1
281
     0
  0
BLOCK_RECORD
  5
8E8D
330
1
100
AcDbSymbolTableRecord
100
AcDbBlockTableRecord
  2
*D21
340
0
 70
     0
280
     1
281
     0
  0
BLOCK_RECORD
  5
8E96
330
1
100
AcDbSymbolTableRecord
100
AcDbBlockTableRecord
  2
*D22
340
0
 70
     0
280
     1
281
     0
  0
ENDTAB
  0
ENDSEC
  0
SECTION
  2
BLOCKS
  0
BLOCK
  5
1A
330
19
100
AcDbEntity
  8
0
100
AcDbBlockBegin
  2
*MODEL_SPACE
 70
     0
 10
0.0
 20
0.0
 30
0.0
  3
*MODEL_SPACE
  1

  0
ENDBLK
  5
1B
330
19
100
AcDbEntity
  8
0
100
AcDbBlockEnd
  0
BLOCK
  5
17
330
16
100
AcDbEntity
 67
     1
  8
0
100
AcDbBlockBegin
  2
*PAPER_SPACE
 70
     0
 10
0.0
 20
0.0
 30
0.0
  3
*PAPER_SPACE
  1

  0
ENDBLK
  5
18
330
16
100
AcDbEntity
 67
     1
  8
0
100
AcDbBlockEnd
  0
BLOCK
  5
7E7D
330
7E79
100
AcDbEntity
  8
0
100
AcDbBlockBegin
  2
_OPEN
 70
     0
 10
0.0
 20
0.0
 30
0.0
  3
_OPEN
  1

  0
LINE
  5
7E7A
330
7E79
100
AcDbEntity
  8
0
  6
ByBlock
 62
     0
100
AcDbLine
 10
-1.0
 20
0.1666666666666666
 30
0.0
 11
0.0
 21
0.0
 31
0.0
  0
LINE
  5
7E7B
330
7E79
100
AcDbEntity
  8
0
  6
ByBlock
 62
     0
100
AcDbLine
 10
0.0
 20
0.0
 30
0.0
 11
-1.0
 21
-0.1666666666666666
 31
0.0
  0
LINE
  5
7E7C
330
7E79
100
AcDbEntity
  8
0
  6
ByBlock
 62
     0
100
AcDbLine
 10
0.0
 20
0.0
 30
0.0
 11
-1.0
 21
0.0
 31
0.0
  0
ENDBLK
  5
7E7E
330
7E79
100
AcDbEntity
  8
0
100
AcDbBlockEnd
  0
BLOCK
  5
83EA
330
83E9
100
AcDbEntity
  8
0
100
AcDbBlockBegin
  2
_DOT
 70
     0
 10
0.0
 20
0.0
 30
0.0
  3
_DOT
  1

  0
LWPOLYLINE
  5
842A
330
83E9
100
AcDbEntity
  8
0
  6
ByBlock
 62
     0
100
AcDbPolyline
 90
        2
 70
     1
 43
0.25
 10
-0.125
 20
0.0
 42
1.0
 10
0.125
 20
0.0
 42
1.0
  0
LINE
  5
842E
330
83E9
100
AcDbEntity
  8
0
  6
ByBlock
 62
     0
100
AcDbLine
 10
-0.25
 20
0.0
 30
0.0
 11
-1.0
 21
0.0
 31
0.0
  0
ENDBLK
  5
83F0
330
83E9
100
AcDbEntity
  8
0
100
AcDbBlockEnd
  0
BLOCK
  5
896A
330
8969
100
AcDbEntity
  8
0
100
AcDbBlockBegin
  2
YA_N
 70
     0
 10
0.0
 20
0.0
 30
0.0
  3
YA_N
  1

  0
ENDBLK
  5
896B
330
8969
100
AcDbEntity
  8
0
100
AcDbBlockEnd
  0
BLOCK
  5
8D0C
330
8C10
100
AcDbEntity
  8
0
100
AcDbBlockBegin
  2
*D3
 70
     1
 10
0.0
 20
0.0
 30
0.0
  3
*D3
  1

  0
LINE
  5
8D0D
330
8C10
100
AcDbEntity
  8
0
  6
ByBlock
440
 16777216
100
AcDbLine
 10
6310.267848515793
 20
1823.462450000258
 30
0.0
 11
6486.310569629196
 21
1823.462450000258
 31
0.0
  0
LINE
  5
8D0E
330
8C10
100
AcDbEntity
  8
0
  6
ByBlock
440
 16777216
100
AcDbLine
 10
6310.267848515794
 20
1508.462450000258
 30
0.0
 11
6486.310569629196
 21
1508.462450000258
 31
0.0
  0
LINE
  5
8D0F
330
8C10
100
AcDbEntity
  8
0
  6
ByBlock
440
 16777216
100
AcDbLine
 10
6471.310569629197
 20
1793.462450000258
 30
0.0
 11
6471.310569629197
 21
1538.462450000258
 31
0.0
  0
INSERT
  5
8D10
330
8C10
100
AcDbEntity
  8
0
  6
ByBlock
440
 16777216
100
AcDbBlockReference
  2
_OPEN
 10
6471.310569629197
 20
1823.462450000258
 30
0.0
 41
30.0
 42
30.0
 43
30.0
 50
90.0
  0
INSERT
  5
8D11
330
8C10
100
AcDbEntity
  8
0
  6
ByBlock
440
 16777216
100
AcDbBlockReference
  2
_OPEN
 10
6471.310569629197
 20
1508.462450000258
 30
0.0
 41
30.0
 42
30.0
 43
30.0
 50
270.0
  0
MTEXT
  5
8D12
330
8C10
100
AcDbEntity
  8
0
  6
ByBlock
440
 16777216
100
AcDbMText
 10
6441.310569629196
 20
1665.962450000258
 30
0.0
 40
45.0
 41
0.0
 46
0.0
 71
     5
 72
     5
  1
\A1;φ 315
 11
0.0
 21
1.0
 31
0.0
 73
     1
 44
1.0
  0
POINT
  5
8D13
330
8C10
100
AcDbEntity
  8
DEFPOINTS
  6
ByBlock
 62
     0
440
 16777216
100
AcDbPoint
 10
6295.267848515793
 20
1823.462450000258
 30
0.0
  0
POINT
  5
8D14
330
8C10
100
AcDbEntity
  8
DEFPOINTS
  6
ByBlock
 62
     0
440
 16777216
100
AcDbPoint
 10
6295.267848515794
 20
1508.462450000258
 30
0.0
  0
POINT
  5
8D15
330
8C10
100
AcDbEntity
  8
DEFPOINTS
  6
ByBlock
 62
     0
440
 16777216
100
AcDbPoint
 10
6471.310569629197
 20
1508.462450000258
 30
0.0
  0
ENDBLK
  5
8D16
330
8C10
100
AcDbEntity
  8
0
100
AcDbBlockEnd
  0
BLOCK
  5
8D17
330
8C1C
100
AcDbEntity
  8
0
100
AcDbBlockBegin
  2
*D4
 70
     1
 10
0.0
 20
0.0
 30
0.0
  3
*D4
  1

  0
LINE
  5
8D18
330
8C1C
100
AcDbEntity
  8
0
  6
ByBlock
440
 16777216
100
AcDbLine
 10
5015.468694169642
 20
2048.823876478959
 30
0.0
 11
5015.468694169642
 21
2117.10624234601
 31
0.0
  0
LINE
  5
8D19
330
8C1C
100
AcDbEntity
  8
0
  6
ByBlock
440
 16777216
100
AcDbLine
 10
4739.545707345572
 20
1691.247602250804
 30
0.0
 11
4739.545707345572
 21
2117.10624234601
 31
0.0
  0
LINE
  5
8D1A
330
8C1C
100
AcDbEntity
  8
0
  6
ByBlock
440
 16777216
100
AcDbLine
 10
4985.468694169642
 20
2102.10624234601
 30
0.0
 11
4769.545707345572
 21
2102.10624234601
 31
0.0
  0
INSERT
  5
8D1B
330
8C1C
100
AcDbEntity
  8
0
  6
ByBlock
440
 16777216
100
AcDbBlockReference
  2
_OPEN
 10
5015.468694169642
 20
2102.10624234601
 30
0.0
 41
30.0
 42
30.0
 43
30.0
  0
INSERT
  5
8D1C
330
8C1C
100
AcDbEntity
  8
0
  6
ByBlock
440
 16777216
100
AcDbBlockReference
  2
_OPEN
 10
4739.545707345572
 20
2102.10624234601
 30
0.0
 41
30.0
 42
30.0
 43
30.0
 50
180.0
  0
MTEXT
  5
8D1D
330
8C1C
100
AcDbEntity
  8
0
  6
ByBlock
440
 16777216
100
AcDbMText
 10
4877.507200757607
 20
2132.10624234601
 30
0.0
 40
45.0
 41
0.0
 46
0.0
 71
     5
 72
     5
  1
\A1;274
 73
     1
 44
1.0
  0
POINT
  5
8D1E
330
8C1C
100
AcDbEntity
  8
DEFPOINTS
  6
ByBlock
 62
     0
440
 16777216
100
AcDbPoint
 10
5015.468694169642
 20
2033.823876478959
 30
0.0
  0
POINT
  5
8D1F
330
8C1C
100
AcDbEntity
  8
DEFPOINTS
  6
ByBlock
 62
     0
440
 16777216
100
AcDbPoint
 10
4739.545707345572
 20
1676.247602250804
 30
0.0
  0
POINT
  5
8D20
330
8C1C
100
AcDbEntity
  8
DEFPOINTS
  6
ByBlock
 62
     0
440
 16777216
100
AcDbPoint
 10
4739.545707345572
 20
2102.10624234601
 30
0.0
  0
ENDBLK
  5
8D21
330
8C1C
100
AcDbEntity
  8
0
100
AcDbBlockEnd
  0
BLOCK
  5
8D22
330
8C28
100
AcDbEntity
  8
0
100
AcDbBlockBegin
  2
*D5
 70
     1
 10
0.0
 20
0.0
 30
0.0
  3
*D5
  1

  0
LINE
  5
8D23
330
8C28
100
AcDbEntity
  8
0
  6
ByBlock
440
 16777216
100
AcDbLine
 10
5015.468694169642
 20
2048.823876478959
 30
0.0
 11
5015.468694169642
 21
2117.10624234601
 31
0.0
  0
LINE
  5
8D24
330
8C28
100
AcDbEntity
  8
0
  6
ByBlock
440
 16777216
100
AcDbLine
 10
5260.468694169641
 20
2058.573619675302
 30
0.0
 11
5260.468694169641
 21
2117.10624234601
 31
0.0
  0
LINE
  5
8D25
330
8C28
100
AcDbEntity
  8
0
  6
ByBlock
440
 16777216
100
AcDbLine
 10
5045.468694169642
 20
2102.10624234601
 30
0.0
 11
5230.46869416964
 21
2102.10624234601
 31
0.0
  0
INSERT
  5
8D26
330
8C28
100
AcDbEntity
  8
0
  6
ByBlock
440
 16777216
100
AcDbBlockReference
  2
_OPEN
 10
5015.468694169642
 20
2102.10624234601
 30
0.0
 41
30.0
 42
30.0
 43
30.0
 50
180.0
  0
INSERT
  5
8D27
330
8C28
100
AcDbEntity
  8
0
  6
ByBlock
440
 16777216
100
AcDbBlockReference
  2
_OPEN
 10
5260.468694169641
 20
2102.10624234601
 30
0.0
 41
30.0
 42
30.0
 43
30.0
  0
MTEXT
  5
8D28
330
8C28
100
AcDbEntity
  8
0
  6
ByBlock
440
 16777216
100
AcDbMText
 10
5137.968694169642
 20
2132.10624234601
 30
0.0
 40
45.0
 41
0.0
 46
0.0
 71
     5
 72
     5
  1
\A1;245
 73
     1
 44
1.0
  0
POINT
  5
8D29
330
8C28
100
AcDbEntity
  8
DEFPOINTS
  6
ByBlock
 62
     0
440
 16777216
100
AcDbPoint
 10
5015.468694169642
 20
2033.823876478959
 30
0.0
  0
POINT
  5
8D2A
330
8C28
100
AcDbEntity
  8
DEFPOINTS
  6
ByBlock
 62
     0
440
 16777216
100
AcDbPoint
 10
5260.468694169641
 20
2043.573619675302
 30
0.0
  0
POINT
  5
8D2B
330
8C28
100
AcDbEntity
  8
DEFPOINTS
  6
ByBlock
 62
     0
440
 16777216
100
AcDbPoint
 10
5260.468694169641
 20
2102.10624234601
 30
0.0
  0
ENDBLK
  5
8D2C
330
8C28
100
AcDbEntity
  8
0
100
AcDbBlockEnd
  0
BLOCK
  5
8D2D
330
8C34
100
AcDbEntity
  8
0
100
AcDbBlockBegin
  2
*D6
 70
     1
 10
0.0
 20
0.0
 30
0.0
  3
*D6
  1

  0
LINE
  5
8D2E
330
8C34
100
AcDbEntity
  8
0
  6
ByBlock
440
 16777216
100
AcDbLine
 10
5275.468694169642
 20
2016.962450000258
 30
0.0
 11
5477.004737289904
 21
2016.962450000258
 31
0.0
  0
LINE
  5
8D2F
330
8C34
100
AcDbEntity
  8
0
  6
ByBlock
440
 16777216
100
AcDbLine
 10
5305.462518545589
 20
1665.962450000258
 30
0.0
 11
5477.004737289904
 21
1665.962450000258
 31
0.0
  0
LINE
  5
8D30
330
8C34
100
AcDbEntity
  8
0
  6
ByBlock
440
 16777216
100
AcDbLine
 10
5462.004737289904
 20
1986.962450000258
 30
0.0
 11
5462.004737289904
 21
1695.962450000258
 31
0.0
  0
INSERT
  5
8D31
330
8C34
100
AcDbEntity
  8
0
  6
ByBlock
440
 16777216
100
AcDbBlockReference
  2
_OPEN
 10
5462.004737289904
 20
2016.962450000258
 30
0.0
 41
30.0
 42
30.0
 43
30.0
 50
90.0
  0
INSERT
  5
8D32
330
8C34
100
AcDbEntity
  8
0
  6
ByBlock
440
 16777216
100
AcDbBlockReference
  2
_OPEN
 10
5462.004737289904
 20
1665.962450000258
 30
0.0
 41
30.0
 42
30.0
 43
30.0
 50
270.0
  0
MTEXT
  5
8D33
330
8C34
100
AcDbEntity
  8
0
  6
ByBlock
440
 16777216
100
AcDbMText
 10
5432.004737289904
 20
1841.462450000258
 30
0.0
 40
45.0
 41
0.0
 46
0.0
 71
     5
 72
     5
  1
\A1;351
 11
0.0
 21
1.0
 31
0.0
 73
     1
 44
1.0
  0
POINT
  5
8D34
330
8C34
100
AcDbEntity
  8
DEFPOINTS
  6
ByBlock
 62
     0
440
 16777216
100
AcDbPoint
 10
5260.468694169642
 20
2016.962450000258
 30
0.0
  0
POINT
  5
8D35
330
8C34
100
AcDbEntity
  8
DEFPOINTS
  6
ByBlock
 62
     0
440
 16777216
100
AcDbPoint
 10
5290.46251854559
 20
1665.962450000258
 30
0.0
  0
POINT
  5
8D36
330
8C34
100
AcDbEntity
  8
DEFPOINTS
  6
ByBlock
 62
     0
440
 16777216
100
AcDbPoint
 10
5462.004737289904
 20
1665.962450000258
 30
0.0
  0
ENDBLK
  5
8D37
330
8C34
100
AcDbEntity
  8
0
100
AcDbBlockEnd
  0
BLOCK
  5
8D38
330
8C40
100
AcDbEntity
  8
0
100
AcDbBlockBegin
  2
*D7
 70
     1
 10
0.0
 20
0.0
 30
0.0
  3
*D7
  1

  0
LINE
  5
8D39
330
8C40
100
AcDbEntity
  8
0
  6
ByBlock
440
 16777216
100
AcDbLine
 10
5275.468694169642
 20
2016.962450000258
 30
0.0
 11
5366.906012838875
 21
2016.962450000258
 31
0.0
  0
LINE
  5
8D3A
330
8C40
100
AcDbEntity
  8
0
  6
ByBlock
440
 16777216
100
AcDbLine
 10
5275.468694169642
 20
1691.962450000257
 30
0.0
 11
5366.906012838875
 21
1691.962450000257
 31
0.0
  0
LINE
  5
8D3B
330
8C40
100
AcDbEntity
  8
0
  6
ByBlock
440
 16777216
100
AcDbLine
 10
5351.906012838874
 20
1986.962450000258
 30
0.0
 11
5351.906012838874
 21
1721.962450000258
 31
0.0
  0
INSERT
  5
8D3C
330
8C40
100
AcDbEntity
  8
0
  6
ByBlock
440
 16777216
100
AcDbBlockReference
  2
_OPEN
 10
5351.906012838874
 20
2016.962450000258
 30
0.0
 41
30.0
 42
30.0
 43
30.0
 50
90.0
  0
INSERT
  5
8D3D
330
8C40
100
AcDbEntity
  8
0
  6
ByBlock
440
 16777216
100
AcDbBlockReference
  2
_OPEN
 10
5351.906012838874
 20
1691.962450000257
 30
0.0
 41
30.0
 42
30.0
 43
30.0
 50
270.0
  0
MTEXT
  5
8D3E
330
8C40
100
AcDbEntity
  8
0
  6
ByBlock
440
 16777216
100
AcDbMText
 10
5321.906012838875
 20
1854.462450000258
 30
0.0
 40
45.0
 41
0.0
 46
0.0
 71
     5
 72
     5
  1
\A1;325
 11
0.0
 21
1.0
 31
0.0
 73
     1
 44
1.0
  0
POINT
  5
8D3F
330
8C40
100
AcDbEntity
  8
DEFPOINTS
  6
ByBlock
 62
     0
440
 16777216
100
AcDbPoint
 10
5260.468694169642
 20
2016.962450000258
 30
0.0
  0
POINT
  5
8D40
330
8C40
100
AcDbEntity
  8
DEFPOINTS
  6
ByBlock
 62
     0
440
 16777216
100
AcDbPoint
 10
5260.468694169642
 20
1691.962450000257
 30
0.0
  0
POINT
  5
8D41
330
8C40
100
AcDbEntity
  8
DEFPOINTS
  6
ByBlock
 62
     0
440
 16777216
100
AcDbPoint
 10
5351.906012838874
 20
1691.962450000257
 30
0.0
  0
ENDBLK
  5
8D42
330
8C40
100
AcDbEntity
  8
0
100
AcDbBlockEnd
  0
BLOCK
  5
8D43
330
8C4C
100
AcDbEntity
  8
0
100
AcDbBlockBegin
  2
*D8
 70
     1
 10
0.0
 20
0.0
 30
0.0
  3
*D8
  1

  0
LINE
  5
8D44
330
8C4C
100
AcDbEntity
  8
0
  6
ByBlock
440
 16777216
100
AcDbLine
 10
5305.462518545589
 20
1665.962450000258
 30
0.0
 11
5477.004737289904
 21
1665.962450000258
 31
0.0
  0
LINE
  5
8D45
330
8C4C
100
AcDbEntity
  8
0
  6
ByBlock
440
 16777216
100
AcDbLine
 10
5242.468694169642
 20
1385.962450000258
 30
0.0
 11
5477.004737289904
 21
1385.962450000258
 31
0.0
  0
LINE
  5
8D46
330
8C4C
100
AcDbEntity
  8
0
  6
ByBlock
440
 16777216
100
AcDbLine
 10
5462.004737289904
 20
1635.962450000258
 30
0.0
 11
5462.004737289904
 21
1415.962450000258
 31
0.0
  0
INSERT
  5
8D47
330
8C4C
100
AcDbEntity
  8
0
  6
ByBlock
440
 16777216
100
AcDbBlockReference
  2
_OPEN
 10
5462.004737289904
 20
1665.962450000258
 30
0.0
 41
30.0
 42
30.0
 43
30.0
 50
90.0
  0
INSERT
  5
8D48
330
8C4C
100
AcDbEntity
  8
0
  6
ByBlock
440
 16777216
100
AcDbBlockReference
  2
_OPEN
 10
5462.004737289904
 20
1385.962450000258
 30
0.0
 41
30.0
 42
30.0
 43
30.0
 50
270.0
  0
MTEXT
  5
8D49
330
8C4C
100
AcDbEntity
  8
0
  6
ByBlock
440
 16777216
100
AcDbMText
 10
5432.004737289904
 20
1525.962450000258
 30
0.0
 40
45.0
 41
0.0
 46
0.0
 71
     5
 72
     5
  1
\A1;280
 11
0.0
 21
1.0
 31
0.0
 73
     1
 44
1.0
  0
POINT
  5
8D4A
330
8C4C
100
AcDbEntity
  8
DEFPOINTS
  6
ByBlock
 62
     0
440
 16777216
100
AcDbPoint
 10
5290.46251854559
 20
1665.962450000258
 30
0.0
  0
POINT
  5
8D4B
330
8C4C
100
AcDbEntity
  8
DEFPOINTS
  6
ByBlock
 62
     0
440
 16777216
100
AcDbPoint
 10
5227.468694169641
 20
1385.962450000258
 30
0.0
  0
POINT
  5
8D4C
330
8C4C
100
AcDbEntity
  8
DEFPOINTS
  6
ByBlock
 62
     0
440
 16777216
100
AcDbPoint
 10
5462.004737289904
 20
1385.962450000258
 30
0.0
  0
ENDBLK
  5
8D4D
330
8C4C
100
AcDbEntity
  8
0
100
AcDbBlockEnd
  0
BLOCK
  5
8D8E
330
8C9E
100
AcDbEntity
  8
0
100
AcDbBlockBegin
  2
*D9
 70
     1
 10
0.0
 20
0.0
 30
0.0
  3
*D9
  1

  0
LINE
  5
8D8F
330
8C9E
100
AcDbEntity
  8
0
  6
ByBlock
440
 16777216
100
AcDbLine
 10
6291.067848515793
 20
2031.962450000257
 30
0.0
 11
6291.067848515793
 21
2121.48380216552
 31
0.0
  0
LINE
  5
8D90
330
8C9E
100
AcDbEntity
  8
0
  6
ByBlock
440
 16777216
100
AcDbLine
 10
5866.067848515794
 20
2031.962450000258
 30
0.0
 11
5866.067848515794
 21
2121.48380216552
 31
0.0
  0
LINE
  5
8D91
330
8C9E
100
AcDbEntity
  8
0
  6
ByBlock
440
 16777216
100
AcDbLine
 10
6261.067848515793
 20
2106.48380216552
 30
0.0
 11
5896.067848515794
 21
2106.48380216552
 31
0.0
  0
INSERT
  5
8D92
330
8C9E
100
AcDbEntity
  8
0
  6
ByBlock
440
 16777216
100
AcDbBlockReference
  2
_OPEN
 10
6291.067848515793
 20
2106.48380216552
 30
0.0
 41
30.0
 42
30.0
 43
30.0
  0
INSERT
  5
8D93
330
8C9E
100
AcDbEntity
  8
0
  6
ByBlock
440
 16777216
100
AcDbBlockReference
  2
_OPEN
 10
5866.067848515794
 20
2106.48380216552
 30
0.0
 41
30.0
 42
30.0
 43
30.0
 50
180.0
  0
MTEXT
  5
8D94
330
8C9E
100
AcDbEntity
  8
0
  6
ByBlock
440
 16777216
100
AcDbMText
 10
6078.567848515793
 20
2136.483802165519
 30
0.0
 40
45.0
 41
0.0
 46
0.0
 71
     5
 72
     5
  1
\A1;425
 73
     1
 44
1.0
  0
POINT
  5
8D95
330
8C9E
100
AcDbEntity
  8
DEFPOINTS
  6
ByBlock
 62
     0
440
 16777216
100
AcDbPoint
 10
6291.067848515793
 20
2016.962450000257
 30
0.0
  0
POINT
  5
8D96
330
8C9E
100
AcDbEntity
  8
DEFPOINTS
  6
ByBlock
 62
     0
440
 16777216
100
AcDbPoint
 10
5866.067848515794
 20
2016.962450000258
 30
0.0
  0
POINT
  5
8D97
330
8C9E
100
AcDbEntity
  8
DEFPOINTS
  6
ByBlock
 62
     0
440
 16777216
100
AcDbPoint
 10
5866.067848515794
 20
2106.48380216552
 30
0.0
  0
ENDBLK
  5
8D98
330
8C9E
100
AcDbEntity
  8
0
100
AcDbBlockEnd
  0
BLOCK
  5
8DA4
330
8CB6
100
AcDbEntity
  8
0
100
AcDbBlockBegin
  2
*D10
 70
     1
 10
0.0
 20
0.0
 30
0.0
  3
*D10
  1

  0
LINE
  5
8DA5
330
8CB6
100
AcDbEntity
  8
0
  6
ByBlock
440
 16777216
100
AcDbLine
 10
6368.567848515794
 20
1658.962450000258
 30
0.0
 11
6368.567848515794
 21
2213.41588913798
 31
0.0
  0
LINE
  5
8DA6
330
8CB6
100
AcDbEntity
  8
0
  6
ByBlock
440
 16777216
100
AcDbLine
 10
6078.567848515793
 20
2184.440809235149
 30
0.0
 11
6078.567848515793
 21
2213.41588913798
 31
0.0
  0
LINE
  5
8DA7
330
8CB6
100
AcDbEntity
  8
0
  6
ByBlock
440
 16777216
100
AcDbLine
 10
6338.567848515793
 20
2198.41588913798
 30
0.0
 11
6108.567848515793
 21
2198.41588913798
 31
0.0
  0
INSERT
  5
8DA8
330
8CB6
100
AcDbEntity
  8
0
  6
ByBlock
440
 16777216
100
AcDbBlockReference
  2
_OPEN
 10
6368.567848515794
 20
2198.41588913798
 30
0.0
 41
30.0
 42
30.0
 43
30.0
  0
INSERT
  5
8DA9
330
8CB6
100
AcDbEntity
  8
0
  6
ByBlock
440
 16777216
100
AcDbBlockReference
  2
_OPEN
 10
6078.567848515793
 20
2198.41588913798
 30
0.0
 41
30.0
 42
30.0
 43
30.0
 50
180.0
  0
MTEXT
  5
8DAA
330
8CB6
100
AcDbEntity
  8
0
  6
ByBlock
440
 16777216
100
AcDbMText
 10
6223.567848515793
 20
2240.201603423694
 30
0.0
 40
45.0
 41
0.0
 46
0.0
 71
     5
 72
     5
  1
\A1;(290)
 73
     1
 44
1.0
  0
POINT
  5
8DAB
330
8CB6
100
AcDbEntity
  8
DEFPOINTS
  6
ByBlock
 62
     0
440
 16777216
100
AcDbPoint
 10
6368.567848515794
 20
1643.962450000258
 30
0.0
  0
POINT
  5
8DAC
330
8CB6
100
AcDbEntity
  8
DEFPOINTS
  6
ByBlock
 62
     0
440
 16777216
100
AcDbPoint
 10
6078.567848515793
 20
2169.440809235149
 30
0.0
  0
POINT
  5
8DAD
330
8CB6
100
AcDbEntity
  8
DEFPOINTS
  6
ByBlock
 62
     0
440
 16777216
100
AcDbPoint
 10
6078.567848515793
 20
2198.41588913798
 30
0.0
  0
ENDBLK
  5
8DAE
330
8CB6
100
AcDbEntity
  8
0
100
AcDbBlockEnd
  0
BLOCK
  5
8DAF
330
8CC2
100
AcDbEntity
  8
0
100
AcDbBlockBegin
  2
*D11
 70
     1
 10
0.0
 20
0.0
 30
0.0
  3
*D11
  1

  0
LINE
  5
8DB0
330
8CC2
100
AcDbEntity
  8
0
  6
ByBlock
440
 16777216
100
AcDbLine
 10
4327.468694169641
 20
2998.541412447669
 30
0.0
 11
4327.468694169641
 21
3195.210696413286
 31
0.0
  0
LINE
  5
8DB1
330
8CC2
100
AcDbEntity
  8
0
  6
ByBlock
440
 16777216
100
AcDbLine
 10
5227.468694169641
 20
2998.541412447669
 30
0.0
 11
5227.468694169641
 21
3195.210696413286
 31
0.0
  0
LINE
  5
8DB2
330
8CC2
100
AcDbEntity
  8
0
  6
ByBlock
440
 16777216
100
AcDbLine
 10
4357.468694169642
 20
3180.210696413287
 30
0.0
 11
5197.468694169642
 21
3180.210696413287
 31
0.0
  0
INSERT
  5
8DB3
330
8CC2
100
AcDbEntity
  8
0
  6
ByBlock
440
 16777216
100
AcDbBlockReference
  2
_OPEN
 10
4327.468694169641
 20
3180.210696413287
 30
0.0
 41
30.0
 42
30.0
 43
30.0
 50
180.0
  0
INSERT
  5
8DB4
330
8CC2
100
AcDbEntity
  8
0
  6
ByBlock
440
 16777216
100
AcDbBlockReference
  2
_OPEN
 10
5227.468694169641
 20
3180.210696413287
 30
0.0
 41
30.0
 42
30.0
 43
30.0
  0
MTEXT
  5
8DB5
330
8CC2
100
AcDbEntity
  8
0
  6
ByBlock
440
 16777216
100
AcDbMText
 10
4777.468694169641
 20
3210.210696413287
 30
0.0
 40
45.0
 41
0.0
 46
0.0
 71
     5
 72
     5
  1
\A1;900
 73
     1
 44
1.0
  0
POINT
  5
8DB6
330
8CC2
100
AcDbEntity
  8
DEFPOINTS
  6
ByBlock
 62
     0
440
 16777216
100
AcDbPoint
 10
4327.468694169641
 20
2983.541412447669
 30
0.0
  0
POINT
  5
8DB7
330
8CC2
100
AcDbEntity
  8
DEFPOINTS
  6
ByBlock
 62
     0
440
 16777216
100
AcDbPoint
 10
5227.468694169641
 20
2983.541412447669
 30
0.0
  0
POINT
  5
8DB8
330
8CC2
100
AcDbEntity
  8
DEFPOINTS
  6
ByBlock
 62
     0
440
 16777216
100
AcDbPoint
 10
5227.468694169641
 20
3180.210696413287
 30
0.0
  0
ENDBLK
  5
8DB9
330
8CC2
100
AcDbEntity
  8
0
100
AcDbBlockEnd
  0
BLOCK
  5
8DBA
330
8CCE
100
AcDbEntity
  8
0
100
AcDbBlockBegin
  2
*D12
 70
     1
 10
0.0
 20
0.0
 30
0.0
  3
*D12
  1

  0
LINE
  5
8DBB
330
8CCE
100
AcDbEntity
  8
0
  6
ByBlock
440
 16777216
100
AcDbLine
 10
5242.468694169642
 20
2983.541412447669
 30
0.0
 11
5425.957198304907
 21
2983.541412447669
 31
0.0
  0
LINE
  5
8DBC
330
8CCE
100
AcDbEntity
  8
0
  6
ByBlock
440
 16777216
100
AcDbLine
 10
5242.468694169642
 20
2393.541412447668
 30
0.0
 11
5425.957198304907
 21
2393.541412447668
 31
0.0
  0
LINE
  5
8DBD
330
8CCE
100
AcDbEntity
  8
0
  6
ByBlock
440
 16777216
100
AcDbLine
 10
5410.957198304906
 20
2953.541412447669
 30
0.0
 11
5410.957198304906
 21
2423.541412447669
 31
0.0
  0
INSERT
  5
8DBE
330
8CCE
100
AcDbEntity
  8
0
  6
ByBlock
440
 16777216
100
AcDbBlockReference
  2
_OPEN
 10
5410.957198304906
 20
2983.541412447669
 30
0.0
 41
30.0
 42
30.0
 43
30.0
 50
90.0
  0
INSERT
  5
8DBF
330
8CCE
100
AcDbEntity
  8
0
  6
ByBlock
440
 16777216
100
AcDbBlockReference
  2
_OPEN
 10
5410.957198304906
 20
2393.541412447668
 30
0.0
 41
30.0
 42
30.0
 43
30.0
 50
270.0
  0
MTEXT
  5
8DC0
330
8CCE
100
AcDbEntity
  8
0
  6
ByBlock
440
 16777216
100
AcDbMText
 10
5380.957198304907
 20
2688.541412447668
 30
0.0
 40
45.0
 41
0.0
 46
0.0
 71
     5
 72
     5
  1
\A1;590
 11
0.0
 21
1.0
 31
0.0
 73
     1
 44
1.0
  0
POINT
  5
8DC1
330
8CCE
100
AcDbEntity
  8
DEFPOINTS
  6
ByBlock
 62
     0
440
 16777216
100
AcDbPoint
 10
5227.468694169641
 20
2983.541412447669
 30
0.0
  0
POINT
  5
8DC2
330
8CCE
100
AcDbEntity
  8
DEFPOINTS
  6
ByBlock
 62
     0
440
 16777216
100
AcDbPoint
 10
5227.468694169641
 20
2393.541412447668
 30
0.0
  0
POINT
  5
8DC3
330
8CCE
100
AcDbEntity
  8
DEFPOINTS
  6
ByBlock
 62
     0
440
 16777216
100
AcDbPoint
 10
5410.957198304906
 20
2393.541412447668
 30
0.0
  0
ENDBLK
  5
8DC4
330
8CCE
100
AcDbEntity
  8
0
100
AcDbBlockEnd
  0
BLOCK
  5
8E1A
330
8CDA
100
AcDbEntity
  8
0
100
AcDbBlockBegin
  2
*D13
 70
     1
 10
0.0
 20
0.0
 30
0.0
  3
*D13
  1

  0
LINE
  5
8FA0
330
8CDA
100
AcDbEntity
  8
3
440
 16777216
370
    -2
100
AcDbLine
 10
1904.919762949857
 20
1830.962450000258
 30
0.0
 11
1904.919762949857
 21
2213.41588913798
 31
0.0
  0
LINE
  5
8FA1
330
8CDA
100
AcDbEntity
  8
3
440
 16777216
370
    -2
100
AcDbLine
 10
2344.919762949858
 20
2198.41588913798
 30
0.0
 11
1934.919762949857
 21
2198.41588913798
 31
0.0
  0
INSERT
  5
8FA2
330
8CDA
100
AcDbEntity
  8
3
440
 16777216
370
    -2
100
AcDbBlockReference
  2
_OPEN
 10
2374.919762949858
 20
2198.41588913798
 30
0.0
 41
30.0
 42
30.0
 43
30.0
  0
INSERT
  5
8FA3
330
8CDA
100
AcDbEntity
  8
3
440
 16777216
370
    -2
100
AcDbBlockReference
  2
_OPEN
 10
1904.919762949857
 20
2198.41588913798
 30
0.0
 41
30.0
 42
30.0
 43
30.0
 50
180.0
  0
MTEXT
  5
8FA4
330
8CDA
100
AcDbEntity
  8
3
440
 16777216
100
AcDbMText
 10
2139.919762949858
 20
2240.201603423694
 30
0.0
 40
45.0
 41
0.0
 46
0.0
 71
     5
 72
     1
  1
\A1;(470)
 73
     1
 44
1.0
  0
POINT
  5
8FA5
330
8CDA
100
AcDbEntity
  8
DEFPOINTS
 62
     0
440
 16777216
100
AcDbPoint
 10
2374.919762949858
 20
2169.440809235149
 30
0.0
  0
POINT
  5
8FA6
330
8CDA
100
AcDbEntity
  8
DEFPOINTS
 62
     0
440
 16777216
100
AcDbPoint
 10
1904.919762949857
 20
1815.962450000258
 30
0.0
  0
POINT
  5
8FA7
330
8CDA
100
AcDbEntity
  8
DEFPOINTS
 62
     0
440
 16777216
100
AcDbPoint
 10
1904.919762949857
 20
2198.41588913798
 30
0.0
  0
ENDBLK
  5
8E23
330
8CDA
100
AcDbEntity
  8
0
100
AcDbBlockEnd
  0
BLOCK
  5
8DE6
330
8CFE
100
AcDbEntity
  8
0
100
AcDbBlockBegin
  2
*D14
 70
     1
 10
0.0
 20
0.0
 30
0.0
  3
*D14
  1

  0
LINE
  5
8EF1
330
8CFE
100
AcDbEntity
  8
3
 62
     0
440
 16777216
100
AcDbLine
 10
1531.320608603706
 20
1349.962450000258
 30
0.0
 11
1773.356651723968
 21
1349.962450000258
 31
0.0
  0
LINE
  5
8EF2
330
8CFE
100
AcDbEntity
  8
3
 62
     0
440
 16777216
100
AcDbLine
 10
1531.320608603706
 20
1284.962450000258
 30
0.0
 11
1773.356651723968
 21
1284.962450000257
 31
0.0
  0
LINE
  5
8EF3
330
8CFE
100
AcDbEntity
  8
3
 62
     0
440
 16777216
100
AcDbLine
 10
1758.356651723969
 20
1379.962450000257
 30
0.0
 11
1758.356651723969
 21
1409.962450000257
 31
0.0
  0
LINE
  5
8EF4
330
8CFE
100
AcDbEntity
  8
3
 62
     0
440
 16777216
100
AcDbLine
 10
1758.356651723969
 20
1254.962450000257
 30
0.0
 11
1758.356651723969
 21
1122.105307143114
 31
0.0
  0
LINE
  5
8EF5
330
8CFE
100
AcDbEntity
  8
3
 62
     0
440
 16777216
100
AcDbLine
 10
1758.356651723969
 20
1349.962450000258
 30
0.0
 11
1758.356651723969
 21
1284.962450000257
 31
0.0
  0
INSERT
  5
8EF6
330
8CFE
100
AcDbEntity
  8
3
 62
     0
440
 16777216
100
AcDbBlockReference
  2
_DOT
 10
1758.356651723969
 20
1349.962450000258
 30
0.0
 41
30.0
 42
30.0
 43
30.0
 50
270.0
  0
INSERT
  5
8EF7
330
8CFE
100
AcDbEntity
  8
3
 62
     0
440
 16777216
100
AcDbBlockReference
  2
_OPEN
 10
1758.356651723969
 20
1284.962450000257
 30
0.0
 41
30.0
 42
30.0
 43
30.0
 50
90.0
  0
MTEXT
  5
8EF8
330
8CFE
100
AcDbEntity
  8
3
 62
     0
440
 16777216
100
AcDbMText
 10
1720.856651723968
 20
1173.533878571687
 30
0.0
 40
45.0
 41
0.0
 46
0.0
 71
     5
 72
     5
  1
\A1;65
 11
0.0000000000000001
 21
1.0
 31
0.0
 73
     1
 44
1.0
  0
POINT
  5
8EF9
330
8CFE
100
AcDbEntity
  8
DEFPOINTS
 62
     0
440
 16777216
100
AcDbPoint
 10
1523.820608603706
 20
1349.962450000258
 30
0.0
  0
POINT
  5
8EFA
330
8CFE
100
AcDbEntity
  8
DEFPOINTS
 62
     0
440
 16777216
100
AcDbPoint
 10
1523.820608603706
 20
1284.962450000258
 30
0.0
  0
POINT
  5
8EFB
330
8CFE
100
AcDbEntity
  8
DEFPOINTS
 62
     0
440
 16777216
100
AcDbPoint
 10
1758.356651723969
 20
1284.962450000257
 30
0.0
  0
ENDBLK
  5
8DF2
330
8CFE
100
AcDbEntity
  8
0
100
AcDbBlockEnd
  0
BLOCK
  5
8E0B
330
8DF3
100
AcDbEntity
  8
0
100
AcDbBlockBegin
  2
*D15
 70
     1
 10
0.0
 20
0.0
 30
0.0
  3
*D15
  1

  0
LINE
  5
8EFC
330
8DF3
100
AcDbEntity
  8
3
 62
     0
440
 16777216
100
AcDbLine
 10
1556.820608603705
 20
2051.073619675302
 30
0.0
 11
1556.820608603705
 21
2199.031252816083
 31
0.0
  0
LINE
  5
8EFD
330
8DF3
100
AcDbEntity
  8
3
 62
     0
440
 16777216
100
AcDbLine
 10
591.8206086037062
 20
1508.462450000258
 30
0.0
 11
591.8206086037062
 21
2199.031252816083
 31
0.0
  0
LINE
  5
8EFE
330
8DF3
100
AcDbEntity
  8
3
 62
     0
440
 16777216
100
AcDbLine
 10
1526.820608603705
 20
2184.031252816083
 30
0.0
 11
621.8206086037062
 21
2184.031252816083
 31
0.0
  0
INSERT
  5
8EFF
330
8DF3
100
AcDbEntity
  8
3
 62
     0
440
 16777216
100
AcDbBlockReference
  2
_OPEN
 10
1556.820608603705
 20
2184.031252816083
 30
0.0
 41
30.0
 42
30.0
 43
30.0
  0
INSERT
  5
8F00
330
8DF3
100
AcDbEntity
  8
3
 62
     0
440
 16777216
100
AcDbBlockReference
  2
_OPEN
 10
591.8206086037062
 20
2184.031252816083
 30
0.0
 41
30.0
 42
30.0
 43
30.0
 50
180.0
  0
MTEXT
  5
8F01
330
8DF3
100
AcDbEntity
  8
3
 62
     0
440
 16777216
100
AcDbMText
 10
1120.202578237713
 20
2221.531252816083
 30
0.0
 40
45.0
 41
0.0
 46
0.0
 71
     5
 72
     5
  1
\A1;965
 73
     1
 44
1.0
  0
POINT
  5
8F02
330
8DF3
100
AcDbEntity
  8
DEFPOINTS
 62
     0
440
 16777216
100
AcDbPoint
 10
1556.820608603705
 20
2043.573619675302
 30
0.0
  0
POINT
  5
8F03
330
8DF3
100
AcDbEntity
  8
DEFPOINTS
 62
     0
440
 16777216
100
AcDbPoint
 10
591.8206086037062
 20
1500.962450000258
 30
0.0
  0
POINT
  5
8F04
330
8DF3
100
AcDbEntity
  8
DEFPOINTS
 62
     0
440
 16777216
100
AcDbPoint
 10
591.8206086037062
 20
2184.031252816083
 30
0.0
  0
ENDBLK
  5
8E15
330
8DF3
100
AcDbEntity
  8
0
100
AcDbBlockEnd
  0
BLOCK
  5
8E56
330
8E55
100
AcDbEntity
  8
0
100
AcDbBlockBegin
  2
*D16
 70
     1
 10
0.0
 20
0.0
 30
0.0
  3
*D16
  1

  0
LINE
  5
8F05
330
8E55
100
AcDbEntity
  8
3
 62
     0
440
 16777216
100
AcDbLine
 10
623.8206086037061
 20
1277.462450000258
 30
0.0
 11
623.8206086037061
 21
1170.912823576627
 31
0.0
  0
LINE
  5
8F06
330
8E55
100
AcDbEntity
  8
3
 62
     0
440
 16777216
100
AcDbLine
 10
1311.820608603706
 20
1277.462450000257
 30
0.0
 11
1311.820608603706
 21
1170.912823576627
 31
0.0
  0
LINE
  5
8F07
330
8E55
100
AcDbEntity
  8
3
 62
     0
440
 16777216
100
AcDbLine
 10
653.8206086037062
 20
1185.912823576627
 30
0.0
 11
1281.820608603706
 21
1185.912823576627
 31
0.0
  0
INSERT
  5
8F08
330
8E55
100
AcDbEntity
  8
3
 62
     0
440
 16777216
100
AcDbBlockReference
  2
_OPEN
 10
623.8206086037061
 20
1185.912823576627
 30
0.0
 41
30.0
 42
30.0
 43
30.0
 50
180.0
  0
INSERT
  5
8F09
330
8E55
100
AcDbEntity
  8
3
 62
     0
440
 16777216
100
AcDbBlockReference
  2
_OPEN
 10
1311.820608603706
 20
1185.912823576627
 30
0.0
 41
30.0
 42
30.0
 43
30.0
  0
MTEXT
  5
8F0A
330
8E55
100
AcDbEntity
  8
3
 62
     0
440
 16777216
100
AcDbMText
 10
967.8206086037063
 20
1223.412823576627
 30
0.0
 40
45.0
 41
0.0
 46
0.0
 71
     5
 72
     5
  1
\A1;688
 73
     1
 44
1.0
  0
POINT
  5
8F0B
330
8E55
100
AcDbEntity
  8
DEFPOINTS
 62
     0
440
 16777216
100
AcDbPoint
 10
623.8206086037061
 20
1284.962450000258
 30
0.0
  0
POINT
  5
8F0C
330
8E55
100
AcDbEntity
  8
DEFPOINTS
 62
     0
440
 16777216
100
AcDbPoint
 10
1311.820608603706
 20
1284.962450000257
 30
0.0
  0
POINT
  5
8F0D
330
8E55
100
AcDbEntity
  8
DEFPOINTS
 62
     0
440
 16777216
100
AcDbPoint
 10
1311.820608603706
 20
1185.912823576627
 30
0.0
  0
ENDBLK
  5
8E60
330
8E55
100
AcDbEntity
  8
0
100
AcDbBlockEnd
  0
BLOCK
  5
8E63
330
8E62
100
AcDbEntity
  8
0
100
AcDbBlockBegin
  2
*D17
 70
     1
 10
0.0
 20
0.0
 30
0.0
  3
*D17
  1

  0
LINE
  5
8F0E
330
8E62
100
AcDbEntity
  8
3
 62
     0
440
 16777216
100
AcDbLine
 10
1311.820608603706
 20
1277.462450000257
 30
0.0
 11
1311.820608603706
 21
1170.912823576627
 31
0.0
  0
LINE
  5
8F0F
330
8E62
100
AcDbEntity
  8
3
 62
     0
440
 16777216
100
AcDbLine
 10
1523.820608603706
 20
1277.462450000258
 30
0.0
 11
1523.820608603706
 21
1170.912823576627
 31
0.0
  0
LINE
  5
8F10
330
8E62
100
AcDbEntity
  8
3
 62
     0
440
 16777216
100
AcDbLine
 10
1341.820608603706
 20
1185.912823576627
 30
0.0
 11
1493.820608603706
 21
1185.912823576627
 31
0.0
  0
INSERT
  5
8F11
330
8E62
100
AcDbEntity
  8
3
 62
     0
440
 16777216
100
AcDbBlockReference
  2
_OPEN
 10
1311.820608603706
 20
1185.912823576627
 30
0.0
 41
30.0
 42
30.0
 43
30.0
 50
180.0
  0
INSERT
  5
8F12
330
8E62
100
AcDbEntity
  8
3
 62
     0
440
 16777216
100
AcDbBlockReference
  2
_OPEN
 10
1523.820608603706
 20
1185.912823576627
 30
0.0
 41
30.0
 42
30.0
 43
30.0
  0
MTEXT
  5
8F13
330
8E62
100
AcDbEntity
  8
3
 62
     0
440
 16777216
100
AcDbMText
 10
1417.820608603706
 20
1223.412823576627
 30
0.0
 40
45.0
 41
0.0
 46
0.0
 71
     5
 72
     5
  1
\A1;212
 73
     1
 44
1.0
  0
POINT
  5
8F14
330
8E62
100
AcDbEntity
  8
DEFPOINTS
 62
     0
440
 16777216
100
AcDbPoint
 10
1311.820608603706
 20
1284.962450000257
 30
0.0
  0
POINT
  5
8F15
330
8E62
100
AcDbEntity
  8
DEFPOINTS
 62
     0
440
 16777216
100
AcDbPoint
 10
1523.820608603706
 20
1284.962450000258
 30
0.0
  0
POINT
  5
8F16
330
8E62
100
AcDbEntity
  8
DEFPOINTS
 62
     0
440
 16777216
100
AcDbPoint
 10
1523.820608603706
 20
1185.912823576627
 30
0.0
  0
ENDBLK
  5
8E6D
330
8E62
100
AcDbEntity
  8
0
100
AcDbBlockEnd
  0
BLOCK
  5
8E70
330
8E6F
100
AcDbEntity
  8
0
100
AcDbBlockBegin
  2
*D18
 70
     1
 10
0.0
 20
0.0
 30
0.0
  3
*D18
  1

  0
LINE
  5
8F17
330
8E6F
100
AcDbEntity
  8
3
 62
     0
440
 16777216
100
AcDbLine
 10
2039.919762949858
 20
1277.462450000258
 30
0.0
 11
2039.919762949858
 21
1170.912823576627
 31
0.0
  0
LINE
  5
8F18
330
8E6F
100
AcDbEntity
  8
3
 62
     0
440
 16777216
100
AcDbLine
 10
2374.919762949857
 20
1277.462450000258
 30
0.0
 11
2374.919762949857
 21
1170.912823576627
 31
0.0
  0
LINE
  5
8F19
330
8E6F
100
AcDbEntity
  8
3
 62
     0
440
 16777216
100
AcDbLine
 10
2069.919762949858
 20
1185.912823576627
 30
0.0
 11
2344.919762949857
 21
1185.912823576627
 31
0.0
  0
INSERT
  5
8F1A
330
8E6F
100
AcDbEntity
  8
3
 62
     0
440
 16777216
100
AcDbBlockReference
  2
_OPEN
 10
2039.919762949858
 20
1185.912823576627
 30
0.0
 41
30.0
 42
30.0
 43
30.0
 50
180.0
  0
INSERT
  5
8F1B
330
8E6F
100
AcDbEntity
  8
3
 62
     0
440
 16777216
100
AcDbBlockReference
  2
_OPEN
 10
2374.919762949857
 20
1185.912823576627
 30
0.0
 41
30.0
 42
30.0
 43
30.0
  0
MTEXT
  5
8F1C
330
8E6F
100
AcDbEntity
  8
3
 62
     0
440
 16777216
100
AcDbMText
 10
2207.419762949858
 20
1223.412823576627
 30
0.0
 40
45.0
 41
0.0
 46
0.0
 71
     5
 72
     5
  1
\A1;335
 73
     1
 44
1.0
  0
POINT
  5
8F1D
330
8E6F
100
AcDbEntity
  8
DEFPOINTS
 62
     0
440
 16777216
100
AcDbPoint
 10
2039.919762949858
 20
1284.962450000258
 30
0.0
  0
POINT
  5
8F1E
330
8E6F
100
AcDbEntity
  8
DEFPOINTS
 62
     0
440
 16777216
100
AcDbPoint
 10
2374.919762949857
 20
1284.962450000258
 30
0.0
  0
POINT
  5
8F1F
330
8E6F
100
AcDbEntity
  8
DEFPOINTS
 62
     0
440
 16777216
100
AcDbPoint
 10
2374.919762949857
 20
1185.912823576627
 30
0.0
  0
ENDBLK
  5
8E7A
330
8E6F
100
AcDbEntity
  8
0
100
AcDbBlockEnd
  0
BLOCK
  5
8E7D
330
8E7C
100
AcDbEntity
  8
0
100
AcDbBlockBegin
  2
*D19
 70
     1
 10
0.0
 20
0.0
 30
0.0
  3
*D19
  1

  0
LINE
  5
8F20
330
8E7C
100
AcDbEntity
  8
3
 62
     0
440
 16777216
100
AcDbLine
 10
2374.919762949857
 20
1277.462450000258
 30
0.0
 11
2374.919762949857
 21
1170.912823576627
 31
0.0
  0
LINE
  5
8F21
330
8E7C
100
AcDbEntity
  8
3
 62
     0
440
 16777216
100
AcDbLine
 10
2629.919762949858
 20
1277.462450000258
 30
0.0
 11
2629.919762949858
 21
1170.912823576627
 31
0.0
  0
LINE
  5
8F22
330
8E7C
100
AcDbEntity
  8
3
 62
     0
440
 16777216
100
AcDbLine
 10
2404.919762949857
 20
1185.912823576627
 30
0.0
 11
2599.919762949858
 21
1185.912823576627
 31
0.0
  0
INSERT
  5
8F23
330
8E7C
100
AcDbEntity
  8
3
 62
     0
440
 16777216
100
AcDbBlockReference
  2
_OPEN
 10
2374.919762949857
 20
1185.912823576627
 30
0.0
 41
30.0
 42
30.0
 43
30.0
 50
180.0
  0
INSERT
  5
8F24
330
8E7C
100
AcDbEntity
  8
3
 62
     0
440
 16777216
100
AcDbBlockReference
  2
_OPEN
 10
2629.919762949858
 20
1185.912823576627
 30
0.0
 41
30.0
 42
30.0
 43
30.0
  0
MTEXT
  5
8F25
330
8E7C
100
AcDbEntity
  8
3
 62
     0
440
 16777216
100
AcDbMText
 10
2502.419762949858
 20
1223.412823576627
 30
0.0
 40
45.0
 41
0.0
 46
0.0
 71
     5
 72
     5
  1
\A1;255
 73
     1
 44
1.0
  0
POINT
  5
8F26
330
8E7C
100
AcDbEntity
  8
DEFPOINTS
 62
     0
440
 16777216
100
AcDbPoint
 10
2374.919762949857
 20
1284.962450000258
 30
0.0
  0
POINT
  5
8F27
330
8E7C
100
AcDbEntity
  8
DEFPOINTS
 62
     0
440
 16777216
100
AcDbPoint
 10
2629.919762949858
 20
1284.962450000258
 30
0.0
  0
POINT
  5
8F28
330
8E7C
100
AcDbEntity
  8
DEFPOINTS
 62
     0
440
 16777216
100
AcDbPoint
 10
2629.919762949858
 20
1185.912823576627
 30
0.0
  0
ENDBLK
  5
8E87
330
8E7C
100
AcDbEntity
  8
0
100
AcDbBlockEnd
  0
BLOCK
  5
8E8A
330
8E89
100
AcDbEntity
  8
0
100
AcDbBlockBegin
  2
_NONE
 70
     0
 10
0.0
 20
0.0
 30
0.0
  3
_NONE
  1

  0
CIRCLE
  5
8E8B
330
8E89
100
AcDbEntity
  8
0
  6
ByBlock
 62
     0
100
AcDbCircle
 10
0.0
 20
0.0
 30
0.0
 40
0.25
  0
ENDBLK
  5
8E8C
330
8E89
100
AcDbEntity
  8
0
100
AcDbBlockEnd
  0
BLOCK
  5
8E8E
330
8E8D
100
AcDbEntity
  8
0
100
AcDbBlockBegin
  2
*D21
 70
     1
 10
0.0
 20
0.0
 30
0.0
  3
*D21
  1

  0
LINE
  5
8E8F
330
8E8D
100
AcDbEntity
  8
0
  6
ByBlock
 62
     0
440
 16777216
100
AcDbLine
 10
1759.092275225832
 20
1349.962450000258
 30
0.0
 11
1759.092275225832
 21
1385.962450000258
 31
0.0
  0
MTEXT
  5
8E90
330
8E8D
100
AcDbEntity
  8
0
  6
ByBlock
 62
     0
440
 16777216
100
AcDbMText
 10
1830.877989511546
 20
1367.962450000258
 30
0.0
 40
45.0
 41
0.0
 46
0.0
 71
     5
 72
     5
  1
\A1;(36)
 11
0.0
 21
1.0
 31
0.0
 73
     1
 44
1.0
  0
POINT
  5
8E91
330
8E8D
100
AcDbEntity
  8
DEFPOINTS
  6
ByBlock
 62
     0
440
 16777216
100
AcDbPoint
 10
1523.820608603706
 20
1349.962450000258
 30
0.0
  0
POINT
  5
8E92
330
8E8D
100
AcDbEntity
  8
DEFPOINTS
  6
ByBlock
 62
     0
440
 16777216
100
AcDbPoint
 10
1523.820608603706
 20
1385.962450000258
 30
0.0
  0
POINT
  5
8E93
330
8E8D
100
AcDbEntity
  8
DEFPOINTS
  6
ByBlock
 62
     0
440
 16777216
100
AcDbPoint
 10
1759.092275225832
 20
1385.962450000258
 30
0.0
  0
ENDBLK
  5
8E94
330
8E8D
100
AcDbEntity
  8
0
100
AcDbBlockEnd
  0
BLOCK
  5
8E97
330
8E96
100
AcDbEntity
  8
0
100
AcDbBlockBegin
  2
*D22
 70
     1
 10
0.0
 20
0.0
 30
0.0
  3
*D22
  1

  0
LINE
  5
8F29
330
8E96
100
AcDbEntity
  8
3
 62
     0
440
 16777216
100
AcDbLine
 10
1564.320608603706
 20
2016.962450000258
 30
0.0
 11
1904.82497118306
 21
2016.962450000258
 31
0.0
  0
LINE
  5
8F2A
330
8E96
100
AcDbEntity
  8
3
 62
     0
440
 16777216
100
AcDbLine
 10
1531.320608603706
 20
1284.962450000258
 30
0.0
 11
1904.82497118306
 21
1284.962450000257
 31
0.0
  0
LINE
  5
8F2B
330
8E96
100
AcDbEntity
  8
3
 62
     0
440
 16777216
100
AcDbLine
 10
1889.82497118306
 20
1986.962450000258
 30
0.0
 11
1889.824971183059
 21
1314.962450000257
 31
0.0
  0
INSERT
  5
8F2C
330
8E96
100
AcDbEntity
  8
3
 62
     0
440
 16777216
100
AcDbBlockReference
  2
_OPEN
 10
1889.82497118306
 20
2016.962450000258
 30
0.0
 41
30.0
 42
30.0
 43
30.0
 50
90.0
  0
INSERT
  5
8F2D
330
8E96
100
AcDbEntity
  8
3
 62
     0
440
 16777216
100
AcDbBlockReference
  2
_OPEN
 10
1889.824971183059
 20
1284.962450000257
 30
0.0
 41
30.0
 42
30.0
 43
30.0
 50
270.0
  0
MTEXT
  5
8F2E
330
8E96
100
AcDbEntity
  8
3
 62
     0
440
 16777216
100
AcDbMText
 10
1840.539256897345
 20
1650.962450000258
 30
0.0
 40
45.0
 41
0.0
 46
0.0
 71
     5
 72
     5
  1
\A1;(732)
 11
0.0000000000000001
 21
1.0
 31
0.0
 73
     1
 44
1.0
  0
POINT
  5
8F2F
330
8E96
100
AcDbEntity
  8
DEFPOINTS
 62
     0
440
 16777216
100
AcDbPoint
 10
1556.820608603706
 20
2016.962450000258
 30
0.0
  0
POINT
  5
8F30
330
8E96
100
AcDbEntity
  8
DEFPOINTS
 62
     0
440
 16777216
100
AcDbPoint
 10
1523.820608603706
 20
1284.962450000258
 30
0.0
  0
POINT
  5
8F31
330
8E96
100
AcDbEntity
  8
DEFPOINTS
 62
     0
440
 16777216
100
AcDbPoint
 10
1889.824971183059
 20
1284.962450000257
 30
0.0
  0
ENDBLK
  5
8EA1
330
8E96
100
AcDbEntity
  8
0
100
AcDbBlockEnd
  0
ENDSEC
  0
SECTION
  2
ENTITIES
  0
LINE
  5
82F4
330
19
100
AcDbEntity
  8
4
100
AcDbLine
 10
2775.0
 20
750.0
 30
0.0
 11
2775.0
 21
450.0
 31
0.0
  0
LINE
  5
82F5
330
19
100
AcDbEntity
  8
4
100
AcDbLine
 10
1725.0
 20
750.0
 30
0.0
 11
1725.0
 21
450.0
 31
0.0
  0
LINE
  5
82F6
330
19
100
AcDbEntity
  8
4
100
AcDbLine
 10
975.0
 20
750.0
 30
0.0
 11
975.0
 21
450.0
 31
0.0
  0
LINE
  5
82F9
330
19
100
AcDbEntity
  8
4
100
AcDbLine
 10
975.0
 20
450.0
 30
0.0
 11
2775.0
 21
450.0
 31
0.0
  0
LINE
  5
82FA
330
19
100
AcDbEntity
  8
4
100
AcDbLine
 10
975.0
 20
600.0
 30
0.0
 11
2775.0
 21
600.0
 31
0.0
  0
TEXT
  5
82FB
330
19
100
AcDbEntity
  8
4
100
AcDbText
 10
1032.753121270352
 20
647.3145387999193
 30
0.0
 40
75.0
  1
機器名称
100
AcDbText
  0
TEXT
  5
82FC
330
19
100
AcDbEntity
  8
4
100
AcDbText
 10
1029.387159037196
 20
482.4677350980164
 30
0.0
 40
75.0
  1
機器型番
100
AcDbText
  0
TEXT
  5
82FD
330
19
100
AcDbEntity
  8
4
100
AcDbText
 10
1739.053602523099
 20
637.7992055396077
 30
0.0
 40
67.5
  1
ミツヤリミットロードファン
100
AcDbText
  0
TEXT
  5
82FE
330
19
100
AcDbEntity
  8
4
100
AcDbText
 10
1779.981743378221
 20
475.739376419915
 30
0.0
 40
75.0
  1
LL#2-5
100
AcDbText
  0
TEXT
  5
8300
330
19
100
AcDbEntity
  8
4
100
AcDbText
 10
1198.765535619423
 20
3575.143261998774
 30
0.0
 40
80.99999999999999
  1
床置防振ベット
100
AcDbText
  0
TEXT
  5
8301
330
19
100
AcDbEntity
  8
4
100
AcDbText
 10
442.5687551001756
 20
3800.821464298947
 30
0.0
 40
108.0
  1
遠心式両吸込両持リミットロードファン
100
AcDbText
  0
LINE
  5
8302
330
19
100
AcDbEntity
  8
4
100
AcDbLine
 10
375.0
 20
3704.113131397207
 30
0.0
 11
2775.0
 21
3704.113131397207
 31
0.0
  0
LINE
  5
8303
330
19
100
AcDbEntity
  8
4
100
AcDbLine
 10
375.0
 20
4004.113131397207
 30
0.0
 11
2775.0
 21
4004.113131397207
 31
0.0
  0
LINE
  5
8304
330
19
100
AcDbEntity
  8
4
100
AcDbLine
 10
975.0
 20
750.0
 30
0.0
 11
2775.0
 21
750.0
 31
0.0
  0
LINE
  5
8305
330
19
100
AcDbEntity
  8
4
100
AcDbLine
 10
375.0
 20
4004.113131397207
 30
0.0
 11
375.0
 21
3704.113131397207
 31
0.0
  0
TEXT
  5
8306
330
19
100
AcDbEntity
  8
4
100
AcDbText
 10
449.9294135185773
 20
3573.479216319515
 30
0.0
 40
80.99999999999999
  1
右回転右横向
100
AcDbText
  0
TEXT
  5
8307
330
19
100
AcDbEntity
  8
4
100
AcDbText
 10
2203.454338873935
 20
4059.091622242963
 30
0.0
 40
84.00000000000002
  1
No.
100
AcDbText
  0
TEXT
  5
8308
330
19
100
AcDbEntity
  8
4
100
AcDbText
 10
1966.94409390002
 20
3575.143261998774
 30
0.0
 40
80.99999999999999
  1
縮尺：1/15
100
AcDbText
  0
LINE
  5
8309
330
19
100
AcDbEntity
  8
4
100
AcDbLine
 10
2775.0
 20
4004.113131397207
 30
0.0
 11
2775.0
 21
3704.113131397207
 31
0.0
  0
LINE
  5
830A
330
19
100
AcDbEntity
  8
4
100
AcDbLine
 10
3150.0
 20
4425.0
 30
0.0
 11
3150.0
 21
4425.0
 31
0.0
  0
LINE
  5
830B
330
19
100
AcDbEntity
  8
4
100
AcDbLine
 10
2160.926133539797
 20
4021.895374688102
 30
0.0
 11
2160.926133539797
 21
4179.978392324628
 31
0.0
  0
LINE
  5
830C
330
19
100
AcDbEntity
  8
4
100
AcDbLine
 10
2160.926133539797
 20
4179.978392324628
 30
0.0
 11
2775.0
 21
4179.978392324628
 31
0.0
  0
LINE
  5
830D
330
19
100
AcDbEntity
  8
4
100
AcDbLine
 10
2775.0
 20
4179.978392324628
 30
0.0
 11
2775.0
 21
4021.895374688102
 31
0.0
  0
LINE
  5
830E
330
19
100
AcDbEntity
  8
4
100
AcDbLine
 10
2775.0
 20
4021.895374688102
 30
0.0
 11
2160.926133539797
 21
4021.895374688102
 31
0.0
  0
LINE
  5
830F
330
19
100
AcDbEntity
  8
4
100
AcDbLine
 10
0.0
 20
0.0
 30
0.0
 11
0.0
 21
4425.0
 31
0.0
  0
LINE
  5
8310
330
19
100
AcDbEntity
  8
4
100
AcDbLine
 10
0.0
 20
4425.0
 30
0.0
 11
3150.0
 21
4425.0
 31
0.0
  0
LINE
  5
8311
330
19
100
AcDbEntity
  8
4
100
AcDbLine
 10
3150.0
 20
4425.0
 30
0.0
 11
3150.0
 21
0.0
 31
0.0
  0
LINE
  5
8312
330
19
100
AcDbEntity
  8
4
100
AcDbLine
 10
3150.0
 20
0.0
 30
0.0
 11
0.0
 21
0.0
 31
0.0
  0
INSERT
  5
8B3E
330
19
100
AcDbEntity
  8
0
100
AcDbBlockReference
  2
YA_N
 10
3845.040869035669
 20
0.6360946145923663
 30
0.0
  0
INSERT
  5
8B3F
330
19
100
AcDbEntity
  8
0
100
AcDbBlockReference
  2
YA_N
 10
3845.040869035669
 20
0.6360946145923663
 30
0.0
  0
INSERT
  5
8B40
330
19
100
AcDbEntity
  8
0
100
AcDbBlockReference
  2
YA_N
 10
5491.151299354104
 20
349.4959068038203
 30
0.0
  0
INSERT
  5
8B41
330
19
100
AcDbEntity
  8
0
100
AcDbBlockReference
  2
YA_N
 10
3629.637232366299
 20
-1448.847913630894
 30
0.0
 41
10.0
 42
10.0
 43
10.0
  0
INSERT
  5
8B42
330
19
100
AcDbEntity
  8
0
100
AcDbBlockReference
  2
YA_N
 10
3629.637232366299
 20
-1448.847913630894
 30
0.0
 41
10.0
 42
10.0
 43
10.0
  0
INSERT
  5
8B43
330
19
100
AcDbEntity
  8
0
  6
ByBlock
 62
     2
100
AcDbBlockReference
  2
YA_N
 10
5000.950911053249
 20
-399.4625891338931
 30
0.0
 41
30.0
 42
30.0
 43
30.0
 50
90.0
  0
INSERT
  5
8B44
330
19
100
AcDbEntity
  8
0
  6
ByBlock
 62
     2
100
AcDbBlockReference
  2
YA_N
 10
5000.950911053249
 20
-399.4625891338931
 30
0.0
 41
30.0
 42
30.0
 43
30.0
 50
90.0
  0
DIMENSION
  5
8B64
330
19
100
AcDbEntity
  8
3
100
AcDbDimension
280
     0
  2
*D3
 10
2767.662484063261
 20
1508.462450000258
 30
0.0
 11
2737.662484063261
 21
1665.962450000258
 31
0.0
 12
-3703.648085565936
 22
0.0
 32
0.0
 70
    32
  1
φ <>
 71
     5
 42
-1.0
 73
     0
 74
     0
 75
     0
  3
MATSU
100
AcDbAlignedDimension
 13
2591.619762949858
 23
1823.462450000258
 33
0.0
 14
2591.619762949858
 24
1508.462450000258
 34
0.0
 50
90.0
100
AcDbRotatedDimension
1001
ACAD
1000
DSTYLE
1002
{
1070
    40
1040
15.0
1002
}
  0
DIMENSION
  5
8B65
330
19
100
AcDbEntity
  8
3
100
AcDbDimension
280
     0
  2
*D4
 10
1035.897621779636
 20
2102.10624234601
 30
0.0
 11
1173.859115191671
 21
2132.10624234601
 31
0.0
 12
-3703.648085565936
 22
0.0
 32
0.0
 70
    32
  1
274
 71
     5
 42
-1.0
 73
     0
 74
     0
 75
     0
  3
MATSU
100
AcDbAlignedDimension
 13
1311.820608603706
 23
2033.823876478959
 33
0.0
 14
1035.897621779636
 24
1676.247602250804
 34
0.0
100
AcDbRotatedDimension
1001
ACAD
1000
DSTYLE
1002
{
1070
    40
1040
15.0
1002
}
  0
LINE
  5
8B66
330
19
100
AcDbEntity
  8
1
100
AcDbLine
 10
2162.419762949859
 20
2016.962450000258
 30
0.0
 11
2162.419762949859
 21
1460.962450000257
 31
0.0
  0
LINE
  5
8B67
330
19
100
AcDbEntity
  8
1
100
AcDbLine
 10
2587.419762949858
 20
2016.962450000258
 30
0.0
 11
2587.419762949858
 21
1460.962450000257
 31
0.0
  0
LINE
  5
8B68
330
19
100
AcDbEntity
  8
2
100
AcDbLine
 10
1586.814432979654
 20
1665.962450000258
 30
0.0
 11
1018.768699517526
 21
1665.962450000258
 31
0.0
  0
DIMENSION
  5
8B69
330
19
100
AcDbEntity
  8
3
100
AcDbDimension
280
     0
  2
*D5
 10
1556.820608603705
 20
2102.10624234601
 30
0.0
 11
1434.320608603706
 21
2132.10624234601
 31
0.0
 12
-3703.648085565936
 22
0.0
 32
0.0
 70
    32
  1
245
 71
     5
 42
-1.0
 73
     0
 74
     0
 75
     0
  3
MATSU
100
AcDbAlignedDimension
 13
1311.820608603706
 23
2033.823876478959
 33
0.0
 14
1556.820608603705
 24
2043.573619675302
 34
0.0
100
AcDbRotatedDimension
1001
ACAD
1000
DSTYLE
1002
{
1070
    40
1040
15.0
1002
}
  0
DIMENSION
  5
8B6A
330
19
100
AcDbEntity
  8
3
100
AcDbDimension
280
     0
  2
*D6
 10
1758.356651723969
 20
1665.962450000258
 30
0.0
 11
1728.356651723968
 21
1841.462450000258
 31
0.0
 12
-3703.648085565936
 22
0.0
 32
0.0
 70
    32
  1
351
 71
     5
 42
-1.0
 73
     0
 74
     0
 75
     0
  3
MATSU
100
AcDbAlignedDimension
 13
1556.820608603706
 23
2016.962450000258
 33
0.0
 14
1586.814432979654
 24
1665.962450000258
 34
0.0
 50
270.0
100
AcDbRotatedDimension
1001
ACAD
1000
DSTYLE
1002
{
1070
    40
1040
15.0
1002
}
  0
DIMENSION
  5
8B6B
330
19
100
AcDbEntity
  8
3
100
AcDbDimension
280
     0
  2
*D7
 10
1648.257927272939
 20
1691.962450000257
 30
0.0
 11
1618.257927272939
 21
1854.462450000258
 31
0.0
 12
-3703.648085565936
 22
0.0
 32
0.0
 70
    32
  1
325
 71
     5
 42
-1.0
 73
     0
 74
     0
 75
     0
  3
MATSU
100
AcDbAlignedDimension
 13
1556.820608603706
 23
2016.962450000258
 33
0.0
 14
1556.820608603706
 24
1691.962450000257
 34
0.0
 50
270.0
100
AcDbRotatedDimension
1001
ACAD
1000
DSTYLE
1002
{
1070
    40
1040
15.0
1002
}
  0
LINE
  5
8B6C
330
19
100
AcDbEntity
  8
1
100
AcDbLine
 10
1556.820608603706
 20
1691.962450000257
 30
0.0
 11
1497.19978223358
 21
1691.962450000257
 31
0.0
  0
LINE
  5
8B6D
330
19
100
AcDbEntity
  8
1
100
AcDbLine
 10
1556.820608603705
 20
2016.962450000258
 30
0.0
 11
1556.820608603705
 21
2043.573619675302
 31
0.0
  0
LINE
  5
8B6E
330
19
100
AcDbEntity
  8
1
100
AcDbLine
 10
1556.820608603706
 20
1663.573619675302
 30
0.0
 11
1553.820608603706
 21
1663.573619675302
 31
0.0
  0
LINE
  5
8B6F
330
19
100
AcDbEntity
  8
1
100
AcDbLine
 10
1556.820608603706
 20
1688.573619675302
 30
0.0
 11
1556.820608603706
 21
1663.573619675302
 31
0.0
  0
LINE
  5
8B70
330
19
100
AcDbEntity
  8
2
100
AcDbLine
 10
1890.396378379248
 20
1665.962450000258
 30
0.0
 11
2641.209014002825
 21
1665.962450000258
 31
0.0
  0
LINE
  5
8B71
330
19
100
AcDbEntity
  8
1
100
AcDbLine
 10
1531.820608603706
 20
2015.003266326788
 30
0.0
 11
1531.820608603706
 21
2014.003266326788
 31
0.0
  0
LINE
  5
8B72
330
19
100
AcDbEntity
  8
1
100
AcDbLine
 10
1531.820608603706
 20
2014.16756520211
 30
0.0
 11
1531.820608603706
 21
1691.962450000257
 31
0.0
  0
LINE
  5
8B73
330
19
100
AcDbEntity
  8
2
100
AcDbLine
 10
1311.820608603706
 20
2033.823876478959
 30
0.0
 11
1311.820608603706
 21
1284.962450000257
 31
0.0
  0
LINE
  5
8B74
330
19
100
AcDbEntity
  8
1
100
AcDbLine
 10
1556.820608603706
 20
1683.573619675302
 30
0.0
 11
1556.820608603706
 21
2022.461907120771
 31
0.0
  0
LINE
  5
8B75
330
19
100
AcDbEntity
  8
1
100
AcDbLine
 10
1553.820608603706
 20
1663.573619675302
 30
0.0
 11
1553.820608603706
 21
2043.573619675302
 31
0.0
  0
LINE
  5
8B76
330
19
100
AcDbEntity
  8
1
100
AcDbLine
 10
1556.820608603705
 20
2043.573619675302
 30
0.0
 11
1553.820608603706
 21
2043.573619675302
 31
0.0
  0
LINE
  5
8B77
330
19
100
AcDbEntity
  8
1
100
AcDbLine
 10
2039.919762949858
 20
1385.962450000258
 30
0.0
 11
2629.919762949858
 21
1385.962450000258
 31
0.0
  0
LINE
  5
8B78
330
19
100
AcDbEntity
  8
1
100
AcDbLine
 10
2039.919762949858
 20
1349.962450000258
 30
0.0
 11
2629.919762949858
 21
1349.962450000258
 31
0.0
  0
LINE
  5
8B79
330
19
100
AcDbEntity
  8
1
100
AcDbLine
 10
2039.919762949858
 20
1284.962450000258
 30
0.0
 11
2629.919762949858
 21
1284.962450000258
 31
0.0
  0
LINE
  5
8B7A
330
19
100
AcDbEntity
  8
2
100
AcDbLine
 10
2374.919762949858
 20
2098.467550826024
 30
0.0
 11
2374.919762949857
 21
1284.962450000258
 31
0.0
  0
LINE
  5
8B7B
330
19
100
AcDbEntity
  8
1
100
AcDbLine
 10
2629.919762949859
 20
1460.962450000257
 30
0.0
 11
2629.919762949859
 21
1385.962450000258
 31
0.0
  0
LINE
  5
8B7C
330
19
100
AcDbEntity
  8
1
100
AcDbLine
 10
2039.919762949858
 20
1460.962450000257
 30
0.0
 11
2039.919762949858
 21
1385.962450000258
 31
0.0
  0
LINE
  5
8B7D
330
19
100
AcDbEntity
  8
1
100
AcDbLine
 10
2039.919762949858
 20
1349.962450000258
 30
0.0
 11
2039.919762949858
 21
1284.962450000258
 31
0.0
  0
LINE
  5
8B7E
330
19
100
AcDbEntity
  8
1
100
AcDbLine
 10
2629.919762949858
 20
1349.962450000258
 30
0.0
 11
2629.919762949858
 21
1284.962450000258
 31
0.0
  0
LINE
  5
8B7F
330
19
100
AcDbEntity
  8
1
100
AcDbLine
 10
2162.419762949859
 20
2016.962450000258
 30
0.0
 11
2587.419762949858
 21
2016.962450000258
 31
0.0
  0
LINE
  5
8B80
330
19
100
AcDbEntity
  8
1
100
AcDbLine
 10
2162.419762949858
 20
1691.962450000257
 30
0.0
 11
2587.419762949858
 21
1691.962450000257
 31
0.0
  0
LINE
  5
8B81
330
19
100
AcDbEntity
  8
1
100
AcDbLine
 10
2587.419762949858
 20
2016.962450000257
 30
0.0
 11
2162.419762949859
 21
1691.962450000257
 31
0.0
  0
LINE
  5
8B82
330
19
100
AcDbEntity
  8
1
100
AcDbLine
 10
2162.419762949859
 20
2016.962450000258
 30
0.0
 11
2587.419762949858
 21
1691.962450000257
 31
0.0
  0
LINE
  5
8B83
330
19
100
AcDbEntity
  8
1
100
AcDbLine
 10
1523.820608603706
 20
1385.962450000258
 30
0.0
 11
623.8206086037061
 21
1385.962450000258
 31
0.0
  0
LINE
  5
8B84
330
19
100
AcDbEntity
  8
1
100
AcDbLine
 10
1523.820608603706
 20
1349.962450000258
 30
0.0
 11
623.8206086037061
 21
1349.962450000258
 31
0.0
  0
LINE
  5
8B85
330
19
100
AcDbEntity
  8
1
100
AcDbLine
 10
1523.820608603706
 20
1284.962450000258
 30
0.0
 11
623.8206086037061
 21
1284.962450000258
 31
0.0
  0
LINE
  5
8B86
330
19
100
AcDbEntity
  8
1
100
AcDbLine
 10
1523.820608603706
 20
1460.962450000257
 30
0.0
 11
1523.820608603706
 21
1385.962450000258
 31
0.0
  0
LINE
  5
8B87
330
19
100
AcDbEntity
  8
1
100
AcDbLine
 10
623.8206086037061
 20
1460.962450000258
 30
0.0
 11
623.8206086037061
 21
1385.962450000258
 31
0.0
  0
LINE
  5
8B88
330
19
100
AcDbEntity
  8
1
100
AcDbLine
 10
623.8206086037061
 20
1349.962450000258
 30
0.0
 11
623.8206086037061
 21
1284.962450000258
 31
0.0
  0
LINE
  5
8B89
330
19
100
AcDbEntity
  8
1
100
AcDbLine
 10
1523.820608603706
 20
1349.962450000258
 30
0.0
 11
1523.820608603706
 21
1284.962450000258
 31
0.0
  0
LINE
  5
8B8A
330
19
100
AcDbEntity
  8
2
100
AcDbLine
 10
791.8206086037062
 20
1871.360450000258
 30
0.0
 11
791.8206086037062
 21
1284.962450000258
 31
0.0
  0
LINE
  5
8B8B
330
19
100
AcDbEntity
  8
2
100
AcDbLine
 10
601.1892801023695
 20
1667.962450000258
 30
0.0
 11
999.7195086037063
 21
1667.962450000258
 31
0.0
  0
LINE
  5
8B8C
330
19
100
AcDbEntity
  8
2
100
AcDbLine
 10
1311.820608603706
 20
2344.877051769242
 30
0.0
 11
1311.820608603706
 21
3073.499323021622
 31
0.0
  0
LINE
  5
8B8D
330
19
100
AcDbEntity
  8
1
100
AcDbLine
 10
623.8206086037061
 20
2983.541412447669
 30
0.0
 11
1523.820608603706
 21
2983.541412447669
 31
0.0
  0
LINE
  5
8B8E
330
19
100
AcDbEntity
  8
1
100
AcDbLine
 10
623.8206086037061
 20
2393.541412447669
 30
0.0
 11
1523.820608603706
 21
2393.541412447668
 31
0.0
  0
LINE
  5
8B8F
330
19
100
AcDbEntity
  8
1
100
AcDbLine
 10
1523.820608603706
 20
2393.541412447668
 30
0.0
 11
1523.820608603706
 21
2516.041412447669
 31
0.0
  0
LINE
  5
8B90
330
19
100
AcDbEntity
  8
1
100
AcDbLine
 10
623.8206086037061
 20
2393.541412447668
 30
0.0
 11
623.8206086037061
 21
2983.541412447669
 31
0.0
  0
LINE
  5
8B91
330
19
100
AcDbEntity
  8
1
100
AcDbLine
 10
2091.919762949858
 20
1570.962450000258
 30
0.0
 11
2151.919762949858
 21
1570.962450000258
 31
0.0
  0
LINE
  5
8B92
330
19
100
AcDbEntity
  8
1
100
AcDbLine
 10
2081.919762949858
 20
1640.962450000258
 30
0.0
 11
2081.919762949858
 21
1580.962450000258
 31
0.0
  0
LINE
  5
8B93
330
19
100
AcDbEntity
  8
1
100
AcDbLine
 10
2664.919762949857
 20
1640.962450000258
 30
0.0
 11
2664.919762949856
 21
1580.962450000258
 31
0.0
  0
LINE
  5
8B94
330
19
100
AcDbEntity
  8
1
100
AcDbLine
 10
2594.919762949857
 20
1570.962450000258
 30
0.0
 11
2654.919762949857
 21
1570.962450000258
 31
0.0
  0
LINE
  5
8B95
330
19
100
AcDbEntity
  8
1
100
AcDbLine
 10
2594.919762949857
 20
1650.962450000258
 30
0.0
 11
2654.919762949857
 21
1650.962450000258
 31
0.0
  0
DIMENSION
  5
8B96
330
19
100
AcDbEntity
  8
3
100
AcDbDimension
280
     0
  2
*D8
 10
1758.356651723969
 20
1385.962450000258
 30
0.0
 11
1728.356651723968
 21
1525.962450000258
 31
0.0
 12
-3703.648085565936
 22
0.0
 32
0.0
 70
    32
 71
     5
 42
-1.0
 73
     0
 74
     0
 75
     0
  3
MATSU
100
AcDbAlignedDimension
 13
1586.814432979654
 23
1665.962450000258
 33
0.0
 14
1523.820608603706
 24
1385.962450000258
 34
0.0
 50
90.0
100
AcDbRotatedDimension
1001
ACAD
1000
DSTYLE
1002
{
1070
    40
1040
15.0
1002
}
  0
DIMENSION
  5
8B9D
330
19
100
AcDbEntity
  8
3
100
AcDbDimension
280
     0
  2
*D9
 10
2162.419762949859
 20
2106.48380216552
 30
0.0
 11
2374.919762949858
 21
2136.483802165519
 31
0.0
 12
-3703.648085565936
 22
0.0
 32
0.0
 70
    32
 71
     5
 42
-1.0
 73
     0
 74
     0
 75
     0
  3
MATSU
100
AcDbAlignedDimension
 13
2587.419762949858
 23
2016.962450000257
 33
0.0
 14
2162.419762949859
 24
2016.962450000258
 34
0.0
100
AcDbRotatedDimension
1001
ACAD
1000
DSTYLE
1002
{
1070
    40
1040
15.0
1002
}
  0
LINE
  5
8B9E
330
19
100
AcDbEntity
  8
1
100
AcDbLine
 10
1556.820608603706
 20
2491.041412447668
 30
0.0
 11
1556.820608603706
 21
2966.041412447669
 31
0.0
  0
LINE
  5
8B9F
330
19
100
AcDbEntity
  8
1
100
AcDbLine
 10
1037.820608603706
 20
2516.041412447669
 30
0.0
 11
1037.820608603706
 21
2941.041412447669
 31
0.0
  0
LINE
  5
8BA0
330
19
100
AcDbEntity
  8
1
100
AcDbLine
 10
1037.820608603706
 20
2941.041412447669
 30
0.0
 11
1553.820608603706
 21
2941.041412447669
 31
0.0
  0
LINE
  5
8BA1
330
19
100
AcDbEntity
  8
1
100
AcDbLine
 10
1037.820608603706
 20
2516.041412447669
 30
0.0
 11
1553.820608603706
 21
2516.041412447669
 31
0.0
  0
LINE
  5
8BA2
330
19
100
AcDbEntity
  8
1
100
AcDbLine
 10
1553.820608603706
 20
2491.041412447668
 30
0.0
 11
1553.820608603706
 21
2966.041412447669
 31
0.0
  0
LINE
  5
8BA3
330
19
100
AcDbEntity
  8
1
100
AcDbLine
 10
1553.820608603706
 20
2491.041412447668
 30
0.0
 11
1556.820608603706
 21
2491.041412447669
 31
0.0
  0
LINE
  5
8BA4
330
19
100
AcDbEntity
  8
1
100
AcDbLine
 10
1553.820608603706
 20
2966.041412447669
 30
0.0
 11
1556.820608603706
 21
2966.041412447669
 31
0.0
  0
LINE
  5
8BA6
330
19
100
AcDbEntity
  8
1
100
AcDbLine
 10
1904.919762949857
 20
1815.962450000257
 30
0.0
 11
1904.919762949857
 21
1515.989073018467
 31
0.0
  0
CIRCLE
  5
8BA7
330
19
100
AcDbEntity
  8
1
100
AcDbCircle
 10
1311.820608603706
 20
1665.962450000258
 30
0.0
 40
182.5
  0
LINE
  5
8BA8
330
19
100
AcDbEntity
  8
1
100
AcDbLine
 10
2091.919762949859
 20
1650.962450000258
 30
0.0
 11
2081.919762949858
 21
1640.962450000258
 31
0.0
  0
LINE
  5
8BA9
330
19
100
AcDbEntity
  8
1
100
AcDbLine
 10
2081.919762949858
 20
1580.962450000258
 30
0.0
 11
2091.919762949858
 21
1570.962450000258
 31
0.0
  0
LINE
  5
8BAA
330
19
100
AcDbEntity
  8
1
100
AcDbLine
 10
2654.919762949857
 20
1650.962450000258
 30
0.0
 11
2664.919762949857
 21
1640.962450000258
 31
0.0
  0
LINE
  5
8BAB
330
19
100
AcDbEntity
  8
1
100
AcDbLine
 10
2664.919762949856
 20
1580.962450000258
 30
0.0
 11
2654.919762949857
 21
1570.962450000258
 31
0.0
  0
LINE
  5
8BAC
330
19
100
AcDbEntity
  8
2
100
AcDbLine
 10
1888.376513672787
 20
1665.989073018467
 30
0.0
 11
2244.434090067885
 21
1665.989073018467
 31
0.0
  0
LINE
  5
8BAD
330
19
100
AcDbEntity
  8
1
100
AcDbLine
 10
2091.919762949859
 20
1650.962450000258
 30
0.0
 11
2151.919762949859
 21
1650.962450000258
 31
0.0
  0
LINE
  5
8BAE
330
19
100
AcDbEntity
  8
1
100
AcDbLine
 10
2151.919762949859
 20
1650.962450000258
 30
0.0
 11
2151.919762949858
 21
1570.962450000258
 31
0.0
  0
LINE
  5
8BAF
330
19
100
AcDbEntity
  8
1
100
AcDbLine
 10
2594.919762949857
 20
1650.962450000258
 30
0.0
 11
2594.919762949857
 21
1570.962450000258
 31
0.0
  0
LINE
  5
8BB0
330
19
100
AcDbEntity
  8
1
100
AcDbLine
 10
641.8206086037062
 20
2258.541412447669
 30
0.0
 11
1461.820608603706
 21
2258.541412447669
 31
0.0
  0
DIMENSION
  5
8BB1
330
19
100
AcDbEntity
  8
3
100
AcDbDimension
280
     0
  2
*D10
 10
2374.919762949858
 20
2198.41588913798
 30
0.0
 11
2519.919762949858
 21
2240.201603423694
 31
0.0
 12
-3703.648085565936
 22
0.0
 32
0.0
 70
    32
  1
(<>)
 71
     5
 42
-1.0
 73
     0
 74
     0
 75
     0
  3
MATSU
100
AcDbAlignedDimension
 13
2664.919762949858
 23
1643.962450000258
 33
0.0
 14
2374.919762949858
 24
2169.440809235149
 34
0.0
100
AcDbRotatedDimension
1001
ACAD
1000
DSTYLE
1002
{
1070
    40
1040
15.0
1002
}
  0
DIMENSION
  5
8BB2
330
19
100
AcDbEntity
  8
3
100
AcDbDimension
280
     0
  2
*D11
 10
1523.820608603706
 20
3180.210696413287
 30
0.0
 11
1073.820608603706
 21
3210.210696413287
 31
0.0
 12
-3703.648085565936
 22
0.0
 32
0.0
 70
    32
 71
     5
 42
-1.0
 73
     0
 74
     0
 75
     0
  3
MATSU
100
AcDbAlignedDimension
 13
623.8206086037061
 23
2983.541412447669
 33
0.0
 14
1523.820608603706
 24
2983.541412447669
 34
0.0
100
AcDbRotatedDimension
1001
ACAD
1000
DSTYLE
1002
{
1070
    40
1040
15.0
1002
}
  0
DIMENSION
  5
8BB3
330
19
100
AcDbEntity
  8
3
100
AcDbDimension
280
     0
  2
*D12
 10
1707.309112738971
 20
2393.541412447668
 30
0.0
 11
1677.309112738971
 21
2688.541412447668
 31
0.0
 12
-3703.648085565936
 22
0.0
 32
0.0
 70
    32
 71
     5
 42
-1.0
 73
     0
 74
     0
 75
     0
  3
MATSU
100
AcDbAlignedDimension
 13
1523.820608603706
 23
2983.541412447669
 33
0.0
 14
1523.820608603706
 24
2393.541412447668
 34
0.0
 50
90.0
100
AcDbRotatedDimension
1001
ACAD
1000
DSTYLE
1002
{
1070
    40
1040
15.0
1002
}
  0
LINE
  5
8BB4
330
19
100
AcDbEntity
  8
1
100
AcDbLine
 10
1326.820608603706
 20
2449.541412447669
 30
0.0
 11
1326.820608603706
 21
2516.041412447669
 31
0.0
  0
LINE
  5
8BB5
330
19
100
AcDbEntity
  8
1
100
AcDbLine
 10
1296.820608603706
 20
2449.541412447669
 30
0.0
 11
1296.820608603706
 21
2516.041412447669
 31
0.0
  0
LINE
  5
8BB6
330
19
100
AcDbEntity
  8
1
100
AcDbLine
 10
2096.919762949858
 20
1815.962450000258
 30
0.0
 11
2096.919762949858
 21
1777.021405879184
 31
0.0
  0
LINE
  5
8BB7
330
19
100
AcDbEntity
  8
1
100
AcDbLine
 10
1904.919762949857
 20
1815.962450000258
 30
0.0
 11
2096.919762949858
 21
1815.962450000258
 31
0.0
  0
LINE
  5
8BB8
330
19
100
AcDbEntity
  8
1
100
AcDbLine
 10
1904.919762949857
 20
1515.989073018467
 30
0.0
 11
2096.919762949858
 21
1515.989073018467
 31
0.0
  0
LINE
  5
8BB9
330
19
100
AcDbEntity
  8
1
100
AcDbLine
 10
2096.919762949858
 20
1540.363837830421
 30
0.0
 11
2096.919762949858
 21
1515.989073018467
 31
0.0
  0
DIMENSION
  5
8BBA
330
19
100
AcDbEntity
  8
3
100
AcDbDimension
280
     0
  2
*D13
 10
1904.919762949857
 20
2198.41588913798
 30
0.0
 11
2139.919762949858
 21
2240.201603423694
 31
0.0
 70
    32
  1
(<>)
 71
     5
 42
470.0
 73
     0
 74
     0
 75
     0
  3
MATSU
100
AcDbAlignedDimension
 13
2374.919762949858
 23
2169.440809235149
 33
0.0
 14
1904.919762949857
 24
1815.962450000258
 34
0.0
100
AcDbRotatedDimension
1001
ACAD
1000
DSTYLE
1002
{
1070
   287
1070
     4
1070
    40
1040
15.0
1070
    75
1070
     1
1070
   279
1070
     1
1070
   289
1070
     3
1002
}
  0
LINE
  5
8BBB
330
19
100
AcDbEntity
  8
1
100
AcDbLine
 10
1461.820608603706
 20
2258.541412447669
 30
0.0
 11
1461.820608603706
 21
2450.541412447668
 31
0.0
  0
LINE
  5
8BBC
330
19
100
AcDbEntity
  8
2
100
AcDbLine
 10
598.741910198778
 20
2728.541412447669
 30
0.0
 11
1626.744164050363
 21
2728.541412447669
 31
0.0
  0
LINE
  5
8BBD
330
19
100
AcDbEntity
  8
1
100
AcDbLine
 10
1523.820608603706
 20
2941.041412447669
 30
0.0
 11
1523.820608603706
 21
2983.541412447669
 31
0.0
  0
LINE
  5
8BBE
330
19
100
AcDbEntity
  8
1
100
AcDbLine
 10
1556.820608603706
 20
2016.962450000258
 30
0.0
 11
1311.66225437072
 21
1989.554875704867
 31
0.0
  0
ARC
  5
8BBF
330
19
100
AcDbEntity
  8
1
100
AcDbCircle
 10
1335.820608603706
 20
1689.962450000258
 30
0.0
 40
300.5648808806812
100
AcDbArc
 50
94.61020749586799
 51
180.0000000000001
  0
ARC
  5
8BC0
330
19
100
AcDbEntity
  8
1
100
AcDbCircle
 10
1293.055656019015
 20
1695.155778040349
 30
0.0
 40
257.8522322679215
100
AcDbArc
 50
181.1540559356371
 51
245.2641129542092
  0
ARC
  5
8BC1
330
19
100
AcDbEntity
  8
1
100
AcDbCircle
 10
1298.81766452848
 20
1641.886740938049
 30
0.0
 40
204.2895238493755
100
AcDbArc
 50
297.6712372764137
 51
1.563977764425071
  0
ARC
  5
8BC2
330
19
100
AcDbEntity
  8
1
100
AcDbCircle
 10
1330.320608603706
 20
1647.462450000257
 30
0.0
 40
172.7104762062497
100
AcDbArc
 50
0.0
 51
14.93106042372558
  0
DIMENSION
  5
8BC5
330
19
100
AcDbEntity
  8
3
100
AcDbDimension
280
     0
  2
*D14
 10
1758.356651723969
 20
1284.962450000257
 30
0.0
 11
1720.856651723968
 21
1173.533878571687
 31
0.0
 70
    32
 71
     5
 42
-1.0
 73
     0
 74
     0
 75
     0
  3
IGA
100
AcDbAlignedDimension
 13
1523.820608603706
 23
1349.962450000258
 33
0.0
 14
1523.820608603706
 24
1284.962450000258
 34
0.0
 50
90.0
100
AcDbRotatedDimension
1001
ACAD
1000
DSTYLE
1002
{
1070
   287
1070
     3
1070
    40
1040
15.0
1070
   143
1040
0.039
1070
   172
1070
     1
1070
   271
1070
     0
1070
   279
1070
     0
1070
   288
1070
     1
1070
     6
1000
DOT
1002
}
  0
ARC
  5
8BC6
330
19
100
AcDbEntity
  8
1
100
AcDbCircle
 10
1311.820608603706
 20
1665.962450000258
 30
0.0
 40
150.0
100
AcDbArc
 50
270.8814039965822
 51
91.70771629646953
  0
CIRCLE
  5
8BC7
330
19
100
AcDbEntity
  8
1
100
AcDbCircle
 10
1311.820608603706
 20
1665.962450000258
 30
0.0
 40
75.0
  0
ARC
  5
8BC8
330
19
100
AcDbEntity
  8
1
100
AcDbCircle
 10
791.8206086037062
 20
1667.962450000258
 30
0.0
 40
150.0
100
AcDbArc
 50
90.00000000000062
 51
270.8814039965821
  0
CIRCLE
  5
8BC9
330
19
100
AcDbEntity
  8
1
100
AcDbCircle
 10
791.8206086037062
 20
1667.962450000258
 30
0.0
 40
75.0
  0
LINE
  5
8BCA
330
19
100
AcDbEntity
  8
1
100
AcDbLine
 10
956.8206086037061
 20
1535.962450000258
 30
0.0
 11
626.8206086037062
 21
1535.962450000258
 31
0.0
  0
ARC
  5
8BCB
330
19
100
AcDbEntity
  8
1
100
AcDbCircle
 10
791.8206086037062
 20
1667.962450000258
 30
0.0
 40
142.5
100
AcDbArc
 50
180.0
 51
244.787
  0
ARC
  5
8BCC
330
19
100
AcDbEntity
  8
1
100
AcDbCircle
 10
791.8206086037062
 20
1667.962450000258
 30
0.0
 40
142.5
100
AcDbArc
 50
295.1874
 51
180.0
  0
LINE
  5
8BCD
330
19
100
AcDbEntity
  8
1
100
AcDbLine
 10
731.2793086037063
 20
1538.962450000258
 30
0.0
 11
852.361908603706
 21
1538.962450000258
 31
0.0
  0
LINE
  5
8BCE
330
19
100
AcDbEntity
  8
1
100
AcDbLine
 10
661.8206086037062
 20
1535.962450000258
 30
0.0
 11
711.8206086037062
 21
1535.962450000258
 31
0.0
  0
LINE
  5
8BCF
330
19
100
AcDbEntity
  8
1
100
AcDbLine
 10
672.2950086037062
 20
1590.053750000258
 30
0.0
 11
661.8206086037062
 21
1550.962450000258
 31
0.0
  0
LINE
  5
8BD0
330
19
100
AcDbEntity
  8
1
100
AcDbLine
 10
661.8206086037062
 20
1550.765050000258
 30
0.0
 11
661.8206086037062
 21
1535.962450000258
 31
0.0
  0
LINE
  5
8BD1
330
19
100
AcDbEntity
  8
1
100
AcDbLine
 10
921.8206086037062
 20
1535.962450000258
 30
0.0
 11
871.8206086037062
 21
1535.962450000258
 31
0.0
  0
LINE
  5
8BD2
330
19
100
AcDbEntity
  8
1
100
AcDbLine
 10
911.3034086037059
 20
1590.213050000258
 30
0.0
 11
921.8206086037062
 21
1550.962450000258
 31
0.0
  0
LINE
  5
8BD3
330
19
100
AcDbEntity
  8
1
100
AcDbLine
 10
921.8206086037062
 20
1550.765050000258
 30
0.0
 11
921.8206086037062
 21
1535.962450000258
 31
0.0
  0
LINE
  5
8BD4
330
19
100
AcDbEntity
  8
1
100
AcDbLine
 10
991.8206086037061
 20
1500.962450000258
 30
0.0
 11
591.8206086037062
 21
1500.962450000258
 31
0.0
  0
LINE
  5
8BD5
330
19
100
AcDbEntity
  8
1
100
AcDbLine
 10
991.8206086037061
 20
1500.962450000258
 30
0.0
 11
991.8206086037061
 21
1460.962450000258
 31
0.0
  0
LINE
  5
8BD6
330
19
100
AcDbEntity
  8
1
100
AcDbLine
 10
591.8206086037062
 20
1500.962450000258
 30
0.0
 11
591.8206086037062
 21
1460.962450000257
 31
0.0
  0
LINE
  5
8BD7
330
19
100
AcDbEntity
  8
1
100
AcDbLine
 10
956.8206086037061
 20
1535.962450000258
 30
0.0
 11
966.8206086037061
 21
1500.962450000258
 31
0.0
  0
LINE
  5
8BD8
330
19
100
AcDbEntity
  8
1
100
AcDbLine
 10
626.8206086037062
 20
1535.962450000258
 30
0.0
 11
616.8206086037062
 21
1500.962450000258
 31
0.0
  0
LINE
  5
8BD9
330
19
100
AcDbEntity
  8
1
100
AcDbLine
 10
1307.350479705798
 20
1815.895828364237
 30
0.0
 11
791.8206086037062
 21
1817.962450000258
 31
0.0
  0
LINE
  5
8BDA
330
19
100
AcDbEntity
  8
1
100
AcDbLine
 10
1314.128027860187
 20
1515.980198329019
 30
0.0
 11
794.1280278601871
 21
1517.980198329019
 31
0.0
  0
LINE
  5
8BDB
330
19
100
AcDbEntity
  8
1
100
AcDbLine
 10
1310.666898975466
 20
1740.953575835877
 30
0.0
 11
790.6668989754662
 21
1742.953575835877
 31
0.0
  0
LINE
  5
8BDC
330
19
100
AcDbEntity
  8
1
100
AcDbLine
 10
1312.974318231946
 20
1590.971324164638
 30
0.0
 11
792.9743182319461
 21
1592.971324164638
 31
0.0
  0
LINE
  5
8BDD
330
19
100
AcDbEntity
  8
1
100
AcDbLine
 10
2004.919762949858
 20
1740.953575835877
 30
0.0
 11
2004.919762949858
 21
1590.989073018467
 31
0.0
  0
LINE
  5
8BDE
330
19
100
AcDbEntity
  8
1
100
AcDbLine
 10
2064.919762949858
 20
1740.953575835877
 30
0.0
 11
2064.919762949858
 21
1590.989073018467
 31
0.0
  0
LINE
  5
8BDF
330
19
100
AcDbEntity
  8
1
100
AcDbLine
 10
2004.919762949858
 20
1740.953575835877
 30
0.0
 11
2064.919762949858
 21
1740.953575835877
 31
0.0
  0
LINE
  5
8BE0
330
19
100
AcDbEntity
  8
1
100
AcDbLine
 10
2004.919762949858
 20
1590.953575835877
 30
0.0
 11
2064.919762949858
 21
1590.953575835877
 31
0.0
  0
LINE
  5
8BE1
330
19
100
AcDbEntity
  8
1
100
AcDbLine
 10
2004.919762949858
 20
1590.989073018467
 30
0.0
 11
2064.919762949858
 21
1590.989073018467
 31
0.0
  0
LINE
  5
8BE2
330
19
100
AcDbEntity
  8
1
100
AcDbLine
 10
2004.919762949858
 20
1740.989073018467
 30
0.0
 11
2064.919762949858
 21
1740.989073018466
 31
0.0
  0
LINE
  5
8BE3
330
19
100
AcDbEntity
  8
1
100
AcDbLine
 10
2162.419762949859
 20
1533.989073018467
 30
0.0
 11
2128.658152243226
 21
1533.989073018467
 31
0.0
  0
LINE
  5
8BE4
330
19
100
AcDbEntity
  8
1
100
AcDbLine
 10
2162.419762949859
 20
1807.989073018467
 30
0.0
 11
2128.658152243226
 21
1807.989073018467
 31
0.0
  0
LINE
  5
8BE5
330
19
100
AcDbEntity
  8
1
100
AcDbLine
 10
2094.658152243226
 20
1687.989073018467
 30
0.0
 11
2064.919762949858
 21
1687.989073018467
 31
0.0
  0
LINE
  5
8BE6
330
19
100
AcDbEntity
  8
1
100
AcDbLine
 10
2111.658152243226
 20
1684.989073018467
 30
0.0
 11
2064.919762949858
 21
1684.989073018467
 31
0.0
  0
LINE
  5
8BE7
330
19
100
AcDbEntity
  8
1
100
AcDbLine
 10
2087.946385968067
 20
1646.989073018467
 30
0.0
 11
2064.919762949858
 21
1646.989073018467
 31
0.0
  0
LINE
  5
8BE8
330
19
100
AcDbEntity
  8
1
100
AcDbLine
 10
2118.658152243226
 20
1650.962450000258
 30
0.0
 11
2118.658152243226
 21
1723.989073018467
 31
0.0
  0
LINE
  5
8BE9
330
19
100
AcDbEntity
  8
1
100
AcDbLine
 10
2128.658152243226
 20
1807.989073018467
 30
0.0
 11
2128.658152243226
 21
1650.962450000258
 31
0.0
  0
LINE
  5
8BEA
330
19
100
AcDbEntity
  8
1
100
AcDbLine
 10
2094.658152243226
 20
1684.989073018467
 30
0.0
 11
2094.658152243226
 21
1687.989073018467
 31
0.0
  0
LINE
  5
8BEB
330
19
100
AcDbEntity
  8
1
100
AcDbLine
 10
2118.658152243226
 20
1685.989073018467
 30
0.0
 11
2111.658152243226
 21
1685.989073018467
 31
0.0
  0
LINE
  5
8BEC
330
19
100
AcDbEntity
  8
1
100
AcDbLine
 10
2111.658152243226
 20
1650.962450000258
 30
0.0
 11
2111.658152243226
 21
1685.989073018467
 31
0.0
  0
ARC
  5
8BED
330
19
100
AcDbEntity
  8
1
100
AcDbCircle
 10
2119.657152243226
 20
1723.989073018467
 30
0.0
 40
0.9998000000000001
100
AcDbArc
 50
89.98600000000001
 51
180.007
  0
LINE
  5
8BEE
330
19
100
AcDbEntity
  8
1
100
AcDbLine
 10
2128.658152243226
 20
1724.989073018467
 30
0.0
 11
2119.658152243226
 21
1724.989073018467
 31
0.0
  0
LINE
  5
8BEF
330
19
100
AcDbEntity
  8
1
100
AcDbLine
 10
2128.658152243226
 20
1570.962450000258
 30
0.0
 11
2128.658152243226
 21
1533.989073018467
 31
0.0
  0
LINE
  5
8BF0
330
19
100
AcDbEntity
  8
1
100
AcDbLine
 10
641.8206086037062
 20
2258.541412447669
 30
0.0
 11
641.8206086037062
 21
2450.541412447668
 31
0.0
  0
LINE
  5
8BF1
330
19
100
AcDbEntity
  8
1
100
AcDbLine
 10
716.8206086037062
 20
2358.541412447669
 30
0.0
 11
866.8206086037061
 21
2358.541412447669
 31
0.0
  0
LINE
  5
8BF2
330
19
100
AcDbEntity
  8
1
100
AcDbLine
 10
716.8206086037062
 20
2418.541412447668
 30
0.0
 11
866.8206086037061
 21
2418.541412447669
 31
0.0
  0
LINE
  5
8BF3
330
19
100
AcDbEntity
  8
1
100
AcDbLine
 10
641.8206086037062
 20
2450.541412447669
 30
0.0
 11
1461.820608603706
 21
2450.541412447668
 31
0.0
  0
LINE
  5
8BF4
330
19
100
AcDbEntity
  8
1
100
AcDbLine
 10
866.8206086037061
 20
2358.541412447669
 30
0.0
 11
866.8206086037061
 21
2418.541412447669
 31
0.0
  0
LINE
  5
8BF5
330
19
100
AcDbEntity
  8
1
100
AcDbLine
 10
716.8206086037062
 20
2358.541412447669
 30
0.0
 11
716.8206086037062
 21
2418.541412447669
 31
0.0
  0
LINE
  5
8BF6
330
19
100
AcDbEntity
  8
1
100
AcDbLine
 10
1386.820608603706
 20
2358.541412447669
 30
0.0
 11
1386.820608603706
 21
2418.541412447668
 31
0.0
  0
LINE
  5
8BF7
330
19
100
AcDbEntity
  8
1
100
AcDbLine
 10
1236.820608603706
 20
2358.541412447669
 30
0.0
 11
1236.820608603706
 21
2418.541412447669
 31
0.0
  0
LINE
  5
8BF8
330
19
100
AcDbEntity
  8
1
100
AcDbLine
 10
1236.820608603706
 20
2418.54141244767
 30
0.0
 11
1386.820608603706
 21
2418.541412447669
 31
0.0
  0
LINE
  5
8BF9
330
19
100
AcDbEntity
  8
1
100
AcDbLine
 10
1236.820608603706
 20
2358.541412447669
 30
0.0
 11
1386.820608603706
 21
2358.541412447669
 31
0.0
  0
LINE
  5
8BFA
330
19
100
AcDbEntity
  8
1
100
AcDbLine
 10
923.8206086037061
 20
2842.541112447669
 30
0.0
 11
923.8206086037061
 21
2490.541412447669
 31
0.0
  0
LINE
  5
8BFB
330
19
100
AcDbEntity
  8
1
100
AcDbLine
 10
649.8206086037062
 20
2842.541112447669
 30
0.0
 11
649.8206086037062
 21
2490.541412447669
 31
0.0
  0
LINE
  5
8BFC
330
19
100
AcDbEntity
  8
2
100
AcDbLine
 10
791.8206086037062
 20
2879.42561147432
 30
0.0
 11
791.8206086037062
 21
2387.667412447669
 31
0.0
  0
LINE
  5
8BFD
330
19
100
AcDbEntity
  8
1
100
AcDbLine
 10
849.8206086037061
 20
2480.541412447669
 30
0.0
 11
733.8206086037062
 21
2480.541412447669
 31
0.0
  0
LINE
  5
8BFE
330
19
100
AcDbEntity
  8
1
100
AcDbLine
 10
649.8206086037062
 20
2490.541412447669
 30
0.0
 11
923.8206086037061
 21
2490.541412447669
 31
0.0
  0
ARC
  5
8BFF
330
19
100
AcDbEntity
  8
1
100
AcDbCircle
 10
849.8206086037061
 20
2481.541412447669
 30
0.0
 40
0.9999
100
AcDbArc
 50
269.9965
 51
0.0069999999999659
  0
LINE
  5
8C00
330
19
100
AcDbEntity
  8
1
100
AcDbLine
 10
850.8206086037061
 20
2490.541412447669
 30
0.0
 11
850.8206086037061
 21
2481.541412447669
 31
0.0
  0
LINE
  5
8C01
330
19
100
AcDbEntity
  8
1
100
AcDbLine
 10
769.8206086037061
 20
2456.541412447669
 30
0.0
 11
769.8206086037061
 21
2450.541412447669
 31
0.0
  0
LINE
  5
8C02
330
19
100
AcDbEntity
  8
1
100
AcDbLine
 10
772.8206086037062
 20
2473.541412447669
 30
0.0
 11
772.8206086037062
 21
2450.541412447668
 31
0.0
  0
LINE
  5
8C03
330
19
100
AcDbEntity
  8
1
100
AcDbLine
 10
810.8206086037062
 20
2473.541412447669
 30
0.0
 11
810.8206086037062
 21
2450.541412447668
 31
0.0
  0
LINE
  5
8C04
330
19
100
AcDbEntity
  8
1
100
AcDbLine
 10
772.8206086037062
 20
2456.541412447669
 30
0.0
 11
769.8206086037061
 21
2456.541412447669
 31
0.0
  0
ARC
  5
8C05
330
19
100
AcDbEntity
  8
1
100
AcDbCircle
 10
733.8206086037062
 20
2481.540412447669
 30
0.0
 40
0.9998000000000001
100
AcDbArc
 50
179.986
 51
270.007
  0
LINE
  5
8C06
330
19
100
AcDbEntity
  8
1
100
AcDbLine
 10
732.8206086037062
 20
2490.541412447669
 30
0.0
 11
732.8206086037062
 21
2481.541412447669
 31
0.0
  0
LINE
  5
8C07
330
19
100
AcDbEntity
  8
1
100
AcDbLine
 10
771.8206086037062
 20
2480.541412447669
 30
0.0
 11
771.8206086037062
 21
2473.541412447669
 31
0.0
  0
LINE
  5
8C08
330
19
100
AcDbEntity
  8
1
100
AcDbLine
 10
811.8206086037062
 20
2480.541412447669
 30
0.0
 11
811.8206086037062
 21
2473.541412447669
 31
0.0
  0
LINE
  5
8C09
330
19
100
AcDbEntity
  8
1
100
AcDbLine
 10
811.8206086037062
 20
2473.541412447669
 30
0.0
 11
771.8206086037062
 21
2473.541412447669
 31
0.0
  0
LINE
  5
8C0A
330
19
100
AcDbEntity
  8
1
100
AcDbLine
 10
649.8206086037062
 20
2842.541112447669
 30
0.0
 11
923.8206086037061
 21
2842.541112447669
 31
0.0
  0
ARC
  5
8C0B
330
19
100
AcDbEntity
  8
1
100
AcDbCircle
 10
651.3206086037062
 20
2775.541012447669
 30
0.0
 40
2.0001
100
AcDbArc
 50
90.0035
 51
179.9965
  0
ARC
  5
8C0C
330
19
100
AcDbEntity
  8
1
100
AcDbCircle
 10
668.4726086037062
 20
2840.541112447669
 30
0.0
 40
2.0
100
AcDbArc
 50
90.0
 51
169.1146
  0
LINE
  5
8C0D
330
19
100
AcDbEntity
  8
1
100
AcDbLine
 10
1523.820608603706
 20
1460.962450000257
 30
0.0
 11
591.8206086037062
 21
1460.962450000257
 31
0.0
  0
LINE
  5
8C0E
330
19
100
AcDbEntity
  8
1
100
AcDbLine
 10
2039.919762949858
 20
1460.962450000257
 30
0.0
 11
2629.919762949858
 21
1460.962450000257
 31
0.0
  0
LINE
  5
8C0F
330
19
100
AcDbEntity
  8
1
100
AcDbLine
 10
1312.974318231943
 20
1590.971324164638
 30
0.0
 11
1312.974318231943
 21
1590.971324164638
 31
0.0
  0
DIMENSION
  5
8DFF
330
19
100
AcDbEntity
  8
3
100
AcDbDimension
280
     0
  2
*D15
 10
591.8206086037062
 20
2184.031252816083
 30
0.0
 11
1120.202578237713
 21
2184.031252816083
 31
0.0
 70
   160
 71
     5
 42
-1.0
 73
     0
 74
     0
 75
     0
  3
IGA
100
AcDbAlignedDimension
 13
1556.820608603705
 23
2043.573619675302
 33
0.0
 14
591.8206086037062
 24
1500.962450000258
 34
0.0
100
AcDbRotatedDimension
1001
ACAD
1000
DSTYLE
1002
{
1070
   287
1070
     3
1070
    40
1040
15.0
1070
   143
1040
0.039
1070
   172
1070
     1
1070
   271
1070
     0
1070
   279
1070
     0
1070
   288
1070
     1
1002
}
  0
DIMENSION
  5
8E61
330
19
100
AcDbEntity
  8
3
100
AcDbDimension
280
     0
  2
*D16
 10
1311.820608603706
 20
1185.912823576627
 30
0.0
 11
967.8206086037063
 21
1223.412823576627
 31
0.0
 70
    32
 71
     5
 42
-1.0
 73
     0
 74
     0
 75
     0
  3
IGA
100
AcDbAlignedDimension
 13
623.8206086037061
 23
1284.962450000258
 33
0.0
 14
1311.820608603706
 24
1284.962450000257
 34
0.0
100
AcDbRotatedDimension
1001
ACAD
1000
DSTYLE
1002
{
1070
   287
1070
     3
1070
    40
1040
15.0
1070
   143
1040
0.039
1070
   172
1070
     1
1070
   271
1070
     0
1070
   279
1070
     0
1002
}
  0
DIMENSION
  5
8E6E
330
19
100
AcDbEntity
  8
3
100
AcDbDimension
280
     0
  2
*D17
 10
1523.820608603706
 20
1185.912823576627
 30
0.0
 11
1417.820608603706
 21
1223.412823576627
 31
0.0
 70
    32
 71
     5
 42
-1.0
 73
     0
 74
     0
 75
     0
  3
IGA
100
AcDbAlignedDimension
 13
1311.820608603706
 23
1284.962450000257
 33
0.0
 14
1523.820608603706
 24
1284.962450000258
 34
0.0
100
AcDbRotatedDimension
1001
ACAD
1000
DSTYLE
1002
{
1070
   287
1070
     3
1070
    40
1040
15.0
1070
   143
1040
0.039
1070
   172
1070
     1
1070
   271
1070
     0
1070
   279
1070
     0
1002
}
  0
DIMENSION
  5
8E7B
330
19
100
AcDbEntity
  8
3
100
AcDbDimension
280
     0
  2
*D18
 10
2374.919762949857
 20
1185.912823576627
 30
0.0
 11
2207.419762949858
 21
1223.412823576627
 31
0.0
 70
    32
 71
     5
 42
-1.0
 73
     0
 74
     0
 75
     0
  3
IGA
100
AcDbAlignedDimension
 13
2039.919762949858
 23
1284.962450000258
 33
0.0
 14
2374.919762949857
 24
1284.962450000258
 34
0.0
100
AcDbRotatedDimension
1001
ACAD
1000
DSTYLE
1002
{
1070
   287
1070
     3
1070
    40
1040
15.0
1070
   143
1040
0.039
1070
   172
1070
     1
1070
   271
1070
     0
1070
   279
1070
     0
1002
}
  0
DIMENSION
  5
8E88
330
19
100
AcDbEntity
  8
3
100
AcDbDimension
280
     0
  2
*D19
 10
2629.919762949858
 20
1185.912823576627
 30
0.0
 11
2502.419762949858
 21
1223.412823576627
 31
0.0
 70
    32
 71
     5
 42
-1.0
 73
     0
 74
     0
 75
     0
  3
IGA
100
AcDbAlignedDimension
 13
2374.919762949857
 23
1284.962450000258
 33
0.0
 14
2629.919762949858
 24
1284.962450000258
 34
0.0
100
AcDbRotatedDimension
1001
ACAD
1000
DSTYLE
1002
{
1070
   287
1070
     3
1070
    40
1040
15.0
1070
   143
1040
0.039
1070
   172
1070
     1
1070
   271
1070
     0
1070
   279
1070
     0
1002
}
  0
DIMENSION
  5
8E95
330
19
100
AcDbEntity
  8
3
100
AcDbDimension
280
     0
  2
*D21
 10
1759.092275225832
 20
1385.962450000258
 30
0.0
 11
1830.877989511546
 21
1367.962450000258
 31
0.0
 70
    32
 71
     5
 42
-1.0
 73
     0
 74
     0
 75
     0
  3
IGA
100
AcDbAlignedDimension
 13
1523.820608603706
 23
1349.962450000258
 33
0.0
 14
1523.820608603706
 24
1385.962450000258
 34
0.0
 50
90.0
100
AcDbRotatedDimension
1001
ACAD
1000
DSTYLE
1002
{
1070
   172
1070
     1
1070
    76
1070
     1
1070
    75
1070
     1
1070
    40
1040
15.0
1070
     3
1000
(<>)
1070
   271
1070
     0
1070
     7
1000
_NONE
1070
     6
1000
_NONE
1070
   143
1040
0.039
1002
}
  0
DIMENSION
  5
8EA2
330
19
100
AcDbEntity
  8
3
100
AcDbDimension
280
     0
  2
*D22
 10
1889.824971183059
 20
1284.962450000257
 30
0.0
 11
1840.539256897345
 21
1650.962450000258
 31
0.0
 70
    32
 71
     5
 42
-1.0
 73
     0
 74
     0
 75
     0
  3
IGA
100
AcDbAlignedDimension
 13
1556.820608603706
 23
2016.962450000258
 33
0.0
 14
1523.820608603706
 24
1284.962450000258
 34
0.0
 50
90.0
100
AcDbRotatedDimension
1001
ACAD
1000
DSTYLE
1002
{
1070
   287
1070
     0
1070
     3
1000
(<>)
1070
    40
1040
15.0
1070
   143
1040
0.039
1070
   172
1070
     1
1070
   271
1070
     0
1070
   279
1070
     0
1070
   289
1070
     0
1002
}
  0
ENDSEC
  0
SECTION
  2
OBJECTS
  0
DICTIONARY
  5
C
330
0
100
AcDbDictionary
281
     1
  3
ACAD_CIP_PREVIOUS_PRODUCT_INFO
350
8F8A
  3
ACAD_COLOR
350
8F6D
  3
ACAD_DETAILVIEWSTYLE
350
8F86
  3
ACAD_GROUP
350
D
  3
ACAD_LAYOUT
350
8EB1
  3
ACAD_MATERIAL
350
8F3B
  3
ACAD_MLEADERSTYLE
350
8F82
  3
ACAD_MLINESTYLE
350
E
  3
ACAD_PLOTSETTINGS
350
8EB2
  3
ACAD_PLOTSTYLENAME
350
8EAF
  3
ACAD_SCALELIST
350
8F70
  3
ACAD_SECTIONVIEWSTYLE
350
8F84
  3
ACAD_TABLESTYLE
350
8F6E
  3
ACAD_VISUALSTYLE
350
8F54
  3
ACDB_RECOMPOSE_DATA
350
8FD2
  3
AcDbVariableDictionary
350
8FC1
  3
AcDsDecomposeData
350
8FD8
  0
DICTIONARY
  5
8FB5
330
2
100
AcDbDictionary
280
     1
281
     1
  3
ACAD_LAYERSTATES
360
8FB6
  0
DICTIONARY
  5
8FA8
330
F
100
AcDbDictionary
280
     1
281
     1
  3
ADSK_XREC_LAYER_RECONCILED
360
8FA9
  0
DICTIONARY
  5
8FAA
330
31
100
AcDbDictionary
280
     1
281
     1
  3
ADSK_XREC_LAYER_RECONCILED
360
8FAB
  0
DICTIONARY
  5
8FAC
330
76D0
100
AcDbDictionary
280
     1
281
     1
  3
ADSK_XREC_LAYER_RECONCILED
360
8FAD
  0
DICTIONARY
  5
8FAE
330
76D1
100
AcDbDictionary
280
     1
281
     1
  3
ADSK_XREC_LAYER_RECONCILED
360
8FAF
  0
DICTIONARY
  5
8FB0
330
76D2
100
AcDbDictionary
280
     1
281
     1
  3
ADSK_XREC_LAYER_RECONCILED
360
8FB1
  0
DICTIONARY
  5
8EDE
330
19
100
AcDbDictionary
280
     1
281
     1
  3
ACAD_LAYOUTSELFREF
360
8EDF
  3
ACAD_SORTENTS
360
8F8C
  0
DICTIONARY
  5
8EDC
330
16
100
AcDbDictionary
280
     1
281
     1
  3
ACAD_LAYOUTSELFREF
360
8EDD
  0
XRECORD
  5
8F8A
102
{ACAD_REACTORS
330
C
102
}
330
C
100
AcDbXrecord
280
     1
300
ACDLT
300
2023
300

  0
DICTIONARY
  5
8F6D
102
{ACAD_REACTORS
330
C
102
}
330
C
100
AcDbDictionary
281
     1
  0
DICTIONARY
  5
8F86
102
{ACAD_REACTORS
330
C
102
}
330
C
100
AcDbDictionary
281
     1
  3
Metric50
350
8F87
  0
DICTIONARY
  5
D
102
{ACAD_REACTORS
330
C
102
}
330
C
100
AcDbDictionary
281
     1
  0
DICTIONARY
  5
8EB1
102
{ACAD_REACTORS
330
C
102
}
330
C
100
AcDbDictionary
281
     1
  3
Model
350
8EB3
  3
ﾚｲｱｳﾄ1
350
8EB4
  0
DICTIONARY
  5
8F3B
102
{ACAD_REACTORS
330
C
102
}
330
C
100
AcDbDictionary
281
     1
  3
ByBlock
350
8F44
  3
ByLayer
350
8F3C
  3
Global
350
8F4C
  0
DICTIONARY
  5
8F82
102
{ACAD_REACTORS
330
C
102
}
330
C
100
AcDbDictionary
281
     1
  3
Standard
350
8F83
  0
DICTIONARY
  5
E
102
{ACAD_REACTORS
330
C
102
}
330
C
100
AcDbDictionary
281
     1
  3
STANDARD
350
1C
  0
DICTIONARY
  5
8EB2
102
{ACAD_REACTORS
330
C
102
}
330
C
100
AcDbDictionary
281
     1
  0
ACDBDICTIONARYWDFLT
  5
8EAF
102
{ACAD_REACTORS
330
C
102
}
330
C
100
AcDbDictionary
281
     1
  3
Normal
350
8EB0
100
AcDbDictionaryWithDefault
340
8EB0
  0
DICTIONARY
  5
8F70
102
{ACAD_REACTORS
330
C
102
}
330
C
100
AcDbDictionary
281
     1
  3
A0
350
8F71
  3
A1
350
8F72
  3
A2
350
8F73
  3
A3
350
8F74
  3
A4
350
8F75
  3
A5
350
8F76
  3
A6
350
8F77
  3
A7
350
8F78
  3
A8
350
8F79
  3
A9
350
8F7A
  3
B0
350
8F7B
  3
B1
350
8F7C
  3
B2
350
8F7D
  3
B3
350
8F7E
  3
B4
350
8F7F
  3
B5
350
8F80
  3
B6
350
8F81
  0
DICTIONARY
  5
8F84
102
{ACAD_REACTORS
330
C
102
}
330
C
100
AcDbDictionary
281
     1
  3
Metric50
350
8F85
  0
DICTIONARY
  5
8F6E
102
{ACAD_REACTORS
330
C
102
}
330
C
100
AcDbDictionary
281
     1
  3
Standard
350
8F6F
  0
DICTIONARY
  5
8F54
102
{ACAD_REACTORS
330
C
102
}
330
C
100
AcDbDictionary
281
     1
  3
2dWireframe
350
8F5A
  3
Basic
350
8F59
  3
Brighten
350
8F60
  3
ColorChange
350
8F64
  3
Conceptual
350
8F5D
  3
Dim
350
8F5F
  3
EdgeColorOff
350
8F6C
  3
Facepattern
350
8F63
  3
Flat
350
8F55
  3
FlatWithEdges
350
8F56
  3
Gouraud
350
8F57
  3
GouraudWithEdges
350
8F58
  3
Hidden
350
8F5C
  3
JitterOff
350
8F6A
  3
Linepattern
350
8F62
  3
OverhangOff
350
8F6B
  3
Realistic
350
8F5E
  3
Shaded
350
8F69
  3
Shaded with edges
350
8F68
  3
Shades of Gray
350
8F65
  3
Sketchy
350
8F66
  3
Thicken
350
8F61
  3
Wireframe
350
8F5B
  3
X-Ray
350
8F67
  0
XRECORD
  5
8FD2
102
{ACAD_REACTORS
330
C
102
}
330
C
100
AcDbXrecord
280
     1
 90
        1
330
8BBA
330
8F6F
  0
DICTIONARY
  5
8FC1
102
{ACAD_REACTORS
330
C
102
}
330
C
100
AcDbDictionary
281
     1
  3
CANNOSCALE
350
8FC7
  3
CMLEADERSTYLE
350
8FC3
  3
CTABLESTYLE
350
8FC2
  3
CVIEWDETAILSTYLE
350
8FC4
  3
CVIEWSECTIONSTYLE
350
8FC5
  3
LAYEREVAL
350
8FC9
  3
LAYERNOTIFY
350
8FCA
  3
LIGHTINGUNITS
350
8FC8
  3
MARKUPASSISTMODE
350
8FCF
  3
MSLTSCALE
350
8FC6
  0
DICTIONARY
  5
8FD8
102
{ACAD_REACTORS
330
C
102
}
330
C
100
AcDbDictionary
281
     1
  3
AcDsRecords
350
8FDA
  3
AcDsSchemas
350
8FD9
1001
ACAD
1070
     2
  0
DICTIONARY
  5
8FB6
102
{ACAD_REACTORS
330
8FB5
102
}
330
8FB5
100
AcDbDictionary
281
     1
  0
XRECORD
  5
8FA9
102
{ACAD_REACTORS
330
8FA8
102
}
330
8FA8
100
AcDbXrecord
280
     1
290
     1
  0
XRECORD
  5
8FAB
102
{ACAD_REACTORS
330
8FAA
102
}
330
8FAA
100
AcDbXrecord
280
     1
290
     1
  0
XRECORD
  5
8FAD
102
{ACAD_REACTORS
330
8FAC
102
}
330
8FAC
100
AcDbXrecord
280
     1
290
     1
  0
XRECORD
  5
8FAF
102
{ACAD_REACTORS
330
8FAE
102
}
330
8FAE
100
AcDbXrecord
280
     1
290
     1
  0
XRECORD
  5
8FB1
102
{ACAD_REACTORS
330
8FB0
102
}
330
8FB0
100
AcDbXrecord
280
     1
290
     1
  0
XRECORD
  5
8EDF
102
{ACAD_REACTORS
330
8EDE
102
}
330
8EDE
100
AcDbXrecord
280
     1
340
19
  0
SORTENTSTABLE
  5
8F8C
102
{ACAD_REACTORS
330
8EDE
102
}
330
8EDE
100
AcDbSortentsTable
330
19
331
8B7B
  5
8B7C
331
8B7C
  5
8B7D
331
8B7D
  5
8B7E
331
8B7E
  5
8B7F
331
8B7F
  5
8B80
331
8B80
  5
8B81
331
8B81
  5
8B82
331
8B82
  5
8B83
331
8B83
  5
8B84
331
8B84
  5
8B85
331
8B85
  5
8B86
331
8B86
  5
8B87
331
8B87
  5
8B88
331
8B88
  5
8B89
331
8B89
  5
8B8A
331
8B8A
  5
8B8B
331
8B8B
  5
8B8C
331
8B8C
  5
8B8D
331
8B8D
  5
8B8E
331
8B8E
  5
8B8F
331
8B8F
  5
8B90
331
8B90
  5
8B91
331
8B91
  5
8B92
331
8B92
  5
8B93
331
8B93
  5
8B94
331
8B94
  5
8B95
331
8B95
  5
8B96
331
8B96
  5
8B9D
331
8B9D
  5
8B9E
331
8B9E
  5
8B9F
331
8B9F
  5
8BA0
331
8BA0
  5
8BA1
331
8BA1
  5
8BA2
331
8BA2
  5
8BA3
331
8BA3
  5
8BA4
331
8BA4
  5
8BA6
331
8BA6
  5
8BA7
331
8BA7
  5
8BA8
331
8BA8
  5
8BA9
331
8BA9
  5
8BAA
331
8BAA
  5
8BAB
331
8BAB
  5
8BAC
331
8BAC
  5
8BAD
331
8BAD
  5
8BAE
331
8BAE
  5
8BAF
331
8BAF
  5
8BB0
331
8BB0
  5
8BB1
331
8BB1
  5
8BB2
331
8BB2
  5
8BB3
331
8BB3
  5
8BB4
331
8BB4
  5
8BB5
331
8BB5
  5
8BB6
331
8BB6
  5
8BB7
331
8BB7
  5
8BB8
331
8BB8
  5
8BB9
331
8BB9
  5
8BBA
331
8BBA
  5
8BBB
331
8BBB
  5
8BBC
331
8BBC
  5
8BBD
331
8BBD
  5
8BBE
331
8BBE
  5
8BBF
331
8BBF
  5
8BC0
331
8BC0
  5
8BC1
331
8BC1
  5
8BC2
331
8BC2
  5
8BC5
331
8BC5
  5
8BC6
331
8BC6
  5
8BC7
331
8BC7
  5
8BC8
331
8BC8
  5
8BC9
331
8BC9
  5
8BCA
331
8BCA
  5
8BCB
331
8BCB
  5
8BCC
331
8BCC
  5
8BCD
331
8BCD
  5
8BCE
331
8BCE
  5
8BCF
331
8BCF
  5
8BD0
331
8BD0
  5
8BD1
331
8BD1
  5
8BD2
331
8BD2
  5
8BD3
331
8BD3
  5
8BD4
331
8BD4
  5
8BD5
331
8BD5
  5
8BD6
331
8BD6
  5
8BD7
331
8BD7
  5
8BD8
331
8BD8
  5
8BD9
331
8BD9
  5
8BDA
331
8BDA
  5
8BDB
331
8BDB
  5
8BDC
331
8BDC
  5
8BDD
331
8BDD
  5
8BDE
331
8BDE
  5
8BDF
331
8BDF
  5
8BE0
331
8BE0
  5
8BE1
331
8BE1
  5
8BE2
331
8BE2
  5
8BE3
331
8BE3
  5
8BE4
331
8BE4
  5
8BE5
331
8BE5
  5
8BE6
331
8BE6
  5
8BE7
331
8BE7
  5
8BE8
331
8BE8
  5
8BE9
331
8BE9
  5
8BEA
331
8BEA
  5
8BEB
331
8BEB
  5
8BEC
331
8BEC
  5
8BED
331
8BED
  5
8BEE
331
8BEE
  5
8BEF
331
8BEF
  5
8BF0
331
8BF0
  5
8BF1
331
8BF1
  5
8BF2
331
8BF2
  5
8BF3
331
8BF3
  5
8BF4
331
8BF4
  5
8BF5
331
8BF5
  5
8BF6
331
8BF6
  5
8BF7
331
8BF7
  5
8BF8
331
8BF8
  5
8BF9
331
8BF9
  5
8BFA
331
8BFA
  5
8BFB
331
8BFB
  5
8BFC
331
8BFC
  5
8BFD
331
8BFD
  5
8BFE
331
8BFE
  5
8BFF
331
8BFF
  5
8C00
331
8C00
  5
8C01
331
8C01
  5
8C02
331
8C02
  5
8C03
331
8C03
  5
8C04
331
8C04
  5
8C05
331
8C05
  5
8C06
331
8C06
  5
8C07
331
8C07
  5
8C08
331
8C08
  5
8C09
331
8C09
  5
8C0A
331
8C0A
  5
8C0B
331
8C0B
  5
8C0C
331
8C0C
  5
8C0D
331
8C0D
  5
8C0E
331
8C0E
  5
8C0F
331
8C0F
  5
8DFF
331
8DFF
  5
8E61
331
8E61
  5
8E6E
331
8E6E
  5
8E7B
331
8E7B
  5
8E88
331
8E88
  5
8E95
331
8E95
  5
8EA2
331
8EA2
  5
8F8B
  0
XRECORD
  5
8EDD
102
{ACAD_REACTORS
330
8EDC
102
}
330
8EDC
100
AcDbXrecord
280
     1
340
16
  0
ACDBDETAILVIEWSTYLE
  5
8F87
102
{ACAD_XDICTIONARY
360
8FDD
102
}
102
{ACAD_REACTORS
330
8F86
102
}
330
8F86
100
AcDbModelDocViewStyle
 70
     0
  3
Metric50
290
     0
100
AcDbDetailViewStyle
 70
     0
 71
     0
 90
        3
 71
     1
340
10
 62
   256
 40
5.0
340
0
 62
   256
 40
5.0
300

 40
0.0
280
     1
 71
     2
340
15
 90
       25
 62
   256
 71
     3
340
10
 62
   256
 40
5.0
 90
        0
 40
15.0
 90
        1
300
%<\AcVar ViewDetailId>% (%<\AcVar ViewScale \f "%sn">%)
 71
     4
340
15
 90
       25
 62
   256
340
15
 90
       25
 62
   256
280
     0
  0
LAYOUT
  5
8EB3
102
{ACAD_REACTORS
330
8EB1
102
}
330
8EB1
100
AcDbPlotSettings
  1

  2
EPSON LP-9300
  4

  6

 40
0.0
 41
0.0
 42
0.0
 43
0.0
 44
0.0
 45
0.0
 46
0.0
 47
0.0
 48
0.0
 49
0.0
140
0.0
141
0.0
142
1.0
143
1.0
 70
  1712
 72
     0
 73
     0
 74
     0
  7

 75
     0
147
1.0
 76
     0
 77
     2
 78
   300
148
0.0
149
0.0
100
AcDbLayout
  1
Model
 70
     1
 71
     0
 10
0.0
 20
0.0
 11
12.0
 21
9.0
 12
0.0
 22
0.0
 32
0.0
 14
0.0
 24
0.0
 34
0.0
 15
0.0
 25
0.0
 35
0.0
146
0.0
 13
0.0
 23
0.0
 33
0.0
 16
1.0
 26
0.0
 36
0.0
 17
0.0
 27
1.0
 37
0.0
 76
     0
330
19
331
8F39
  0
LAYOUT
  5
8EB4
102
{ACAD_REACTORS
330
8EB1
102
}
330
8EB1
100
AcDbPlotSettings
  1

  2
EPSON LP-9300
  4

  6

 40
0.0
 41
0.0
 42
0.0
 43
0.0
 44
0.0
 45
0.0
 46
0.0
 47
0.0
 48
0.0
 49
0.0
140
0.0
141
0.0
142
1.0
143
1.0
 70
   688
 72
     0
 73
     0
 74
     5
  7

 75
    16
147
1.0
 76
     0
 77
     2
 78
   300
148
0.0
149
0.0
100
AcDbLayout
  1
ﾚｲｱｳﾄ1
 70
     1
 71
     1
 10
0.0
 20
0.0
 11
12.0
 21
9.0
 12
0.0
 22
0.0
 32
0.0
 14
1.000000000000000E+20
 24
1.000000000000000E+20
 34
1.000000000000000E+20
 15
-1.000000000000000E+20
 25
-1.000000000000000E+20
 35
-1.000000000000000E+20
146
0.0
 13
0.0
 23
0.0
 33
0.0
 16
1.0
 26
0.0
 36
0.0
 17
0.0
 27
1.0
 37
0.0
 76
     0
330
16
  0
MATERIAL
  5
8F44
102
{ACAD_XDICTIONARY
360
8F45
102
}
102
{ACAD_REACTORS
330
8F3B
102
}
330
8F3B
100
AcDbMaterial
  1
ByBlock
 72
     0
 43
0.0208333333333333
 43
0.0
 43
0.0
 43
0.0
 43
0.0
 43
0.0208333333333333
 43
0.0
 43
0.0
 43
0.0
 43
0.0
 43
1.0
 43
0.0
 43
0.0
 43
0.0
 43
0.0
 43
1.0
 77
     0
 47
0.0208333333333333
 47
0.0
 47
0.0
 47
0.0
 47
0.0
 47
0.0208333333333333
 47
0.0
 47
0.0
 47
0.0
 47
0.0
 47
1.0
 47
0.0
 47
0.0
 47
0.0
 47
0.0
 47
1.0
171
     0
 49
0.0208333333333333
 49
0.0
 49
0.0
 49
0.0
 49
0.0
 49
0.0208333333333333
 49
0.0
 49
0.0
 49
0.0
 49
0.0
 49
1.0
 49
0.0
 49
0.0
 49
0.0
 49
0.0
 49
1.0
175
     0
142
0.0208333333333333
142
0.0
142
0.0
142
0.0
142
0.0
142
0.0208333333333333
142
0.0
142
0.0
142
0.0
142
0.0
142
1.0
142
0.0
142
0.0
142
0.0
142
0.0
142
1.0
179
     0
144
0.0208333333333333
144
0.0
144
0.0
144
0.0
144
0.0
144
0.0208333333333333
144
0.0
144
0.0
144
0.0
144
0.0
144
1.0
144
0.0
144
0.0
144
0.0
144
0.0
144
1.0
147
0.0208333333333333
147
0.0
147
0.0
147
0.0
147
0.0
147
0.0208333333333333
147
0.0
147
0.0
147
0.0
147
0.0
147
1.0
147
0.0
147
0.0
147
0.0
147
0.0
147
1.0
  0
MATERIAL
  5
8F3C
102
{ACAD_XDICTIONARY
360
8F3D
102
}
102
{ACAD_REACTORS
330
8F3B
102
}
330
8F3B
100
AcDbMaterial
  1
ByLayer
 72
     0
 43
0.0208333333333333
 43
0.0
 43
0.0
 43
0.0
 43
0.0
 43
0.0208333333333333
 43
0.0
 43
0.0
 43
0.0
 43
0.0
 43
1.0
 43
0.0
 43
0.0
 43
0.0
 43
0.0
 43
1.0
 77
     0
 47
0.0208333333333333
 47
0.0
 47
0.0
 47
0.0
 47
0.0
 47
0.0208333333333333
 47
0.0
 47
0.0
 47
0.0
 47
0.0
 47
1.0
 47
0.0
 47
0.0
 47
0.0
 47
0.0
 47
1.0
171
     0
 49
0.0208333333333333
 49
0.0
 49
0.0
 49
0.0
 49
0.0
 49
0.0208333333333333
 49
0.0
 49
0.0
 49
0.0
 49
0.0
 49
1.0
 49
0.0
 49
0.0
 49
0.0
 49
0.0
 49
1.0
175
     0
142
0.0208333333333333
142
0.0
142
0.0
142
0.0
142
0.0
142
0.0208333333333333
142
0.0
142
0.0
142
0.0
142
0.0
142
1.0
142
0.0
142
0.0
142
0.0
142
0.0
142
1.0
179
     0
144
0.0208333333333333
144
0.0
144
0.0
144
0.0
144
0.0
144
0.0208333333333333
144
0.0
144
0.0
144
0.0
144
0.0
144
1.0
144
0.0
144
0.0
144
0.0
144
0.0
144
1.0
147
0.0208333333333333
147
0.0
147
0.0
147
0.0
147
0.0
147
0.0208333333333333
147
0.0
147
0.0
147
0.0
147
0.0
147
1.0
147
0.0
147
0.0
147
0.0
147
0.0
147
1.0
  0
MATERIAL
  5
8F4C
102
{ACAD_XDICTIONARY
360
8F4D
102
}
102
{ACAD_REACTORS
330
8F3B
102
}
330
8F3B
100
AcDbMaterial
  1
Global
 72
     0
 43
0.0208333333333333
 43
0.0
 43
0.0
 43
0.0
 43
0.0
 43
0.0208333333333333
 43
0.0
 43
0.0
 43
0.0
 43
0.0
 43
1.0
 43
0.0
 43
0.0
 43
0.0
 43
0.0
 43
1.0
 77
     0
 47
0.0208333333333333
 47
0.0
 47
0.0
 47
0.0
 47
0.0
 47
0.0208333333333333
 47
0.0
 47
0.0
 47
0.0
 47
0.0
 47
1.0
 47
0.0
 47
0.0
 47
0.0
 47
0.0
 47
1.0
171
     0
 49
0.0208333333333333
 49
0.0
 49
0.0
 49
0.0
 49
0.0
 49
0.0208333333333333
 49
0.0
 49
0.0
 49
0.0
 49
0.0
 49
1.0
 49
0.0
 49
0.0
 49
0.0
 49
0.0
 49
1.0
175
     0
142
0.0208333333333333
142
0.0
142
0.0
142
0.0
142
0.0
142
0.0208333333333333
142
0.0
142
0.0
142
0.0
142
0.0
142
1.0
142
0.0
142
0.0
142
0.0
142
0.0
142
1.0
179
     0
144
0.0208333333333333
144
0.0
144
0.0
144
0.0
144
0.0
144
0.0208333333333333
144
0.0
144
0.0
144
0.0
144
0.0
144
1.0
144
0.0
144
0.0
144
0.0
144
0.0
144
1.0
147
0.0208333333333333
147
0.0
147
0.0
147
0.0
147
0.0
147
0.0208333333333333
147
0.0
147
0.0
147
0.0
147
0.0
147
1.0
147
0.0
147
0.0
147
0.0
147
0.0
147
1.0
  0
MLEADERSTYLE
  5
8F83
102
{ACAD_REACTORS
330
8F82
102
}
330
8F82
100
AcDbMLeaderStyle
179
     2
170
     2
171
     1
172
     0
 90
        2
 40
0.0
 41
0.0
173
     1
 91
-1056964608
340
13
 92
       -2
290
     1
 42
2.0
291
     1
 43
0.36
  3
Standard
 44
4.0
300

342
10
174
     1
178
     6
175
     1
176
     0
 93
-1056964608
 45
4.0
292
     0
297
     0
 46
4.0
 94
-1056964608
 47
1.0
 49
1.0
140
1.0
293
     1
141
0.0
294
     1
177
     0
142
1.0
295
     0
296
     0
143
0.125
271
     0
272
     9
273
     9
298
     1
  0
MLINESTYLE
  5
1C
102
{ACAD_REACTORS
330
E
102
}
330
E
100
AcDbMlineStyle
  2
STANDARD
 70
     0
  3

 62
     0
 51
90.0
 52
90.0
 71
     2
 49
0.5
 62
   256
  6
BYLAYER
 49
-0.5
 62
   256
  6
BYLAYER
  0
ACDBPLACEHOLDER
  5
8EB0
102
{ACAD_REACTORS
330
8EAF
102
}
330
8EAF
  0
SCALE
  5
8F71
102
{ACAD_REACTORS
330
8F70
102
}
330
8F70
100
AcDbScale
 70
     0
300
1:1
140
1.0
141
1.0
290
     1
  0
SCALE
  5
8F72
102
{ACAD_REACTORS
330
8F70
102
}
330
8F70
100
AcDbScale
 70
     0
300
1:2
140
1.0
141
2.0
290
     0
  0
SCALE
  5
8F73
102
{ACAD_REACTORS
330
8F70
102
}
330
8F70
100
AcDbScale
 70
     0
300
1:4
140
1.0
141
4.0
290
     0
  0
SCALE
  5
8F74
102
{ACAD_REACTORS
330
8F70
102
}
330
8F70
100
AcDbScale
 70
     0
300
1:5
140
1.0
141
5.0
290
     0
  0
SCALE
  5
8F75
102
{ACAD_REACTORS
330
8F70
102
}
330
8F70
100
AcDbScale
 70
     0
300
1:8
140
1.0
141
8.0
290
     0
  0
SCALE
  5
8F76
102
{ACAD_REACTORS
330
8F70
102
}
330
8F70
100
AcDbScale
 70
     0
300
1:10
140
1.0
141
10.0
290
     0
  0
SCALE
  5
8F77
102
{ACAD_REACTORS
330
8F70
102
}
330
8F70
100
AcDbScale
 70
     0
300
1:16
140
1.0
141
16.0
290
     0
  0
SCALE
  5
8F78
102
{ACAD_REACTORS
330
8F70
102
}
330
8F70
100
AcDbScale
 70
     0
300
1:20
140
1.0
141
20.0
290
     0
  0
SCALE
  5
8F79
102
{ACAD_REACTORS
330
8F70
102
}
330
8F70
100
AcDbScale
 70
     0
300
1:30
140
1.0
141
30.0
290
     0
  0
SCALE
  5
8F7A
102
{ACAD_REACTORS
330
8F70
102
}
330
8F70
100
AcDbScale
 70
     0
300
1:40
140
1.0
141
40.0
290
     0
  0
SCALE
  5
8F7B
102
{ACAD_REACTORS
330
8F70
102
}
330
8F70
100
AcDbScale
 70
     0
300
1:50
140
1.0
141
50.0
290
     0
  0
SCALE
  5
8F7C
102
{ACAD_REACTORS
330
8F70
102
}
330
8F70
100
AcDbScale
 70
     0
300
1:100
140
1.0
141
100.0
290
     0
  0
SCALE
  5
8F7D
102
{ACAD_REACTORS
330
8F70
102
}
330
8F70
100
AcDbScale
 70
     0
300
2:1
140
2.0
141
1.0
290
     0
  0
SCALE
  5
8F7E
102
{ACAD_REACTORS
330
8F70
102
}
330
8F70
100
AcDbScale
 70
     0
300
4:1
140
4.0
141
1.0
290
     0
  0
SCALE
  5
8F7F
102
{ACAD_REACTORS
330
8F70
102
}
330
8F70
100
AcDbScale
 70
     0
300
8:1
140
8.0
141
1.0
290
     0
  0
SCALE
  5
8F80
102
{ACAD_REACTORS
330
8F70
102
}
330
8F70
100
AcDbScale
 70
     0
300
10:1
140
10.0
141
1.0
290
     0
  0
SCALE
  5
8F81
102
{ACAD_REACTORS
330
8F70
102
}
330
8F70
100
AcDbScale
 70
     0
300
100:1
140
100.0
141
1.0
290
     0
  0
ACDBSECTIONVIEWSTYLE
  5
8F85
102
{ACAD_XDICTIONARY
360
8FDB
102
}
102
{ACAD_REACTORS
330
8F84
102
}
330
8F84
100
AcDbModelDocViewStyle
 70
     0
  3
Metric50
290
     0
100
AcDbSectionViewStyle
 70
     0
 71
     0
 90
      102
 71
     1
340
10
 62
   256
 40
5.0
340
0
340
0
 62
   256
 40
5.0
300
I, O, Q, S, X, Z
 40
10.0
 90
        0
 40
2.5
 90
        0
 71
     2
340
15
 90
       25
 62
   256
340
15
 90
       50
 62
   256
 40
5.0
 40
2.5
 40
5.0
 71
     3
340
10
 62
   256
 40
5.0
 90
        0
 40
15.0
 90
        1
300
%<\AcVar ViewSectionStartId>%-%<\AcVar ViewSectionEndId>% (%<\AcVar ViewScale \f "%sn">%)
 71
     4
 62
   256
 62
   257
300
ANSI31
 40
1.0
 90
        0
290
     0
290
     0
 90
        6
 40
0.0
 40
1.570796326794896
 40
0.2617993877991494
 40
1.308996938995747
 40
-0.2617993877991494
 40
1.832595714594046
  0
TABLESTYLE
  5
8F6F
102
{ACAD_XDICTIONARY
360
8FD0
102
}
102
{ACAD_REACTORS
330
8F6E
102
}
330
8F6E
100
AcDbTableStyle
280
     0
  3
Standard
 70
     0
 71
     0
 40
1.5
 41
1.5
280
     0
281
     0
  7
STANDARD
140
4.5
170
     2
 62
     0
 63
     7
283
     0
 90
      512
 91
        0
  1

274
    -2
284
     1
 64
     0
275
    -2
285
     1
 65
     0
276
    -2
286
     1
 66
     0
277
    -2
287
     1
 67
     0
278
    -2
288
     1
 68
     0
279
    -2
289
     1
 69
     0
  7
STANDARD
140
6.0
170
     5
 62
     0
 63
     7
283
     0
 90
      512
 91
        0
  1

274
    -2
284
     1
 64
     0
275
    -2
285
     1
 65
     0
276
    -2
286
     1
 66
     0
277
    -2
287
     1
 67
     0
278
    -2
288
     1
 68
     0
279
    -2
289
     1
 69
     0
  7
STANDARD
140
4.5
170
     5
 62
     0
 63
     7
283
     0
 90
      512
 91
        0
  1

274
    -2
284
     1
 64
     0
275
    -2
285
     1
 65
     0
276
    -2
286
     1
 66
     0
277
    -2
287
     1
 67
     0
278
    -2
288
     1
 68
     0
279
    -2
289
     1
 69
     0
  0
VISUALSTYLE
  5
8F5A
102
{ACAD_REACTORS
330
8F54
102
}
330
8F54
100
AcDbVisualStyle
  2
2dWireframe
 70
     4
177
     3
291
     0
 70
    58
 90
        0
176
     1
 90
        2
176
     1
 90
        0
176
     1
 90
        0
176
     1
 40
0.6
176
     1
 40
30.0
176
     1
 62
     7
420
 16777215
176
     1
 90
        1
176
     1
 90
        4
176
     1
 62
     7
176
     1
 62
   257
176
     1
 90
        1
176
     1
 90
        1
176
     1
 40
1.0
176
     1
 90
        0
176
     1
 62
   257
176
     1
 40
1.0
176
     1
 90
        1
176
     1
 90
        6
176
     1
 90
        2
176
     1
 62
     7
176
     1
 90
        5
176
     1
 90
        0
176
     1
 90
        0
176
     1
290
     0
176
     1
 90
        1
176
     1
 40
0.0
176
     1
 90
        0
176
     1
290
     1
176
     1
290
     1
176
     1
290
     0
176
     1
290
     0
176
     1
290
     0
176
     1
290
     0
176
     1
290
     0
176
     1
290
     0
176
     1
290
     0
176
     1
 90
       50
176
     1
 40
0.0
176
     1
 40
1.0
176
     1
 90
        0
176
     1
 62
    18
420
        0
176
     1
 90
       50
176
     1
 90
        3
176
     1
 62
     5
420
      255
176
     1
290
     0
176
     1
 90
       50
176
     1
 90
       50
176
     1
 90
       50
176
     1
290
     0
176
     1
 90
       50
176
     1
 62
   256
176
     0
 40
1.0
176
     0
 90
        2
176
     1
  1
strokes_ogs.tif
176
     1
290
     0
176
     1
 40
1.0
176
     1
 40
1.0
176
     1
1001
ACAD
1000
AcDbSavedByObjectVersion
1070
     0
  0
VISUALSTYLE
  5
8F59
102
{ACAD_REACTORS
330
8F54
102
}
330
8F54
100
AcDbVisualStyle
  2
Basic
 70
     7
177
     3
291
     1
 70
    58
 90
        1
176
     1
 90
        0
176
     1
 90
        1
176
     1
 90
        0
176
     1
 40
0.6
176
     1
 40
30.0
176
     1
 62
     7
420
 16777215
176
     1
 90
        0
176
     1
 90
        4
176
     1
 62
     7
176
     1
 62
   257
176
     1
 90
        1
176
     1
 90
        1
176
     1
 40
1.0
176
     1
 90
        8
176
     1
 62
     7
176
     1
 40
1.0
176
     1
 90
        1
176
     1
 90
        6
176
     1
 90
        2
176
     1
 62
     7
176
     1
 90
        5
176
     1
 90
        0
176
     1
 90
        0
176
     1
290
     0
176
     1
 90
        1
176
     1
 40
0.0
176
     1
 90
        0
176
     1
290
     0
176
     1
290
     1
176
     1
290
     1
176
     1
290
     0
176
     1
290
     0
176
     1
290
     0
176
     1
290
     0
176
     1
290
     0
176
     1
290
     0
176
     1
 90
       50
176
     1
 40
0.0
176
     1
 40
1.0
176
     1
 90
        0
176
     1
 62
    18
420
        0
176
     1
 90
       50
176
     1
 90
        3
176
     1
 62
     5
420
      255
176
     1
290
     0
176
     1
 90
       50
176
     1
 90
       50
176
     1
 90
       50
176
     1
290
     0
176
     1
 90
       50
176
     1
 62
   256
176
     0
 40
1.0
176
     0
 90
        2
176
     1
  1
strokes_ogs.tif
176
     1
290
     0
176
     1
 40
1.0
176
     1
 40
1.0
176
     1
1001
ACAD
1000
AcDbSavedByObjectVersion
1070
     0
  0
VISUALSTYLE
  5
8F60
102
{ACAD_REACTORS
330
8F54
102
}
330
8F54
100
AcDbVisualStyle
  2
Brighten
 70
    12
177
     3
291
     1
 70
    58
 90
        2
176
     1
 90
        2
176
     1
 90
        0
176
     1
 90
        0
176
     1
 40
0.6
176
     1
 40
30.0
176
     1
 62
     7
420
 16777215
176
     1
 90
        1
176
     1
 90
        4
176
     1
 62
     7
176
     1
 62
   257
176
     1
 90
        1
176
     1
 90
        1
176
     1
 40
1.0
176
     1
 90
        8
176
     1
 62
     7
176
     1
 40
1.0
176
     1
 90
        1
176
     1
 90
        6
176
     1
 90
        2
176
     1
 62
     7
176
     1
 90
        5
176
     1
 90
        0
176
     1
 90
        0
176
     1
290
     0
176
     1
 90
        1
176
     1
 40
50.0
176
     1
 90
        0
176
     1
290
     0
176
     1
290
     1
176
     1
290
     1
176
     1
290
     0
176
     1
290
     0
176
     1
290
     0
176
     1
290
     0
176
     1
290
     0
176
     1
290
     0
176
     1
 90
       50
176
     1
 40
0.0
176
     1
 40
1.0
176
     1
 90
        0
176
     1
 62
    18
420
        0
176
     1
 90
       50
176
     1
 90
        3
176
     1
 62
     5
420
      255
176
     1
290
     0
176
     1
 90
       50
176
     1
 90
       50
176
     1
 90
       50
176
     1
290
     0
176
     1
 90
       50
176
     1
 62
   256
176
     0
 40
1.0
176
     0
 90
        2
176
     1
  1
strokes_ogs.tif
176
     1
290
     0
176
     1
 40
1.0
176
     1
 40
1.0
176
     1
1001
ACAD
1000
AcDbSavedByObjectVersion
1070
     0
  0
VISUALSTYLE
  5
8F64
102
{ACAD_REACTORS
330
8F54
102
}
330
8F54
100
AcDbVisualStyle
  2
ColorChange
 70
    16
177
     3
291
     1
 70
    58
 90
        2
176
     1
 90
        2
176
     1
 90
        3
176
     1
 90
        0
176
     1
 40
0.6
176
     1
 40
30.0
176
     1
 62
     8
420
  8421504
176
     1
 90
        1
176
     1
 90
        4
176
     1
 62
     7
176
     1
 62
   257
176
     1
 90
        1
176
     1
 90
        1
176
     1
 40
1.0
176
     1
 90
        8
176
     1
 62
     8
420
  8421504
176
     1
 40
1.0
176
     1
 90
        1
176
     1
 90
        6
176
     1
 90
        2
176
     1
 62
     7
176
     1
 90
        5
176
     1
 90
        0
176
     1
 90
        0
176
     1
290
     0
176
     1
 90
        1
176
     1
 40
0.0
176
     1
 90
        0
176
     1
290
     0
176
     1
290
     1
176
     1
290
     1
176
     1
290
     0
176
     1
290
     0
176
     1
290
     0
176
     1
290
     0
176
     1
290
     0
176
     1
290
     0
176
     1
 90
       50
176
     1
 40
0.0
176
     1
 40
1.0
176
     1
 90
        0
176
     1
 62
    18
420
        0
176
     1
 90
       50
176
     1
 90
        3
176
     1
 62
     5
420
      255
176
     1
290
     0
176
     1
 90
       50
176
     1
 90
       50
176
     1
 90
       50
176
     1
290
     0
176
     1
 90
       50
176
     1
 62
   256
176
     0
 40
1.0
176
     0
 90
        2
176
     1
  1
strokes_ogs.tif
176
     1
290
     0
176
     1
 40
1.0
176
     1
 40
1.0
176
     1
1001
ACAD
1000
AcDbSavedByObjectVersion
1070
     0
  0
VISUALSTYLE
  5
8F5D
102
{ACAD_REACTORS
330
8F54
102
}
330
8F54
100
AcDbVisualStyle
  2
Conceptual
 70
     9
177
     3
291
     0
 70
    58
 90
        3
176
     1
 90
        2
176
     1
 90
        0
176
     1
 90
        0
176
     1
 40
0.6
176
     1
 40
30.0
176
     1
 62
     7
420
 16777215
176
     1
 90
        2
176
     1
 90
        2
176
     1
 62
     7
176
     1
 62
   257
176
     1
 90
        1
176
     1
 90
        1
176
     1
 40
179.0
176
     1
 90
        8
176
     1
 62
     7
176
     1
 40
1.0
176
     1
 90
        1
176
     1
 90
        6
176
     1
 90
        2
176
     1
 62
     7
176
     1
 90
        3
176
     1
 90
        0
176
     1
 90
        0
176
     1
290
     0
176
     1
 90
        1
176
     1
 40
0.0
176
     1
 90
        0
176
     1
290
     0
176
     1
290
     1
176
     1
290
     1
176
     1
290
     0
176
     1
290
     0
176
     1
290
     0
176
     1
290
     0
176
     1
290
     0
176
     1
290
     0
176
     1
 90
       50
176
     1
 40
0.0
176
     1
 40
1.0
176
     1
 90
        0
176
     1
 62
    18
420
        0
176
     1
 90
       50
176
     1
 90
        3
176
     1
 62
     5
420
      255
176
     1
290
     0
176
     1
 90
       50
176
     1
 90
       50
176
     1
 90
       50
176
     1
290
     0
176
     1
 90
       50
176
     1
 62
   256
176
     0
 40
1.0
176
     0
 90
        2
176
     1
  1
strokes_ogs.tif
176
     1
290
     0
176
     1
 40
1.0
176
     1
 40
1.0
176
     1
1001
ACAD
1000
AcDbSavedByObjectVersion
1070
     0
  0
VISUALSTYLE
  5
8F5F
102
{ACAD_REACTORS
330
8F54
102
}
330
8F54
100
AcDbVisualStyle
  2
Dim
 70
    11
177
     3
291
     1
 70
    58
 90
        2
176
     1
 90
        2
176
     1
 90
        0
176
     1
 90
        0
176
     1
 40
0.6
176
     1
 40
30.0
176
     1
 62
     7
420
 16777215
176
     1
 90
        1
176
     1
 90
        4
176
     1
 62
     7
176
     1
 62
   257
176
     1
 90
        1
176
     1
 90
        1
176
     1
 40
1.0
176
     1
 90
        8
176
     1
 62
     7
176
     1
 40
1.0
176
     1
 90
        1
176
     1
 90
        6
176
     1
 90
        2
176
     1
 62
     7
176
     1
 90
        5
176
     1
 90
        0
176
     1
 90
        0
176
     1
290
     0
176
     1
 90
        1
176
     1
 40
-50.0
176
     1
 90
        0
176
     1
290
     0
176
     1
290
     1
176
     1
290
     1
176
     1
290
     0
176
     1
290
     0
176
     1
290
     0
176
     1
290
     0
176
     1
290
     0
176
     1
290
     0
176
     1
 90
       50
176
     1
 40
0.0
176
     1
 40
1.0
176
     1
 90
        0
176
     1
 62
    18
420
        0
176
     1
 90
       50
176
     1
 90
        3
176
     1
 62
     5
420
      255
176
     1
290
     0
176
     1
 90
       50
176
     1
 90
       50
176
     1
 90
       50
176
     1
290
     0
176
     1
 90
       50
176
     1
 62
   256
176
     0
 40
1.0
176
     0
 90
        2
176
     1
  1
strokes_ogs.tif
176
     1
290
     0
176
     1
 40
1.0
176
     1
 40
1.0
176
     1
1001
ACAD
1000
AcDbSavedByObjectVersion
1070
     0
  0
VISUALSTYLE
  5
8F6C
102
{ACAD_REACTORS
330
8F54
102
}
330
8F54
100
AcDbVisualStyle
  2
EdgeColorOff
 70
    22
177
     3
291
     1
 70
    58
 90
        2
176
     0
 90
        2
176
     0
 90
        0
176
     0
 90
        0
176
     0
 40
0.6
176
     0
 40
30.0
176
     0
 62
     7
420
 16777215
176
     0
 90
        1
176
     0
 90
        4
176
     0
 62
     7
176
     0
 62
   257
176
     0
 90
        1
176
     0
 90
        1
176
     0
 40
1.0
176
     0
 90
        8
176
     2
 62
     7
176
     0
 40
1.0
176
     0
 90
        1
176
     0
 90
        6
176
     0
 90
        2
176
     0
 62
     7
176
     0
 90
        5
176
     0
 90
        0
176
     0
 90
        0
176
     0
290
     0
176
     0
 90
        1
176
     0
 40
0.0
176
     0
 90
        0
176
     0
290
     0
176
     0
290
     1
176
     0
290
     1
176
     0
290
     0
176
     0
290
     0
176
     0
290
     0
176
     0
290
     0
176
     0
290
     0
176
     0
290
     0
176
     0
 90
       50
176
     0
 40
0.0
176
     0
 40
1.0
176
     0
 90
        0
176
     0
 62
    18
420
        0
176
     0
 90
       50
176
     0
 90
        3
176
     0
 62
     5
420
      255
176
     0
290
     0
176
     0
 90
       50
176
     0
 90
       50
176
     0
 90
       50
176
     0
290
     0
176
     0
 90
       50
176
     0
 62
   256
176
     0
 40
1.0
176
     0
 90
        2
176
     0
  1
strokes_ogs.tif
176
     0
290
     0
176
     0
 40
1.0
176
     0
 40
1.0
176
     0
1001
ACAD
1000
AcDbSavedByObjectVersion
1070
     0
  0
VISUALSTYLE
  5
8F63
102
{ACAD_REACTORS
330
8F54
102
}
330
8F54
100
AcDbVisualStyle
  2
Facepattern
 70
    15
177
     3
291
     1
 70
    58
 90
        2
176
     1
 90
        2
176
     1
 90
        0
176
     1
 90
        0
176
     1
 40
0.6
176
     1
 40
30.0
176
     1
 62
     7
420
 16777215
176
     1
 90
        1
176
     1
 90
        4
176
     1
 62
     7
176
     1
 62
   257
176
     1
 90
        1
176
     1
 90
        1
176
     1
 40
1.0
176
     1
 90
        8
176
     1
 62
     7
176
     1
 40
1.0
176
     1
 90
        1
176
     1
 90
        6
176
     1
 90
        2
176
     1
 62
     7
176
     1
 90
        5
176
     1
 90
        0
176
     1
 90
        0
176
     1
290
     0
176
     1
 90
        1
176
     1
 40
0.0
176
     1
 90
        0
176
     1
290
     0
176
     1
290
     1
176
     1
290
     1
176
     1
290
     0
176
     1
290
     0
176
     1
290
     0
176
     1
290
     0
176
     1
290
     0
176
     1
290
     0
176
     1
 90
       50
176
     1
 40
0.0
176
     1
 40
1.0
176
     1
 90
        0
176
     1
 62
    18
420
        0
176
     1
 90
       50
176
     1
 90
        3
176
     1
 62
     5
420
      255
176
     1
290
     0
176
     1
 90
       50
176
     1
 90
       50
176
     1
 90
       50
176
     1
290
     0
176
     1
 90
       50
176
     1
 62
   256
176
     0
 40
1.0
176
     0
 90
        2
176
     1
  1
strokes_ogs.tif
176
     1
290
     0
176
     1
 40
1.0
176
     1
 40
1.0
176
     1
1001
ACAD
1000
AcDbSavedByObjectVersion
1070
     0
  0
VISUALSTYLE
  5
8F55
102
{ACAD_REACTORS
330
8F54
102
}
330
8F54
100
AcDbVisualStyle
  2
Flat
 70
     0
177
     3
291
     1
 70
    58
 90
        2
176
     1
 90
        1
176
     1
 90
        1
176
     1
 90
        2
176
     1
 40
0.6
176
     1
 40
30.0
176
     1
 62
     7
420
 16777215
176
     1
 90
        0
176
     1
 90
        0
176
     1
 62
     7
176
     1
 62
   257
176
     1
 90
        1
176
     1
 90
        1
176
     1
 40
1.0
176
     1
 90
        8
176
     1
 62
     7
176
     1
 40
1.0
176
     1
 90
        1
176
     1
 90
        6
176
     1
 90
        2
176
     1
 62
     7
176
     1
 90
        5
176
     1
 90
        0
176
     1
 90
        0
176
     1
290
     0
176
     1
 90
       13
176
     1
 40
0.0
176
     1
 90
        0
176
     1
290
     0
176
     1
290
     1
176
     1
290
     1
176
     1
290
     0
176
     1
290
     0
176
     1
290
     0
176
     1
290
     0
176
     1
290
     0
176
     1
290
     0
176
     1
 90
       50
176
     1
 40
0.0
176
     1
 40
1.0
176
     1
 90
        0
176
     1
 62
    18
420
        0
176
     1
 90
       50
176
     1
 90
        3
176
     1
 62
     5
420
      255
176
     1
290
     0
176
     1
 90
       50
176
     1
 90
       50
176
     1
 90
       50
176
     1
290
     0
176
     1
 90
       50
176
     1
 62
   256
176
     0
 40
1.0
176
     0
 90
        2
176
     1
  1
strokes_ogs.tif
176
     1
290
     0
176
     1
 40
1.0
176
     1
 40
1.0
176
     1
1001
ACAD
1000
AcDbSavedByObjectVersion
1070
     0
  0
VISUALSTYLE
  5
8F56
102
{ACAD_REACTORS
330
8F54
102
}
330
8F54
100
AcDbVisualStyle
  2
FlatWithEdges
 70
     1
177
     3
291
     1
 70
    58
 90
        2
176
     1
 90
        1
176
     1
 90
        1
176
     1
 90
        2
176
     1
 40
0.6
176
     1
 40
30.0
176
     1
 62
     7
420
 16777215
176
     1
 90
        1
176
     1
 90
        0
176
     1
 62
     7
176
     1
 62
   257
176
     1
 90
        1
176
     1
 90
        1
176
     1
 40
1.0
176
     1
 90
        0
176
     1
 62
   257
176
     1
 40
1.0
176
     1
 90
        1
176
     1
 90
        6
176
     1
 90
        2
176
     1
 62
     7
176
     1
 90
        5
176
     1
 90
        0
176
     1
 90
        0
176
     1
290
     0
176
     1
 90
       13
176
     1
 40
0.0
176
     1
 90
        0
176
     1
290
     0
176
     1
290
     1
176
     1
290
     1
176
     1
290
     0
176
     1
290
     0
176
     1
290
     0
176
     1
290
     0
176
     1
290
     0
176
     1
290
     0
176
     1
 90
       50
176
     1
 40
0.0
176
     1
 40
1.0
176
     1
 90
        0
176
     1
 62
    18
420
        0
176
     1
 90
       50
176
     1
 90
        3
176
     1
 62
     5
420
      255
176
     1
290
     0
176
     1
 90
       50
176
     1
 90
       50
176
     1
 90
       50
176
     1
290
     0
176
     1
 90
       50
176
     1
 62
   256
176
     0
 40
1.0
176
     0
 90
        2
176
     1
  1
strokes_ogs.tif
176
     1
290
     0
176
     1
 40
1.0
176
     1
 40
1.0
176
     1
1001
ACAD
1000
AcDbSavedByObjectVersion
1070
     0
  0
VISUALSTYLE
  5
8F57
102
{ACAD_REACTORS
330
8F54
102
}
330
8F54
100
AcDbVisualStyle
  2
Gouraud
 70
     2
177
     3
291
     1
 70
    58
 90
        2
176
     1
 90
        2
176
     1
 90
        1
176
     1
 90
        2
176
     1
 40
0.6
176
     1
 40
30.0
176
     1
 62
     7
420
 16777215
176
     1
 90
        0
176
     1
 90
        0
176
     1
 62
     7
176
     1
 62
   257
176
     1
 90
        1
176
     1
 90
        1
176
     1
 40
1.0
176
     1
 90
        0
176
     1
 62
     7
176
     1
 40
1.0
176
     1
 90
        1
176
     1
 90
        6
176
     1
 90
        2
176
     1
 62
     7
176
     1
 90
        5
176
     1
 90
        0
176
     1
 90
        0
176
     1
290
     0
176
     1
 90
       13
176
     1
 40
0.0
176
     1
 90
        0
176
     1
290
     0
176
     1
290
     1
176
     1
290
     1
176
     1
290
     0
176
     1
290
     0
176
     1
290
     0
176
     1
290
     0
176
     1
290
     0
176
     1
290
     0
176
     1
 90
       50
176
     1
 40
0.0
176
     1
 40
1.0
176
     1
 90
        0
176
     1
 62
    18
420
        0
176
     1
 90
       50
176
     1
 90
        3
176
     1
 62
     5
420
      255
176
     1
290
     0
176
     1
 90
       50
176
     1
 90
       50
176
     1
 90
       50
176
     1
290
     0
176
     1
 90
       50
176
     1
 62
   256
176
     0
 40
1.0
176
     0
 90
        2
176
     1
  1
strokes_ogs.tif
176
     1
290
     0
176
     1
 40
1.0
176
     1
 40
1.0
176
     1
1001
ACAD
1000
AcDbSavedByObjectVersion
1070
     0
  0
VISUALSTYLE
  5
8F58
102
{ACAD_REACTORS
330
8F54
102
}
330
8F54
100
AcDbVisualStyle
  2
GouraudWithEdges
 70
     3
177
     3
291
     1
 70
    58
 90
        2
176
     1
 90
        2
176
     1
 90
        1
176
     1
 90
        2
176
     1
 40
0.6
176
     1
 40
30.0
176
     1
 62
     7
420
 16777215
176
     1
 90
        1
176
     1
 90
        0
176
     1
 62
     7
176
     1
 62
   257
176
     1
 90
        1
176
     1
 90
        1
176
     1
 40
1.0
176
     1
 90
        0
176
     1
 62
   257
176
     1
 40
1.0
176
     1
 90
        1
176
     1
 90
        6
176
     1
 90
        2
176
     1
 62
     7
176
     1
 90
        5
176
     1
 90
        0
176
     1
 90
        0
176
     1
290
     0
176
     1
 90
       13
176
     1
 40
0.0
176
     1
 90
        0
176
     1
290
     0
176
     1
290
     1
176
     1
290
     1
176
     1
290
     0
176
     1
290
     0
176
     1
290
     0
176
     1
290
     0
176
     1
290
     0
176
     1
290
     0
176
     1
 90
       50
176
     1
 40
0.0
176
     1
 40
1.0
176
     1
 90
        0
176
     1
 62
    18
420
        0
176
     1
 90
       50
176
     1
 90
        3
176
     1
 62
     5
420
      255
176
     1
290
     0
176
     1
 90
       50
176
     1
 90
       50
176
     1
 90
       50
176
     1
290
     0
176
     1
 90
       50
176
     1
 62
   256
176
     0
 40
1.0
176
     0
 90
        2
176
     1
  1
strokes_ogs.tif
176
     1
290
     0
176
     1
 40
1.0
176
     1
 40
1.0
176
     1
1001
ACAD
1000
AcDbSavedByObjectVersion
1070
     0
  0
VISUALSTYLE
  5
8F5C
102
{ACAD_REACTORS
330
8F54
102
}
330
8F54
100
AcDbVisualStyle
  2
Hidden
 70
     6
177
     3
291
     0
 70
    58
 90
        1
176
     1
 90
        2
176
     1
 90
        2
176
     1
 90
        0
176
     1
 40
0.6
176
     1
 40
30.0
176
     1
 62
     7
420
 16777215
176
     1
 90
        2
176
     1
 90
        2
176
     1
 62
     7
176
     1
 62
   257
176
     1
 90
        2
176
     1
 90
        1
176
     1
 40
40.0
176
     1
 90
        0
176
     1
 62
   257
176
     1
 40
1.0
176
     1
 90
        1
176
     1
 90
        6
176
     1
 90
        2
176
     1
 62
     7
176
     1
 90
        3
176
     1
 90
        0
176
     1
 90
        0
176
     1
290
     0
176
     1
 90
        1
176
     1
 40
0.0
176
     1
 90
        0
176
     1
290
     0
176
     1
290
     1
176
     1
290
     1
176
     1
290
     0
176
     1
290
     0
176
     1
290
     0
176
     1
290
     0
176
     1
290
     0
176
     1
290
     0
176
     1
 90
       50
176
     1
 40
0.0
176
     1
 40
1.0
176
     1
 90
        0
176
     1
 62
    18
420
        0
176
     1
 90
       50
176
     1
 90
        3
176
     1
 62
     5
420
      255
176
     1
290
     0
176
     1
 90
       50
176
     1
 90
       50
176
     1
 90
       50
176
     1
290
     0
176
     1
 90
       50
176
     1
 62
   256
176
     0
 40
1.0
176
     0
 90
        2
176
     1
  1
strokes_ogs.tif
176
     1
290
     0
176
     1
 40
1.0
176
     1
 40
1.0
176
     1
1001
ACAD
1000
AcDbSavedByObjectVersion
1070
     0
  0
VISUALSTYLE
  5
8F6A
102
{ACAD_REACTORS
330
8F54
102
}
330
8F54
100
AcDbVisualStyle
  2
JitterOff
 70
    20
177
     3
291
     1
 70
    58
 90
        2
176
     0
 90
        2
176
     0
 90
        0
176
     0
 90
        0
176
     0
 40
0.6
176
     0
 40
30.0
176
     0
 62
     7
420
 16777215
176
     0
 90
        1
176
     0
 90
        4
176
     0
 62
     7
176
     0
 62
   257
176
     0
 90
        1
176
     0
 90
        1
176
     0
 40
1.0
176
     0
 90
       10
176
     2
 62
     7
176
     0
 40
1.0
176
     0
 90
        1
176
     0
 90
        6
176
     0
 90
        2
176
     0
 62
     7
176
     0
 90
        5
176
     0
 90
        0
176
     0
 90
        0
176
     0
290
     0
176
     0
 90
        1
176
     0
 40
0.0
176
     0
 90
        0
176
     0
290
     0
176
     0
290
     1
176
     0
290
     1
176
     0
290
     0
176
     0
290
     0
176
     0
290
     0
176
     0
290
     0
176
     0
290
     0
176
     0
290
     0
176
     0
 90
       50
176
     0
 40
0.0
176
     0
 40
1.0
176
     0
 90
        0
176
     0
 62
    18
420
        0
176
     0
 90
       50
176
     0
 90
        3
176
     0
 62
     5
420
      255
176
     0
290
     0
176
     0
 90
       50
176
     0
 90
       50
176
     0
 90
       50
176
     0
290
     0
176
     0
 90
       50
176
     0
 62
   256
176
     0
 40
1.0
176
     0
 90
        2
176
     0
  1
strokes_ogs.tif
176
     0
290
     0
176
     0
 40
1.0
176
     0
 40
1.0
176
     0
1001
ACAD
1000
AcDbSavedByObjectVersion
1070
     0
  0
VISUALSTYLE
  5
8F62
102
{ACAD_REACTORS
330
8F54
102
}
330
8F54
100
AcDbVisualStyle
  2
Linepattern
 70
    14
177
     3
291
     1
 70
    58
 90
        2
176
     1
 90
        2
176
     1
 90
        0
176
     1
 90
        0
176
     1
 40
0.6
176
     1
 40
30.0
176
     1
 62
     7
420
 16777215
176
     1
 90
        1
176
     1
 90
        4
176
     1
 62
     7
176
     1
 62
   257
176
     1
 90
        7
176
     1
 90
        7
176
     1
 40
1.0
176
     1
 90
        8
176
     1
 62
     7
176
     1
 40
1.0
176
     1
 90
        1
176
     1
 90
        6
176
     1
 90
        2
176
     1
 62
     7
176
     1
 90
        5
176
     1
 90
        0
176
     1
 90
        0
176
     1
290
     0
176
     1
 90
        1
176
     1
 40
0.0
176
     1
 90
        0
176
     1
290
     0
176
     1
290
     1
176
     1
290
     1
176
     1
290
     0
176
     1
290
     0
176
     1
290
     0
176
     1
290
     0
176
     1
290
     0
176
     1
290
     0
176
     1
 90
       50
176
     1
 40
0.0
176
     1
 40
1.0
176
     1
 90
        0
176
     1
 62
    18
420
        0
176
     1
 90
       50
176
     1
 90
        3
176
     1
 62
     5
420
      255
176
     1
290
     0
176
     1
 90
       50
176
     1
 90
       50
176
     1
 90
       50
176
     1
290
     0
176
     1
 90
       50
176
     1
 62
   256
176
     0
 40
1.0
176
     0
 90
        2
176
     1
  1
strokes_ogs.tif
176
     1
290
     0
176
     1
 40
1.0
176
     1
 40
1.0
176
     1
1001
ACAD
1000
AcDbSavedByObjectVersion
1070
     0
  0
VISUALSTYLE
  5
8F6B
102
{ACAD_REACTORS
330
8F54
102
}
330
8F54
100
AcDbVisualStyle
  2
OverhangOff
 70
    21
177
     3
291
     1
 70
    58
 90
        2
176
     0
 90
        2
176
     0
 90
        0
176
     0
 90
        0
176
     0
 40
0.6
176
     0
 40
30.0
176
     0
 62
     7
420
 16777215
176
     0
 90
        1
176
     0
 90
        4
176
     0
 62
     7
176
     0
 62
   257
176
     0
 90
        1
176
     0
 90
        1
176
     0
 40
1.0
176
     0
 90
        9
176
     2
 62
     7
176
     0
 40
1.0
176
     0
 90
        1
176
     0
 90
        6
176
     0
 90
        2
176
     0
 62
     7
176
     0
 90
        5
176
     0
 90
        0
176
     0
 90
        0
176
     0
290
     0
176
     0
 90
        1
176
     0
 40
0.0
176
     0
 90
        0
176
     0
290
     0
176
     0
290
     1
176
     0
290
     1
176
     0
290
     0
176
     0
290
     0
176
     0
290
     0
176
     0
290
     0
176
     0
290
     0
176
     0
290
     0
176
     0
 90
       50
176
     0
 40
0.0
176
     0
 40
1.0
176
     0
 90
        0
176
     0
 62
    18
420
        0
176
     0
 90
       50
176
     0
 90
        3
176
     0
 62
     5
420
      255
176
     0
290
     0
176
     0
 90
       50
176
     0
 90
       50
176
     0
 90
       50
176
     0
290
     0
176
     0
 90
       50
176
     0
 62
   256
176
     0
 40
1.0
176
     0
 90
        2
176
     0
  1
strokes_ogs.tif
176
     0
290
     0
176
     0
 40
1.0
176
     0
 40
1.0
176
     0
1001
ACAD
1000
AcDbSavedByObjectVersion
1070
     0
  0
VISUALSTYLE
  5
8F5E
102
{ACAD_REACTORS
330
8F54
102
}
330
8F54
100
AcDbVisualStyle
  2
Realistic
 70
     8
177
     3
291
     0
 70
    58
 90
        2
176
     1
 90
        3
176
     1
 90
        0
176
     1
 90
        2
176
     1
 40
0.6
176
     1
 40
30.0
176
     1
 62
     7
420
 16777215
176
     1
 90
        0
176
     1
 90
        0
176
     1
 62
     7
176
     1
 62
   257
176
     1
 90
        1
176
     1
 90
        1
176
     1
 40
1.0
176
     1
 90
        8
176
     1
 62
   257
176
     1
 40
1.0
176
     1
 90
        1
176
     1
 90
        6
176
     1
 90
        2
176
     1
 62
     7
176
     1
 90
        3
176
     1
 90
        0
176
     1
 90
        0
176
     1
290
     0
176
     1
 90
       13
176
     1
 40
0.0
176
     1
 90
        0
176
     1
290
     0
176
     1
290
     1
176
     1
290
     1
176
     1
290
     0
176
     1
290
     0
176
     1
290
     0
176
     1
290
     0
176
     1
290
     0
176
     1
290
     0
176
     1
 90
       50
176
     1
 40
0.0
176
     1
 40
1.0
176
     1
 90
        0
176
     1
 62
    18
420
        0
176
     1
 90
       50
176
     1
 90
        3
176
     1
 62
     5
420
      255
176
     1
290
     0
176
     1
 90
       50
176
     1
 90
       50
176
     1
 90
       50
176
     1
290
     0
176
     1
 90
       50
176
     1
 62
   256
176
     0
 40
1.0
176
     0
 90
        2
176
     1
  1
strokes_ogs.tif
176
     1
290
     0
176
     1
 40
1.0
176
     1
 40
1.0
176
     1
1001
ACAD
1000
AcDbSavedByObjectVersion
1070
     0
  0
VISUALSTYLE
  5
8F69
102
{ACAD_REACTORS
330
8F54
102
}
330
8F54
100
AcDbVisualStyle
  2
Shaded
 70
    27
177
     3
291
     0
 70
    58
 90
        2
176
     1
 90
        2
176
     1
 90
        1
176
     1
 90
        2
176
     1
 40
0.6
176
     1
 40
30.0
176
     1
 62
     7
420
 16777215
176
     1
 90
        0
176
     1
 90
        4
176
     1
 62
     7
176
     1
 62
   257
176
     1
 90
        1
176
     1
 90
        1
176
     1
 40
1.0
176
     1
 90
        8
176
     1
 62
   257
176
     1
 40
1.0
176
     1
 90
        1
176
     1
 90
        6
176
     1
 90
        2
176
     1
 62
     8
420
  7895160
176
     1
 90
        3
176
     1
 90
        0
176
     1
 90
        0
176
     1
290
     0
176
     1
 90
        5
176
     1
 40
0.0
176
     1
 90
        0
176
     1
290
     0
176
     1
290
     1
176
     1
290
     1
176
     1
290
     0
176
     1
290
     0
176
     1
290
     0
176
     1
290
     0
176
     1
290
     0
176
     1
290
     0
176
     1
 90
       50
176
     1
 40
0.0
176
     1
 40
1.0
176
     1
 90
        0
176
     1
 62
    18
420
        0
176
     1
 90
       50
176
     1
 90
        3
176
     1
 62
     5
420
      255
176
     1
290
     0
176
     1
 90
       50
176
     1
 90
       50
176
     1
 90
       50
176
     1
290
     0
176
     1
 90
       50
176
     1
 62
   256
176
     0
 40
1.0
176
     0
 90
        2
176
     1
  1
strokes_ogs.tif
176
     1
290
     0
176
     1
 40
1.0
176
     1
 40
1.0
176
     1
1001
ACAD
1000
AcDbSavedByObjectVersion
1070
     0
  0
VISUALSTYLE
  5
8F68
102
{ACAD_REACTORS
330
8F54
102
}
330
8F54
100
AcDbVisualStyle
  2
Shaded with edges
 70
    26
177
     3
291
     0
 70
    58
 90
        2
176
     1
 90
        2
176
     1
 90
        1
176
     1
 90
        2
176
     1
 40
0.6
176
     1
 40
30.0
176
     1
 62
     7
420
 16777215
176
     1
 90
        1
176
     1
 90
        2
176
     1
 62
     7
176
     1
 62
   257
176
     1
 90
        2
176
     1
 90
        1
176
     1
 40
1.0
176
     1
 90
        8
176
     1
 62
   257
176
     1
 40
1.0
176
     1
 90
        1
176
     1
 90
        6
176
     1
 90
        2
176
     1
 62
     7
176
     1
 90
        3
176
     1
 90
        0
176
     1
 90
        0
176
     1
290
     0
176
     1
 90
        5
176
     1
 40
0.0
176
     1
 90
        0
176
     1
290
     0
176
     1
290
     1
176
     1
290
     1
176
     1
290
     0
176
     1
290
     0
176
     1
290
     0
176
     1
290
     0
176
     1
290
     0
176
     1
290
     0
176
     1
 90
       50
176
     1
 40
0.0
176
     1
 40
1.0
176
     1
 90
        0
176
     1
 62
    18
420
        0
176
     1
 90
       50
176
     1
 90
        3
176
     1
 62
     5
420
      255
176
     1
290
     0
176
     1
 90
       50
176
     1
 90
       50
176
     1
 90
       50
176
     1
290
     0
176
     1
 90
       50
176
     1
 62
   256
176
     0
 40
1.0
176
     0
 90
        2
176
     1
  1
strokes_ogs.tif
176
     1
290
     0
176
     1
 40
1.0
176
     1
 40
1.0
176
     1
1001
ACAD
1000
AcDbSavedByObjectVersion
1070
     0
  0
VISUALSTYLE
  5
8F65
102
{ACAD_REACTORS
330
8F54
102
}
330
8F54
100
AcDbVisualStyle
  2
Shades of Gray
 70
    23
177
     3
291
     0
 70
    58
 90
        2
176
     1
 90
        2
176
     1
 90
        3
176
     1
 90
        0
176
     1
 40
0.6
176
     1
 40
30.0
176
     1
 62
     7
420
 16777215
176
     1
 90
        2
176
     1
 90
        2
176
     1
 62
     7
176
     1
 62
     7
176
     1
 90
        1
176
     1
 90
        1
176
     1
 40
40.0
176
     1
 90
        8
176
     1
 62
     7
176
     1
 40
1.0
176
     1
 90
        1
176
     1
 90
        6
176
     1
 90
        2
176
     1
 62
     7
176
     1
 90
        3
176
     1
 90
        0
176
     1
 90
        0
176
     1
290
     0
176
     1
 90
        1
176
     1
 40
0.0
176
     1
 90
        0
176
     1
290
     0
176
     1
290
     1
176
     1
290
     1
176
     1
290
     0
176
     1
290
     0
176
     1
290
     0
176
     1
290
     0
176
     1
290
     0
176
     1
290
     0
176
     1
 90
       50
176
     1
 40
0.0
176
     1
 40
1.0
176
     1
 90
        0
176
     1
 62
    18
420
        0
176
     1
 90
       50
176
     1
 90
        3
176
     1
 62
     5
420
      255
176
     1
290
     0
176
     1
 90
       50
176
     1
 90
       50
176
     1
 90
       50
176
     1
290
     0
176
     1
 90
       50
176
     1
 62
   256
176
     0
 40
1.0
176
     0
 90
        2
176
     1
  1
strokes_ogs.tif
176
     1
290
     0
176
     1
 40
1.0
176
     1
 40
1.0
176
     1
1001
ACAD
1000
AcDbSavedByObjectVersion
1070
     0
  0
VISUALSTYLE
  5
8F66
102
{ACAD_REACTORS
330
8F54
102
}
330
8F54
100
AcDbVisualStyle
  2
Sketchy
 70
    24
177
     3
291
     0
 70
    58
 90
        1
176
     1
 90
        2
176
     1
 90
        2
176
     1
 90
        0
176
     1
 40
0.6
176
     1
 40
30.0
176
     1
 62
     7
420
 16777215
176
     1
 90
        2
176
     1
 90
        2
176
     1
 62
     7
176
     1
 62
     7
176
     1
 90
        1
176
     1
 90
        1
176
     1
 40
40.0
176
     1
 90
       11
176
     1
 62
     7
176
     1
 40
1.0
176
     1
 90
        1
176
     1
 90
        6
176
     1
 90
        2
176
     1
 62
     7
176
     1
 90
        6
176
     1
 90
        0
176
     1
 90
        0
176
     1
290
     0
176
     1
 90
        1
176
     1
 40
0.0
176
     1
 90
        0
176
     1
290
     0
176
     1
290
     1
176
     1
290
     1
176
     1
290
     0
176
     1
290
     0
176
     1
290
     0
176
     1
290
     0
176
     1
290
     0
176
     1
290
     0
176
     1
 90
       50
176
     1
 40
0.0
176
     1
 40
1.0
176
     1
 90
        0
176
     1
 62
    18
420
        0
176
     1
 90
       50
176
     1
 90
        3
176
     1
 62
     5
420
      255
176
     1
290
     0
176
     1
 90
       50
176
     1
 90
       50
176
     1
 90
       50
176
     1
290
     0
176
     1
 90
       50
176
     1
 62
   256
176
     0
 40
1.0
176
     0
 90
        2
176
     1
  1
strokes_ogs.tif
176
     1
290
     0
176
     1
 40
1.0
176
     1
 40
1.0
176
     1
1001
ACAD
1000
AcDbSavedByObjectVersion
1070
     0
  0
VISUALSTYLE
  5
8F61
102
{ACAD_REACTORS
330
8F54
102
}
330
8F54
100
AcDbVisualStyle
  2
Thicken
 70
    13
177
     3
291
     1
 70
    58
 90
        2
176
     1
 90
        2
176
     1
 90
        0
176
     1
 90
        0
176
     1
 40
0.6
176
     1
 40
30.0
176
     1
 62
     7
420
 16777215
176
     1
 90
        1
176
     1
 90
        4
176
     1
 62
     7
176
     1
 62
   257
176
     1
 90
        1
176
     1
 90
        1
176
     1
 40
1.0
176
     1
 90
       12
176
     1
 62
     7
176
     1
 40
1.0
176
     1
 90
        1
176
     1
 90
        6
176
     1
 90
        2
176
     1
 62
     7
176
     1
 90
        5
176
     1
 90
        0
176
     1
 90
        0
176
     1
290
     0
176
     1
 90
        1
176
     1
 40
0.0
176
     1
 90
        0
176
     1
290
     0
176
     1
290
     1
176
     1
290
     1
176
     1
290
     0
176
     1
290
     0
176
     1
290
     0
176
     1
290
     0
176
     1
290
     0
176
     1
290
     0
176
     1
 90
       50
176
     1
 40
0.0
176
     1
 40
1.0
176
     1
 90
        0
176
     1
 62
    18
420
        0
176
     1
 90
       50
176
     1
 90
        3
176
     1
 62
     5
420
      255
176
     1
290
     0
176
     1
 90
       50
176
     1
 90
       50
176
     1
 90
       50
176
     1
290
     0
176
     1
 90
       50
176
     1
 62
   256
176
     0
 40
1.0
176
     0
 90
        2
176
     1
  1
strokes_ogs.tif
176
     1
290
     0
176
     1
 40
1.0
176
     1
 40
1.0
176
     1
1001
ACAD
1000
AcDbSavedByObjectVersion
1070
     0
  0
VISUALSTYLE
  5
8F5B
102
{ACAD_REACTORS
330
8F54
102
}
330
8F54
100
AcDbVisualStyle
  2
Wireframe
 70
     5
177
     3
291
     0
 70
    58
 90
        0
176
     1
 90
        2
176
     1
 90
        0
176
     1
 90
        0
176
     1
 40
0.6
176
     1
 40
30.0
176
     1
 62
     7
420
 16777215
176
     1
 90
        1
176
     1
 90
        4
176
     1
 62
     7
176
     1
 62
   257
176
     1
 90
        1
176
     1
 90
        1
176
     1
 40
1.0
176
     1
 90
        0
176
     1
 62
   257
176
     1
 40
1.0
176
     1
 90
        1
176
     1
 90
        6
176
     1
 90
        2
176
     1
 62
     7
176
     1
 90
        3
176
     1
 90
        0
176
     1
 90
        0
176
     1
290
     0
176
     1
 90
        1
176
     1
 40
0.0
176
     1
 90
        0
176
     1
290
     0
176
     1
290
     1
176
     1
290
     1
176
     1
290
     0
176
     1
290
     0
176
     1
290
     0
176
     1
290
     0
176
     1
290
     0
176
     1
290
     0
176
     1
 90
       50
176
     1
 40
0.0
176
     1
 40
1.0
176
     1
 90
        0
176
     1
 62
    18
420
        0
176
     1
 90
       50
176
     1
 90
        3
176
     1
 62
     5
420
      255
176
     1
290
     0
176
     1
 90
       50
176
     1
 90
       50
176
     1
 90
       50
176
     1
290
     0
176
     1
 90
       50
176
     1
 62
   256
176
     0
 40
1.0
176
     0
 90
        2
176
     1
  1
strokes_ogs.tif
176
     1
290
     0
176
     1
 40
1.0
176
     1
 40
1.0
176
     1
1001
ACAD
1000
AcDbSavedByObjectVersion
1070
     0
  0
VISUALSTYLE
  5
8F67
102
{ACAD_REACTORS
330
8F54
102
}
330
8F54
100
AcDbVisualStyle
  2
X-Ray
 70
    25
177
     3
291
     0
 70
    58
 90
        2
176
     1
 90
        2
176
     1
 90
        1
176
     1
 90
        1
176
     1
 40
0.5
176
     1
 40
30.0
176
     1
 62
     7
420
 16777215
176
     1
 90
        1
176
     1
 90
        0
176
     1
 62
     7
176
     1
 62
   257
176
     1
 90
        1
176
     1
 90
        1
176
     1
 40
1.0
176
     1
 90
        8
176
     1
 62
     7
176
     1
 40
1.0
176
     1
 90
        1
176
     1
 90
        6
176
     1
 90
        2
176
     1
 62
     7
176
     1
 90
        3
176
     1
 90
        0
176
     1
 90
        0
176
     1
290
     0
176
     1
 90
       13
176
     1
 40
0.0
176
     1
 90
        0
176
     1
290
     0
176
     1
290
     1
176
     1
290
     1
176
     1
290
     0
176
     1
290
     0
176
     1
290
     0
176
     1
290
     0
176
     1
290
     0
176
     1
290
     0
176
     1
 90
       50
176
     1
 40
0.0
176
     1
 40
1.0
176
     1
 90
        0
176
     1
 62
    18
420
        0
176
     1
 90
       50
176
     1
 90
        3
176
     1
 62
     5
420
      255
176
     1
290
     0
176
     1
 90
       50
176
     1
 90
       50
176
     1
 90
       50
176
     1
290
     0
176
     1
 90
       50
176
     1
 62
   256
176
     0
 40
1.0
176
     0
 90
        2
176
     1
  1
strokes_ogs.tif
176
     1
290
     0
176
     1
 40
1.0
176
     1
 40
1.0
176
     1
1001
ACAD
1000
AcDbSavedByObjectVersion
1070
     0
  0
DICTIONARYVAR
  5
8FC7
102
{ACAD_REACTORS
330
8FC1
102
}
330
8FC1
100
DictionaryVariables
280
     0
  1
1:1
  0
DICTIONARYVAR
  5
8FC3
102
{ACAD_REACTORS
330
8FC1
102
}
330
8FC1
100
DictionaryVariables
280
     0
  1
STANDARD
  0
DICTIONARYVAR
  5
8FC2
102
{ACAD_REACTORS
330
8FC1
102
}
330
8FC1
100
DictionaryVariables
280
     0
  1
STANDARD
  0
DICTIONARYVAR
  5
8FC4
102
{ACAD_REACTORS
330
8FC1
102
}
330
8FC1
100
DictionaryVariables
280
     0
  1
Metric50
  0
DICTIONARYVAR
  5
8FC5
102
{ACAD_REACTORS
330
8FC1
102
}
330
8FC1
100
DictionaryVariables
280
     0
  1
Metric50
  0
DICTIONARYVAR
  5
8FC9
102
{ACAD_REACTORS
330
8FC1
102
}
330
8FC1
100
DictionaryVariables
280
     0
  1
1
  0
DICTIONARYVAR
  5
8FCA
102
{ACAD_REACTORS
330
8FC1
102
}
330
8FC1
100
DictionaryVariables
280
     0
  1
15
  0
DICTIONARYVAR
  5
8FC8
102
{ACAD_REACTORS
330
8FC1
102
}
330
8FC1
100
DictionaryVariables
280
     0
  1
0
  0
DICTIONARYVAR
  5
8FCF
102
{ACAD_REACTORS
330
8FC1
102
}
330
8FC1
100
DictionaryVariables
280
     0
  1
0
  0
DICTIONARYVAR
  5
8FC6
102
{ACAD_REACTORS
330
8FC1
102
}
330
8FC1
100
DictionaryVariables
280
     0
  1
0
  0
DICTIONARY
  5
8FDA
102
{ACAD_REACTORS
330
8FD8
102
}
330
8FD8
100
AcDbDictionary
281
     1
  0
DICTIONARY
  5
8FD9
102
{ACAD_REACTORS
330
8FD8
102
}
330
8FD8
100
AcDbDictionary
281
     1
  3
2037896793392
350
8FD3
  3
2037896793408
350
8FD4
  3
2037896793424
350
8FD5
  3
2037896793440
350
8FD6
  3
2037896793456
350
8FD7
  0
DICTIONARY
  5
8FDD
330
8F87
100
AcDbDictionary
280
     1
281
     1
  3
ACAD_XREC_ROUNDTRIP
360
8FDE
  0
DICTIONARY
  5
8F45
330
8F44
100
AcDbDictionary
280
     1
281
     1
  3
BUMPTILE
360
8F47
  3
DIFFUSETILE
360
8F46
  3
OPACITYTILE
360
8F4A
  3
REFLECTIONTILE
360
8F49
  3
REFRACTIONTILE
360
8F4B
  3
SPECULARTILE
360
8F48
  0
DICTIONARY
  5
8F3D
330
8F3C
100
AcDbDictionary
280
     1
281
     1
  3
BUMPTILE
360
8F3F
  3
DIFFUSETILE
360
8F3E
  3
OPACITYTILE
360
8F42
  3
REFLECTIONTILE
360
8F41
  3
REFRACTIONTILE
360
8F43
  3
SPECULARTILE
360
8F40
  0
DICTIONARY
  5
8F4D
330
8F4C
100
AcDbDictionary
280
     1
281
     1
  3
BUMPTILE
360
8F4F
  3
DIFFUSETILE
360
8F4E
  3
OPACITYTILE
360
8F52
  3
REFLECTIONTILE
360
8F51
  3
REFRACTIONTILE
360
8F53
  3
SPECULARTILE
360
8F50
  0
DICTIONARY
  5
8FDB
330
8F85
100
AcDbDictionary
280
     1
281
     1
  3
ACAD_XREC_ROUNDTRIP
360
8FDC
  0
DICTIONARY
  5
8FD0
330
8F6F
100
AcDbDictionary
280
     1
281
     1
  3
ACAD_ROUNDTRIP_2008_TABLESTYLE_CELLSTYLEMAP
360
8FD1
  0
XRECORD
  5
8FD3
102
{ACAD_REACTORS
330
8FD9
102
}
330
8FD9
100
AcDbXrecord
280
     1
  1
AcDb_Thumbnail_Schema
102
{ATTRRECORD
341
8FD4
  2
AcDbDs::TreatedAsObjectData
280
     1
291
     1
102
ATTRRECORD}
102
{ATTRRECORD
341
8FD5
  2
AcDbDs::Legacy
280
     1
291
     1
102
ATTRRECORD}
  2
AcDbDs::ID
280
    10
 91
        8
102
{ATTRRECORD
341
8FD6
  2
AcDs:Indexable
280
     1
291
     1
102
ATTRRECORD}
102
{ATTRRECORD
341
8FD7
  2
AcDbDs::HandleAttribute
280
     7
282
     1
102
ATTRRECORD}
  2
Thumbnail_Data
280
    15
 91
        0
  0
XRECORD
  5
8FD4
102
{ACAD_REACTORS
330
8FD9
102
}
330
8FD9
100
AcDbXrecord
280
     1
  1
AcDbDs::TreatedAsObjectDataSchema
  2
AcDbDs::TreatedAsObjectData
280
     1
 91
        0
  0
XRECORD
  5
8FD5
102
{ACAD_REACTORS
330
8FD9
102
}
330
8FD9
100
AcDbXrecord
280
     1
  1
AcDbDs::LegacySchema
  2
AcDbDs::Legacy
280
     1
 91
        0
  0
XRECORD
  5
8FD6
102
{ACAD_REACTORS
330
8FD9
102
}
330
8FD9
100
AcDbXrecord
280
     1
  1
AcDbDs::IndexedPropertySchema
  2
AcDs:Indexable
280
     1
 91
        0
  0
XRECORD
  5
8FD7
102
{ACAD_REACTORS
330
8FD9
102
}
330
8FD9
100
AcDbXrecord
280
     1
  1
AcDbDs::HandleAttributeSchema
  2
AcDbDs::HandleAttribute
280
     7
 91
        1
284
     1
  0
XRECORD
  5
8FDE
102
{ACAD_REACTORS
330
8FDD
102
}
330
8FDD
100
AcDbXrecord
280
     1
102
DISPLAYNAME
  1
Metric50
102
FLAGS
 90
        0
  0
XRECORD
  5
8F47
102
{ACAD_REACTORS
330
8F45
102
}
330
8F45
100
AcDbXrecord
280
     1
270
     1
271
     1
  0
XRECORD
  5
8F46
102
{ACAD_REACTORS
330
8F45
102
}
330
8F45
100
AcDbXrecord
280
     1
270
     1
271
     1
  0
XRECORD
  5
8F4A
102
{ACAD_REACTORS
330
8F45
102
}
330
8F45
100
AcDbXrecord
280
     1
270
     1
271
     1
  0
XRECORD
  5
8F49
102
{ACAD_REACTORS
330
8F45
102
}
330
8F45
100
AcDbXrecord
280
     1
270
     1
271
     1
  0
XRECORD
  5
8F4B
102
{ACAD_REACTORS
330
8F45
102
}
330
8F45
100
AcDbXrecord
280
     1
270
     1
271
     1
  0
XRECORD
  5
8F48
102
{ACAD_REACTORS
330
8F45
102
}
330
8F45
100
AcDbXrecord
280
     1
270
     1
271
     1
  0
XRECORD
  5
8F3F
102
{ACAD_REACTORS
330
8F3D
102
}
330
8F3D
100
AcDbXrecord
280
     1
270
     1
271
     1
  0
XRECORD
  5
8F3E
102
{ACAD_REACTORS
330
8F3D
102
}
330
8F3D
100
AcDbXrecord
280
     1
270
     1
271
     1
  0
XRECORD
  5
8F42
102
{ACAD_REACTORS
330
8F3D
102
}
330
8F3D
100
AcDbXrecord
280
     1
270
     1
271
     1
  0
XRECORD
  5
8F41
102
{ACAD_REACTORS
330
8F3D
102
}
330
8F3D
100
AcDbXrecord
280
     1
270
     1
271
     1
  0
XRECORD
  5
8F43
102
{ACAD_REACTORS
330
8F3D
102
}
330
8F3D
100
AcDbXrecord
280
     1
270
     1
271
     1
  0
XRECORD
  5
8F40
102
{ACAD_REACTORS
330
8F3D
102
}
330
8F3D
100
AcDbXrecord
280
     1
270
     1
271
     1
  0
XRECORD
  5
8F4F
102
{ACAD_REACTORS
330
8F4D
102
}
330
8F4D
100
AcDbXrecord
280
     1
270
     1
271
     1
  0
XRECORD
  5
8F4E
102
{ACAD_REACTORS
330
8F4D
102
}
330
8F4D
100
AcDbXrecord
280
     1
270
     1
271
     1
  0
XRECORD
  5
8F52
102
{ACAD_REACTORS
330
8F4D
102
}
330
8F4D
100
AcDbXrecord
280
     1
270
     1
271
     1
  0
XRECORD
  5
8F51
102
{ACAD_REACTORS
330
8F4D
102
}
330
8F4D
100
AcDbXrecord
280
     1
270
     1
271
     1
  0
XRECORD
  5
8F53
102
{ACAD_REACTORS
330
8F4D
102
}
330
8F4D
100
AcDbXrecord
280
     1
270
     1
271
     1
  0
XRECORD
  5
8F50
102
{ACAD_REACTORS
330
8F4D
102
}
330
8F4D
100
AcDbXrecord
280
     1
270
     1
271
     1
  0
XRECORD
  5
8FDC
102
{ACAD_REACTORS
330
8FDB
102
}
330
8FDB
100
AcDbXrecord
280
     1
102
DISPLAYNAME
  1
Metric50
102
FLAGS
 90
        0
  0
CELLSTYLEMAP
  5
8FD1
102
{ACAD_REACTORS
330
8FD0
102
}
330
8FD0
100
AcDbCellStyleMap
 90
        3
300
CELLSTYLE
  1
TABLEFORMAT_BEGIN
 90
        5
170
     1
 91
        0
 92
    32768
 62
   257
 93
        1
300
CONTENTFORMAT
  1
CONTENTFORMAT_BEGIN
 90
        0
 91
        0
 92
      512
 93
        0
300

 40
0.0
140
1.0
 94
        5
 62
     0
340
10
144
6.0
309
CONTENTFORMAT_END
171
     1
301
MARGIN
  1
CELLMARGIN_BEGIN
 40
1.5
 40
1.5
 40
1.5
 40
1.5
 40
4.5
 40
4.5
309
CELLMARGIN_END
 94
        6
 95
        1
302
GRIDFORMAT
  1
GRIDFORMAT_BEGIN
 90
        0
 91
        1
 62
     0
 92
       -2
340
0
 93
        0
 40
1.125
309
GRIDFORMAT_END
 95
        2
302
GRIDFORMAT
  1
GRIDFORMAT_BEGIN
 90
        0
 91
        1
 62
     0
 92
       -2
340
0
 93
        0
 40
1.125
309
GRIDFORMAT_END
 95
        4
302
GRIDFORMAT
  1
GRIDFORMAT_BEGIN
 90
        0
 91
        1
 62
     0
 92
       -2
340
0
 93
        0
 40
1.125
309
GRIDFORMAT_END
 95
        8
302
GRIDFORMAT
  1
GRIDFORMAT_BEGIN
 90
        0
 91
        1
 62
     0
 92
       -2
340
0
 93
        0
 40
1.125
309
GRIDFORMAT_END
 95
       16
302
GRIDFORMAT
  1
GRIDFORMAT_BEGIN
 90
        0
 91
        1
 62
     0
 92
       -2
340
0
 93
        0
 40
1.125
309
GRIDFORMAT_END
 95
       32
302
GRIDFORMAT
  1
GRIDFORMAT_BEGIN
 90
        0
 91
        1
 62
     0
 92
       -2
340
0
 93
        0
 40
1.125
309
GRIDFORMAT_END
309
TABLEFORMAT_END
  1
CELLSTYLE_BEGIN
 90
        1
 91
        1
300
_TITLE
309
CELLSTYLE_END
300
CELLSTYLE
  1
TABLEFORMAT_BEGIN
 90
        5
170
     1
 91
        0
 92
        0
 62
   257
 93
        1
300
CONTENTFORMAT
  1
CONTENTFORMAT_BEGIN
 90
        0
 91
        0
 92
      512
 93
        0
300

 40
0.0
140
1.0
 94
        5
 62
     0
340
10
144
4.5
309
CONTENTFORMAT_END
171
     1
301
MARGIN
  1
CELLMARGIN_BEGIN
 40
1.5
 40
1.5
 40
1.5
 40
1.5
 40
4.5
 40
4.5
309
CELLMARGIN_END
 94
        6
 95
        1
302
GRIDFORMAT
  1
GRIDFORMAT_BEGIN
 90
        0
 91
        1
 62
     0
 92
       -2
340
0
 93
        0
 40
1.125
309
GRIDFORMAT_END
 95
        2
302
GRIDFORMAT
  1
GRIDFORMAT_BEGIN
 90
        0
 91
        1
 62
     0
 92
       -2
340
0
 93
        0
 40
1.125
309
GRIDFORMAT_END
 95
        4
302
GRIDFORMAT
  1
GRIDFORMAT_BEGIN
 90
        0
 91
        1
 62
     0
 92
       -2
340
0
 93
        0
 40
1.125
309
GRIDFORMAT_END
 95
        8
302
GRIDFORMAT
  1
GRIDFORMAT_BEGIN
 90
        0
 91
        1
 62
     0
 92
       -2
340
0
 93
        0
 40
1.125
309
GRIDFORMAT_END
 95
       16
302
GRIDFORMAT
  1
GRIDFORMAT_BEGIN
 90
        0
 91
        1
 62
     0
 92
       -2
340
0
 93
        0
 40
1.125
309
GRIDFORMAT_END
 95
       32
302
GRIDFORMAT
  1
GRIDFORMAT_BEGIN
 90
        0
 91
        1
 62
     0
 92
       -2
340
0
 93
        0
 40
1.125
309
GRIDFORMAT_END
309
TABLEFORMAT_END
  1
CELLSTYLE_BEGIN
 90
        2
 91
        1
300
_HEADER
309
CELLSTYLE_END
300
CELLSTYLE
  1
TABLEFORMAT_BEGIN
 90
        5
170
     1
 91
        0
 92
        0
 62
   257
 93
        1
300
CONTENTFORMAT
  1
CONTENTFORMAT_BEGIN
 90
        0
 91
        0
 92
      512
 93
        0
300

 40
0.0
140
1.0
 94
        2
 62
     0
340
10
144
4.5
309
CONTENTFORMAT_END
171
     1
301
MARGIN
  1
CELLMARGIN_BEGIN
 40
1.5
 40
1.5
 40
1.5
 40
1.5
 40
4.5
 40
4.5
309
CELLMARGIN_END
 94
        6
 95
        1
302
GRIDFORMAT
  1
GRIDFORMAT_BEGIN
 90
        0
 91
        1
 62
     0
 92
       -2
340
0
 93
        0
 40
1.125
309
GRIDFORMAT_END
 95
        2
302
GRIDFORMAT
  1
GRIDFORMAT_BEGIN
 90
        0
 91
        1
 62
     0
 92
       -2
340
0
 93
        0
 40
1.125
309
GRIDFORMAT_END
 95
        4
302
GRIDFORMAT
  1
GRIDFORMAT_BEGIN
 90
        0
 91
        1
 62
     0
 92
       -2
340
0
 93
        0
 40
1.125
309
GRIDFORMAT_END
 95
        8
302
GRIDFORMAT
  1
GRIDFORMAT_BEGIN
 90
        0
 91
        1
 62
     0
 92
       -2
340
0
 93
        0
 40
1.125
309
GRIDFORMAT_END
 95
       16
302
GRIDFORMAT
  1
GRIDFORMAT_BEGIN
 90
        0
 91
        1
 62
     0
 92
       -2
340
0
 93
        0
 40
1.125
309
GRIDFORMAT_END
 95
       32
302
GRIDFORMAT
  1
GRIDFORMAT_BEGIN
 90
        0
 91
        1
 62
     0
 92
       -2
340
0
 93
        0
 40
1.125
309
GRIDFORMAT_END
309
TABLEFORMAT_END
  1
CELLSTYLE_BEGIN
 90
        3
 91
        2
300
_DATA
309
CELLSTYLE_END
  0
ENDSEC
  0
SECTION
  2
ACDSDATA
 70
     2
 71
     8
  0
ACDSSCHEMA
 90
        0
  1
AcDb_Thumbnail_Schema
  2
AcDbDs::ID
280
    10
 91
        8
  2
Thumbnail_Data
280
    15
 91
        0
101
ACDSRECORD
 95
        0
 90
        1
  2
AcDbDs::TreatedAsObjectData
280
     1
291
     1
101
ACDSRECORD
 95
        0
 90
        2
  2
AcDbDs::Legacy
280
     1
291
     1
101
ACDSRECORD
  1
AcDbDs::ID
 90
        3
  2
AcDs:Indexable
280
     1
291
     1
101
ACDSRECORD
  1
AcDbDs::ID
 90
        4
  2
AcDbDs::HandleAttribute
280
     7
282
     1
  0
ACDSSCHEMA
 90
        1
  1
AcDbDs::TreatedAsObjectDataSchema
  2
AcDbDs::TreatedAsObjectData
280
     1
 91
        0
  0
ACDSSCHEMA
 90
        2
  1
AcDbDs::LegacySchema
  2
AcDbDs::Legacy
280
     1
 91
        0
  0
ACDSSCHEMA
 90
        3
  1
AcDbDs::IndexedPropertySchema
  2
AcDs:Indexable
280
     1
 91
        0
  0
ACDSSCHEMA
 90
        4
  1
AcDbDs::HandleAttributeSchema
  2
AcDbDs::HandleAttribute
280
     7
 91
        1
284
     1
  0
ACDSRECORD
 90
        0
  2
AcDbDs::ID
280
    10
320
8EB3
  2
Thumbnail_Data
280
    15
 94
     1666
310
89504E470D0A1A0A0000000D49484452000001000000007C0803000000B13B9E5A00000300504C5445000000000000C8C8C80000000000000000000000000000000000000000000000000000330000660000990000CC0000FF0033000033330033660033990033CC0033FF0066000066330066660066990066CC0066FF0099
310
000099330099660099990099CC0099FF00CC0000CC3300CC6600CC9900CCCC00CCFF00FF0000FF3300FF6600FF9900FFCC00FFFF3300003300333300663300993300CC3300FF3333003333333333663333993333CC3333FF3366003366333366663366993366CC3366FF3399003399333399663399993399CC3399FF33CC00
310
33CC3333CC6633CC9933CCCC33CCFF33FF0033FF3333FF6633FF9933FFCC33FFFF6600006600336600666600996600CC6600FF6633006633336633666633996633CC6633FF6666006666336666666666996666CC6666FF6699006699336699666699996699CC6699FF66CC0066CC3366CC6666CC9966CCCC66CCFF66FF0066
310
FF3366FF6666FF9966FFCC66FFFF9900009900339900669900999900CC9900FF9933009933339933669933999933CC9933FF9966009966339966669966999966CC9966FF9999009999339999669999999999CC9999FF99CC0099CC3399CC6699CC9999CCCC99CCFF99FF0099FF3399FF6699FF9999FFCC99FFFFCC0000CC00
310
33CC0066CC0099CC00CCCC00FFCC3300CC3333CC3366CC3399CC33CCCC33FFCC6600CC6633CC6666CC6699CC66CCCC66FFCC9900CC9933CC9966CC9999CC99CCCC99FFCCCC00CCCC33CCCC66CCCC99CCCCCCCCCCFFCCFF00CCFF33CCFF66CCFF99CCFFCCCCFFFFFF0000FF0033FF0066FF0099FF00CCFF00FFFF3300FF3333
310
FF3366FF3399FF33CCFF33FFFF6600FF6633FF6666FF6699FF66CCFF66FFFF9900FF9933FF9966FF9999FF99CCFF99FFFFCC00FFCC33FFCC66FFCC99FFCCCCFFCCFFFFFF00FFFF33FFFF66FFFF99FFFFCCFFFFFF0000000D0D0D1A1A1A2828283535354343435050505D5D5D6B6B6B787878868686939393A1A1A1AEAEAEBB
310
BBBBC9C9C9D6D6D6E4E4E4F1F1F1FFFFFF00000000000000000000000000000000000000000000000000000000000008F1915C0000033D4944415478DAED9D5B72C3200C45B51C7ED8FF66B40DFE1B8340C206279D693BB574E923A95F530E1709498943F40BADFC52A3A7B4F2A8CB02000000000000C0FFF94F6F9C5F1400
310
A7D34B4805840750220338CD826703F8D108E09100FED9C500E0EF01888C4FAAD647EA1A2F75C2183BD0CF7F3E00C140DA7D923FBBC92B451600A53F35677A50C0CE18F6B16E3D5605982D4EA640E96B3C9D13640C7CB9B90A8C20D60111C3E1E2271C5E0EE8658B6EAD76C2BAC70000862B1800BA3F749110790340BC9E6C
310
24F3E505C0CF9D8F9C200000000000000000C0C301F0ABC503C03B001C05C0B6C553C0873B00C03D800400A100E45DFB8E297C30806C9E9EDA3764E004C034052812801419800A3E2A80D66500080A20A59C6A9387B9717405000000C00802402400316301D35DCB84C201380F7FA64000D2361D10221F5001CC446C941C27
310
1F40C60B840640B100EC8CE0A9A94558D90627C5D19DD163DBED6E1CD90700E60F6A63EF4B670F06B0D4C06988793E6271A60F0047A7D70A5808C127007E0360844A4E01CCD1E01580D9EB1E80AE85550BB68AE61780560972330A9A17CA5A443976FA049087C88FEE72FBEE00EAB654777905600B65A33CAC008E9F248FAE
310
0074C396E91D007A458EE40EC03212B0004C882C61429E1DE5B301F4D8879BB60F91E70980E9F934059C0030E9D0610473B646500164CD20BB51406EF33A5B3F2FAA68FA67CE42A46790A9ED7403E025EB3AA659C63651EB2DF7E0609132F703E04808D6E2701EBFEA93D7F758081E5B6AEE545BB3105E14205340445053A4
310
2325A40A989D64F5033E005C052E284680D88F98560999BC4C01EBFB9B1750055CDCE0F4822A670056495101606B0502C0CB4228EF9B02D82D163D2C856DF8435342C41801B27502533CF701E04D6DB003182D7953407800F75380DC4F01BE2A80CF0A60EB2DB82705BD00A069A4DB26F571B60C2228E85A16F00B800300B8
310
2D0D2A80FB77D5B97DEBECA7AF9171FCDEE1F000080000000000000000000000C03F80F077945CF74CEFB12BC7C8914485E20018F711B6B75F26770AA0C5C726B5A1EF7752EC0A20F75320A60DD82A40EFAABDBB986F1B1010C0665E045200EE2C8DA53000000000000000000000000000008033000FFAE8ED2FB0CEE74AE5
310
F50C240000000049454E44AE426082
  0
ENDSEC
  0
EOF
