  0
SECTION
  2
HEADER
  9
$ACADVER
  1
AC1027
  9
$ACADMAINTVER
 70
   125
  9
$DWGCODEPAGE
  3
ANSI_932
  9
$LASTSAVEDBY
  1
yasukiyo.ogawa
  9
$REQUIREDVERSIONS
160
                 0
  9
$INSBASE
 10
0.0
 20
0.0
 30
0.0
  9
$EXTMIN
 10
0.0
 20
0.0
 30
0.0
  9
$EXTMAX
 10
3150.0
 20
4425.0
 30
0.0
  9
$LIMMIN
 10
0.0
 20
0.0
  9
$LIMMAX
 10
297.0
 20
210.0
  9
$ORTHOMODE
 70
     1
  9
$REGENMODE
 70
     1
  9
$FILLMODE
 70
     0
  9
$QTEXTMODE
 70
     0
  9
$MIRRTEXT
 70
     1
  9
$LTSCALE
 40
100.0
  9
$ATTMODE
 70
     1
  9
$TEXTSIZE
 40
180.0
  9
$TRACEWID
 40
0.05
  9
$TEXTSTYLE
  7
STANDARD
  9
$CLAYER
  8
3
  9
$CELTYPE
  6
BYLAYER
  9
$CECOLOR
 62
   256
  9
$CELTSCALE
 40
1.0
  9
$DISPSILH
 70
     0
  9
$DIMSCALE
 40
15.0
  9
$DIMASZ
 40
2.0
  9
$DIMEXO
 40
0.5
  9
$DIMDLI
 40
10.0
  9
$DIMRND
 40
0.0
  9
$DIMDLE
 40
0.0
  9
$DIMEXE
 40
1.0
  9
$DIMTP
 40
1.0
  9
$DIMTM
 40
1.0
  9
$DIMTXT
 40
3.0
  9
$DIMCEN
 40
0.0
  9
$DIMTSZ
 40
0.0
  9
$DIMTOL
 70
     0
  9
$DIMLIM
 70
     0
  9
$DIMTIH
 70
     0
  9
$DIMTOH
 70
     0
  9
$DIMSE1
 70
     0
  9
$DIMSE2
 70
     0
  9
$DIMTAD
 70
     1
  9
$DIMZIN
 70
     8
  9
$DIMBLK
  1

  9
$DIMASO
 70
     1
  9
$DIMSHO
 70
     1
  9
$DIMPOST
  1

  9
$DIMAPOST
  1

  9
$DIMALT
 70
     0
  9
$DIMALTD
 70
     2
  9
$DIMALTF
 40
0.039
  9
$DIMLFAC
 40
1.0
  9
$DIMTOFL
 70
     1
  9
$DIMTVP
 40
0.0
  9
$DIMTIX
 70
     0
  9
$DIMSOXD
 70
     0
  9
$DIMSAH
 70
     1
  9
$DIMBLK1
  1
OPEN
  9
$DIMBLK2
  1
OPEN
  9
$DIMSTYLE
  2
IGA
  9
$DIMCLRD
 70
     0
  9
$DIMCLRE
 70
     0
  9
$DIMCLRT
 70
     0
  9
$DIMTFAC
 40
10.0
  9
$DIMGAP
 40
1.0
  9
$DIMJUST
 70
     0
  9
$DIMSD1
 70
     0
  9
$DIMSD2
 70
     0
  9
$DIMTOLJ
 70
     1
  9
$DIMTZIN
 70
     8
  9
$DIMALTZ
 70
     0
  9
$DIMALTTZ
 70
     0
  9
$DIMUPT
 70
     0
  9
$DIMDEC
 70
     0
  9
$DIMTDEC
 70
     0
  9
$DIMALTU
 70
     2
  9
$DIMALTTD
 70
     2
  9
$DIMTXSTY
  7
STANDARD
  9
$DIMAUNIT
 70
     0
  9
$DIMADEC
 70
     0
  9
$DIMALTRND
 40
0.0
  9
$DIMAZIN
 70
     0
  9
$DIMDSEP
 70
    46
  9
$DIMATFIT
 70
     3
  9
$DIMFRAC
 70
     0
  9
$DIMLDRBLK
  1
OPEN
  9
$DIMLUNIT
 70
     2
  9
$DIMLWD
 70
    -2
  9
$DIMLWE
 70
    -2
  9
$DIMTMOVE
 70
     2
  9
$DIMFXL
 40
1.0
  9
$DIMFXLON
 70
     0
  9
$DIMJOGANG
 40
0.7853981633974483
  9
$DIMTFILL
 70
     0
  9
$DIMTFILLCLR
 70
     0
  9
$DIMARCSYM
 70
     0
  9
$DIMLTYPE
  6

  9
$DIMLTEX1
  6

  9
$DIMLTEX2
  6

  9
$DIMTXTDIRECTION
 70
     0
  9
$LUNITS
 70
     2
  9
$LUPREC
 70
     3
  9
$SKETCHINC
 40
0.1
  9
$FILLETRAD
 40
50.0
  9
$AUNITS
 70
     0
  9
$AUPREC
 70
     0
  9
$MENU
  1
acad
  9
$ELEVATION
 40
0.0
  9
$PELEVATION
 40
0.0
  9
$THICKNESS
 40
0.0
  9
$LIMCHECK
 70
     0
  9
$CHAMFERA
 40
0.5
  9
$CHAMFERB
 40
0.5
  9
$CHAMFERC
 40
20.0
  9
$CHAMFERD
 40
0.0
  9
$SKPOLY
 70
     0
  9
$TDCREATE
 40
2451372.428958334
  9
$TDUCREATE
 40
2451372.053959722
  9
$TDUPDATE
 40
2460216.469097222
  9
$TDUUPDATE
 40
2460216.094097916
  9
$TDINDWG
 40
0.0215137153
  9
$TDUSRTIMER
 40
0.0215137153
  9
$USRTIMER
 70
     1
  9
$ANGBASE
 50
0.0
  9
$ANGDIR
 70
     0
  9
$PDMODE
 70
     0
  9
$PDSIZE
 40
0.0
  9
$PLINEWID
 40
0.0
  9
$SPLFRAME
 70
     0
  9
$SPLINETYPE
 70
     6
  9
$SPLINESEGS
 70
     8
  9
$HANDSEED
  5
85D7
  9
$SURFTAB1
 70
     6
  9
$SURFTAB2
 70
     6
  9
$SURFTYPE
 70
     6
  9
$SURFU
 70
     6
  9
$SURFV
 70
     6
  9
$UCSBASE
  2

  9
$UCSNAME
  2

  9
$UCSORG
 10
0.0
 20
0.0
 30
0.0
  9
$UCSXDIR
 10
1.0
 20
0.0
 30
0.0
  9
$UCSYDIR
 10
0.0
 20
1.0
 30
0.0
  9
$UCSORTHOREF
  2

  9
$UCSORTHOVIEW
 70
     0
  9
$UCSORGTOP
 10
0.0
 20
0.0
 30
0.0
  9
$UCSORGBOTTOM
 10
0.0
 20
0.0
 30
0.0
  9
$UCSORGLEFT
 10
0.0
 20
0.0
 30
0.0
  9
$UCSORGRIGHT
 10
0.0
 20
0.0
 30
0.0
  9
$UCSORGFRONT
 10
0.0
 20
0.0
 30
0.0
  9
$UCSORGBACK
 10
0.0
 20
0.0
 30
0.0
  9
$PUCSBASE
  2

  9
$PUCSNAME
  2

  9
$PUCSORG
 10
0.0
 20
0.0
 30
0.0
  9
$PUCSXDIR
 10
1.0
 20
0.0
 30
0.0
  9
$PUCSYDIR
 10
0.0
 20
1.0
 30
0.0
  9
$PUCSORTHOREF
  2

  9
$PUCSORTHOVIEW
 70
     0
  9
$PUCSORGTOP
 10
0.0
 20
0.0
 30
0.0
  9
$PUCSORGBOTTOM
 10
0.0
 20
0.0
 30
0.0
  9
$PUCSORGLEFT
 10
0.0
 20
0.0
 30
0.0
  9
$PUCSORGRIGHT
 10
0.0
 20
0.0
 30
0.0
  9
$PUCSORGFRONT
 10
0.0
 20
0.0
 30
0.0
  9
$PUCSORGBACK
 10
0.0
 20
0.0
 30
0.0
  9
$USERI1
 70
     0
  9
$USERI2
 70
     0
  9
$USERI3
 70
     0
  9
$USERI4
 70
     0
  9
$USERI5
 70
     0
  9
$USERR1
 40
0.0
  9
$USERR2
 40
0.0
  9
$USERR3
 40
0.0
  9
$USERR4
 40
0.0
  9
$USERR5
 40
0.0
  9
$WORLDVIEW
 70
     1
  9
$SHADEDGE
 70
     3
  9
$SHADEDIF
 70
    70
  9
$TILEMODE
 70
     1
  9
$MAXACTVP
 70
    16
  9
$PINSBASE
 10
0.0
 20
0.0
 30
0.0
  9
$PLIMCHECK
 70
     0
  9
$PEXTMIN
 10
1.000000000000000E+20
 20
1.000000000000000E+20
 30
1.000000000000000E+20
  9
$PEXTMAX
 10
-1.000000000000000E+20
 20
-1.000000000000000E+20
 30
-1.000000000000000E+20
  9
$PLIMMIN
 10
0.0
 20
0.0
  9
$PLIMMAX
 10
12.0
 20
9.0
  9
$UNITMODE
 70
     0
  9
$VISRETAIN
 70
     0
  9
$PLINEGEN
 70
     0
  9
$PSLTSCALE
 70
     1
  9
$TREEDEPTH
 70
  3020
  9
$CMLSTYLE
  2
STANDARD
  9
$CMLJUST
 70
     0
  9
$CMLSCALE
 40
20.0
  9
$PROXYGRAPHICS
 70
     1
  9
$MEASUREMENT
 70
     1
  9
$CELWEIGHT
370
    -1
  9
$ENDCAPS
280
     0
  9
$JOINSTYLE
280
     0
  9
$LWDISPLAY
290
     0
  9
$INSUNITS
 70
     0
  9
$HYPERLINKBASE
  1

  9
$STYLESHEET
  1

  9
$XEDIT
290
     1
  9
$CEPSNTYPE
380
     0
  9
$PSTYLEMODE
290
     1
  9
$FINGERPRINTGUID
  2
{E4357AAB-A81B-4317-B109-955B2195AD13}
  9
$VERSIONGUID
  2
{01F946A5-A9FD-4259-95A9-4D1027E0EB65}
  9
$EXTNAMES
290
     1
  9
$PSVPSCALE
 40
0.0
  9
$OLESTARTUP
290
     0
  9
$SORTENTS
280
   127
  9
$INDEXCTL
280
     0
  9
$HIDETEXT
280
     0
  9
$XCLIPFRAME
280
     2
  9
$HALOGAP
280
     0
  9
$OBSCOLOR
 70
   257
  9
$OBSLTYPE
280
     0
  9
$INTERSECTIONDISPLAY
280
     0
  9
$INTERSECTIONCOLOR
 70
   257
  9
$DIMASSOC
280
     1
  9
$PROJECTNAME
  1

  9
$CAMERADISPLAY
290
     0
  9
$LENSLENGTH
 40
50.0
  9
$CAMERAHEIGHT
 40
0.0
  9
$STEPSPERSEC
 40
2.0
  9
$STEPSIZE
 40
6.0
  9
$3DDWFPREC
 40
2.0
  9
$PSOLWIDTH
 40
0.25
  9
$PSOLHEIGHT
 40
4.0
  9
$LOFTANG1
 40
1.570796326794896
  9
$LOFTANG2
 40
1.570796326794896
  9
$LOFTMAG1
 40
0.0
  9
$LOFTMAG2
 40
0.0
  9
$LOFTPARAM
 70
     7
  9
$LOFTNORMALS
280
     1
  9
$LATITUDE
 40
37.795
  9
$LONGITUDE
 40
-122.394
  9
$NORTHDIRECTION
 40
0.0
  9
$TIMEZONE
 70
 -8000
  9
$LIGHTGLYPHDISPLAY
280
     1
  9
$TILEMODELIGHTSYNCH
280
     1
  9
$CMATERIAL
347
8534
  9
$SOLIDHIST
280
     0
  9
$SHOWHIST
280
     1
  9
$DWFFRAME
280
     2
  9
$DGNFRAME
280
     0
  9
$REALWORLDSCALE
290
     1
  9
$INTERFERECOLOR
 62
     1
  9
$INTERFEREOBJVS
345
8556
  9
$INTERFEREVPVS
346
8553
  9
$CSHADOW
280
     0
  9
$SHADOWPLANELOCATION
 40
0.0
  0
ENDSEC
  0
SECTION
  2
CLASSES
  0
CLASS
  1
ACDBDICTIONARYWDFLT
  2
AcDbDictionaryWithDefault
  3
ObjectDBX Classes
 90
        0
 91
        1
280
     0
281
     0
  0
CLASS
  1
MATERIAL
  2
AcDbMaterial
  3
ObjectDBX Classes
 90
     1153
 91
        3
280
     0
281
     0
  0
CLASS
  1
VISUALSTYLE
  2
AcDbVisualStyle
  3
ObjectDBX Classes
 90
     4095
 91
       24
280
     0
281
     0
  0
CLASS
  1
TABLESTYLE
  2
AcDbTableStyle
  3
ObjectDBX Classes
 90
     4095
 91
        1
280
     0
281
     0
  0
CLASS
  1
SCALE
  2
AcDbScale
  3
ObjectDBX Classes
 90
     1153
 91
       17
280
     0
281
     0
  0
CLASS
  1
MLEADERSTYLE
  2
AcDbMLeaderStyle
  3
ACDB_MLEADERSTYLE_CLASS
 90
     4095
 91
        1
280
     0
281
     0
  0
CLASS
  1
ACDBSECTIONVIEWSTYLE
  2
AcDbSectionViewStyle
  3
ObjectDBX Classes
 90
     1025
 91
        1
280
     0
281
     0
  0
CLASS
  1
ACDBDETAILVIEWSTYLE
  2
AcDbDetailViewStyle
  3
ObjectDBX Classes
 90
     1025
 91
        1
280
     0
281
     0
  0
CLASS
  1
SORTENTSTABLE
  2
AcDbSortentsTable
  3
ObjectDBX Classes
 90
        0
 91
        1
280
     0
281
     0
  0
CLASS
  1
DICTIONARYVAR
  2
AcDbDictionaryVar
  3
ObjectDBX Classes
 90
        0
 91
       10
280
     0
281
     0
  0
CLASS
  1
CELLSTYLEMAP
  2
AcDbCellStyleMap
  3
ObjectDBX Classes
 90
     1152
 91
        1
280
     0
281
     0
  0
ENDSEC
  0
SECTION
  2
TABLES
  0
TABLE
  2
VPORT
  5
8
330
0
100
AcDbSymbolTable
 70
     1
1001
ACAD
1000
DbSaveVer
1071
      278
  0
VPORT
  5
8531
330
8
100
AcDbSymbolTableRecord
100
AcDbViewportTableRecord
  2
*Active
 70
     0
 10
0.0
 20
0.0
 11
1.0
 21
1.0
 12
4014.811266234625
 22
1343.944724889946
 13
0.0
 23
0.0
 14
10.0
 24
10.0
 15
10.0
 25
10.0
 16
0.0
 26
0.0
 36
1.0
 17
0.0
 27
0.0
 37
0.0
 40
7122.521971103498
 41
2.250314465408805
 42
50.0
 43
0.0
 44
0.0
 50
0.0
 51
0.0
 71
     0
 72
   100
 73
     1
 74
     0
 75
     0
 76
     0
 77
     0
 78
     0
281
     0
 65
     1
110
0.0
120
0.0
130
0.0
111
1.0
121
0.0
131
0.0
112
0.0
122
1.0
132
0.0
 79
     0
146
0.0
348
8552
 60
     3
 61
     5
292
     1
282
     1
141
0.0
142
0.0
 63
   250
421
  3355443
1001
ACAD_NAV_VCDISPLAY
1070
     3
  0
ENDTAB
  0
TABLE
  2
LTYPE
  5
5
330
0
100
AcDbSymbolTable
 70
     2
  0
LTYPE
  5
13
330
5
100
AcDbSymbolTableRecord
100
AcDbLinetypeTableRecord
  2
BYBLOCK
 70
     0
  3

 72
    65
 73
     0
 40
0.0
  0
LTYPE
  5
14
330
5
100
AcDbSymbolTableRecord
100
AcDbLinetypeTableRecord
  2
BYLAYER
 70
     0
  3

 72
    65
 73
     0
 40
0.0
  0
LTYPE
  5
15
330
5
100
AcDbSymbolTableRecord
100
AcDbLinetypeTableRecord
  2
CONTINUOUS
 70
     0
  3
Solid line
 72
    65
 73
     0
 40
0.0
  0
LTYPE
  5
1F
330
5
100
AcDbSymbolTableRecord
100
AcDbLinetypeTableRecord
  2
CENTER
 70
     0
  3
____ _ ____ _ ____ _ ____ _ ____ _ ____ _ ____ 
 72
    65
 73
     4
 40
2.0
 49
1.25
 74
     0
 49
-0.25
 74
     0
 49
0.25
 74
     0
 49
-0.25
 74
     0
  0
ENDTAB
  0
TABLE
  2
LAYER
  5
2
102
{ACAD_XDICTIONARY
360
85AD
102
}
330
0
100
AcDbSymbolTable
 70
     6
  0
LAYER
  5
F
102
{ACAD_XDICTIONARY
360
85A0
102
}
330
2
100
AcDbSymbolTableRecord
100
AcDbLayerTableRecord
  2
0
 70
     0
 62
     7
  6
CONTINUOUS
370
    -3
390
84C6
347
8544
348
0
  0
LAYER
  5
31
102
{ACAD_XDICTIONARY
360
85A2
102
}
330
2
100
AcDbSymbolTableRecord
100
AcDbLayerTableRecord
  2
3
 70
     0
 62
     2
  6
CONTINUOUS
370
    -3
390
84C6
347
8544
348
0
  0
LAYER
  5
76D0
102
{ACAD_XDICTIONARY
360
85A4
102
}
330
2
100
AcDbSymbolTableRecord
100
AcDbLayerTableRecord
  2
2
 70
     0
 62
     3
  6
CENTER
370
    -3
390
84C6
347
8544
348
0
  0
LAYER
  5
76D1
102
{ACAD_XDICTIONARY
360
85A6
102
}
330
2
100
AcDbSymbolTableRecord
100
AcDbLayerTableRecord
  2
1
 70
     0
 62
     4
  6
CONTINUOUS
370
    -3
390
84C6
347
8544
348
0
  0
LAYER
  5
76D2
102
{ACAD_XDICTIONARY
360
85A8
102
}
330
2
100
AcDbSymbolTableRecord
100
AcDbLayerTableRecord
  2
4
 70
     0
 62
     7
  6
CONTINUOUS
370
    -3
390
84C6
347
8544
348
0
  0
LAYER
  5
7B0B
330
2
100
AcDbSymbolTableRecord
100
AcDbLayerTableRecord
  2
DEFPOINTS
 70
     0
 62
     7
  6
CONTINUOUS
290
     0
370
    -3
390
84C6
347
8544
348
0
  0
ENDTAB
  0
TABLE
  2
STYLE
  5
3
330
0
100
AcDbSymbolTable
 70
     1
  0
STYLE
  5
10
330
3
100
AcDbSymbolTableRecord
100
AcDbTextStyleTableRecord
  2
STANDARD
 70
     0
 40
0.0
 41
1.0
 50
0.0
 71
     0
 42
180.0
  3
simplex.shx
  4
extfont.shx
  0
ENDTAB
  0
TABLE
  2
VIEW
  5
6
330
0
100
AcDbSymbolTable
 70
     0
  0
ENDTAB
  0
TABLE
  2
UCS
  5
7
330
0
100
AcDbSymbolTable
 70
     0
  0
ENDTAB
  0
TABLE
  2
APPID
  5
9
330
0
100
AcDbSymbolTable
 70
     4
  0
APPID
  5
11
330
9
100
AcDbSymbolTableRecord
100
AcDbRegAppTableRecord
  2
ACAD
 70
     0
  0
APPID
  5
8585
330
9
100
AcDbSymbolTableRecord
100
AcDbRegAppTableRecord
  2
AcadAnnoMonitorAlertIconDisabled
 70
     0
  0
APPID
  5
8586
330
9
100
AcDbSymbolTableRecord
100
AcDbRegAppTableRecord
  2
ACAD_EXEMPT_FROM_CAD_STANDARDS
 70
     0
  0
APPID
  5
85B3
330
9
100
AcDbSymbolTableRecord
100
AcDbRegAppTableRecord
  2
ACAD_NAV_VCDISPLAY
 70
     0
  0
ENDTAB
  0
TABLE
  2
DIMSTYLE
  5
A
330
0
100
AcDbSymbolTable
 70
     2
100
AcDbDimStyleTable
 71
     1
340
1D
  0
DIMSTYLE
105
1D
102
{ACAD_REACTORS
330
81FC
330
847F
330
848C
330
8499
330
84A6
330
84B3
102
}
330
A
100
AcDbSymbolTableRecord
100
AcDbDimStyleTableRecord
  2
IGA
 70
     0
 40
2.0
 41
2.0
 42
0.5
 43
10.0
 44
1.0
 47
1.0
 48
1.0
 73
     0
 74
     0
 77
     1
 78
     8
140
3.0
141
0.0
143
0.03937
146
10.0
147
1.0
173
     1
271
     1
272
     0
279
     2
284
     8
340
10
341
79FC
343
79FC
344
79FC
  0
DIMSTYLE
105
7B0D
102
{ACAD_REACTORS
330
815B
330
815F
330
8160
330
8191
330
8198
330
81A2
330
81A3
330
81A4
330
81A7
330
81A9
330
81AC
102
}
330
A
100
AcDbSymbolTableRecord
100
AcDbDimStyleTableRecord
  2
MATSU
 70
     0
 41
2.0
 42
1.0
 43
10.0
 44
1.0
 73
     0
 74
     0
 77
     1
 78
     8
140
3.0
141
0.0
143
0.03937
147
0.5
172
     1
173
     1
176
   256
177
   256
178
   256
284
     8
289
     0
340
10
341
79FC
343
79FC
344
79FC
  0
ENDTAB
  0
TABLE
  2
BLOCK_RECORD
  5
1
330
0
100
AcDbSymbolTable
 70
    21
  0
BLOCK_RECORD
  5
19
102
{ACAD_XDICTIONARY
360
84F4
102
}
330
1
100
AcDbSymbolTableRecord
100
AcDbBlockTableRecord
  2
*MODEL_SPACE
340
84C9
 70
     0
280
     1
281
     0
  0
BLOCK_RECORD
  5
16
102
{ACAD_XDICTIONARY
360
84F2
102
}
330
1
100
AcDbSymbolTableRecord
100
AcDbBlockTableRecord
  2
*PAPER_SPACE
340
84CA
 70
     0
280
     1
281
     0
  0
BLOCK_RECORD
  5
79FC
330
1
100
AcDbSymbolTableRecord
100
AcDbBlockTableRecord
  2
_OPEN
340
0
102
{BLKREFS
331
8511
331
8512
331
851A
331
851B
331
859A
331
859B
331
8478
331
8479
331
8485
331
8486
331
8492
331
8493
331
849F
331
84A0
331
84AC
331
84AD
331
8509
331
850A
331
8380
331
8381
331
838B
331
838C
331
8396
331
8397
331
83A1
331
83A2
331
8314
331
8315
331
831F
331
8320
331
832A
331
832B
331
8335
331
8336
102
}
 70
     0
280
     1
281
     0
  0
BLOCK_RECORD
  5
7EFA
330
1
100
AcDbSymbolTableRecord
100
AcDbBlockTableRecord
  2
_DOT
340
0
 70
     0
280
     1
281
     0
  0
BLOCK_RECORD
  5
7F53
330
1
100
AcDbSymbolTableRecord
100
AcDbBlockTableRecord
  2
YA_N
340
0
102
{BLKREFS
331
81BD
331
81BE
331
81BF
331
81C0
331
81C1
331
81C2
331
81C3
331
8135
331
8136
331
8137
331
8138
331
8139
331
813A
331
813B
102
}
 70
     0
280
     1
281
     0
  0
BLOCK_RECORD
  5
8216
330
1
100
AcDbSymbolTableRecord
100
AcDbBlockTableRecord
  2
*D3
340
0
 70
     0
280
     1
281
     0
  0
BLOCK_RECORD
  5
8222
330
1
100
AcDbSymbolTableRecord
100
AcDbBlockTableRecord
  2
*D4
340
0
 70
     0
280
     1
281
     0
  0
BLOCK_RECORD
  5
822E
330
1
100
AcDbSymbolTableRecord
100
AcDbBlockTableRecord
  2
*D5
340
0
 70
     0
280
     1
281
     0
  0
BLOCK_RECORD
  5
823A
330
1
100
AcDbSymbolTableRecord
100
AcDbBlockTableRecord
  2
*D6
340
0
 70
     0
280
     1
281
     0
  0
BLOCK_RECORD
  5
828C
330
1
100
AcDbSymbolTableRecord
100
AcDbBlockTableRecord
  2
*D7
340
0
 70
     0
280
     1
281
     0
  0
BLOCK_RECORD
  5
8298
330
1
100
AcDbSymbolTableRecord
100
AcDbBlockTableRecord
  2
*D8
340
0
 70
     0
280
     1
281
     0
  0
BLOCK_RECORD
  5
82A4
330
1
100
AcDbSymbolTableRecord
100
AcDbBlockTableRecord
  2
*D9
340
0
 70
     0
280
     1
281
     0
  0
BLOCK_RECORD
  5
82B0
330
1
100
AcDbSymbolTableRecord
100
AcDbBlockTableRecord
  2
*D10
340
0
 70
     0
280
     1
281
     0
  0
BLOCK_RECORD
  5
82BC
330
1
100
AcDbSymbolTableRecord
100
AcDbBlockTableRecord
  2
*D11
340
0
 70
     0
280
     1
281
     0
  0
BLOCK_RECORD
  5
82C7
330
1
100
AcDbSymbolTableRecord
100
AcDbBlockTableRecord
  2
*D12
340
0
 70
     0
280
     1
281
     0
  0
BLOCK_RECORD
  5
82DE
330
1
100
AcDbSymbolTableRecord
100
AcDbBlockTableRecord
  2
*D13
340
0
 70
     0
280
     1
281
     0
  0
BLOCK_RECORD
  5
8304
330
1
100
AcDbSymbolTableRecord
100
AcDbBlockTableRecord
  2
*D14
340
0
 70
     0
280
     1
281
     0
  0
BLOCK_RECORD
  5
8440
330
1
100
AcDbSymbolTableRecord
100
AcDbBlockTableRecord
  2
_NONE
340
0
 70
     0
280
     1
281
     0
  0
BLOCK_RECORD
  5
8473
330
1
100
AcDbSymbolTableRecord
100
AcDbBlockTableRecord
  2
*D16
340
0
 70
     0
280
     1
281
     0
  0
BLOCK_RECORD
  5
8480
330
1
100
AcDbSymbolTableRecord
100
AcDbBlockTableRecord
  2
*D17
340
0
 70
     0
280
     1
281
     0
  0
BLOCK_RECORD
  5
848D
330
1
100
AcDbSymbolTableRecord
100
AcDbBlockTableRecord
  2
*D18
340
0
 70
     0
280
     1
281
     0
  0
BLOCK_RECORD
  5
849A
330
1
100
AcDbSymbolTableRecord
100
AcDbBlockTableRecord
  2
*D19
340
0
 70
     0
280
     1
281
     0
  0
BLOCK_RECORD
  5
84A7
330
1
100
AcDbSymbolTableRecord
100
AcDbBlockTableRecord
  2
*D20
340
0
 70
     0
280
     1
281
     0
  0
ENDTAB
  0
ENDSEC
  0
SECTION
  2
BLOCKS
  0
BLOCK
  5
1A
330
19
100
AcDbEntity
  8
0
100
AcDbBlockBegin
  2
*MODEL_SPACE
 70
     0
 10
0.0
 20
0.0
 30
0.0
  3
*MODEL_SPACE
  1

  0
ENDBLK
  5
1B
330
19
100
AcDbEntity
  8
0
100
AcDbBlockEnd
  0
BLOCK
  5
17
330
16
100
AcDbEntity
 67
     1
  8
0
100
AcDbBlockBegin
  2
*PAPER_SPACE
 70
     0
 10
0.0
 20
0.0
 30
0.0
  3
*PAPER_SPACE
  1

  0
ENDBLK
  5
18
330
16
100
AcDbEntity
 67
     1
  8
0
100
AcDbBlockEnd
  0
BLOCK
  5
7A00
330
79FC
100
AcDbEntity
  8
0
100
AcDbBlockBegin
  2
_OPEN
 70
     0
 10
0.0
 20
0.0
 30
0.0
  3
_OPEN
  1

  0
LINE
  5
79FD
330
79FC
100
AcDbEntity
  8
0
  6
ByBlock
 62
     0
100
AcDbLine
 10
-1.0
 20
0.1666666666666666
 30
0.0
 11
0.0
 21
0.0
 31
0.0
  0
LINE
  5
79FE
330
79FC
100
AcDbEntity
  8
0
  6
ByBlock
 62
     0
100
AcDbLine
 10
0.0
 20
0.0
 30
0.0
 11
-1.0
 21
-0.1666666666666666
 31
0.0
  0
LINE
  5
79FF
330
79FC
100
AcDbEntity
  8
0
  6
ByBlock
 62
     0
100
AcDbLine
 10
0.0
 20
0.0
 30
0.0
 11
-1.0
 21
0.0
 31
0.0
  0
ENDBLK
  5
7A01
330
79FC
100
AcDbEntity
  8
0
100
AcDbBlockEnd
  0
BLOCK
  5
7F00
330
7EFA
100
AcDbEntity
  8
0
100
AcDbBlockBegin
  2
_DOT
 70
     0
 10
0.0
 20
0.0
 30
0.0
  3
_DOT
  1

  0
LWPOLYLINE
  5
7EFB
330
7EFA
100
AcDbEntity
  8
0
  6
ByBlock
 62
     0
100
AcDbPolyline
 90
        2
 70
     1
 43
0.25
 10
-0.125
 20
0.0
 42
1.0
 10
0.125
 20
0.0
 42
1.0
  0
LINE
  5
7EFF
330
7EFA
100
AcDbEntity
  8
0
  6
ByBlock
 62
     0
100
AcDbLine
 10
-0.25
 20
0.0
 30
0.0
 11
-1.0
 21
0.0
 31
0.0
  0
ENDBLK
  5
7F01
330
7EFA
100
AcDbEntity
  8
0
100
AcDbBlockEnd
  0
BLOCK
  5
7F54
330
7F53
100
AcDbEntity
  8
0
100
AcDbBlockBegin
  2
YA_N
 70
     0
 10
0.0
 20
0.0
 30
0.0
  3
YA_N
  1

  0
ENDBLK
  5
7F55
330
7F53
100
AcDbEntity
  8
0
100
AcDbBlockEnd
  0
BLOCK
  5
8310
330
8216
100
AcDbEntity
  8
0
100
AcDbBlockBegin
  2
*D3
 70
     1
 10
0.0
 20
0.0
 30
0.0
  3
*D3
  1

  0
LINE
  5
8311
330
8216
100
AcDbEntity
  8
0
  6
ByBlock
440
 16777216
100
AcDbLine
 10
6496.703152352719
 20
1873.666183921087
 30
0.0
 11
6672.745873466123
 21
1873.666183921087
 31
0.0
  0
LINE
  5
8312
330
8216
100
AcDbEntity
  8
0
  6
ByBlock
440
 16777216
100
AcDbLine
 10
6496.703152352719
 20
1558.666183921087
 30
0.0
 11
6672.745873466123
 21
1558.666183921087
 31
0.0
  0
LINE
  5
8313
330
8216
100
AcDbEntity
  8
0
  6
ByBlock
440
 16777216
100
AcDbLine
 10
6657.745873466123
 20
1843.666183921087
 30
0.0
 11
6657.745873466123
 21
1588.666183921087
 31
0.0
  0
INSERT
  5
8314
330
8216
100
AcDbEntity
  8
0
  6
ByBlock
440
 16777216
100
AcDbBlockReference
  2
_OPEN
 10
6657.745873466123
 20
1873.666183921087
 30
0.0
 41
30.0
 42
30.0
 43
30.0
 50
90.0
  0
INSERT
  5
8315
330
8216
100
AcDbEntity
  8
0
  6
ByBlock
440
 16777216
100
AcDbBlockReference
  2
_OPEN
 10
6657.745873466123
 20
1558.666183921087
 30
0.0
 41
30.0
 42
30.0
 43
30.0
 50
270.0
  0
MTEXT
  5
8316
330
8216
100
AcDbEntity
  8
0
  6
ByBlock
440
 16777216
100
AcDbMText
 10
6627.745873466124
 20
1716.166183921087
 30
0.0
 40
45.0
 41
0.0
 46
0.0
 71
     5
 72
     5
  1
\A1;φ 315
 11
0.0
 21
1.0
 31
0.0
 73
     1
 44
1.0
  0
POINT
  5
8317
330
8216
100
AcDbEntity
  8
DEFPOINTS
  6
ByBlock
 62
     0
440
 16777216
100
AcDbPoint
 10
6481.703152352719
 20
1873.666183921087
 30
0.0
  0
POINT
  5
8318
330
8216
100
AcDbEntity
  8
DEFPOINTS
  6
ByBlock
 62
     0
440
 16777216
100
AcDbPoint
 10
6481.703152352721
 20
1558.666183921087
 30
0.0
  0
POINT
  5
8319
330
8216
100
AcDbEntity
  8
DEFPOINTS
  6
ByBlock
 62
     0
440
 16777216
100
AcDbPoint
 10
6657.745873466123
 20
1558.666183921087
 30
0.0
  0
ENDBLK
  5
831A
330
8216
100
AcDbEntity
  8
0
100
AcDbBlockEnd
  0
BLOCK
  5
831B
330
8222
100
AcDbEntity
  8
0
100
AcDbBlockBegin
  2
*D4
 70
     1
 10
0.0
 20
0.0
 30
0.0
  3
*D4
  1

  0
LINE
  5
831C
330
8222
100
AcDbEntity
  8
0
  6
ByBlock
440
 16777216
100
AcDbLine
 10
5254.698734805931
 20
1976.166183921086
 30
0.0
 11
5254.698734805931
 21
2103.198042495828
 31
0.0
  0
LINE
  5
831D
330
8222
100
AcDbEntity
  8
0
  6
ByBlock
440
 16777216
100
AcDbLine
 10
4903.698734805931
 20
2006.160008297035
 30
0.0
 11
4903.698734805931
 21
2103.198042495828
 31
0.0
  0
LINE
  5
831E
330
8222
100
AcDbEntity
  8
0
  6
ByBlock
440
 16777216
100
AcDbLine
 10
5224.698734805932
 20
2088.198042495827
 30
0.0
 11
4933.698734805933
 21
2088.198042495827
 31
0.0
  0
INSERT
  5
831F
330
8222
100
AcDbEntity
  8
0
  6
ByBlock
440
 16777216
100
AcDbBlockReference
  2
_OPEN
 10
5254.698734805931
 20
2088.198042495827
 30
0.0
 41
30.0
 42
30.0
 43
30.0
  0
INSERT
  5
8320
330
8222
100
AcDbEntity
  8
0
  6
ByBlock
440
 16777216
100
AcDbBlockReference
  2
_OPEN
 10
4903.698734805931
 20
2088.198042495827
 30
0.0
 41
30.0
 42
30.0
 43
30.0
 50
180.0
  0
MTEXT
  5
8321
330
8222
100
AcDbEntity
  8
0
  6
ByBlock
440
 16777216
100
AcDbMText
 10
5079.198734805932
 20
2118.198042495828
 30
0.0
 40
45.0
 41
0.0
 46
0.0
 71
     5
 72
     5
  1
\A1;351
 73
     1
 44
1.0
  0
POINT
  5
8322
330
8222
100
AcDbEntity
  8
DEFPOINTS
  6
ByBlock
 62
     0
440
 16777216
100
AcDbPoint
 10
5254.698734805931
 20
1961.166183921086
 30
0.0
  0
POINT
  5
8323
330
8222
100
AcDbEntity
  8
DEFPOINTS
  6
ByBlock
 62
     0
440
 16777216
100
AcDbPoint
 10
4903.698734805931
 20
1991.160008297034
 30
0.0
  0
POINT
  5
8324
330
8222
100
AcDbEntity
  8
DEFPOINTS
  6
ByBlock
 62
     0
440
 16777216
100
AcDbPoint
 10
4903.698734805931
 20
2088.198042495827
 30
0.0
  0
ENDBLK
  5
8325
330
8222
100
AcDbEntity
  8
0
100
AcDbBlockEnd
  0
BLOCK
  5
8326
330
822E
100
AcDbEntity
  8
0
100
AcDbBlockBegin
  2
*D5
 70
     1
 10
0.0
 20
0.0
 30
0.0
  3
*D5
  1

  0
LINE
  5
8327
330
822E
100
AcDbEntity
  8
0
  6
ByBlock
440
 16777216
100
AcDbLine
 10
5254.698734805931
 20
1976.166183921086
 30
0.0
 11
5254.698734805931
 21
2025.666549359872
 31
0.0
  0
LINE
  5
8328
330
822E
100
AcDbEntity
  8
0
  6
ByBlock
440
 16777216
100
AcDbLine
 10
4929.698734805931
 20
1976.166183921086
 30
0.0
 11
4929.698734805931
 21
2025.666549359872
 31
0.0
  0
LINE
  5
8329
330
822E
100
AcDbEntity
  8
0
  6
ByBlock
440
 16777216
100
AcDbLine
 10
5224.698734805932
 20
2010.666549359872
 30
0.0
 11
4959.698734805932
 21
2010.666549359872
 31
0.0
  0
INSERT
  5
832A
330
822E
100
AcDbEntity
  8
0
  6
ByBlock
440
 16777216
100
AcDbBlockReference
  2
_OPEN
 10
5254.698734805931
 20
2010.666549359872
 30
0.0
 41
30.0
 42
30.0
 43
30.0
  0
INSERT
  5
832B
330
822E
100
AcDbEntity
  8
0
  6
ByBlock
440
 16777216
100
AcDbBlockReference
  2
_OPEN
 10
4929.698734805931
 20
2010.666549359872
 30
0.0
 41
30.0
 42
30.0
 43
30.0
 50
180.0
  0
MTEXT
  5
832C
330
822E
100
AcDbEntity
  8
0
  6
ByBlock
440
 16777216
100
AcDbMText
 10
5092.198734805932
 20
2040.666549359872
 30
0.0
 40
45.0
 41
0.0
 46
0.0
 71
     5
 72
     5
  1
\A1;325
 73
     1
 44
1.0
  0
POINT
  5
832D
330
822E
100
AcDbEntity
  8
DEFPOINTS
  6
ByBlock
 62
     0
440
 16777216
100
AcDbPoint
 10
5254.698734805931
 20
1961.166183921086
 30
0.0
  0
POINT
  5
832E
330
822E
100
AcDbEntity
  8
DEFPOINTS
  6
ByBlock
 62
     0
440
 16777216
100
AcDbPoint
 10
4929.698734805931
 20
1961.166183921086
 30
0.0
  0
POINT
  5
832F
330
822E
100
AcDbEntity
  8
DEFPOINTS
  6
ByBlock
 62
     0
440
 16777216
100
AcDbPoint
 10
4929.698734805931
 20
2010.666549359872
 30
0.0
  0
ENDBLK
  5
8330
330
822E
100
AcDbEntity
  8
0
100
AcDbBlockEnd
  0
BLOCK
  5
8331
330
823A
100
AcDbEntity
  8
0
100
AcDbBlockBegin
  2
*D6
 70
     1
 10
0.0
 20
0.0
 30
0.0
  3
*D6
  1

  0
LINE
  5
8332
330
823A
100
AcDbEntity
  8
0
  6
ByBlock
440
 16777216
100
AcDbLine
 10
4613.704910429984
 20
1716.166183921087
 30
0.0
 11
4442.162691685669
 21
1716.166183921087
 31
0.0
  0
LINE
  5
8333
330
823A
100
AcDbEntity
  8
0
  6
ByBlock
440
 16777216
100
AcDbLine
 10
4676.698734805932
 20
1386.166183921087
 30
0.0
 11
4442.162691685669
 21
1386.166183921087
 31
0.0
  0
LINE
  5
8334
330
823A
100
AcDbEntity
  8
0
  6
ByBlock
440
 16777216
100
AcDbLine
 10
4457.162691685669
 20
1686.166183921087
 30
0.0
 11
4457.162691685669
 21
1416.166183921087
 31
0.0
  0
INSERT
  5
8335
330
823A
100
AcDbEntity
  8
0
  6
ByBlock
440
 16777216
100
AcDbBlockReference
  2
_OPEN
 10
4457.162691685669
 20
1716.166183921087
 30
0.0
 41
30.0
 42
30.0
 43
30.0
 50
90.0
  0
INSERT
  5
8336
330
823A
100
AcDbEntity
  8
0
  6
ByBlock
440
 16777216
100
AcDbBlockReference
  2
_OPEN
 10
4457.162691685669
 20
1386.166183921087
 30
0.0
 41
30.0
 42
30.0
 43
30.0
 50
270.0
  0
MTEXT
  5
8337
330
823A
100
AcDbEntity
  8
0
  6
ByBlock
440
 16777216
100
AcDbMText
 10
4427.162691685669
 20
1551.166183921087
 30
0.0
 40
45.0
 41
0.0
 46
0.0
 71
     5
 72
     5
  1
\A1;330
 11
0.0
 21
1.0
 31
0.0
 73
     1
 44
1.0
  0
POINT
  5
8338
330
823A
100
AcDbEntity
  8
DEFPOINTS
  6
ByBlock
 62
     0
440
 16777216
100
AcDbPoint
 10
4628.704910429983
 20
1716.166183921087
 30
0.0
  0
POINT
  5
8339
330
823A
100
AcDbEntity
  8
DEFPOINTS
  6
ByBlock
 62
     0
440
 16777216
100
AcDbPoint
 10
4691.698734805932
 20
1386.166183921087
 30
0.0
  0
POINT
  5
833A
330
823A
100
AcDbEntity
  8
DEFPOINTS
  6
ByBlock
 62
     0
440
 16777216
100
AcDbPoint
 10
4457.162691685669
 20
1386.166183921087
 30
0.0
  0
ENDBLK
  5
833B
330
823A
100
AcDbEntity
  8
0
100
AcDbBlockEnd
  0
BLOCK
  5
837C
330
828C
100
AcDbEntity
  8
0
100
AcDbBlockBegin
  2
*D7
 70
     1
 10
0.0
 20
0.0
 30
0.0
  3
*D7
  1

  0
LINE
  5
837D
330
828C
100
AcDbEntity
  8
0
  6
ByBlock
440
 16777216
100
AcDbLine
 10
6477.503152352719
 20
1976.166183921086
 30
0.0
 11
6477.503152352719
 21
2065.687536086349
 31
0.0
  0
LINE
  5
837E
330
828C
100
AcDbEntity
  8
0
  6
ByBlock
440
 16777216
100
AcDbLine
 10
6052.50315235272
 20
1976.166183921086
 30
0.0
 11
6052.50315235272
 21
2065.687536086349
 31
0.0
  0
LINE
  5
837F
330
828C
100
AcDbEntity
  8
0
  6
ByBlock
440
 16777216
100
AcDbLine
 10
6447.503152352719
 20
2050.687536086349
 30
0.0
 11
6082.503152352719
 21
2050.687536086349
 31
0.0
  0
INSERT
  5
8380
330
828C
100
AcDbEntity
  8
0
  6
ByBlock
440
 16777216
100
AcDbBlockReference
  2
_OPEN
 10
6477.503152352719
 20
2050.687536086349
 30
0.0
 41
30.0
 42
30.0
 43
30.0
  0
INSERT
  5
8381
330
828C
100
AcDbEntity
  8
0
  6
ByBlock
440
 16777216
100
AcDbBlockReference
  2
_OPEN
 10
6052.50315235272
 20
2050.687536086349
 30
0.0
 41
30.0
 42
30.0
 43
30.0
 50
180.0
  0
MTEXT
  5
8382
330
828C
100
AcDbEntity
  8
0
  6
ByBlock
440
 16777216
100
AcDbMText
 10
6265.003152352719
 20
2080.687536086349
 30
0.0
 40
45.0
 41
0.0
 46
0.0
 71
     5
 72
     5
  1
\A1;425
 73
     1
 44
1.0
  0
POINT
  5
8383
330
828C
100
AcDbEntity
  8
DEFPOINTS
  6
ByBlock
 62
     0
440
 16777216
100
AcDbPoint
 10
6477.503152352719
 20
1961.166183921086
 30
0.0
  0
POINT
  5
8384
330
828C
100
AcDbEntity
  8
DEFPOINTS
  6
ByBlock
 62
     0
440
 16777216
100
AcDbPoint
 10
6052.50315235272
 20
1961.166183921086
 30
0.0
  0
POINT
  5
8385
330
828C
100
AcDbEntity
  8
DEFPOINTS
  6
ByBlock
 62
     0
440
 16777216
100
AcDbPoint
 10
6052.50315235272
 20
2050.687536086349
 30
0.0
  0
ENDBLK
  5
8386
330
828C
100
AcDbEntity
  8
0
100
AcDbBlockEnd
  0
BLOCK
  5
8387
330
8298
100
AcDbEntity
  8
0
100
AcDbBlockBegin
  2
*D8
 70
     1
 10
0.0
 20
0.0
 30
0.0
  3
*D8
  1

  0
LINE
  5
8388
330
8298
100
AcDbEntity
  8
0
  6
ByBlock
440
 16777216
100
AcDbLine
 10
6555.003152352719
 20
1709.166183921087
 30
0.0
 11
6555.003152352719
 21
2157.619623058809
 31
0.0
  0
LINE
  5
8389
330
8298
100
AcDbEntity
  8
0
  6
ByBlock
440
 16777216
100
AcDbLine
 10
6265.003152352719
 20
2128.644543155978
 30
0.0
 11
6265.003152352719
 21
2157.619623058809
 31
0.0
  0
LINE
  5
838A
330
8298
100
AcDbEntity
  8
0
  6
ByBlock
440
 16777216
100
AcDbLine
 10
6525.00315235272
 20
2142.619623058809
 30
0.0
 11
6295.00315235272
 21
2142.619623058809
 31
0.0
  0
INSERT
  5
838B
330
8298
100
AcDbEntity
  8
0
  6
ByBlock
440
 16777216
100
AcDbBlockReference
  2
_OPEN
 10
6555.003152352719
 20
2142.619623058809
 30
0.0
 41
30.0
 42
30.0
 43
30.0
  0
INSERT
  5
838C
330
8298
100
AcDbEntity
  8
0
  6
ByBlock
440
 16777216
100
AcDbBlockReference
  2
_OPEN
 10
6265.003152352719
 20
2142.619623058809
 30
0.0
 41
30.0
 42
30.0
 43
30.0
 50
180.0
  0
MTEXT
  5
838D
330
8298
100
AcDbEntity
  8
0
  6
ByBlock
440
 16777216
100
AcDbMText
 10
6410.003152352719
 20
2184.405337344523
 30
0.0
 40
45.0
 41
0.0
 46
0.0
 71
     5
 72
     5
  1
\A1;(290)
 73
     1
 44
1.0
  0
POINT
  5
838E
330
8298
100
AcDbEntity
  8
DEFPOINTS
  6
ByBlock
 62
     0
440
 16777216
100
AcDbPoint
 10
6555.003152352719
 20
1694.166183921087
 30
0.0
  0
POINT
  5
838F
330
8298
100
AcDbEntity
  8
DEFPOINTS
  6
ByBlock
 62
     0
440
 16777216
100
AcDbPoint
 10
6265.003152352719
 20
2113.644543155978
 30
0.0
  0
POINT
  5
8390
330
8298
100
AcDbEntity
  8
DEFPOINTS
  6
ByBlock
 62
     0
440
 16777216
100
AcDbPoint
 10
6265.003152352719
 20
2142.619623058809
 30
0.0
  0
ENDBLK
  5
8391
330
8298
100
AcDbEntity
  8
0
100
AcDbBlockEnd
  0
BLOCK
  5
8392
330
82A4
100
AcDbEntity
  8
0
100
AcDbBlockBegin
  2
*D9
 70
     1
 10
0.0
 20
0.0
 30
0.0
  3
*D9
  1

  0
LINE
  5
8393
330
82A4
100
AcDbEntity
  8
0
  6
ByBlock
440
 16777216
100
AcDbLine
 10
5591.698734805932
 20
3048.745146368498
 30
0.0
 11
5591.698734805932
 21
3245.414430334115
 31
0.0
  0
LINE
  5
8394
330
82A4
100
AcDbEntity
  8
0
  6
ByBlock
440
 16777216
100
AcDbLine
 10
4691.698734805932
 20
3048.745146368498
 30
0.0
 11
4691.698734805932
 21
3245.414430334115
 31
0.0
  0
LINE
  5
8395
330
82A4
100
AcDbEntity
  8
0
  6
ByBlock
440
 16777216
100
AcDbLine
 10
5561.698734805932
 20
3230.414430334116
 30
0.0
 11
4721.698734805932
 21
3230.414430334116
 31
0.0
  0
INSERT
  5
8396
330
82A4
100
AcDbEntity
  8
0
  6
ByBlock
440
 16777216
100
AcDbBlockReference
  2
_OPEN
 10
5591.698734805932
 20
3230.414430334116
 30
0.0
 41
30.0
 42
30.0
 43
30.0
  0
INSERT
  5
8397
330
82A4
100
AcDbEntity
  8
0
  6
ByBlock
440
 16777216
100
AcDbBlockReference
  2
_OPEN
 10
4691.698734805932
 20
3230.414430334116
 30
0.0
 41
30.0
 42
30.0
 43
30.0
 50
180.0
  0
MTEXT
  5
8398
330
82A4
100
AcDbEntity
  8
0
  6
ByBlock
440
 16777216
100
AcDbMText
 10
5141.698734805932
 20
3260.414430334116
 30
0.0
 40
45.0
 41
0.0
 46
0.0
 71
     5
 72
     5
  1
\A1;900
 73
     1
 44
1.0
  0
POINT
  5
8399
330
82A4
100
AcDbEntity
  8
DEFPOINTS
  6
ByBlock
 62
     0
440
 16777216
100
AcDbPoint
 10
5591.698734805932
 20
3033.745146368498
 30
0.0
  0
POINT
  5
839A
330
82A4
100
AcDbEntity
  8
DEFPOINTS
  6
ByBlock
 62
     0
440
 16777216
100
AcDbPoint
 10
4691.698734805932
 20
3033.745146368498
 30
0.0
  0
POINT
  5
839B
330
82A4
100
AcDbEntity
  8
DEFPOINTS
  6
ByBlock
 62
     0
440
 16777216
100
AcDbPoint
 10
4691.698734805932
 20
3230.414430334116
 30
0.0
  0
ENDBLK
  5
839C
330
82A4
100
AcDbEntity
  8
0
100
AcDbBlockEnd
  0
BLOCK
  5
839D
330
82B0
100
AcDbEntity
  8
0
100
AcDbBlockBegin
  2
*D10
 70
     1
 10
0.0
 20
0.0
 30
0.0
  3
*D10
  1

  0
LINE
  5
839E
330
82B0
100
AcDbEntity
  8
0
  6
ByBlock
440
 16777216
100
AcDbLine
 10
4676.698734805932
 20
3033.745146368498
 30
0.0
 11
4493.210230670667
 21
3033.745146368498
 31
0.0
  0
LINE
  5
839F
330
82B0
100
AcDbEntity
  8
0
  6
ByBlock
440
 16777216
100
AcDbLine
 10
4676.698734805932
 20
2443.745146368498
 30
0.0
 11
4493.210230670667
 21
2443.745146368498
 31
0.0
  0
LINE
  5
83A0
330
82B0
100
AcDbEntity
  8
0
  6
ByBlock
440
 16777216
100
AcDbLine
 10
4508.210230670667
 20
3003.745146368498
 30
0.0
 11
4508.210230670667
 21
2473.745146368498
 31
0.0
  0
INSERT
  5
83A1
330
82B0
100
AcDbEntity
  8
0
  6
ByBlock
440
 16777216
100
AcDbBlockReference
  2
_OPEN
 10
4508.210230670667
 20
3033.745146368498
 30
0.0
 41
30.0
 42
30.0
 43
30.0
 50
90.0
  0
INSERT
  5
83A2
330
82B0
100
AcDbEntity
  8
0
  6
ByBlock
440
 16777216
100
AcDbBlockReference
  2
_OPEN
 10
4508.210230670667
 20
2443.745146368498
 30
0.0
 41
30.0
 42
30.0
 43
30.0
 50
270.0
  0
MTEXT
  5
83A3
330
82B0
100
AcDbEntity
  8
0
  6
ByBlock
440
 16777216
100
AcDbMText
 10
4478.210230670668
 20
2738.745146368497
 30
0.0
 40
45.0
 41
0.0
 46
0.0
 71
     5
 72
     5
  1
\A1;590
 11
0.0
 21
1.0
 31
0.0
 73
     1
 44
1.0
  0
POINT
  5
83A4
330
82B0
100
AcDbEntity
  8
DEFPOINTS
  6
ByBlock
 62
     0
440
 16777216
100
AcDbPoint
 10
4691.698734805932
 20
3033.745146368498
 30
0.0
  0
POINT
  5
83A5
330
82B0
100
AcDbEntity
  8
DEFPOINTS
  6
ByBlock
 62
     0
440
 16777216
100
AcDbPoint
 10
4691.698734805932
 20
2443.745146368498
 30
0.0
  0
POINT
  5
83A6
330
82B0
100
AcDbEntity
  8
DEFPOINTS
  6
ByBlock
 62
     0
440
 16777216
100
AcDbPoint
 10
4508.210230670667
 20
2443.745146368498
 30
0.0
  0
ENDBLK
  5
83A7
330
82B0
100
AcDbEntity
  8
0
100
AcDbBlockEnd
  0
BLOCK
  5
83F9
330
82BC
100
AcDbEntity
  8
0
100
AcDbBlockBegin
  2
*D11
 70
     1
 10
0.0
 20
0.0
 30
0.0
  3
*D11
  1

  0
LINE
  5
8598
330
82BC
100
AcDbEntity
  8
3
440
 16777216
370
    -2
100
AcDbLine
 10
1899.184653374292
 20
1871.688434329931
 30
0.0
 11
1899.184653374292
 21
2157.619623058809
 31
0.0
  0
LINE
  5
8599
330
82BC
100
AcDbEntity
  8
3
440
 16777216
370
    -2
100
AcDbLine
 10
2339.184653374292
 20
2142.619623058809
 30
0.0
 11
1929.184653374292
 21
2142.619623058809
 31
0.0
  0
INSERT
  5
859A
330
82BC
100
AcDbEntity
  8
3
440
 16777216
370
    -2
100
AcDbBlockReference
  2
_OPEN
 10
2369.184653374292
 20
2142.619623058809
 30
0.0
 41
30.0
 42
30.0
 43
30.0
  0
INSERT
  5
859B
330
82BC
100
AcDbEntity
  8
3
440
 16777216
370
    -2
100
AcDbBlockReference
  2
_OPEN
 10
1899.184653374292
 20
2142.619623058809
 30
0.0
 41
30.0
 42
30.0
 43
30.0
 50
180.0
  0
MTEXT
  5
859C
330
82BC
100
AcDbEntity
  8
3
440
 16777216
100
AcDbMText
 10
2134.184653374292
 20
2184.405337344523
 30
0.0
 40
45.0
 41
0.0
 46
0.0
 71
     5
 72
     1
  1
\A1;(470)
 73
     1
 44
1.0
  0
POINT
  5
859D
330
82BC
100
AcDbEntity
  8
DEFPOINTS
 62
     0
440
 16777216
100
AcDbPoint
 10
2369.184653374292
 20
2113.644543155978
 30
0.0
  0
POINT
  5
859E
330
82BC
100
AcDbEntity
  8
DEFPOINTS
 62
     0
440
 16777216
100
AcDbPoint
 10
1899.184653374292
 20
1856.688434329931
 30
0.0
  0
POINT
  5
859F
330
82BC
100
AcDbEntity
  8
DEFPOINTS
 62
     0
440
 16777216
100
AcDbPoint
 10
1899.184653374292
 20
2142.619623058809
 30
0.0
  0
ENDBLK
  5
8402
330
82BC
100
AcDbEntity
  8
0
100
AcDbBlockEnd
  0
BLOCK
  5
83B2
330
82C7
100
AcDbEntity
  8
0
100
AcDbBlockBegin
  2
*D12
 70
     1
 10
0.0
 20
0.0
 30
0.0
  3
*D12
  1

  0
LINE
  5
8507
330
82C7
100
AcDbEntity
  8
3
440
 16777216
100
AcDbLine
 10
990.4914055025484
 20
1961.166183921086
 30
0.0
 11
546.3441927072417
 21
1961.166183921086
 31
0.0
  0
LINE
  5
8508
330
82C7
100
AcDbEntity
  8
3
440
 16777216
100
AcDbLine
 10
561.3441927072416
 20
1746.166183921087
 30
0.0
 11
561.3441927072417
 21
1931.166183921087
 31
0.0
  0
INSERT
  5
8509
330
82C7
100
AcDbEntity
  8
3
440
 16777216
100
AcDbBlockReference
  2
_OPEN
 10
561.3441927072416
 20
1716.166183921087
 30
0.0
 41
30.0
 42
30.0
 43
30.0
 50
270.0
  0
INSERT
  5
850A
330
82C7
100
AcDbEntity
  8
3
440
 16777216
100
AcDbBlockReference
  2
_OPEN
 10
561.3441927072417
 20
1961.166183921086
 30
0.0
 41
30.0
 42
30.0
 43
30.0
 50
90.0
  0
MTEXT
  5
850B
330
82C7
100
AcDbEntity
  8
3
440
 16777216
100
AcDbMText
 10
531.3441927072414
 20
1838.666183921087
 30
0.0
 40
45.0
 41
0.0
 46
0.0
 71
     5
 72
     5
  1
\A1;245
 11
0.0000000000000001
 21
1.0
 31
0.0
 73
     1
 44
1.0
  0
POINT
  5
850C
330
82C7
100
AcDbEntity
  8
DEFPOINTS
 62
     0
440
 16777216
100
AcDbPoint
 10
732.8864114515563
 20
1716.166183921087
 30
0.0
  0
POINT
  5
850D
330
82C7
100
AcDbEntity
  8
DEFPOINTS
 62
     0
440
 16777216
100
AcDbPoint
 10
1005.491405502548
 20
1961.166183921086
 30
0.0
  0
POINT
  5
850E
330
82C7
100
AcDbEntity
  8
DEFPOINTS
 62
     0
440
 16777216
100
AcDbPoint
 10
561.3441927072417
 20
1961.166183921086
 30
0.0
  0
ENDBLK
  5
83BB
330
82C7
100
AcDbEntity
  8
0
100
AcDbBlockEnd
  0
BLOCK
  5
83C7
330
82DE
100
AcDbEntity
  8
0
100
AcDbBlockBegin
  2
*D13
 70
     1
 10
0.0
 20
0.0
 30
0.0
  3
*D13
  1

  0
LINE
  5
850F
330
82DE
100
AcDbEntity
  8
3
440
 16777216
100
AcDbLine
 10
779.2213315996741
 20
1712.401231336396
 30
0.0
 11
779.2213315996741
 21
2103.198042495828
 31
0.0
  0
LINE
  5
8510
330
82DE
100
AcDbEntity
  8
3
440
 16777216
100
AcDbLine
 10
977.8802358275042
 20
2088.198042495827
 30
0.0
 11
809.221331599674
 21
2088.198042495827
 31
0.0
  0
INSERT
  5
8511
330
82DE
100
AcDbEntity
  8
3
440
 16777216
100
AcDbBlockReference
  2
_OPEN
 10
1007.880235827504
 20
2088.198042495827
 30
0.0
 41
30.0
 42
30.0
 43
30.0
  0
INSERT
  5
8512
330
82DE
100
AcDbEntity
  8
3
440
 16777216
100
AcDbBlockReference
  2
_OPEN
 10
779.2213315996741
 20
2088.198042495827
 30
0.0
 41
30.0
 42
30.0
 43
30.0
 50
180.0
  0
MTEXT
  5
8513
330
82DE
100
AcDbEntity
  8
3
440
 16777216
100
AcDbMText
 10
893.5507837135892
 20
2118.198042495828
 30
0.0
 40
45.0
 41
0.0
 46
0.0
 71
     5
 72
     5
  1
\A1;226
 73
     1
 44
1.0
  0
POINT
  5
8514
330
82DE
100
AcDbEntity
  8
DEFPOINTS
 62
     0
440
 16777216
100
AcDbPoint
 10
1007.880235827504
 20
1991.160008297034
 30
0.0
  0
POINT
  5
8515
330
82DE
100
AcDbEntity
  8
DEFPOINTS
 62
     0
440
 16777216
100
AcDbPoint
 10
779.2213315996741
 20
1697.401231336396
 30
0.0
  0
POINT
  5
8516
330
82DE
100
AcDbEntity
  8
DEFPOINTS
 62
     0
440
 16777216
100
AcDbPoint
 10
779.2213315996741
 20
2088.198042495827
 30
0.0
  0
ENDBLK
  5
83D0
330
82DE
100
AcDbEntity
  8
0
100
AcDbBlockEnd
  0
BLOCK
  5
83EA
330
8304
100
AcDbEntity
  8
0
100
AcDbBlockBegin
  2
*D14
 70
     1
 10
0.0
 20
0.0
 30
0.0
  3
*D14
  1

  0
LINE
  5
8517
330
8304
100
AcDbEntity
  8
3
 62
     0
440
 16777216
100
AcDbLine
 10
779.2213315996741
 20
1704.901231336396
 30
0.0
 11
779.2213315996741
 21
2188.980917796553
 31
0.0
  0
LINE
  5
8518
330
8304
100
AcDbEntity
  8
3
 62
     0
440
 16777216
100
AcDbLine
 10
1727.880235827504
 20
1508.666183921087
 30
0.0
 11
1727.880235827504
 21
2188.980917796553
 31
0.0
  0
LINE
  5
8519
330
8304
100
AcDbEntity
  8
3
 62
     0
440
 16777216
100
AcDbLine
 10
809.221331599674
 20
2173.980917796553
 30
0.0
 11
1697.880235827504
 21
2173.980917796553
 31
0.0
  0
INSERT
  5
851A
330
8304
100
AcDbEntity
  8
3
 62
     0
440
 16777216
100
AcDbBlockReference
  2
_OPEN
 10
779.2213315996741
 20
2173.980917796553
 30
0.0
 41
30.0
 42
30.0
 43
30.0
 50
180.0
  0
INSERT
  5
851B
330
8304
100
AcDbEntity
  8
3
 62
     0
440
 16777216
100
AcDbBlockReference
  2
_OPEN
 10
1727.880235827504
 20
2173.980917796553
 30
0.0
 41
30.0
 42
30.0
 43
30.0
  0
MTEXT
  5
851C
330
8304
100
AcDbEntity
  8
3
 62
     0
440
 16777216
100
AcDbMText
 10
1306.746357572734
 20
2211.480917796553
 30
0.0
 40
45.0
 41
0.0
 46
0.0
 71
     5
 72
     5
  1
\A1;949
 73
     1
 44
1.0
  0
POINT
  5
851D
330
8304
100
AcDbEntity
  8
DEFPOINTS
 62
     0
440
 16777216
100
AcDbPoint
 10
779.2213315996741
 20
1697.401231336396
 30
0.0
  0
POINT
  5
851E
330
8304
100
AcDbEntity
  8
DEFPOINTS
 62
     0
440
 16777216
100
AcDbPoint
 10
1727.880235827504
 20
1501.166183921086
 30
0.0
  0
POINT
  5
851F
330
8304
100
AcDbEntity
  8
DEFPOINTS
 62
     0
440
 16777216
100
AcDbPoint
 10
1727.880235827504
 20
2173.980917796553
 30
0.0
  0
ENDBLK
  5
83F4
330
8304
100
AcDbEntity
  8
0
100
AcDbBlockEnd
  0
BLOCK
  5
8441
330
8440
100
AcDbEntity
  8
0
100
AcDbBlockBegin
  2
_NONE
 70
     0
 10
0.0
 20
0.0
 30
0.0
  3
_NONE
  1

  0
CIRCLE
  5
8442
330
8440
100
AcDbEntity
  8
0
  6
ByBlock
 62
     0
100
AcDbCircle
 10
0.0
 20
0.0
 30
0.0
 40
0.25
  0
ENDBLK
  5
8443
330
8440
100
AcDbEntity
  8
0
100
AcDbBlockEnd
  0
BLOCK
  5
8474
330
8473
100
AcDbEntity
  8
0
100
AcDbBlockBegin
  2
*D16
 70
     1
 10
0.0
 20
0.0
 30
0.0
  3
*D16
  1

  0
LINE
  5
8475
330
8473
100
AcDbEntity
  8
0
  6
ByBlock
 62
     0
440
 16777216
100
AcDbLine
 10
795.8802358275042
 20
1378.666183921087
 30
0.0
 11
795.8802358275042
 21
1268.570504644715
 31
0.0
  0
LINE
  5
8476
330
8473
100
AcDbEntity
  8
0
  6
ByBlock
 62
     0
440
 16777216
100
AcDbLine
 10
1007.880235827504
 20
1378.666183921087
 30
0.0
 11
1007.880235827504
 21
1268.570504644715
 31
0.0
  0
LINE
  5
8477
330
8473
100
AcDbEntity
  8
0
  6
ByBlock
 62
     0
440
 16777216
100
AcDbLine
 10
825.8802358275042
 20
1283.570504644715
 30
0.0
 11
977.8802358275044
 21
1283.570504644715
 31
0.0
  0
INSERT
  5
8478
330
8473
100
AcDbEntity
  8
0
  6
ByBlock
 62
     0
440
 16777216
100
AcDbBlockReference
  2
_OPEN
 10
795.8802358275042
 20
1283.570504644715
 30
0.0
 41
30.0
 42
30.0
 43
30.0
 50
180.0
  0
INSERT
  5
8479
330
8473
100
AcDbEntity
  8
0
  6
ByBlock
 62
     0
440
 16777216
100
AcDbBlockReference
  2
_OPEN
 10
1007.880235827504
 20
1283.570504644715
 30
0.0
 41
30.0
 42
30.0
 43
30.0
  0
MTEXT
  5
847A
330
8473
100
AcDbEntity
  8
0
  6
ByBlock
 62
     0
440
 16777216
100
AcDbMText
 10
901.8802358275042
 20
1321.070504644715
 30
0.0
 40
45.0
 41
0.0
 46
0.0
 71
     5
 72
     5
  1
\A1;212
 73
     1
 44
1.0
  0
POINT
  5
847B
330
8473
100
AcDbEntity
  8
DEFPOINTS
  6
ByBlock
 62
     0
440
 16777216
100
AcDbPoint
 10
795.8802358275042
 20
1386.166183921087
 30
0.0
  0
POINT
  5
847C
330
8473
100
AcDbEntity
  8
DEFPOINTS
  6
ByBlock
 62
     0
440
 16777216
100
AcDbPoint
 10
1007.880235827504
 20
1386.166183921087
 30
0.0
  0
POINT
  5
847D
330
8473
100
AcDbEntity
  8
DEFPOINTS
  6
ByBlock
 62
     0
440
 16777216
100
AcDbPoint
 10
1007.880235827504
 20
1283.570504644715
 30
0.0
  0
ENDBLK
  5
847E
330
8473
100
AcDbEntity
  8
0
100
AcDbBlockEnd
  0
BLOCK
  5
8481
330
8480
100
AcDbEntity
  8
0
100
AcDbBlockBegin
  2
*D17
 70
     1
 10
0.0
 20
0.0
 30
0.0
  3
*D17
  1

  0
LINE
  5
8482
330
8480
100
AcDbEntity
  8
0
  6
ByBlock
 62
     0
440
 16777216
100
AcDbLine
 10
1007.880235827504
 20
1378.666183921087
 30
0.0
 11
1007.880235827504
 21
1268.570504644715
 31
0.0
  0
LINE
  5
8483
330
8480
100
AcDbEntity
  8
0
  6
ByBlock
 62
     0
440
 16777216
100
AcDbLine
 10
1695.880235827504
 20
1378.666183921087
 30
0.0
 11
1695.880235827504
 21
1268.570504644715
 31
0.0
  0
LINE
  5
8484
330
8480
100
AcDbEntity
  8
0
  6
ByBlock
 62
     0
440
 16777216
100
AcDbLine
 10
1037.880235827504
 20
1283.570504644715
 30
0.0
 11
1665.880235827504
 21
1283.570504644715
 31
0.0
  0
INSERT
  5
8485
330
8480
100
AcDbEntity
  8
0
  6
ByBlock
 62
     0
440
 16777216
100
AcDbBlockReference
  2
_OPEN
 10
1007.880235827504
 20
1283.570504644715
 30
0.0
 41
30.0
 42
30.0
 43
30.0
 50
180.0
  0
INSERT
  5
8486
330
8480
100
AcDbEntity
  8
0
  6
ByBlock
 62
     0
440
 16777216
100
AcDbBlockReference
  2
_OPEN
 10
1695.880235827504
 20
1283.570504644715
 30
0.0
 41
30.0
 42
30.0
 43
30.0
  0
MTEXT
  5
8487
330
8480
100
AcDbEntity
  8
0
  6
ByBlock
 62
     0
440
 16777216
100
AcDbMText
 10
1351.880235827504
 20
1321.070504644715
 30
0.0
 40
45.0
 41
0.0
 46
0.0
 71
     5
 72
     5
  1
\A1;688
 73
     1
 44
1.0
  0
POINT
  5
8488
330
8480
100
AcDbEntity
  8
DEFPOINTS
  6
ByBlock
 62
     0
440
 16777216
100
AcDbPoint
 10
1007.880235827504
 20
1386.166183921087
 30
0.0
  0
POINT
  5
8489
330
8480
100
AcDbEntity
  8
DEFPOINTS
  6
ByBlock
 62
     0
440
 16777216
100
AcDbPoint
 10
1695.880235827504
 20
1386.166183921087
 30
0.0
  0
POINT
  5
848A
330
8480
100
AcDbEntity
  8
DEFPOINTS
  6
ByBlock
 62
     0
440
 16777216
100
AcDbPoint
 10
1695.880235827504
 20
1283.570504644715
 30
0.0
  0
ENDBLK
  5
848B
330
8480
100
AcDbEntity
  8
0
100
AcDbBlockEnd
  0
BLOCK
  5
848E
330
848D
100
AcDbEntity
  8
0
100
AcDbBlockBegin
  2
*D18
 70
     1
 10
0.0
 20
0.0
 30
0.0
  3
*D18
  1

  0
LINE
  5
848F
330
848D
100
AcDbEntity
  8
0
  6
ByBlock
 62
     0
440
 16777216
100
AcDbLine
 10
2034.184653374292
 20
1378.666183921087
 30
0.0
 11
2034.184653374292
 21
1268.570504644715
 31
0.0
  0
LINE
  5
8490
330
848D
100
AcDbEntity
  8
0
  6
ByBlock
 62
     0
440
 16777216
100
AcDbLine
 10
2369.184653374292
 20
1378.666183921087
 30
0.0
 11
2369.184653374292
 21
1268.570504644715
 31
0.0
  0
LINE
  5
8491
330
848D
100
AcDbEntity
  8
0
  6
ByBlock
 62
     0
440
 16777216
100
AcDbLine
 10
2064.184653374292
 20
1283.570504644715
 30
0.0
 11
2339.184653374292
 21
1283.570504644715
 31
0.0
  0
INSERT
  5
8492
330
848D
100
AcDbEntity
  8
0
  6
ByBlock
 62
     0
440
 16777216
100
AcDbBlockReference
  2
_OPEN
 10
2034.184653374292
 20
1283.570504644715
 30
0.0
 41
30.0
 42
30.0
 43
30.0
 50
180.0
  0
INSERT
  5
8493
330
848D
100
AcDbEntity
  8
0
  6
ByBlock
 62
     0
440
 16777216
100
AcDbBlockReference
  2
_OPEN
 10
2369.184653374292
 20
1283.570504644715
 30
0.0
 41
30.0
 42
30.0
 43
30.0
  0
MTEXT
  5
8494
330
848D
100
AcDbEntity
  8
0
  6
ByBlock
 62
     0
440
 16777216
100
AcDbMText
 10
2201.684653374292
 20
1321.070504644715
 30
0.0
 40
45.0
 41
0.0
 46
0.0
 71
     5
 72
     5
  1
\A1;335
 73
     1
 44
1.0
  0
POINT
  5
8495
330
848D
100
AcDbEntity
  8
DEFPOINTS
  6
ByBlock
 62
     0
440
 16777216
100
AcDbPoint
 10
2034.184653374292
 20
1386.166183921087
 30
0.0
  0
POINT
  5
8496
330
848D
100
AcDbEntity
  8
DEFPOINTS
  6
ByBlock
 62
     0
440
 16777216
100
AcDbPoint
 10
2369.184653374292
 20
1386.166183921087
 30
0.0
  0
POINT
  5
8497
330
848D
100
AcDbEntity
  8
DEFPOINTS
  6
ByBlock
 62
     0
440
 16777216
100
AcDbPoint
 10
2369.184653374292
 20
1283.570504644715
 30
0.0
  0
ENDBLK
  5
8498
330
848D
100
AcDbEntity
  8
0
100
AcDbBlockEnd
  0
BLOCK
  5
849B
330
849A
100
AcDbEntity
  8
0
100
AcDbBlockBegin
  2
*D19
 70
     1
 10
0.0
 20
0.0
 30
0.0
  3
*D19
  1

  0
LINE
  5
849C
330
849A
100
AcDbEntity
  8
0
  6
ByBlock
 62
     0
440
 16777216
100
AcDbLine
 10
2369.184653374292
 20
1378.666183921087
 30
0.0
 11
2369.184653374292
 21
1268.570504644715
 31
0.0
  0
LINE
  5
849D
330
849A
100
AcDbEntity
  8
0
  6
ByBlock
 62
     0
440
 16777216
100
AcDbLine
 10
2624.184653374292
 20
1378.666183921087
 30
0.0
 11
2624.184653374292
 21
1268.570504644715
 31
0.0
  0
LINE
  5
849E
330
849A
100
AcDbEntity
  8
0
  6
ByBlock
 62
     0
440
 16777216
100
AcDbLine
 10
2399.184653374292
 20
1283.570504644715
 30
0.0
 11
2594.184653374292
 21
1283.570504644715
 31
0.0
  0
INSERT
  5
849F
330
849A
100
AcDbEntity
  8
0
  6
ByBlock
 62
     0
440
 16777216
100
AcDbBlockReference
  2
_OPEN
 10
2369.184653374292
 20
1283.570504644715
 30
0.0
 41
30.0
 42
30.0
 43
30.0
 50
180.0
  0
INSERT
  5
84A0
330
849A
100
AcDbEntity
  8
0
  6
ByBlock
 62
     0
440
 16777216
100
AcDbBlockReference
  2
_OPEN
 10
2624.184653374292
 20
1283.570504644715
 30
0.0
 41
30.0
 42
30.0
 43
30.0
  0
MTEXT
  5
84A1
330
849A
100
AcDbEntity
  8
0
  6
ByBlock
 62
     0
440
 16777216
100
AcDbMText
 10
2496.684653374292
 20
1321.070504644715
 30
0.0
 40
45.0
 41
0.0
 46
0.0
 71
     5
 72
     5
  1
\A1;255
 73
     1
 44
1.0
  0
POINT
  5
84A2
330
849A
100
AcDbEntity
  8
DEFPOINTS
  6
ByBlock
 62
     0
440
 16777216
100
AcDbPoint
 10
2369.184653374292
 20
1386.166183921087
 30
0.0
  0
POINT
  5
84A3
330
849A
100
AcDbEntity
  8
DEFPOINTS
  6
ByBlock
 62
     0
440
 16777216
100
AcDbPoint
 10
2624.184653374292
 20
1386.166183921087
 30
0.0
  0
POINT
  5
84A4
330
849A
100
AcDbEntity
  8
DEFPOINTS
  6
ByBlock
 62
     0
440
 16777216
100
AcDbPoint
 10
2624.184653374292
 20
1283.570504644715
 30
0.0
  0
ENDBLK
  5
84A5
330
849A
100
AcDbEntity
  8
0
100
AcDbBlockEnd
  0
BLOCK
  5
84A8
330
84A7
100
AcDbEntity
  8
0
100
AcDbBlockBegin
  2
*D20
 70
     1
 10
0.0
 20
0.0
 30
0.0
  3
*D20
  1

  0
LINE
  5
84A9
330
84A7
100
AcDbEntity
  8
0
  6
ByBlock
 62
     0
440
 16777216
100
AcDbLine
 10
997.9914055025483
 20
1961.166183921086
 30
0.0
 11
447.9459264419874
 21
1961.166183921086
 31
0.0
  0
LINE
  5
84AA
330
84A7
100
AcDbEntity
  8
0
  6
ByBlock
 62
     0
440
 16777216
100
AcDbLine
 10
788.3802358275042
 20
1386.166183921087
 30
0.0
 11
447.9459264419874
 21
1386.166183921087
 31
0.0
  0
LINE
  5
84AB
330
84A7
100
AcDbEntity
  8
0
  6
ByBlock
 62
     0
440
 16777216
100
AcDbLine
 10
462.9459264419875
 20
1931.166183921087
 30
0.0
 11
462.9459264419875
 21
1416.166183921087
 31
0.0
  0
INSERT
  5
84AC
330
84A7
100
AcDbEntity
  8
0
  6
ByBlock
 62
     0
440
 16777216
100
AcDbBlockReference
  2
_OPEN
 10
462.9459264419875
 20
1961.166183921086
 30
0.0
 41
30.0
 42
30.0
 43
30.0
 50
90.0
  0
INSERT
  5
84AD
330
84A7
100
AcDbEntity
  8
0
  6
ByBlock
 62
     0
440
 16777216
100
AcDbBlockReference
  2
_OPEN
 10
462.9459264419875
 20
1386.166183921087
 30
0.0
 41
30.0
 42
30.0
 43
30.0
 50
270.0
  0
MTEXT
  5
84AE
330
84A7
100
AcDbEntity
  8
0
  6
ByBlock
 62
     0
440
 16777216
100
AcDbMText
 10
425.4459264419875
 20
1673.666183921087
 30
0.0
 40
45.0
 41
0.0
 46
0.0
 71
     5
 72
     5
  1
\A1;575
 11
0.0
 21
1.0
 31
0.0
 73
     1
 44
1.0
  0
POINT
  5
84AF
330
84A7
100
AcDbEntity
  8
DEFPOINTS
  6
ByBlock
 62
     0
440
 16777216
100
AcDbPoint
 10
1005.491405502548
 20
1961.166183921086
 30
0.0
  0
POINT
  5
84B0
330
84A7
100
AcDbEntity
  8
DEFPOINTS
  6
ByBlock
 62
     0
440
 16777216
100
AcDbPoint
 10
795.8802358275042
 20
1386.166183921087
 30
0.0
  0
POINT
  5
84B1
330
84A7
100
AcDbEntity
  8
DEFPOINTS
  6
ByBlock
 62
     0
440
 16777216
100
AcDbPoint
 10
462.9459264419875
 20
1386.166183921087
 30
0.0
  0
ENDBLK
  5
84B2
330
84A7
100
AcDbEntity
  8
0
100
AcDbBlockEnd
  0
ENDSEC
  0
SECTION
  2
ENTITIES
  0
LINE
  5
7E77
330
19
100
AcDbEntity
  8
4
100
AcDbLine
 10
2775.0
 20
750.0
 30
0.0
 11
2775.0
 21
450.0
 31
0.0
  0
LINE
  5
7E78
330
19
100
AcDbEntity
  8
4
100
AcDbLine
 10
1725.0
 20
750.0
 30
0.0
 11
1725.0
 21
450.0
 31
0.0
  0
LINE
  5
7E79
330
19
100
AcDbEntity
  8
4
100
AcDbLine
 10
975.0
 20
750.0
 30
0.0
 11
975.0
 21
450.0
 31
0.0
  0
LINE
  5
7E7C
330
19
100
AcDbEntity
  8
4
100
AcDbLine
 10
975.0
 20
450.0
 30
0.0
 11
2775.0
 21
450.0
 31
0.0
  0
LINE
  5
7E7D
330
19
100
AcDbEntity
  8
4
100
AcDbLine
 10
975.0
 20
600.0
 30
0.0
 11
2775.0
 21
600.0
 31
0.0
  0
TEXT
  5
7E7E
330
19
100
AcDbEntity
  8
4
100
AcDbText
 10
1032.753121270352
 20
647.3145387999193
 30
0.0
 40
75.0
  1
機器名称
100
AcDbText
  0
TEXT
  5
7E7F
330
19
100
AcDbEntity
  8
4
100
AcDbText
 10
1029.387159037196
 20
482.4677350980164
 30
0.0
 40
75.0
  1
機器型番
100
AcDbText
  0
TEXT
  5
7E80
330
19
100
AcDbEntity
  8
4
100
AcDbText
 10
1764.099540975941
 20
639.4329691485341
 30
0.0
 40
60.0
  1
ミツヤリミットロードファン
100
AcDbText
  0
TEXT
  5
7E81
330
19
100
AcDbEntity
  8
4
100
AcDbText
 10
1779.981743378221
 20
475.739376419915
 30
0.0
 40
75.0
  1
LL#2-5
100
AcDbText
  0
TEXT
  5
7E83
330
19
100
AcDbEntity
  8
4
100
AcDbText
 10
1143.320951631976
 20
3567.227345487995
 30
0.0
 40
80.99999999999999
  1
床置ベット
100
AcDbText
  0
TEXT
  5
7E84
330
19
100
AcDbEntity
  8
4
100
AcDbText
 10
458.4100802834691
 20
3800.821464298947
 30
0.0
 40
108.0
  1
遠心式両吸込両持リミットロードファン
100
AcDbText
  0
LINE
  5
7E85
330
19
100
AcDbEntity
  8
4
100
AcDbLine
 10
375.0
 20
3704.113131397207
 30
0.0
 11
2775.0
 21
3704.113131397207
 31
0.0
  0
LINE
  5
7E86
330
19
100
AcDbEntity
  8
4
100
AcDbLine
 10
375.0
 20
4004.113131397207
 30
0.0
 11
2775.0
 21
4004.113131397207
 31
0.0
  0
LINE
  5
7E87
330
19
100
AcDbEntity
  8
4
100
AcDbLine
 10
975.0
 20
750.0
 30
0.0
 11
2775.0
 21
750.0
 31
0.0
  0
LINE
  5
7E88
330
19
100
AcDbEntity
  8
4
100
AcDbLine
 10
375.0
 20
4004.113131397207
 30
0.0
 11
375.0
 21
3704.113131397207
 31
0.0
  0
TEXT
  5
7E89
330
19
100
AcDbEntity
  8
4
100
AcDbText
 10
489.5327032679233
 20
3565.563299808736
 30
0.0
 40
80.99999999999999
  1
左回転上向
100
AcDbText
  0
TEXT
  5
7E8A
330
19
100
AcDbEntity
  8
4
100
AcDbText
 10
2203.454338873935
 20
4059.091622242963
 30
0.0
 40
84.00000000000002
  1
No.
100
AcDbText
  0
TEXT
  5
7E8B
330
19
100
AcDbEntity
  8
4
100
AcDbText
 10
1966.94409390002
 20
3575.143261998774
 30
0.0
 40
80.99999999999999
  1
縮尺：1/15
100
AcDbText
  0
LINE
  5
7E8C
330
19
100
AcDbEntity
  8
4
100
AcDbLine
 10
2775.0
 20
4004.113131397207
 30
0.0
 11
2775.0
 21
3704.113131397207
 31
0.0
  0
LINE
  5
7E8D
330
19
100
AcDbEntity
  8
4
100
AcDbLine
 10
3150.0
 20
4425.0
 30
0.0
 11
3150.0
 21
4425.0
 31
0.0
  0
LINE
  5
7E8E
330
19
100
AcDbEntity
  8
4
100
AcDbLine
 10
2160.926133539797
 20
4021.895374688102
 30
0.0
 11
2160.926133539797
 21
4179.978392324628
 31
0.0
  0
LINE
  5
7E8F
330
19
100
AcDbEntity
  8
4
100
AcDbLine
 10
2160.926133539797
 20
4179.978392324628
 30
0.0
 11
2775.0
 21
4179.978392324628
 31
0.0
  0
LINE
  5
7E90
330
19
100
AcDbEntity
  8
4
100
AcDbLine
 10
2775.0
 20
4179.978392324628
 30
0.0
 11
2775.0
 21
4021.895374688102
 31
0.0
  0
LINE
  5
7E91
330
19
100
AcDbEntity
  8
4
100
AcDbLine
 10
2775.0
 20
4021.895374688102
 30
0.0
 11
2160.926133539797
 21
4021.895374688102
 31
0.0
  0
LINE
  5
7E92
330
19
100
AcDbEntity
  8
4
100
AcDbLine
 10
0.0
 20
0.0
 30
0.0
 11
0.0
 21
4425.0
 31
0.0
  0
LINE
  5
7E93
330
19
100
AcDbEntity
  8
4
100
AcDbLine
 10
0.0
 20
4425.0
 30
0.0
 11
3150.0
 21
4425.0
 31
0.0
  0
LINE
  5
7E94
330
19
100
AcDbEntity
  8
4
100
AcDbLine
 10
3150.0
 20
4425.0
 30
0.0
 11
3150.0
 21
0.0
 31
0.0
  0
LINE
  5
7E95
330
19
100
AcDbEntity
  8
4
100
AcDbLine
 10
3150.0
 20
0.0
 30
0.0
 11
0.0
 21
0.0
 31
0.0
  0
INSERT
  5
8135
330
19
100
AcDbEntity
  8
0
100
AcDbBlockReference
  2
YA_N
 10
3914.921021926442
 20
0.636093583309048
 30
0.0
  0
INSERT
  5
8136
330
19
100
AcDbEntity
  8
0
100
AcDbBlockReference
  2
YA_N
 10
3914.921021926442
 20
0.636093583309048
 30
0.0
  0
INSERT
  5
8137
330
19
100
AcDbEntity
  8
0
100
AcDbBlockReference
  2
YA_N
 10
5561.031452244878
 20
349.495905772537
 30
0.0
  0
INSERT
  5
8138
330
19
100
AcDbEntity
  8
0
100
AcDbBlockReference
  2
YA_N
 10
3699.517385257073
 20
-1448.847914662177
 30
0.0
 41
10.0
 42
10.0
 43
10.0
  0
INSERT
  5
8139
330
19
100
AcDbEntity
  8
0
100
AcDbBlockReference
  2
YA_N
 10
3699.517385257073
 20
-1448.847914662177
 30
0.0
 41
10.0
 42
10.0
 43
10.0
  0
INSERT
  5
813A
330
19
100
AcDbEntity
  8
0
100
AcDbBlockReference
  2
YA_N
 10
5070.831063944023
 20
-399.4625901651764
 30
0.0
 41
30.0
 42
30.0
 43
30.0
 50
90.0
  0
INSERT
  5
813B
330
19
100
AcDbEntity
  8
0
100
AcDbBlockReference
  2
YA_N
 10
5000.087322281561
 20
-399.4625901651764
 30
0.0
 41
30.0
 42
30.0
 43
30.0
 50
90.0
  0
DIMENSION
  5
815B
330
19
100
AcDbEntity
  8
3
100
AcDbDimension
280
     0
  2
*D3
 10
2761.927374487696
 20
1558.666183921087
 30
0.0
 11
2731.927374487696
 21
1716.166183921087
 31
0.0
 12
-3895.818498978428
 22
0.0
 32
0.0
 70
    32
  1
φ <>
 71
     5
 42
-1.0
 73
     0
 74
     0
 75
     0
  3
MATSU
100
AcDbAlignedDimension
 13
2585.884653374292
 23
1873.666183921087
 33
0.0
 14
2585.884653374293
 24
1558.666183921087
 34
0.0
 50
90.0
100
AcDbRotatedDimension
1001
ACAD
1000
DSTYLE
1002
{
1070
    40
1040
15.0
1002
}
  0
LINE
  5
815C
330
19
100
AcDbEntity
  8
1
100
AcDbLine
 10
2156.684653374292
 20
1961.166183921086
 30
0.0
 11
2156.684653374292
 21
1810.166183921087
 31
0.0
  0
LINE
  5
815D
330
19
100
AcDbEntity
  8
1
100
AcDbLine
 10
2581.684653374292
 20
1961.166183921086
 30
0.0
 11
2581.684653374292
 21
1461.166183921087
 31
0.0
  0
LINE
  5
815E
330
19
100
AcDbEntity
  8
2
100
AcDbLine
 10
732.8864114515563
 20
1716.166183921087
 30
0.0
 11
1363.402228527993
 21
1716.166183921087
 31
0.0
  0
DIMENSION
  5
815F
330
19
100
AcDbEntity
  8
3
100
AcDbDimension
280
     0
  2
*D4
 10
1007.880235827504
 20
2088.198042495827
 30
0.0
 11
1183.380235827504
 21
2118.198042495828
 31
0.0
 12
-3895.818498978428
 22
0.0
 32
0.0
 70
    32
  1
351
 71
     5
 42
-1.0
 73
     0
 74
     0
 75
     0
  3
MATSU
100
AcDbAlignedDimension
 13
1358.880235827504
 23
1961.166183921086
 33
0.0
 14
1007.880235827504
 24
1991.160008297034
 34
0.0
100
AcDbRotatedDimension
1001
ACAD
1000
DSTYLE
1002
{
1070
    40
1040
15.0
1002
}
  0
DIMENSION
  5
8160
330
19
100
AcDbEntity
  8
3
100
AcDbDimension
280
     0
  2
*D5
 10
1033.880235827504
 20
2010.666549359872
 30
0.0
 11
1196.380235827504
 21
2040.666549359872
 31
0.0
 12
-3895.818498978428
 22
0.0
 32
0.0
 70
    32
  1
325
 71
     5
 42
-1.0
 73
     0
 74
     0
 75
     0
  3
MATSU
100
AcDbAlignedDimension
 13
1358.880235827504
 23
1961.166183921086
 33
0.0
 14
1033.880235827504
 24
1961.166183921086
 34
0.0
100
AcDbRotatedDimension
1001
ACAD
1000
DSTYLE
1002
{
1070
    40
1040
15.0
1002
}
  0
LINE
  5
8161
330
19
100
AcDbEntity
  8
1
100
AcDbLine
 10
1033.880235827504
 20
1961.166183921086
 30
0.0
 11
1033.880235827504
 21
1901.54535755096
 31
0.0
  0
LINE
  5
8162
330
19
100
AcDbEntity
  8
1
100
AcDbLine
 10
1358.880235827504
 20
1961.166183921086
 30
0.0
 11
1385.491405502548
 21
1961.166183921086
 31
0.0
  0
LINE
  5
8163
330
19
100
AcDbEntity
  8
1
100
AcDbLine
 10
1005.491405502548
 20
1961.166183921086
 30
0.0
 11
1005.491405502548
 21
1958.166183921086
 31
0.0
  0
LINE
  5
8164
330
19
100
AcDbEntity
  8
1
100
AcDbLine
 10
1030.491405502548
 20
1961.166183921086
 30
0.0
 11
1005.491405502548
 21
1961.166183921086
 31
0.0
  0
LINE
  5
8165
330
19
100
AcDbEntity
  8
2
100
AcDbLine
 10
1884.661268803682
 20
1716.166183921087
 30
0.0
 11
2635.473904427259
 21
1716.166183921087
 31
0.0
  0
LINE
  5
8166
330
19
100
AcDbEntity
  8
1
100
AcDbLine
 10
1356.921052154034
 20
1936.166183921086
 30
0.0
 11
1355.921052154034
 21
1936.166183921086
 31
0.0
  0
LINE
  5
8167
330
19
100
AcDbEntity
  8
1
100
AcDbLine
 10
1356.085351029356
 20
1936.166183921087
 30
0.0
 11
1033.880235827504
 21
1936.166183921087
 31
0.0
  0
LINE
  5
8168
330
19
100
AcDbEntity
  8
2
100
AcDbLine
 10
1007.880235827504
 20
1994.649025088529
 30
0.0
 11
1007.880235827504
 21
1386.166183921087
 31
0.0
  0
LINE
  5
8169
330
19
100
AcDbEntity
  8
1
100
AcDbLine
 10
1025.491405502548
 20
1961.166183921086
 30
0.0
 11
1364.379692948017
 21
1961.166183921086
 31
0.0
  0
LINE
  5
8172
330
19
100
AcDbEntity
  8
1
100
AcDbLine
 10
1005.491405502548
 20
1958.166183921086
 30
0.0
 11
1385.491405502548
 21
1958.166183921086
 31
0.0
  0
LINE
  5
8173
330
19
100
AcDbEntity
  8
1
100
AcDbLine
 10
1385.491405502548
 20
1961.166183921086
 30
0.0
 11
1385.491405502548
 21
1958.166183921086
 31
0.0
  0
LINE
  5
8174
330
19
100
AcDbEntity
  8
1
100
AcDbLine
 10
2034.184653374292
 20
1386.166183921087
 30
0.0
 11
2624.184653374292
 21
1386.166183921087
 31
0.0
  0
LINE
  5
8177
330
19
100
AcDbEntity
  8
2
100
AcDbLine
 10
2369.184653374292
 20
2042.671284746853
 30
0.0
 11
2369.184653374292
 21
1386.166183921087
 31
0.0
  0
LINE
  5
8178
330
19
100
AcDbEntity
  8
1
100
AcDbLine
 10
2624.184653374293
 20
1461.166183921087
 30
0.0
 11
2624.184653374293
 21
1386.166183921087
 31
0.0
  0
LINE
  5
8179
330
19
100
AcDbEntity
  8
1
100
AcDbLine
 10
2034.184653374292
 20
1461.166183921087
 30
0.0
 11
2034.184653374292
 21
1386.166183921087
 31
0.0
  0
LINE
  5
817C
330
19
100
AcDbEntity
  8
1
100
AcDbLine
 10
2131.684653374292
 20
1961.166183921087
 30
0.0
 11
2606.684653374292
 21
1961.166183921086
 31
0.0
  0
LINE
  5
817D
330
19
100
AcDbEntity
  8
1
100
AcDbLine
 10
795.8802358275042
 20
1386.166183921087
 30
0.0
 11
1695.880235827504
 21
1386.166183921087
 31
0.0
  0
LINE
  5
8180
330
19
100
AcDbEntity
  8
1
100
AcDbLine
 10
795.8802358275042
 20
1461.166183921086
 30
0.0
 11
795.8802358275042
 21
1386.166183921087
 31
0.0
  0
LINE
  5
8181
330
19
100
AcDbEntity
  8
1
100
AcDbLine
 10
1695.880235827504
 20
1461.166183921086
 30
0.0
 11
1695.880235827504
 21
1386.166183921087
 31
0.0
  0
LINE
  5
8184
330
19
100
AcDbEntity
  8
2
100
AcDbLine
 10
1527.880235827504
 20
1831.564183921087
 30
0.0
 11
1527.880235827504
 21
1386.166183921087
 31
0.0
  0
LINE
  5
8185
330
19
100
AcDbEntity
  8
2
100
AcDbLine
 10
1718.511564328841
 20
1668.166183921087
 30
0.0
 11
1319.981335827504
 21
1668.166183921087
 31
0.0
  0
LINE
  5
8186
330
19
100
AcDbEntity
  8
2
100
AcDbLine
 10
1007.880235827504
 20
2395.080785690071
 30
0.0
 11
1007.880235827504
 21
3063.293790555292
 31
0.0
  0
LINE
  5
8187
330
19
100
AcDbEntity
  8
1
100
AcDbLine
 10
1695.880235827504
 20
3033.745146368498
 30
0.0
 11
795.8802358275042
 21
3033.745146368498
 31
0.0
  0
LINE
  5
8188
330
19
100
AcDbEntity
  8
1
100
AcDbLine
 10
1695.880235827504
 20
2443.745146368498
 30
0.0
 11
795.8802358275042
 21
2443.745146368498
 31
0.0
  0
LINE
  5
8189
330
19
100
AcDbEntity
  8
1
100
AcDbLine
 10
795.8802358275042
 20
2443.745146368498
 30
0.0
 11
795.8802358275042
 21
2566.245146368498
 31
0.0
  0
LINE
  5
818A
330
19
100
AcDbEntity
  8
1
100
AcDbLine
 10
1695.880235827504
 20
2443.745146368498
 30
0.0
 11
1695.880235827504
 21
3033.745146368498
 31
0.0
  0
LINE
  5
818B
330
19
100
AcDbEntity
  8
1
100
AcDbLine
 10
2086.184653374293
 20
1701.166183921087
 30
0.0
 11
2117.732999545628
 21
1701.166183921086
 31
0.0
  0
LINE
  5
818C
330
19
100
AcDbEntity
  8
1
100
AcDbLine
 10
2086.184653374292
 20
1621.166183921087
 30
0.0
 11
2117.732999545628
 21
1621.166183921087
 31
0.0
  0
LINE
  5
818D
330
19
100
AcDbEntity
  8
1
100
AcDbLine
 10
2076.184653374293
 20
1691.166183921087
 30
0.0
 11
2076.184653374293
 21
1690.166183921087
 31
0.0
  0
LINE
  5
818E
330
19
100
AcDbEntity
  8
1
100
AcDbLine
 10
2659.184653374293
 20
1691.166183921087
 30
0.0
 11
2659.184653374293
 21
1631.166183921087
 31
0.0
  0
LINE
  5
818F
330
19
100
AcDbEntity
  8
1
100
AcDbLine
 10
2592.184653374292
 20
1621.166183921087
 30
0.0
 11
2652.184653374292
 21
1621.166183921087
 31
0.0
  0
LINE
  5
8190
330
19
100
AcDbEntity
  8
1
100
AcDbLine
 10
2592.184653374293
 20
1701.166183921086
 30
0.0
 11
2652.184653374293
 21
1701.166183921087
 31
0.0
  0
DIMENSION
  5
8191
330
19
100
AcDbEntity
  8
3
100
AcDbDimension
280
     0
  2
*D6
 10
561.3441927072417
 20
1386.166183921087
 30
0.0
 11
531.3441927072417
 21
1551.166183921087
 31
0.0
 12
-3895.818498978428
 22
0.0
 32
0.0
 70
    32
 71
     5
 42
-1.0
 73
     0
 74
     0
 75
     0
  3
MATSU
100
AcDbAlignedDimension
 13
732.8864114515563
 23
1716.166183921087
 33
0.0
 14
795.8802358275042
 24
1386.166183921087
 34
0.0
 50
270.0
100
AcDbRotatedDimension
1001
ACAD
1000
DSTYLE
1002
{
1070
    40
1040
15.0
1002
}
  0
DIMENSION
  5
8198
330
19
100
AcDbEntity
  8
3
100
AcDbDimension
280
     0
  2
*D7
 10
2156.684653374292
 20
2050.687536086349
 30
0.0
 11
2369.184653374292
 21
2080.687536086349
 31
0.0
 12
-3895.818498978428
 22
0.0
 32
0.0
 70
    32
 71
     5
 42
-1.0
 73
     0
 74
     0
 75
     0
  3
MATSU
100
AcDbAlignedDimension
 13
2581.684653374292
 23
1961.166183921086
 33
0.0
 14
2156.684653374292
 24
1961.166183921086
 34
0.0
100
AcDbRotatedDimension
1001
ACAD
1000
DSTYLE
1002
{
1070
    40
1040
15.0
1002
}
  0
LINE
  5
8199
330
19
100
AcDbEntity
  8
1
100
AcDbLine
 10
1899.184653374292
 20
1875.880602674486
 30
0.0
 11
1899.184653374292
 21
1518.166183921087
 31
0.0
  0
CIRCLE
  5
819A
330
19
100
AcDbEntity
  8
1
100
AcDbCircle
 10
1007.880235827504
 20
1716.166183921087
 30
0.0
 40
182.5
  0
LINE
  5
819B
330
19
100
AcDbEntity
  8
1
100
AcDbLine
 10
2086.184653374293
 20
1701.166183921087
 30
0.0
 11
2076.184653374293
 21
1691.166183921087
 31
0.0
  0
LINE
  5
819C
330
19
100
AcDbEntity
  8
1
100
AcDbLine
 10
2076.184653374292
 20
1631.166183921087
 30
0.0
 11
2086.184653374292
 21
1621.166183921087
 31
0.0
  0
LINE
  5
819D
330
19
100
AcDbEntity
  8
1
100
AcDbLine
 10
2652.184653374293
 20
1701.166183921087
 30
0.0
 11
2659.184653374293
 21
1691.166183921087
 31
0.0
  0
LINE
  5
819E
330
19
100
AcDbEntity
  8
1
100
AcDbLine
 10
2659.184653374293
 20
1631.166183921087
 30
0.0
 11
2652.184653374292
 21
1621.166183921087
 31
0.0
  0
LINE
  5
819F
330
19
100
AcDbEntity
  8
1
100
AcDbLine
 10
2090.184653374293
 20
1701.166183921087
 30
0.0
 11
2095.184653374293
 21
1701.166183921087
 31
0.0
  0
LINE
  5
81A0
330
19
100
AcDbEntity
  8
1
100
AcDbLine
 10
2592.184653374293
 20
1701.166183921086
 30
0.0
 11
2592.184653374292
 21
1621.166183921087
 31
0.0
  0
LINE
  5
81A1
330
19
100
AcDbEntity
  8
1
100
AcDbLine
 10
1670.380235827504
 20
2308.745146368498
 30
0.0
 11
857.8802358275043
 21
2308.745146368497
 31
0.0
  0
DIMENSION
  5
81A2
330
19
100
AcDbEntity
  8
3
100
AcDbDimension
280
     0
  2
*D8
 10
2369.184653374292
 20
2142.619623058809
 30
0.0
 11
2514.184653374292
 21
2184.405337344523
 31
0.0
 12
-3895.818498978428
 22
0.0
 32
0.0
 70
    32
  1
(<>)
 71
     5
 42
-1.0
 73
     0
 74
     0
 75
     0
  3
MATSU
100
AcDbAlignedDimension
 13
2659.184653374292
 23
1694.166183921087
 33
0.0
 14
2369.184653374292
 24
2113.644543155978
 34
0.0
100
AcDbRotatedDimension
1001
ACAD
1000
DSTYLE
1002
{
1070
    40
1040
15.0
1002
}
  0
DIMENSION
  5
81A3
330
19
100
AcDbEntity
  8
3
100
AcDbDimension
280
     0
  2
*D9
 10
795.8802358275042
 20
3230.414430334116
 30
0.0
 11
1245.880235827504
 21
3260.414430334116
 31
0.0
 12
-3895.818498978428
 22
0.0
 32
0.0
 70
    32
 71
     5
 42
-1.0
 73
     0
 74
     0
 75
     0
  3
MATSU
100
AcDbAlignedDimension
 13
1695.880235827504
 23
3033.745146368498
 33
0.0
 14
795.8802358275042
 24
3033.745146368498
 34
0.0
100
AcDbRotatedDimension
1001
ACAD
1000
DSTYLE
1002
{
1070
    40
1040
15.0
1002
}
  0
DIMENSION
  5
81A4
330
19
100
AcDbEntity
  8
3
100
AcDbDimension
280
     0
  2
*D10
 10
612.3917316922398
 20
2443.745146368498
 30
0.0
 11
582.3917316922397
 21
2738.745146368497
 31
0.0
 12
-3895.818498978428
 22
0.0
 32
0.0
 70
    32
 71
     5
 42
-1.0
 73
     0
 74
     0
 75
     0
  3
MATSU
100
AcDbAlignedDimension
 13
795.8802358275042
 23
3033.745146368498
 33
0.0
 14
795.8802358275042
 24
2443.745146368498
 34
0.0
 50
270.0
100
AcDbRotatedDimension
1001
ACAD
1000
DSTYLE
1002
{
1070
    40
1040
15.0
1002
}
  0
LINE
  5
81A5
330
19
100
AcDbEntity
  8
1
100
AcDbLine
 10
992.8802358275042
 20
2499.745146368498
 30
0.0
 11
992.8802358275042
 21
2566.245146368498
 31
0.0
  0
LINE
  5
81A6
330
19
100
AcDbEntity
  8
1
100
AcDbLine
 10
1022.880235827504
 20
2499.745146368498
 30
0.0
 11
1022.880235827504
 21
2566.245146368498
 31
0.0
  0
DIMENSION
  5
81A7
330
19
100
AcDbEntity
  8
3
100
AcDbDimension
280
     0
  2
*D11
 10
1899.184653374292
 20
2142.619623058809
 30
0.0
 11
2134.184653374292
 21
2184.405337344523
 31
0.0
 70
    32
  1
(<>)
 71
     5
 42
470.0
 73
     0
 74
     0
 75
     0
  3
MATSU
100
AcDbAlignedDimension
 13
2369.184653374292
 23
2113.644543155978
 33
0.0
 14
1899.184653374292
 24
1856.688434329931
 34
0.0
100
AcDbRotatedDimension
1001
ACAD
1000
DSTYLE
1002
{
1070
   287
1070
     4
1070
    40
1040
15.0
1070
    75
1070
     1
1070
   279
1070
     1
1070
   289
1070
     3
1002
}
  0
LINE
  5
81A8
330
19
100
AcDbEntity
  8
2
100
AcDbLine
 10
1720.958934232432
 20
2778.745146368498
 30
0.0
 11
692.9566803808475
 21
2778.745146368498
 31
0.0
  0
DIMENSION
  5
81A9
330
19
100
AcDbEntity
  8
3
100
AcDbDimension
280
     0
  2
*D12
 10
561.3441927072417
 20
1961.166183921086
 30
0.0
 11
531.3441927072414
 21
1838.666183921087
 31
0.0
 70
    32
 71
     5
 42
-1.0
 73
     0
 74
     0
 75
     0
  3
MATSU
100
AcDbAlignedDimension
 13
732.8864114515563
 23
1716.166183921087
 33
0.0
 14
1005.491405502548
 24
1961.166183921086
 34
0.0
 50
270.0
100
AcDbRotatedDimension
1001
ACAD
1000
DSTYLE
1002
{
1070
   287
1070
     4
1070
    40
1040
15.0
1070
    75
1070
     1
1070
   279
1070
     1
1070
   289
1070
     3
1002
}
  0
LINE
  5
81AB
330
19
100
AcDbEntity
  8
1
100
AcDbLine
 10
2091.184653374292
 20
1551.414475289774
 30
0.0
 11
2091.184653374292
 21
1518.166183921087
 31
0.0
  0
DIMENSION
  5
81AC
330
19
100
AcDbEntity
  8
3
100
AcDbDimension
280
     0
  2
*D13
 10
779.2213315996741
 20
2088.198042495827
 30
0.0
 11
893.5507837135892
 21
2118.198042495828
 31
0.0
 70
    32
  1
226
 71
     5
 42
-1.0
 73
     0
 74
     0
 75
     0
  3
MATSU
100
AcDbAlignedDimension
 13
1007.880235827504
 23
1991.160008297034
 33
0.0
 14
779.2213315996741
 24
1697.401231336396
 34
0.0
100
AcDbRotatedDimension
1001
ACAD
1000
DSTYLE
1002
{
1070
   287
1070
     4
1070
    40
1040
15.0
1070
    75
1070
     1
1070
   279
1070
     1
1070
   289
1070
     3
1002
}
  0
LINE
  5
81AD
330
19
100
AcDbEntity
  8
1
100
AcDbLine
 10
741.8802358275042
 20
2566.245146368498
 30
0.0
 11
741.8802358275042
 21
2991.245146368499
 31
0.0
  0
LINE
  5
81AE
330
19
100
AcDbEntity
  8
1
100
AcDbLine
 10
1358.880235827504
 20
2566.245146368498
 30
0.0
 11
1358.880235827504
 21
2991.245146368499
 31
0.0
  0
LINE
  5
81AF
330
19
100
AcDbEntity
  8
1
100
AcDbLine
 10
1358.880235827504
 20
2991.245146368499
 30
0.0
 11
741.8802358275042
 21
2991.245146368499
 31
0.0
  0
LINE
  5
81B0
330
19
100
AcDbEntity
  8
1
100
AcDbLine
 10
1358.880235827504
 20
2566.245146368498
 30
0.0
 11
741.8802358275042
 21
2566.245146368498
 31
0.0
  0
LINE
  5
81B1
330
19
100
AcDbEntity
  8
1
100
AcDbLine
 10
1033.880235827504
 20
2566.245146368498
 30
0.0
 11
1033.880235827504
 21
2991.245146368499
 31
0.0
  0
LINE
  5
81B2
330
19
100
AcDbEntity
  8
1
100
AcDbLine
 10
1033.880235827504
 20
2991.245146368499
 30
0.0
 11
1358.880235827504
 21
2566.245146368498
 31
0.0
  0
LINE
  5
81B3
330
19
100
AcDbEntity
  8
1
100
AcDbLine
 10
1358.880235827504
 20
2991.245146368499
 30
0.0
 11
1033.880235827504
 21
2566.245146368498
 31
0.0
  0
LINE
  5
81B4
330
19
100
AcDbEntity
  8
1
100
AcDbLine
 10
2131.684653374292
 20
1961.166183921086
 30
0.0
 11
2131.684653374292
 21
1958.166183921087
 31
0.0
  0
LINE
  5
81B5
330
19
100
AcDbEntity
  8
1
100
AcDbLine
 10
2606.684653374292
 20
1961.166183921086
 30
0.0
 11
2606.684653374292
 21
1958.166183921086
 31
0.0
  0
LINE
  5
81B6
330
19
100
AcDbEntity
  8
1
100
AcDbLine
 10
2131.684653374292
 20
1958.166183921087
 30
0.0
 11
2606.684653374292
 21
1958.166183921086
 31
0.0
  0
LINE
  5
81B7
330
19
100
AcDbEntity
  8
1
100
AcDbLine
 10
2156.684653374292
 20
1936.166183921087
 30
0.0
 11
2581.684653374292
 21
1936.166183921087
 31
0.0
  0
LINE
  5
81B8
330
19
100
AcDbEntity
  8
1
100
AcDbLine
 10
795.8802358275042
 20
2991.245146368499
 30
0.0
 11
795.8802358275042
 21
3033.745146368498
 31
0.0
  0
LINE
  5
81BB
330
19
100
AcDbEntity
  8
1
100
AcDbLine
 10
795.8802358275042
 20
1461.166183921087
 30
0.0
 11
1727.880235827504
 21
1461.166183921086
 31
0.0
  0
LINE
  5
81BC
330
19
100
AcDbEntity
  8
1
100
AcDbLine
 10
2034.184653374292
 20
1461.166183921087
 30
0.0
 11
2624.184653374292
 21
1461.166183921087
 31
0.0
  0
INSERT
  5
81BD
330
19
100
AcDbEntity
  8
0
100
AcDbBlockReference
  2
YA_N
 10
11931.98871110506
 20
33.86889786990832
 30
0.0
  0
INSERT
  5
81BE
330
19
100
AcDbEntity
  8
0
100
AcDbBlockReference
  2
YA_N
 10
11931.98871110506
 20
33.86889786990832
 30
0.0
  0
INSERT
  5
81BF
330
19
100
AcDbEntity
  8
0
100
AcDbBlockReference
  2
YA_N
 10
13578.0991414235
 20
382.7287100591363
 30
0.0
  0
INSERT
  5
81C0
330
19
100
AcDbEntity
  8
0
100
AcDbBlockReference
  2
YA_N
 10
11716.58507443569
 20
-1415.615110375578
 30
0.0
 41
10.0
 42
10.0
 43
10.0
  0
INSERT
  5
81C1
330
19
100
AcDbEntity
  8
0
100
AcDbBlockReference
  2
YA_N
 10
11716.58507443569
 20
-1415.615110375578
 30
0.0
 41
10.0
 42
10.0
 43
10.0
  0
INSERT
  5
81C2
330
19
100
AcDbEntity
  8
0
  6
ByBlock
 62
     2
100
AcDbBlockReference
  2
YA_N
 10
13087.89875312264
 20
-366.2297858785771
 30
0.0
 41
30.0
 42
30.0
 43
30.0
 50
90.0
  0
INSERT
  5
81C3
330
19
100
AcDbEntity
  8
0
  6
ByBlock
 62
     2
100
AcDbBlockReference
  2
YA_N
 10
13087.89875312264
 20
-366.2297858785771
 30
0.0
 41
30.0
 42
30.0
 43
30.0
 50
90.0
  0
ARC
  5
81C4
330
19
100
AcDbEntity
  8
1
100
AcDbCircle
 10
1527.880235827504
 20
1668.166183921087
 30
0.0
 40
150.0
100
AcDbArc
 50
264.7261040426482
 51
84.72610404264822
  0
CIRCLE
  5
81C5
330
19
100
AcDbEntity
  8
1
100
AcDbCircle
 10
1527.880235827504
 20
1668.166183921087
 30
0.0
 40
75.0
  0
LINE
  5
81C6
330
19
100
AcDbEntity
  8
1
100
AcDbLine
 10
1692.880235827504
 20
1536.166183921087
 30
0.0
 11
1362.880235827504
 21
1536.166183921086
 31
0.0
  0
ARC
  5
81C7
330
19
100
AcDbEntity
  8
1
100
AcDbCircle
 10
1527.880235827504
 20
1668.166183921087
 30
0.0
 40
142.5
100
AcDbArc
 50
180.0
 51
244.787
  0
ARC
  5
81C8
330
19
100
AcDbEntity
  8
1
100
AcDbCircle
 10
1527.880235827504
 20
1668.166183921087
 30
0.0
 40
142.5
100
AcDbArc
 50
295.1874
 51
180.0
  0
LINE
  5
81C9
330
19
100
AcDbEntity
  8
1
100
AcDbLine
 10
1467.338935827504
 20
1539.166183921087
 30
0.0
 11
1588.421535827504
 21
1539.166183921087
 31
0.0
  0
LINE
  5
81CA
330
19
100
AcDbEntity
  8
1
100
AcDbLine
 10
1397.880235827504
 20
1536.166183921087
 30
0.0
 11
1447.880235827504
 21
1536.166183921087
 31
0.0
  0
LINE
  5
81CB
330
19
100
AcDbEntity
  8
1
100
AcDbLine
 10
1408.354635827504
 20
1590.257483921087
 30
0.0
 11
1397.880235827504
 21
1551.166183921087
 31
0.0
  0
LINE
  5
81CC
330
19
100
AcDbEntity
  8
1
100
AcDbLine
 10
1397.880235827504
 20
1550.968783921087
 30
0.0
 11
1397.880235827504
 21
1536.166183921087
 31
0.0
  0
LINE
  5
81CD
330
19
100
AcDbEntity
  8
1
100
AcDbLine
 10
1657.880235827504
 20
1536.166183921087
 30
0.0
 11
1607.880235827504
 21
1536.166183921087
 31
0.0
  0
LINE
  5
81CE
330
19
100
AcDbEntity
  8
1
100
AcDbLine
 10
1647.363035827504
 20
1590.416783921087
 30
0.0
 11
1657.880235827504
 21
1551.166183921087
 31
0.0
  0
LINE
  5
81CF
330
19
100
AcDbEntity
  8
1
100
AcDbLine
 10
1657.880235827504
 20
1550.968783921087
 30
0.0
 11
1657.880235827504
 21
1536.166183921087
 31
0.0
  0
LINE
  5
81D0
330
19
100
AcDbEntity
  8
1
100
AcDbLine
 10
2479.732699545627
 20
1810.166183921087
 30
0.0
 11
2127.732999545627
 21
1810.166183921087
 31
0.0
  0
LINE
  5
81D1
330
19
100
AcDbEntity
  8
1
100
AcDbLine
 10
2479.732699545627
 20
1536.166183921087
 30
0.0
 11
2127.732999545627
 21
1536.166183921087
 31
0.0
  0
LINE
  5
81D2
330
19
100
AcDbEntity
  8
1
100
AcDbLine
 10
2479.732699545627
 20
1810.166183921087
 30
0.0
 11
2479.732699545627
 21
1536.166183921086
 31
0.0
  0
LINE
  5
81D3
330
19
100
AcDbEntity
  8
1
100
AcDbLine
 10
2127.732999545628
 20
1810.166183921087
 30
0.0
 11
2127.732999545628
 21
1536.166183921087
 31
0.0
  0
LINE
  5
81D4
330
19
100
AcDbEntity
  8
1
100
AcDbLine
 10
2117.732999545628
 20
1610.166183921087
 30
0.0
 11
2117.732999545628
 21
1726.166183921087
 31
0.0
  0
LINE
  5
81D5
330
19
100
AcDbEntity
  8
1
100
AcDbLine
 10
2127.732999545628
 20
1609.166183921087
 30
0.0
 11
2118.732999545628
 21
1609.166183921087
 31
0.0
  0
ARC
  5
81D6
330
19
100
AcDbEntity
  8
1
100
AcDbCircle
 10
2118.732999545628
 20
1610.166183921087
 30
0.0
 40
0.9999
100
AcDbArc
 50
179.9965
 51
270.007
  0
LINE
  5
81D7
330
19
100
AcDbEntity
  8
1
100
AcDbLine
 10
2093.732999545628
 20
1690.166183921087
 30
0.0
 11
2059.184653374292
 21
1690.166183921087
 31
0.0
  0
LINE
  5
81D8
330
19
100
AcDbEntity
  8
1
100
AcDbLine
 10
2110.732999545628
 20
1649.166183921087
 30
0.0
 11
2059.184653374292
 21
1649.166183921086
 31
0.0
  0
LINE
  5
81D9
330
19
100
AcDbEntity
  8
1
100
AcDbLine
 10
2110.732999545628
 20
1687.166183921087
 30
0.0
 11
2059.184653374292
 21
1687.166183921086
 31
0.0
  0
LINE
  5
81DA
330
19
100
AcDbEntity
  8
1
100
AcDbLine
 10
2127.732999545628
 20
1727.166183921087
 30
0.0
 11
2118.732999545628
 21
1727.166183921087
 31
0.0
  0
LINE
  5
81DB
330
19
100
AcDbEntity
  8
1
100
AcDbLine
 10
2110.732999545628
 20
1648.166183921087
 30
0.0
 11
2110.732999545628
 21
1688.166183921087
 31
0.0
  0
LINE
  5
81DC
330
19
100
AcDbEntity
  8
1
100
AcDbLine
 10
2117.732999545628
 20
1648.166183921087
 30
0.0
 11
2110.732999545628
 21
1648.166183921087
 31
0.0
  0
LINE
  5
81DD
330
19
100
AcDbEntity
  8
1
100
AcDbLine
 10
2117.732999545628
 20
1688.166183921087
 30
0.0
 11
2110.732999545628
 21
1688.166183921087
 31
0.0
  0
LINE
  5
81DE
330
19
100
AcDbEntity
  8
1
100
AcDbLine
 10
2093.732999545628
 20
1687.166183921087
 30
0.0
 11
2093.732999545628
 21
1690.166183921087
 31
0.0
  0
ARC
  5
81DF
330
19
100
AcDbEntity
  8
1
100
AcDbCircle
 10
2118.731999545627
 20
1726.166183921087
 30
0.0
 40
0.9998000000000001
100
AcDbArc
 50
89.98600000000001
 51
180.007
  0
LINE
  5
81E0
330
19
100
AcDbEntity
  8
1
100
AcDbLine
 10
1727.880235827504
 20
1501.166183921086
 30
0.0
 11
1327.880235827504
 21
1501.166183921086
 31
0.0
  0
LINE
  5
81E1
330
19
100
AcDbEntity
  8
1
100
AcDbLine
 10
1727.880235827504
 20
1501.166183921086
 30
0.0
 11
1727.880235827504
 21
1461.166183921086
 31
0.0
  0
LINE
  5
81E2
330
19
100
AcDbEntity
  8
1
100
AcDbLine
 10
1327.880235827504
 20
1501.166183921086
 30
0.0
 11
1327.880235827504
 21
1461.166183921086
 31
0.0
  0
LINE
  5
81E3
330
19
100
AcDbEntity
  8
1
100
AcDbLine
 10
1692.880235827504
 20
1536.166183921087
 30
0.0
 11
1702.880235827504
 21
1501.166183921086
 31
0.0
  0
LINE
  5
81E4
330
19
100
AcDbEntity
  8
1
100
AcDbLine
 10
1362.880235827504
 20
1536.166183921087
 30
0.0
 11
1352.880235827504
 21
1501.166183921086
 31
0.0
  0
LINE
  5
81E5
330
19
100
AcDbEntity
  8
1
100
AcDbLine
 10
1385.880235827504
 20
2883.633260570844
 30
0.0
 11
1659.880235827504
 21
2883.633260570844
 31
0.0
  0
LINE
  5
81E6
330
19
100
AcDbEntity
  8
1
100
AcDbLine
 10
1385.880235827504
 20
2531.633560570845
 30
0.0
 11
1659.880235827504
 21
2531.633560570845
 31
0.0
  0
LINE
  5
81E7
330
19
100
AcDbEntity
  8
1
100
AcDbLine
 10
1585.880235827504
 20
2521.633560570845
 30
0.0
 11
1469.880235827504
 21
2521.633560570845
 31
0.0
  0
LINE
  5
81E8
330
19
100
AcDbEntity
  8
1
100
AcDbLine
 10
1659.880235827504
 20
2883.633260570844
 30
0.0
 11
1659.880235827504
 21
2531.633560570844
 31
0.0
  0
LINE
  5
81E9
330
19
100
AcDbEntity
  8
1
100
AcDbLine
 10
1586.880235827504
 20
2531.633560570845
 30
0.0
 11
1586.880235827504
 21
2522.633560570845
 31
0.0
  0
ARC
  5
81EA
330
19
100
AcDbEntity
  8
1
100
AcDbCircle
 10
1585.880235827504
 20
2522.633560570845
 30
0.0
 40
0.9999
100
AcDbArc
 50
269.9965
 51
0.0069999999999659
  0
LINE
  5
81EB
330
19
100
AcDbEntity
  8
1
100
AcDbLine
 10
1385.880235827504
 20
2883.633260570844
 30
0.0
 11
1385.880235827504
 21
2531.633560570844
 31
0.0
  0
LINE
  5
81EC
330
19
100
AcDbEntity
  8
2
100
AcDbLine
 10
1527.880235827504
 20
2922.865116638668
 30
0.0
 11
1527.880235827504
 21
2398.647762544453
 31
0.0
  0
LINE
  5
81ED
330
19
100
AcDbEntity
  8
1
100
AcDbLine
 10
1546.880235827504
 20
2514.633560570845
 30
0.0
 11
1546.880235827504
 21
2468.745146368498
 31
0.0
  0
LINE
  5
81EE
330
19
100
AcDbEntity
  8
1
100
AcDbLine
 10
1508.880235827504
 20
2514.633560570845
 30
0.0
 11
1508.880235827504
 21
2468.745146368498
 31
0.0
  0
LINE
  5
81EF
330
19
100
AcDbEntity
  8
1
100
AcDbLine
 10
1508.880235827504
 20
2497.633560570845
 30
0.0
 11
1505.880235827504
 21
2497.633560570845
 31
0.0
  0
LINE
  5
81F0
330
19
100
AcDbEntity
  8
1
100
AcDbLine
 10
1505.880235827504
 20
2497.633560570845
 30
0.0
 11
1505.880235827504
 21
2468.745146368498
 31
0.0
  0
LINE
  5
81F1
330
19
100
AcDbEntity
  8
1
100
AcDbLine
 10
1547.880235827504
 20
2514.633560570845
 30
0.0
 11
1507.880235827504
 21
2514.633560570845
 31
0.0
  0
LINE
  5
81F2
330
19
100
AcDbEntity
  8
1
100
AcDbLine
 10
1547.880235827504
 20
2521.633560570845
 30
0.0
 11
1547.880235827504
 21
2514.633560570845
 31
0.0
  0
LINE
  5
81F3
330
19
100
AcDbEntity
  8
1
100
AcDbLine
 10
1507.880235827504
 20
2521.633560570845
 30
0.0
 11
1507.880235827504
 21
2514.633560570845
 31
0.0
  0
LINE
  5
81F4
330
19
100
AcDbEntity
  8
1
100
AcDbLine
 10
1468.880235827504
 20
2531.633560570845
 30
0.0
 11
1468.880235827504
 21
2522.633560570845
 31
0.0
  0
ARC
  5
81F5
330
19
100
AcDbEntity
  8
1
100
AcDbCircle
 10
1469.880235827504
 20
2522.632560570845
 30
0.0
 40
0.9998000000000001
100
AcDbArc
 50
179.986
 51
270.007
  0
ARC
  5
81F6
330
19
100
AcDbEntity
  8
1
100
AcDbCircle
 10
1007.880235827504
 20
1716.166183921087
 30
0.0
 40
150.0
100
AcDbArc
 50
84.72610404264822
 51
264.7261040426482
  0
CIRCLE
  5
81F7
330
19
100
AcDbEntity
  8
1
100
AcDbCircle
 10
1007.880235827504
 20
1716.166183921087
 30
0.0
 40
75.0
  0
LINE
  5
81F8
330
19
100
AcDbEntity
  8
1
100
AcDbLine
 10
1541.667774460061
 20
1817.531185773782
 30
0.0
 11
1021.667774460061
 21
1865.531185773782
 31
0.0
  0
LINE
  5
81F9
330
19
100
AcDbEntity
  8
1
100
AcDbLine
 10
1514.092697194947
 20
1518.801182068391
 30
0.0
 11
994.0926971949474
 21
1566.801182068391
 31
0.0
  0
LINE
  5
81FA
330
19
100
AcDbEntity
  8
1
100
AcDbLine
 10
1534.774005143782
 20
1742.848684847434
 30
0.0
 11
1014.774005143782
 21
1790.848684847435
 31
0.0
  0
LINE
  5
81FB
330
19
100
AcDbEntity
  8
1
100
AcDbLine
 10
1520.986466511226
 20
1593.483682994739
 30
0.0
 11
1000.986466511226
 21
1641.483682994739
 31
0.0
  0
DIMENSION
  5
81FC
330
19
100
AcDbEntity
  8
3
100
AcDbDimension
280
     0
  2
*D14
 10
1727.880235827504
 20
2173.980917796553
 30
0.0
 11
1306.746357572734
 21
2173.980917796553
 31
0.0
 70
   160
 71
     5
 42
-1.0
 73
     0
 74
     0
 75
     0
  3
IGA
100
AcDbAlignedDimension
 13
779.2213315996741
 23
1697.401231336396
 33
0.0
 14
1727.880235827504
 24
1501.166183921086
 34
0.0
100
AcDbRotatedDimension
1001
ACAD
1000
DSTYLE
1002
{
1070
   287
1070
     3
1070
    40
1040
15.0
1070
   143
1040
0.039
1070
   172
1070
     1
1070
   271
1070
     0
1070
   279
1070
     0
1070
   288
1070
     1
1002
}
  0
LINE
  5
81FD
330
19
100
AcDbEntity
  8
2
100
AcDbLine
 10
2503.478412710181
 20
1668.166183921087
 30
0.0
 11
1856.865953084058
 21
1668.166183921087
 31
0.0
  0
LINE
  5
81FE
330
19
100
AcDbEntity
  8
1
100
AcDbLine
 10
1999.184653374292
 20
1791.166183921086
 30
0.0
 11
1999.184653374292
 21
1593.166183921087
 31
0.0
  0
LINE
  5
81FF
330
19
100
AcDbEntity
  8
1
100
AcDbLine
 10
2059.184653374292
 20
1791.166183921087
 30
0.0
 11
2059.184653374292
 21
1593.166183921087
 31
0.0
  0
LINE
  5
8200
330
19
100
AcDbEntity
  8
1
100
AcDbLine
 10
2091.184653374292
 20
1866.166183921087
 30
0.0
 11
2091.184653374292
 21
1826.997221541867
 31
0.0
  0
LINE
  5
8201
330
19
100
AcDbEntity
  8
1
100
AcDbLine
 10
1899.184653374292
 20
1866.166183921087
 30
0.0
 11
2091.184653374292
 21
1866.166183921087
 31
0.0
  0
LINE
  5
8202
330
19
100
AcDbEntity
  8
1
100
AcDbLine
 10
1899.184653374292
 20
1518.166183921087
 30
0.0
 11
2091.184653374292
 21
1518.166183921087
 31
0.0
  0
LINE
  5
8203
330
19
100
AcDbEntity
  8
1
100
AcDbLine
 10
1999.184653374292
 20
1791.166183921087
 30
0.0
 11
2059.184653374292
 21
1791.166183921087
 31
0.0
  0
LINE
  5
8204
330
19
100
AcDbEntity
  8
1
100
AcDbLine
 10
1999.184653374292
 20
1593.166183921086
 30
0.0
 11
2059.184653374292
 21
1593.166183921087
 31
0.0
  0
LINE
  5
8205
330
19
100
AcDbEntity
  8
1
100
AcDbLine
 10
1999.184653374292
 20
1743.166183921086
 30
0.0
 11
2059.184653374292
 21
1743.166183921086
 31
0.0
  0
LINE
  5
8206
330
19
100
AcDbEntity
  8
1
100
AcDbLine
 10
1999.184653374292
 20
1641.166183921087
 30
0.0
 11
2059.184653374293
 21
1641.166183921087
 31
0.0
  0
LINE
  5
8207
330
19
100
AcDbEntity
  8
1
100
AcDbLine
 10
2076.184653374292
 20
1649.166183921087
 30
0.0
 11
2076.184653374292
 21
1631.166183921087
 31
0.0
  0
LINE
  5
8208
330
19
100
AcDbEntity
  8
1
100
AcDbLine
 10
2404.732999545628
 20
1536.166183921087
 30
0.0
 11
2404.732999545628
 21
1461.166183921087
 31
0.0
  0
LINE
  5
8209
330
19
100
AcDbEntity
  8
1
100
AcDbLine
 10
2134.732999545628
 20
1536.166183921087
 30
0.0
 11
2134.732999545628
 21
1461.166183921087
 31
0.0
  0
LINE
  5
820A
330
19
100
AcDbEntity
  8
1
100
AcDbLine
 10
2134.732999545627
 20
1501.166183921087
 30
0.0
 11
2404.732999545628
 21
1501.166183921087
 31
0.0
  0
LINE
  5
820B
330
19
100
AcDbEntity
  8
1
100
AcDbLine
 10
1602.880235827504
 20
2408.745146368497
 30
0.0
 11
1452.880235827504
 21
2408.745146368497
 31
0.0
  0
LINE
  5
820C
330
19
100
AcDbEntity
  8
1
100
AcDbLine
 10
1602.880235827504
 20
2468.745146368498
 30
0.0
 11
1452.880235827504
 21
2468.745146368498
 31
0.0
  0
LINE
  5
820D
330
19
100
AcDbEntity
  8
1
100
AcDbLine
 10
1670.380235827504
 20
2500.745146368498
 30
0.0
 11
857.8802358275043
 21
2500.745146368498
 31
0.0
  0
LINE
  5
820E
330
19
100
AcDbEntity
  8
1
100
AcDbLine
 10
857.8802358275043
 20
2308.745146368497
 30
0.0
 11
857.8802358275043
 21
2500.745146368498
 31
0.0
  0
LINE
  5
820F
330
19
100
AcDbEntity
  8
1
100
AcDbLine
 10
1670.380235827504
 20
2308.745146368498
 30
0.0
 11
1670.380235827504
 21
2500.745146368498
 31
0.0
  0
LINE
  5
8210
330
19
100
AcDbEntity
  8
1
100
AcDbLine
 10
932.8802358275043
 20
2408.745146368497
 30
0.0
 11
932.8802358275043
 21
2468.745146368498
 31
0.0
  0
LINE
  5
8211
330
19
100
AcDbEntity
  8
1
100
AcDbLine
 10
1602.880235827504
 20
2408.745146368497
 30
0.0
 11
1602.880235827504
 21
2468.745146368498
 31
0.0
  0
LINE
  5
8212
330
19
100
AcDbEntity
  8
1
100
AcDbLine
 10
1082.880235827504
 20
2408.745146368497
 30
0.0
 11
1082.880235827504
 21
2468.745146368498
 31
0.0
  0
LINE
  5
8213
330
19
100
AcDbEntity
  8
1
100
AcDbLine
 10
1452.880235827504
 20
2408.745146368497
 30
0.0
 11
1452.880235827504
 21
2468.745146368498
 31
0.0
  0
LINE
  5
8214
330
19
100
AcDbEntity
  8
1
100
AcDbLine
 10
1082.880235827504
 20
2468.745146368498
 30
0.0
 11
932.8802358275043
 21
2468.745146368498
 31
0.0
  0
LINE
  5
8215
330
19
100
AcDbEntity
  8
1
100
AcDbLine
 10
1082.880235827504
 20
2408.745146368497
 30
0.0
 11
932.8802358275043
 21
2408.745146368497
 31
0.0
  0
DIMENSION
  5
847F
330
19
100
AcDbEntity
  8
3
100
AcDbDimension
280
     0
  2
*D16
 10
1007.880235827504
 20
1283.570504644715
 30
0.0
 11
901.8802358275042
 21
1321.070504644715
 31
0.0
 70
    32
 71
     5
 42
-1.0
 73
     0
 74
     0
 75
     0
  3
IGA
100
AcDbAlignedDimension
 13
795.8802358275042
 23
1386.166183921087
 33
0.0
 14
1007.880235827504
 24
1386.166183921087
 34
0.0
100
AcDbRotatedDimension
1001
ACAD
1000
DSTYLE
1002
{
1070
   172
1070
     1
1070
    40
1040
15.0
1070
   271
1070
     0
1070
   143
1040
0.039
1002
}
  0
DIMENSION
  5
848C
330
19
100
AcDbEntity
  8
3
100
AcDbDimension
280
     0
  2
*D17
 10
1695.880235827504
 20
1283.570504644715
 30
0.0
 11
1351.880235827504
 21
1321.070504644715
 31
0.0
 70
    32
 71
     5
 42
-1.0
 73
     0
 74
     0
 75
     0
  3
IGA
100
AcDbAlignedDimension
 13
1007.880235827504
 23
1386.166183921087
 33
0.0
 14
1695.880235827504
 24
1386.166183921087
 34
0.0
100
AcDbRotatedDimension
1001
ACAD
1000
DSTYLE
1002
{
1070
   172
1070
     1
1070
    40
1040
15.0
1070
   271
1070
     0
1070
   143
1040
0.039
1002
}
  0
DIMENSION
  5
8499
330
19
100
AcDbEntity
  8
3
100
AcDbDimension
280
     0
  2
*D18
 10
2369.184653374292
 20
1283.570504644715
 30
0.0
 11
2201.684653374292
 21
1321.070504644715
 31
0.0
 70
    32
 71
     5
 42
-1.0
 73
     0
 74
     0
 75
     0
  3
IGA
100
AcDbAlignedDimension
 13
2034.184653374292
 23
1386.166183921087
 33
0.0
 14
2369.184653374292
 24
1386.166183921087
 34
0.0
100
AcDbRotatedDimension
1001
ACAD
1000
DSTYLE
1002
{
1070
   172
1070
     1
1070
    40
1040
15.0
1070
   271
1070
     0
1070
   143
1040
0.039
1002
}
  0
DIMENSION
  5
84A6
330
19
100
AcDbEntity
  8
3
100
AcDbDimension
280
     0
  2
*D19
 10
2624.184653374292
 20
1283.570504644715
 30
0.0
 11
2496.684653374292
 21
1321.070504644715
 31
0.0
 70
    32
 71
     5
 42
-1.0
 73
     0
 74
     0
 75
     0
  3
IGA
100
AcDbAlignedDimension
 13
2369.184653374292
 23
1386.166183921087
 33
0.0
 14
2624.184653374292
 24
1386.166183921087
 34
0.0
100
AcDbRotatedDimension
1001
ACAD
1000
DSTYLE
1002
{
1070
   172
1070
     1
1070
    40
1040
15.0
1070
   271
1070
     0
1070
   143
1040
0.039
1002
}
  0
DIMENSION
  5
84B3
330
19
100
AcDbEntity
  8
3
100
AcDbDimension
280
     0
  2
*D20
 10
462.9459264419875
 20
1386.166183921087
 30
0.0
 11
425.4459264419875
 21
1673.666183921087
 31
0.0
 70
    32
 71
     5
 42
-1.0
 73
     0
 74
     0
 75
     0
  3
IGA
100
AcDbAlignedDimension
 13
1005.491405502548
 23
1961.166183921086
 33
0.0
 14
795.8802358275042
 24
1386.166183921087
 34
0.0
 50
90.0
100
AcDbRotatedDimension
1001
ACAD
1000
DSTYLE
1002
{
1070
   172
1070
     1
1070
    40
1040
15.0
1070
   271
1070
     0
1070
   143
1040
0.039
1002
}
  0
LWPOLYLINE
  5
84B8
330
19
100
AcDbEntity
  8
1
100
AcDbPolyline
 90
        3
 70
     0
 43
0.0
 10
1358.880235827504
 20
1961.166183921086
 10
1331.472661532113
 20
1716.0078296881
 42
-0.2846394214926808
 10
1143.675797540921
 20
1461.166183921087
 42
-0.4468309864143491
  0
LWPOLYLINE
  5
84BD
330
19
100
AcDbEntity
  8
1
100
AcDbPolyline
 90
        4
 70
     0
 43
0.0
 10
933.7257237438816
 20
1461.166183921087
 42
-0.3337803246909834
 10
781.4040591316443
 20
1730.880747964081
 42
-0.3826939024088523
 10
989.3802358275033
 20
1907.376660127336
 42
-0.0652413708697207
 10
1033.880235827504
 20
1901.54535755096
 42
-0.1475914163848442
  0
ENDSEC
  0
SECTION
  2
OBJECTS
  0
DICTIONARY
  5
C
330
0
100
AcDbDictionary
281
     1
  3
ACAD_CIP_PREVIOUS_PRODUCT_INFO
350
8582
  3
ACAD_COLOR
350
8565
  3
ACAD_DETAILVIEWSTYLE
350
857E
  3
ACAD_GROUP
350
D
  3
ACAD_LAYOUT
350
84C7
  3
ACAD_MATERIAL
350
8533
  3
ACAD_MLEADERSTYLE
350
857A
  3
ACAD_MLINESTYLE
350
E
  3
ACAD_PLOTSETTINGS
350
84C8
  3
ACAD_PLOTSTYLENAME
350
84C5
  3
ACAD_SCALELIST
350
8568
  3
ACAD_SECTIONVIEWSTYLE
350
857C
  3
ACAD_TABLESTYLE
350
8566
  3
ACAD_VISUALSTYLE
350
854C
  3
ACDB_RECOMPOSE_DATA
350
85CA
  3
AcDbVariableDictionary
350
85B9
  3
AcDsDecomposeData
350
85D0
  0
DICTIONARY
  5
85AD
330
2
100
AcDbDictionary
280
     1
281
     1
  3
ACAD_LAYERSTATES
360
85AE
  0
DICTIONARY
  5
85A0
330
F
100
AcDbDictionary
280
     1
281
     1
  3
ADSK_XREC_LAYER_RECONCILED
360
85A1
  0
DICTIONARY
  5
85A2
330
31
100
AcDbDictionary
280
     1
281
     1
  3
ADSK_XREC_LAYER_RECONCILED
360
85A3
  0
DICTIONARY
  5
85A4
330
76D0
100
AcDbDictionary
280
     1
281
     1
  3
ADSK_XREC_LAYER_RECONCILED
360
85A5
  0
DICTIONARY
  5
85A6
330
76D1
100
AcDbDictionary
280
     1
281
     1
  3
ADSK_XREC_LAYER_RECONCILED
360
85A7
  0
DICTIONARY
  5
85A8
330
76D2
100
AcDbDictionary
280
     1
281
     1
  3
ADSK_XREC_LAYER_RECONCILED
360
85A9
  0
DICTIONARY
  5
84F4
330
19
100
AcDbDictionary
280
     1
281
     1
  3
ACAD_LAYOUTSELFREF
360
84F5
  3
ACAD_SORTENTS
360
8584
  0
DICTIONARY
  5
84F2
330
16
100
AcDbDictionary
280
     1
281
     1
  3
ACAD_LAYOUTSELFREF
360
84F3
  0
XRECORD
  5
8582
102
{ACAD_REACTORS
330
C
102
}
330
C
100
AcDbXrecord
280
     1
300
ACDLT
300
2023
300

  0
DICTIONARY
  5
8565
102
{ACAD_REACTORS
330
C
102
}
330
C
100
AcDbDictionary
281
     1
  0
DICTIONARY
  5
857E
102
{ACAD_REACTORS
330
C
102
}
330
C
100
AcDbDictionary
281
     1
  3
Metric50
350
857F
  0
DICTIONARY
  5
D
102
{ACAD_REACTORS
330
C
102
}
330
C
100
AcDbDictionary
281
     1
  0
DICTIONARY
  5
84C7
102
{ACAD_REACTORS
330
C
102
}
330
C
100
AcDbDictionary
281
     1
  3
Model
350
84C9
  3
ﾚｲｱｳﾄ1
350
84CA
  0
DICTIONARY
  5
8533
102
{ACAD_REACTORS
330
C
102
}
330
C
100
AcDbDictionary
281
     1
  3
ByBlock
350
853C
  3
ByLayer
350
8534
  3
Global
350
8544
  0
DICTIONARY
  5
857A
102
{ACAD_REACTORS
330
C
102
}
330
C
100
AcDbDictionary
281
     1
  3
Standard
350
857B
  0
DICTIONARY
  5
E
102
{ACAD_REACTORS
330
C
102
}
330
C
100
AcDbDictionary
281
     1
  3
STANDARD
350
1C
  0
DICTIONARY
  5
84C8
102
{ACAD_REACTORS
330
C
102
}
330
C
100
AcDbDictionary
281
     1
  0
ACDBDICTIONARYWDFLT
  5
84C5
102
{ACAD_REACTORS
330
C
102
}
330
C
100
AcDbDictionary
281
     1
  3
Normal
350
84C6
100
AcDbDictionaryWithDefault
340
84C6
  0
DICTIONARY
  5
8568
102
{ACAD_REACTORS
330
C
102
}
330
C
100
AcDbDictionary
281
     1
  3
A0
350
8569
  3
A1
350
856A
  3
A2
350
856B
  3
A3
350
856C
  3
A4
350
856D
  3
A5
350
856E
  3
A6
350
856F
  3
A7
350
8570
  3
A8
350
8571
  3
A9
350
8572
  3
B0
350
8573
  3
B1
350
8574
  3
B2
350
8575
  3
B3
350
8576
  3
B4
350
8577
  3
B5
350
8578
  3
B6
350
8579
  0
DICTIONARY
  5
857C
102
{ACAD_REACTORS
330
C
102
}
330
C
100
AcDbDictionary
281
     1
  3
Metric50
350
857D
  0
DICTIONARY
  5
8566
102
{ACAD_REACTORS
330
C
102
}
330
C
100
AcDbDictionary
281
     1
  3
Standard
350
8567
  0
DICTIONARY
  5
854C
102
{ACAD_REACTORS
330
C
102
}
330
C
100
AcDbDictionary
281
     1
  3
2dWireframe
350
8552
  3
Basic
350
8551
  3
Brighten
350
8558
  3
ColorChange
350
855C
  3
Conceptual
350
8555
  3
Dim
350
8557
  3
EdgeColorOff
350
8564
  3
Facepattern
350
855B
  3
Flat
350
854D
  3
FlatWithEdges
350
854E
  3
Gouraud
350
854F
  3
GouraudWithEdges
350
8550
  3
Hidden
350
8554
  3
JitterOff
350
8562
  3
Linepattern
350
855A
  3
OverhangOff
350
8563
  3
Realistic
350
8556
  3
Shaded
350
8561
  3
Shaded with edges
350
8560
  3
Shades of Gray
350
855D
  3
Sketchy
350
855E
  3
Thicken
350
8559
  3
Wireframe
350
8553
  3
X-Ray
350
855F
  0
XRECORD
  5
85CA
102
{ACAD_REACTORS
330
C
102
}
330
C
100
AcDbXrecord
280
     1
 90
        1
330
81A7
330
81A9
330
81AC
330
8567
  0
DICTIONARY
  5
85B9
102
{ACAD_REACTORS
330
C
102
}
330
C
100
AcDbDictionary
281
     1
  3
CANNOSCALE
350
85BF
  3
CMLEADERSTYLE
350
85BB
  3
CTABLESTYLE
350
85BA
  3
CVIEWDETAILSTYLE
350
85BC
  3
CVIEWSECTIONSTYLE
350
85BD
  3
LAYEREVAL
350
85C1
  3
LAYERNOTIFY
350
85C2
  3
LIGHTINGUNITS
350
85C0
  3
MARKUPASSISTMODE
350
85C7
  3
MSLTSCALE
350
85BE
  0
DICTIONARY
  5
85D0
102
{ACAD_REACTORS
330
C
102
}
330
C
100
AcDbDictionary
281
     1
  3
AcDsRecords
350
85D2
  3
AcDsSchemas
350
85D1
1001
ACAD
1070
     2
  0
DICTIONARY
  5
85AE
102
{ACAD_REACTORS
330
85AD
102
}
330
85AD
100
AcDbDictionary
281
     1
  0
XRECORD
  5
85A1
102
{ACAD_REACTORS
330
85A0
102
}
330
85A0
100
AcDbXrecord
280
     1
290
     1
  0
XRECORD
  5
85A3
102
{ACAD_REACTORS
330
85A2
102
}
330
85A2
100
AcDbXrecord
280
     1
290
     1
  0
XRECORD
  5
85A5
102
{ACAD_REACTORS
330
85A4
102
}
330
85A4
100
AcDbXrecord
280
     1
290
     1
  0
XRECORD
  5
85A7
102
{ACAD_REACTORS
330
85A6
102
}
330
85A6
100
AcDbXrecord
280
     1
290
     1
  0
XRECORD
  5
85A9
102
{ACAD_REACTORS
330
85A8
102
}
330
85A8
100
AcDbXrecord
280
     1
290
     1
  0
XRECORD
  5
84F5
102
{ACAD_REACTORS
330
84F4
102
}
330
84F4
100
AcDbXrecord
280
     1
340
19
  0
SORTENTSTABLE
  5
8584
102
{ACAD_REACTORS
330
84F4
102
}
330
84F4
100
AcDbSortentsTable
330
19
331
8178
  5
8179
331
8179
  5
817C
331
817C
  5
817D
331
817D
  5
8180
331
8180
  5
8181
331
8181
  5
8184
331
8184
  5
8185
331
8185
  5
8186
331
8186
  5
8187
331
8187
  5
8188
331
8188
  5
8189
331
8189
  5
818A
331
818A
  5
818B
331
818B
  5
818C
331
818C
  5
818D
331
818D
  5
818E
331
818E
  5
818F
331
818F
  5
8190
331
8190
  5
8191
331
8191
  5
8198
331
8198
  5
8199
331
8199
  5
819A
331
819A
  5
819B
331
819B
  5
819C
331
819C
  5
819D
331
819D
  5
819E
331
819E
  5
819F
331
819F
  5
81A0
331
81A0
  5
81A1
331
81A1
  5
81A2
331
81A2
  5
81A3
331
81A3
  5
81A4
331
81A4
  5
81A5
331
81A5
  5
81A6
331
81A6
  5
81A7
331
81A7
  5
81A8
331
81A8
  5
81A9
331
81A9
  5
81AB
331
81AB
  5
81AC
331
81AC
  5
81AD
331
81AD
  5
81AE
331
81AE
  5
81AF
331
81AF
  5
81B0
331
81B0
  5
81B1
331
81B1
  5
81B2
331
81B2
  5
81B3
331
81B3
  5
81B4
331
81B4
  5
81B5
331
81B5
  5
81B6
331
81B6
  5
81B7
331
81B7
  5
81B8
331
81B8
  5
81BB
331
81BB
  5
81BC
331
81BC
  5
81BD
331
81BD
  5
81BE
331
81BE
  5
81BF
331
81BF
  5
81C0
331
81C0
  5
81C1
331
81C1
  5
81C2
331
81C2
  5
81C3
331
81C3
  5
81C4
331
81C4
  5
81C5
331
81C5
  5
81C6
331
81C6
  5
81C7
331
81C7
  5
81C8
331
81C8
  5
81C9
331
81C9
  5
81CA
331
81CA
  5
81CB
331
81CB
  5
81CC
331
81CC
  5
81CD
331
81CD
  5
81CE
331
81CE
  5
81CF
331
81CF
  5
81D0
331
81D0
  5
81D1
331
81D1
  5
81D2
331
81D2
  5
81D3
331
81D3
  5
81D4
331
81D4
  5
81D5
331
81D5
  5
81D6
331
81D6
  5
81D7
331
81D7
  5
81D8
331
81D8
  5
81D9
331
81D9
  5
81DA
331
81DA
  5
81DB
331
81DB
  5
81DC
331
81DC
  5
81DD
331
81DD
  5
81DE
331
81DE
  5
81DF
331
81DF
  5
81E0
331
81E0
  5
81E1
331
81E1
  5
81E2
331
81E2
  5
81E3
331
81E3
  5
81E4
331
81E4
  5
81E5
331
81E5
  5
81E6
331
81E6
  5
81E7
331
81E7
  5
81E8
331
81E8
  5
81E9
331
81E9
  5
81EA
331
81EA
  5
81EB
331
81EB
  5
81EC
331
81EC
  5
81ED
331
81ED
  5
81EE
331
81EE
  5
81EF
331
81EF
  5
81F0
331
81F0
  5
81F1
331
81F1
  5
81F2
331
81F2
  5
81F3
331
81F3
  5
81F4
331
81F4
  5
81F5
331
81F5
  5
81F6
331
81F6
  5
81F7
331
81F7
  5
81F8
331
81F8
  5
81F9
331
81F9
  5
81FA
331
81FA
  5
81FB
331
81FB
  5
81FC
331
81FC
  5
81FD
331
81FD
  5
81FE
331
81FE
  5
81FF
331
81FF
  5
8200
331
8200
  5
8201
331
8201
  5
8202
331
8202
  5
8203
331
8203
  5
8204
331
8204
  5
8205
331
8205
  5
8206
331
8206
  5
8207
331
8207
  5
8208
331
8208
  5
8209
331
8209
  5
820A
331
820A
  5
820B
331
820B
  5
820C
331
820C
  5
820D
331
820D
  5
820E
331
820E
  5
820F
331
820F
  5
8210
331
8210
  5
8211
331
8211
  5
8212
331
8212
  5
8213
331
8213
  5
8214
331
8214
  5
8215
331
8215
  5
847F
331
847F
  5
848C
331
848C
  5
8499
331
8499
  5
84A6
331
84A6
  5
84B3
331
84B3
  5
84B8
331
84B8
  5
84BD
331
84BD
  5
8583
  0
XRECORD
  5
84F3
102
{ACAD_REACTORS
330
84F2
102
}
330
84F2
100
AcDbXrecord
280
     1
340
16
  0
ACDBDETAILVIEWSTYLE
  5
857F
102
{ACAD_XDICTIONARY
360
85D5
102
}
102
{ACAD_REACTORS
330
857E
102
}
330
857E
100
AcDbModelDocViewStyle
 70
     0
  3
Metric50
290
     0
100
AcDbDetailViewStyle
 70
     0
 71
     0
 90
        3
 71
     1
340
10
 62
   256
 40
5.0
340
0
 62
   256
 40
5.0
300

 40
0.0
280
     1
 71
     2
340
15
 90
       25
 62
   256
 71
     3
340
10
 62
   256
 40
5.0
 90
        0
 40
15.0
 90
        1
300
%<\AcVar ViewDetailId>% (%<\AcVar ViewScale \f "%sn">%)
 71
     4
340
15
 90
       25
 62
   256
340
15
 90
       25
 62
   256
280
     0
  0
LAYOUT
  5
84C9
102
{ACAD_REACTORS
330
84C7
102
}
330
84C7
100
AcDbPlotSettings
  1

  2
EPSON LP-9300
  4

  6

 40
0.0
 41
0.0
 42
0.0
 43
0.0
 44
0.0
 45
0.0
 46
0.0
 47
0.0
 48
0.0
 49
0.0
140
0.0
141
0.0
142
1.0
143
1.0
 70
  1712
 72
     0
 73
     0
 74
     0
  7

 75
     0
147
1.0
 76
     0
 77
     2
 78
   300
148
0.0
149
0.0
100
AcDbLayout
  1
Model
 70
     1
 71
     0
 10
0.0
 20
0.0
 11
12.0
 21
9.0
 12
0.0
 22
0.0
 32
0.0
 14
0.0
 24
0.0
 34
0.0
 15
0.0
 25
0.0
 35
0.0
146
0.0
 13
0.0
 23
0.0
 33
0.0
 16
1.0
 26
0.0
 36
0.0
 17
0.0
 27
1.0
 37
0.0
 76
     0
330
19
331
8531
  0
LAYOUT
  5
84CA
102
{ACAD_REACTORS
330
84C7
102
}
330
84C7
100
AcDbPlotSettings
  1

  2
EPSON LP-9300
  4

  6

 40
0.0
 41
0.0
 42
0.0
 43
0.0
 44
0.0
 45
0.0
 46
0.0
 47
0.0
 48
0.0
 49
0.0
140
0.0
141
0.0
142
1.0
143
1.0
 70
   688
 72
     0
 73
     0
 74
     5
  7

 75
    16
147
1.0
 76
     0
 77
     2
 78
   300
148
0.0
149
0.0
100
AcDbLayout
  1
ﾚｲｱｳﾄ1
 70
     1
 71
     1
 10
0.0
 20
0.0
 11
12.0
 21
9.0
 12
0.0
 22
0.0
 32
0.0
 14
1.000000000000000E+20
 24
1.000000000000000E+20
 34
1.000000000000000E+20
 15
-1.000000000000000E+20
 25
-1.000000000000000E+20
 35
-1.000000000000000E+20
146
0.0
 13
0.0
 23
0.0
 33
0.0
 16
1.0
 26
0.0
 36
0.0
 17
0.0
 27
1.0
 37
0.0
 76
     0
330
16
  0
MATERIAL
  5
853C
102
{ACAD_XDICTIONARY
360
853D
102
}
102
{ACAD_REACTORS
330
8533
102
}
330
8533
100
AcDbMaterial
  1
ByBlock
 72
     0
 43
0.0208333333333333
 43
0.0
 43
0.0
 43
0.0
 43
0.0
 43
0.0208333333333333
 43
0.0
 43
0.0
 43
0.0
 43
0.0
 43
1.0
 43
0.0
 43
0.0
 43
0.0
 43
0.0
 43
1.0
 77
     0
 47
0.0208333333333333
 47
0.0
 47
0.0
 47
0.0
 47
0.0
 47
0.0208333333333333
 47
0.0
 47
0.0
 47
0.0
 47
0.0
 47
1.0
 47
0.0
 47
0.0
 47
0.0
 47
0.0
 47
1.0
171
     0
 49
0.0208333333333333
 49
0.0
 49
0.0
 49
0.0
 49
0.0
 49
0.0208333333333333
 49
0.0
 49
0.0
 49
0.0
 49
0.0
 49
1.0
 49
0.0
 49
0.0
 49
0.0
 49
0.0
 49
1.0
175
     0
142
0.0208333333333333
142
0.0
142
0.0
142
0.0
142
0.0
142
0.0208333333333333
142
0.0
142
0.0
142
0.0
142
0.0
142
1.0
142
0.0
142
0.0
142
0.0
142
0.0
142
1.0
179
     0
144
0.0208333333333333
144
0.0
144
0.0
144
0.0
144
0.0
144
0.0208333333333333
144
0.0
144
0.0
144
0.0
144
0.0
144
1.0
144
0.0
144
0.0
144
0.0
144
0.0
144
1.0
147
0.0208333333333333
147
0.0
147
0.0
147
0.0
147
0.0
147
0.0208333333333333
147
0.0
147
0.0
147
0.0
147
0.0
147
1.0
147
0.0
147
0.0
147
0.0
147
0.0
147
1.0
  0
MATERIAL
  5
8534
102
{ACAD_XDICTIONARY
360
8535
102
}
102
{ACAD_REACTORS
330
8533
102
}
330
8533
100
AcDbMaterial
  1
ByLayer
 72
     0
 43
0.0208333333333333
 43
0.0
 43
0.0
 43
0.0
 43
0.0
 43
0.0208333333333333
 43
0.0
 43
0.0
 43
0.0
 43
0.0
 43
1.0
 43
0.0
 43
0.0
 43
0.0
 43
0.0
 43
1.0
 77
     0
 47
0.0208333333333333
 47
0.0
 47
0.0
 47
0.0
 47
0.0
 47
0.0208333333333333
 47
0.0
 47
0.0
 47
0.0
 47
0.0
 47
1.0
 47
0.0
 47
0.0
 47
0.0
 47
0.0
 47
1.0
171
     0
 49
0.0208333333333333
 49
0.0
 49
0.0
 49
0.0
 49
0.0
 49
0.0208333333333333
 49
0.0
 49
0.0
 49
0.0
 49
0.0
 49
1.0
 49
0.0
 49
0.0
 49
0.0
 49
0.0
 49
1.0
175
     0
142
0.0208333333333333
142
0.0
142
0.0
142
0.0
142
0.0
142
0.0208333333333333
142
0.0
142
0.0
142
0.0
142
0.0
142
1.0
142
0.0
142
0.0
142
0.0
142
0.0
142
1.0
179
     0
144
0.0208333333333333
144
0.0
144
0.0
144
0.0
144
0.0
144
0.0208333333333333
144
0.0
144
0.0
144
0.0
144
0.0
144
1.0
144
0.0
144
0.0
144
0.0
144
0.0
144
1.0
147
0.0208333333333333
147
0.0
147
0.0
147
0.0
147
0.0
147
0.0208333333333333
147
0.0
147
0.0
147
0.0
147
0.0
147
1.0
147
0.0
147
0.0
147
0.0
147
0.0
147
1.0
  0
MATERIAL
  5
8544
102
{ACAD_XDICTIONARY
360
8545
102
}
102
{ACAD_REACTORS
330
8533
102
}
330
8533
100
AcDbMaterial
  1
Global
 72
     0
 43
0.0208333333333333
 43
0.0
 43
0.0
 43
0.0
 43
0.0
 43
0.0208333333333333
 43
0.0
 43
0.0
 43
0.0
 43
0.0
 43
1.0
 43
0.0
 43
0.0
 43
0.0
 43
0.0
 43
1.0
 77
     0
 47
0.0208333333333333
 47
0.0
 47
0.0
 47
0.0
 47
0.0
 47
0.0208333333333333
 47
0.0
 47
0.0
 47
0.0
 47
0.0
 47
1.0
 47
0.0
 47
0.0
 47
0.0
 47
0.0
 47
1.0
171
     0
 49
0.0208333333333333
 49
0.0
 49
0.0
 49
0.0
 49
0.0
 49
0.0208333333333333
 49
0.0
 49
0.0
 49
0.0
 49
0.0
 49
1.0
 49
0.0
 49
0.0
 49
0.0
 49
0.0
 49
1.0
175
     0
142
0.0208333333333333
142
0.0
142
0.0
142
0.0
142
0.0
142
0.0208333333333333
142
0.0
142
0.0
142
0.0
142
0.0
142
1.0
142
0.0
142
0.0
142
0.0
142
0.0
142
1.0
179
     0
144
0.0208333333333333
144
0.0
144
0.0
144
0.0
144
0.0
144
0.0208333333333333
144
0.0
144
0.0
144
0.0
144
0.0
144
1.0
144
0.0
144
0.0
144
0.0
144
0.0
144
1.0
147
0.0208333333333333
147
0.0
147
0.0
147
0.0
147
0.0
147
0.0208333333333333
147
0.0
147
0.0
147
0.0
147
0.0
147
1.0
147
0.0
147
0.0
147
0.0
147
0.0
147
1.0
  0
MLEADERSTYLE
  5
857B
102
{ACAD_REACTORS
330
857A
102
}
330
857A
100
AcDbMLeaderStyle
179
     2
170
     2
171
     1
172
     0
 90
        2
 40
0.0
 41
0.0
173
     1
 91
-1056964608
340
13
 92
       -2
290
     1
 42
2.0
291
     1
 43
0.36
  3
Standard
 44
4.0
300

342
10
174
     1
178
     6
175
     1
176
     0
 93
-1056964608
 45
4.0
292
     0
297
     0
 46
4.0
 94
-1056964608
 47
1.0
 49
1.0
140
1.0
293
     1
141
0.0
294
     1
177
     0
142
1.0
295
     0
296
     0
143
0.125
271
     0
272
     9
273
     9
298
     1
  0
MLINESTYLE
  5
1C
102
{ACAD_REACTORS
330
E
102
}
330
E
100
AcDbMlineStyle
  2
STANDARD
 70
     0
  3

 62
     0
 51
90.0
 52
90.0
 71
     2
 49
0.5
 62
   256
  6
BYLAYER
 49
-0.5
 62
   256
  6
BYLAYER
  0
ACDBPLACEHOLDER
  5
84C6
102
{ACAD_REACTORS
330
84C5
102
}
330
84C5
  0
SCALE
  5
8569
102
{ACAD_REACTORS
330
8568
102
}
330
8568
100
AcDbScale
 70
     0
300
1:1
140
1.0
141
1.0
290
     1
  0
SCALE
  5
856A
102
{ACAD_REACTORS
330
8568
102
}
330
8568
100
AcDbScale
 70
     0
300
1:2
140
1.0
141
2.0
290
     0
  0
SCALE
  5
856B
102
{ACAD_REACTORS
330
8568
102
}
330
8568
100
AcDbScale
 70
     0
300
1:4
140
1.0
141
4.0
290
     0
  0
SCALE
  5
856C
102
{ACAD_REACTORS
330
8568
102
}
330
8568
100
AcDbScale
 70
     0
300
1:5
140
1.0
141
5.0
290
     0
  0
SCALE
  5
856D
102
{ACAD_REACTORS
330
8568
102
}
330
8568
100
AcDbScale
 70
     0
300
1:8
140
1.0
141
8.0
290
     0
  0
SCALE
  5
856E
102
{ACAD_REACTORS
330
8568
102
}
330
8568
100
AcDbScale
 70
     0
300
1:10
140
1.0
141
10.0
290
     0
  0
SCALE
  5
856F
102
{ACAD_REACTORS
330
8568
102
}
330
8568
100
AcDbScale
 70
     0
300
1:16
140
1.0
141
16.0
290
     0
  0
SCALE
  5
8570
102
{ACAD_REACTORS
330
8568
102
}
330
8568
100
AcDbScale
 70
     0
300
1:20
140
1.0
141
20.0
290
     0
  0
SCALE
  5
8571
102
{ACAD_REACTORS
330
8568
102
}
330
8568
100
AcDbScale
 70
     0
300
1:30
140
1.0
141
30.0
290
     0
  0
SCALE
  5
8572
102
{ACAD_REACTORS
330
8568
102
}
330
8568
100
AcDbScale
 70
     0
300
1:40
140
1.0
141
40.0
290
     0
  0
SCALE
  5
8573
102
{ACAD_REACTORS
330
8568
102
}
330
8568
100
AcDbScale
 70
     0
300
1:50
140
1.0
141
50.0
290
     0
  0
SCALE
  5
8574
102
{ACAD_REACTORS
330
8568
102
}
330
8568
100
AcDbScale
 70
     0
300
1:100
140
1.0
141
100.0
290
     0
  0
SCALE
  5
8575
102
{ACAD_REACTORS
330
8568
102
}
330
8568
100
AcDbScale
 70
     0
300
2:1
140
2.0
141
1.0
290
     0
  0
SCALE
  5
8576
102
{ACAD_REACTORS
330
8568
102
}
330
8568
100
AcDbScale
 70
     0
300
4:1
140
4.0
141
1.0
290
     0
  0
SCALE
  5
8577
102
{ACAD_REACTORS
330
8568
102
}
330
8568
100
AcDbScale
 70
     0
300
8:1
140
8.0
141
1.0
290
     0
  0
SCALE
  5
8578
102
{ACAD_REACTORS
330
8568
102
}
330
8568
100
AcDbScale
 70
     0
300
10:1
140
10.0
141
1.0
290
     0
  0
SCALE
  5
8579
102
{ACAD_REACTORS
330
8568
102
}
330
8568
100
AcDbScale
 70
     0
300
100:1
140
100.0
141
1.0
290
     0
  0
ACDBSECTIONVIEWSTYLE
  5
857D
102
{ACAD_XDICTIONARY
360
85D3
102
}
102
{ACAD_REACTORS
330
857C
102
}
330
857C
100
AcDbModelDocViewStyle
 70
     0
  3
Metric50
290
     0
100
AcDbSectionViewStyle
 70
     0
 71
     0
 90
      102
 71
     1
340
10
 62
   256
 40
5.0
340
0
340
0
 62
   256
 40
5.0
300
I, O, Q, S, X, Z
 40
10.0
 90
        0
 40
2.5
 90
        0
 71
     2
340
15
 90
       25
 62
   256
340
15
 90
       50
 62
   256
 40
5.0
 40
2.5
 40
5.0
 71
     3
340
10
 62
   256
 40
5.0
 90
        0
 40
15.0
 90
        1
300
%<\AcVar ViewSectionStartId>%-%<\AcVar ViewSectionEndId>% (%<\AcVar ViewScale \f "%sn">%)
 71
     4
 62
   256
 62
   257
300
ANSI31
 40
1.0
 90
        0
290
     0
290
     0
 90
        6
 40
0.0
 40
1.570796326794896
 40
0.2617993877991494
 40
1.308996938995747
 40
-0.2617993877991494
 40
1.832595714594046
  0
TABLESTYLE
  5
8567
102
{ACAD_XDICTIONARY
360
85C8
102
}
102
{ACAD_REACTORS
330
8566
102
}
330
8566
100
AcDbTableStyle
280
     0
  3
Standard
 70
     0
 71
     0
 40
1.5
 41
1.5
280
     0
281
     0
  7
STANDARD
140
4.5
170
     2
 62
     0
 63
     7
283
     0
 90
      512
 91
        0
  1

274
    -2
284
     1
 64
     0
275
    -2
285
     1
 65
     0
276
    -2
286
     1
 66
     0
277
    -2
287
     1
 67
     0
278
    -2
288
     1
 68
     0
279
    -2
289
     1
 69
     0
  7
STANDARD
140
6.0
170
     5
 62
     0
 63
     7
283
     0
 90
      512
 91
        0
  1

274
    -2
284
     1
 64
     0
275
    -2
285
     1
 65
     0
276
    -2
286
     1
 66
     0
277
    -2
287
     1
 67
     0
278
    -2
288
     1
 68
     0
279
    -2
289
     1
 69
     0
  7
STANDARD
140
4.5
170
     5
 62
     0
 63
     7
283
     0
 90
      512
 91
        0
  1

274
    -2
284
     1
 64
     0
275
    -2
285
     1
 65
     0
276
    -2
286
     1
 66
     0
277
    -2
287
     1
 67
     0
278
    -2
288
     1
 68
     0
279
    -2
289
     1
 69
     0
  0
VISUALSTYLE
  5
8552
102
{ACAD_REACTORS
330
854C
102
}
330
854C
100
AcDbVisualStyle
  2
2dWireframe
 70
     4
177
     3
291
     0
 70
    58
 90
        0
176
     1
 90
        2
176
     1
 90
        0
176
     1
 90
        0
176
     1
 40
0.6
176
     1
 40
30.0
176
     1
 62
     7
420
 16777215
176
     1
 90
        1
176
     1
 90
        4
176
     1
 62
     7
176
     1
 62
   257
176
     1
 90
        1
176
     1
 90
        1
176
     1
 40
1.0
176
     1
 90
        0
176
     1
 62
   257
176
     1
 40
1.0
176
     1
 90
        1
176
     1
 90
        6
176
     1
 90
        2
176
     1
 62
     7
176
     1
 90
        5
176
     1
 90
        0
176
     1
 90
        0
176
     1
290
     0
176
     1
 90
        1
176
     1
 40
0.0
176
     1
 90
        0
176
     1
290
     1
176
     1
290
     1
176
     1
290
     0
176
     1
290
     0
176
     1
290
     0
176
     1
290
     0
176
     1
290
     0
176
     1
290
     0
176
     1
290
     0
176
     1
 90
       50
176
     1
 40
0.0
176
     1
 40
1.0
176
     1
 90
        0
176
     1
 62
    18
420
        0
176
     1
 90
       50
176
     1
 90
        3
176
     1
 62
     5
420
      255
176
     1
290
     0
176
     1
 90
       50
176
     1
 90
       50
176
     1
 90
       50
176
     1
290
     0
176
     1
 90
       50
176
     1
 62
   256
176
     0
 40
1.0
176
     0
 90
        2
176
     1
  1
strokes_ogs.tif
176
     1
290
     0
176
     1
 40
1.0
176
     1
 40
1.0
176
     1
1001
ACAD
1000
AcDbSavedByObjectVersion
1070
     0
  0
VISUALSTYLE
  5
8551
102
{ACAD_REACTORS
330
854C
102
}
330
854C
100
AcDbVisualStyle
  2
Basic
 70
     7
177
     3
291
     1
 70
    58
 90
        1
176
     1
 90
        0
176
     1
 90
        1
176
     1
 90
        0
176
     1
 40
0.6
176
     1
 40
30.0
176
     1
 62
     7
420
 16777215
176
     1
 90
        0
176
     1
 90
        4
176
     1
 62
     7
176
     1
 62
   257
176
     1
 90
        1
176
     1
 90
        1
176
     1
 40
1.0
176
     1
 90
        8
176
     1
 62
     7
176
     1
 40
1.0
176
     1
 90
        1
176
     1
 90
        6
176
     1
 90
        2
176
     1
 62
     7
176
     1
 90
        5
176
     1
 90
        0
176
     1
 90
        0
176
     1
290
     0
176
     1
 90
        1
176
     1
 40
0.0
176
     1
 90
        0
176
     1
290
     0
176
     1
290
     1
176
     1
290
     1
176
     1
290
     0
176
     1
290
     0
176
     1
290
     0
176
     1
290
     0
176
     1
290
     0
176
     1
290
     0
176
     1
 90
       50
176
     1
 40
0.0
176
     1
 40
1.0
176
     1
 90
        0
176
     1
 62
    18
420
        0
176
     1
 90
       50
176
     1
 90
        3
176
     1
 62
     5
420
      255
176
     1
290
     0
176
     1
 90
       50
176
     1
 90
       50
176
     1
 90
       50
176
     1
290
     0
176
     1
 90
       50
176
     1
 62
   256
176
     0
 40
1.0
176
     0
 90
        2
176
     1
  1
strokes_ogs.tif
176
     1
290
     0
176
     1
 40
1.0
176
     1
 40
1.0
176
     1
1001
ACAD
1000
AcDbSavedByObjectVersion
1070
     0
  0
VISUALSTYLE
  5
8558
102
{ACAD_REACTORS
330
854C
102
}
330
854C
100
AcDbVisualStyle
  2
Brighten
 70
    12
177
     3
291
     1
 70
    58
 90
        2
176
     1
 90
        2
176
     1
 90
        0
176
     1
 90
        0
176
     1
 40
0.6
176
     1
 40
30.0
176
     1
 62
     7
420
 16777215
176
     1
 90
        1
176
     1
 90
        4
176
     1
 62
     7
176
     1
 62
   257
176
     1
 90
        1
176
     1
 90
        1
176
     1
 40
1.0
176
     1
 90
        8
176
     1
 62
     7
176
     1
 40
1.0
176
     1
 90
        1
176
     1
 90
        6
176
     1
 90
        2
176
     1
 62
     7
176
     1
 90
        5
176
     1
 90
        0
176
     1
 90
        0
176
     1
290
     0
176
     1
 90
        1
176
     1
 40
50.0
176
     1
 90
        0
176
     1
290
     0
176
     1
290
     1
176
     1
290
     1
176
     1
290
     0
176
     1
290
     0
176
     1
290
     0
176
     1
290
     0
176
     1
290
     0
176
     1
290
     0
176
     1
 90
       50
176
     1
 40
0.0
176
     1
 40
1.0
176
     1
 90
        0
176
     1
 62
    18
420
        0
176
     1
 90
       50
176
     1
 90
        3
176
     1
 62
     5
420
      255
176
     1
290
     0
176
     1
 90
       50
176
     1
 90
       50
176
     1
 90
       50
176
     1
290
     0
176
     1
 90
       50
176
     1
 62
   256
176
     0
 40
1.0
176
     0
 90
        2
176
     1
  1
strokes_ogs.tif
176
     1
290
     0
176
     1
 40
1.0
176
     1
 40
1.0
176
     1
1001
ACAD
1000
AcDbSavedByObjectVersion
1070
     0
  0
VISUALSTYLE
  5
855C
102
{ACAD_REACTORS
330
854C
102
}
330
854C
100
AcDbVisualStyle
  2
ColorChange
 70
    16
177
     3
291
     1
 70
    58
 90
        2
176
     1
 90
        2
176
     1
 90
        3
176
     1
 90
        0
176
     1
 40
0.6
176
     1
 40
30.0
176
     1
 62
     8
420
  8421504
176
     1
 90
        1
176
     1
 90
        4
176
     1
 62
     7
176
     1
 62
   257
176
     1
 90
        1
176
     1
 90
        1
176
     1
 40
1.0
176
     1
 90
        8
176
     1
 62
     8
420
  8421504
176
     1
 40
1.0
176
     1
 90
        1
176
     1
 90
        6
176
     1
 90
        2
176
     1
 62
     7
176
     1
 90
        5
176
     1
 90
        0
176
     1
 90
        0
176
     1
290
     0
176
     1
 90
        1
176
     1
 40
0.0
176
     1
 90
        0
176
     1
290
     0
176
     1
290
     1
176
     1
290
     1
176
     1
290
     0
176
     1
290
     0
176
     1
290
     0
176
     1
290
     0
176
     1
290
     0
176
     1
290
     0
176
     1
 90
       50
176
     1
 40
0.0
176
     1
 40
1.0
176
     1
 90
        0
176
     1
 62
    18
420
        0
176
     1
 90
       50
176
     1
 90
        3
176
     1
 62
     5
420
      255
176
     1
290
     0
176
     1
 90
       50
176
     1
 90
       50
176
     1
 90
       50
176
     1
290
     0
176
     1
 90
       50
176
     1
 62
   256
176
     0
 40
1.0
176
     0
 90
        2
176
     1
  1
strokes_ogs.tif
176
     1
290
     0
176
     1
 40
1.0
176
     1
 40
1.0
176
     1
1001
ACAD
1000
AcDbSavedByObjectVersion
1070
     0
  0
VISUALSTYLE
  5
8555
102
{ACAD_REACTORS
330
854C
102
}
330
854C
100
AcDbVisualStyle
  2
Conceptual
 70
     9
177
     3
291
     0
 70
    58
 90
        3
176
     1
 90
        2
176
     1
 90
        0
176
     1
 90
        0
176
     1
 40
0.6
176
     1
 40
30.0
176
     1
 62
     7
420
 16777215
176
     1
 90
        2
176
     1
 90
        2
176
     1
 62
     7
176
     1
 62
   257
176
     1
 90
        1
176
     1
 90
        1
176
     1
 40
179.0
176
     1
 90
        8
176
     1
 62
     7
176
     1
 40
1.0
176
     1
 90
        1
176
     1
 90
        6
176
     1
 90
        2
176
     1
 62
     7
176
     1
 90
        3
176
     1
 90
        0
176
     1
 90
        0
176
     1
290
     0
176
     1
 90
        1
176
     1
 40
0.0
176
     1
 90
        0
176
     1
290
     0
176
     1
290
     1
176
     1
290
     1
176
     1
290
     0
176
     1
290
     0
176
     1
290
     0
176
     1
290
     0
176
     1
290
     0
176
     1
290
     0
176
     1
 90
       50
176
     1
 40
0.0
176
     1
 40
1.0
176
     1
 90
        0
176
     1
 62
    18
420
        0
176
     1
 90
       50
176
     1
 90
        3
176
     1
 62
     5
420
      255
176
     1
290
     0
176
     1
 90
       50
176
     1
 90
       50
176
     1
 90
       50
176
     1
290
     0
176
     1
 90
       50
176
     1
 62
   256
176
     0
 40
1.0
176
     0
 90
        2
176
     1
  1
strokes_ogs.tif
176
     1
290
     0
176
     1
 40
1.0
176
     1
 40
1.0
176
     1
1001
ACAD
1000
AcDbSavedByObjectVersion
1070
     0
  0
VISUALSTYLE
  5
8557
102
{ACAD_REACTORS
330
854C
102
}
330
854C
100
AcDbVisualStyle
  2
Dim
 70
    11
177
     3
291
     1
 70
    58
 90
        2
176
     1
 90
        2
176
     1
 90
        0
176
     1
 90
        0
176
     1
 40
0.6
176
     1
 40
30.0
176
     1
 62
     7
420
 16777215
176
     1
 90
        1
176
     1
 90
        4
176
     1
 62
     7
176
     1
 62
   257
176
     1
 90
        1
176
     1
 90
        1
176
     1
 40
1.0
176
     1
 90
        8
176
     1
 62
     7
176
     1
 40
1.0
176
     1
 90
        1
176
     1
 90
        6
176
     1
 90
        2
176
     1
 62
     7
176
     1
 90
        5
176
     1
 90
        0
176
     1
 90
        0
176
     1
290
     0
176
     1
 90
        1
176
     1
 40
-50.0
176
     1
 90
        0
176
     1
290
     0
176
     1
290
     1
176
     1
290
     1
176
     1
290
     0
176
     1
290
     0
176
     1
290
     0
176
     1
290
     0
176
     1
290
     0
176
     1
290
     0
176
     1
 90
       50
176
     1
 40
0.0
176
     1
 40
1.0
176
     1
 90
        0
176
     1
 62
    18
420
        0
176
     1
 90
       50
176
     1
 90
        3
176
     1
 62
     5
420
      255
176
     1
290
     0
176
     1
 90
       50
176
     1
 90
       50
176
     1
 90
       50
176
     1
290
     0
176
     1
 90
       50
176
     1
 62
   256
176
     0
 40
1.0
176
     0
 90
        2
176
     1
  1
strokes_ogs.tif
176
     1
290
     0
176
     1
 40
1.0
176
     1
 40
1.0
176
     1
1001
ACAD
1000
AcDbSavedByObjectVersion
1070
     0
  0
VISUALSTYLE
  5
8564
102
{ACAD_REACTORS
330
854C
102
}
330
854C
100
AcDbVisualStyle
  2
EdgeColorOff
 70
    22
177
     3
291
     1
 70
    58
 90
        2
176
     0
 90
        2
176
     0
 90
        0
176
     0
 90
        0
176
     0
 40
0.6
176
     0
 40
30.0
176
     0
 62
     7
420
 16777215
176
     0
 90
        1
176
     0
 90
        4
176
     0
 62
     7
176
     0
 62
   257
176
     0
 90
        1
176
     0
 90
        1
176
     0
 40
1.0
176
     0
 90
        8
176
     2
 62
     7
176
     0
 40
1.0
176
     0
 90
        1
176
     0
 90
        6
176
     0
 90
        2
176
     0
 62
     7
176
     0
 90
        5
176
     0
 90
        0
176
     0
 90
        0
176
     0
290
     0
176
     0
 90
        1
176
     0
 40
0.0
176
     0
 90
        0
176
     0
290
     0
176
     0
290
     1
176
     0
290
     1
176
     0
290
     0
176
     0
290
     0
176
     0
290
     0
176
     0
290
     0
176
     0
290
     0
176
     0
290
     0
176
     0
 90
       50
176
     0
 40
0.0
176
     0
 40
1.0
176
     0
 90
        0
176
     0
 62
    18
420
        0
176
     0
 90
       50
176
     0
 90
        3
176
     0
 62
     5
420
      255
176
     0
290
     0
176
     0
 90
       50
176
     0
 90
       50
176
     0
 90
       50
176
     0
290
     0
176
     0
 90
       50
176
     0
 62
   256
176
     0
 40
1.0
176
     0
 90
        2
176
     0
  1
strokes_ogs.tif
176
     0
290
     0
176
     0
 40
1.0
176
     0
 40
1.0
176
     0
1001
ACAD
1000
AcDbSavedByObjectVersion
1070
     0
  0
VISUALSTYLE
  5
855B
102
{ACAD_REACTORS
330
854C
102
}
330
854C
100
AcDbVisualStyle
  2
Facepattern
 70
    15
177
     3
291
     1
 70
    58
 90
        2
176
     1
 90
        2
176
     1
 90
        0
176
     1
 90
        0
176
     1
 40
0.6
176
     1
 40
30.0
176
     1
 62
     7
420
 16777215
176
     1
 90
        1
176
     1
 90
        4
176
     1
 62
     7
176
     1
 62
   257
176
     1
 90
        1
176
     1
 90
        1
176
     1
 40
1.0
176
     1
 90
        8
176
     1
 62
     7
176
     1
 40
1.0
176
     1
 90
        1
176
     1
 90
        6
176
     1
 90
        2
176
     1
 62
     7
176
     1
 90
        5
176
     1
 90
        0
176
     1
 90
        0
176
     1
290
     0
176
     1
 90
        1
176
     1
 40
0.0
176
     1
 90
        0
176
     1
290
     0
176
     1
290
     1
176
     1
290
     1
176
     1
290
     0
176
     1
290
     0
176
     1
290
     0
176
     1
290
     0
176
     1
290
     0
176
     1
290
     0
176
     1
 90
       50
176
     1
 40
0.0
176
     1
 40
1.0
176
     1
 90
        0
176
     1
 62
    18
420
        0
176
     1
 90
       50
176
     1
 90
        3
176
     1
 62
     5
420
      255
176
     1
290
     0
176
     1
 90
       50
176
     1
 90
       50
176
     1
 90
       50
176
     1
290
     0
176
     1
 90
       50
176
     1
 62
   256
176
     0
 40
1.0
176
     0
 90
        2
176
     1
  1
strokes_ogs.tif
176
     1
290
     0
176
     1
 40
1.0
176
     1
 40
1.0
176
     1
1001
ACAD
1000
AcDbSavedByObjectVersion
1070
     0
  0
VISUALSTYLE
  5
854D
102
{ACAD_REACTORS
330
854C
102
}
330
854C
100
AcDbVisualStyle
  2
Flat
 70
     0
177
     3
291
     1
 70
    58
 90
        2
176
     1
 90
        1
176
     1
 90
        1
176
     1
 90
        2
176
     1
 40
0.6
176
     1
 40
30.0
176
     1
 62
     7
420
 16777215
176
     1
 90
        0
176
     1
 90
        0
176
     1
 62
     7
176
     1
 62
   257
176
     1
 90
        1
176
     1
 90
        1
176
     1
 40
1.0
176
     1
 90
        8
176
     1
 62
     7
176
     1
 40
1.0
176
     1
 90
        1
176
     1
 90
        6
176
     1
 90
        2
176
     1
 62
     7
176
     1
 90
        5
176
     1
 90
        0
176
     1
 90
        0
176
     1
290
     0
176
     1
 90
       13
176
     1
 40
0.0
176
     1
 90
        0
176
     1
290
     0
176
     1
290
     1
176
     1
290
     1
176
     1
290
     0
176
     1
290
     0
176
     1
290
     0
176
     1
290
     0
176
     1
290
     0
176
     1
290
     0
176
     1
 90
       50
176
     1
 40
0.0
176
     1
 40
1.0
176
     1
 90
        0
176
     1
 62
    18
420
        0
176
     1
 90
       50
176
     1
 90
        3
176
     1
 62
     5
420
      255
176
     1
290
     0
176
     1
 90
       50
176
     1
 90
       50
176
     1
 90
       50
176
     1
290
     0
176
     1
 90
       50
176
     1
 62
   256
176
     0
 40
1.0
176
     0
 90
        2
176
     1
  1
strokes_ogs.tif
176
     1
290
     0
176
     1
 40
1.0
176
     1
 40
1.0
176
     1
1001
ACAD
1000
AcDbSavedByObjectVersion
1070
     0
  0
VISUALSTYLE
  5
854E
102
{ACAD_REACTORS
330
854C
102
}
330
854C
100
AcDbVisualStyle
  2
FlatWithEdges
 70
     1
177
     3
291
     1
 70
    58
 90
        2
176
     1
 90
        1
176
     1
 90
        1
176
     1
 90
        2
176
     1
 40
0.6
176
     1
 40
30.0
176
     1
 62
     7
420
 16777215
176
     1
 90
        1
176
     1
 90
        0
176
     1
 62
     7
176
     1
 62
   257
176
     1
 90
        1
176
     1
 90
        1
176
     1
 40
1.0
176
     1
 90
        0
176
     1
 62
   257
176
     1
 40
1.0
176
     1
 90
        1
176
     1
 90
        6
176
     1
 90
        2
176
     1
 62
     7
176
     1
 90
        5
176
     1
 90
        0
176
     1
 90
        0
176
     1
290
     0
176
     1
 90
       13
176
     1
 40
0.0
176
     1
 90
        0
176
     1
290
     0
176
     1
290
     1
176
     1
290
     1
176
     1
290
     0
176
     1
290
     0
176
     1
290
     0
176
     1
290
     0
176
     1
290
     0
176
     1
290
     0
176
     1
 90
       50
176
     1
 40
0.0
176
     1
 40
1.0
176
     1
 90
        0
176
     1
 62
    18
420
        0
176
     1
 90
       50
176
     1
 90
        3
176
     1
 62
     5
420
      255
176
     1
290
     0
176
     1
 90
       50
176
     1
 90
       50
176
     1
 90
       50
176
     1
290
     0
176
     1
 90
       50
176
     1
 62
   256
176
     0
 40
1.0
176
     0
 90
        2
176
     1
  1
strokes_ogs.tif
176
     1
290
     0
176
     1
 40
1.0
176
     1
 40
1.0
176
     1
1001
ACAD
1000
AcDbSavedByObjectVersion
1070
     0
  0
VISUALSTYLE
  5
854F
102
{ACAD_REACTORS
330
854C
102
}
330
854C
100
AcDbVisualStyle
  2
Gouraud
 70
     2
177
     3
291
     1
 70
    58
 90
        2
176
     1
 90
        2
176
     1
 90
        1
176
     1
 90
        2
176
     1
 40
0.6
176
     1
 40
30.0
176
     1
 62
     7
420
 16777215
176
     1
 90
        0
176
     1
 90
        0
176
     1
 62
     7
176
     1
 62
   257
176
     1
 90
        1
176
     1
 90
        1
176
     1
 40
1.0
176
     1
 90
        0
176
     1
 62
     7
176
     1
 40
1.0
176
     1
 90
        1
176
     1
 90
        6
176
     1
 90
        2
176
     1
 62
     7
176
     1
 90
        5
176
     1
 90
        0
176
     1
 90
        0
176
     1
290
     0
176
     1
 90
       13
176
     1
 40
0.0
176
     1
 90
        0
176
     1
290
     0
176
     1
290
     1
176
     1
290
     1
176
     1
290
     0
176
     1
290
     0
176
     1
290
     0
176
     1
290
     0
176
     1
290
     0
176
     1
290
     0
176
     1
 90
       50
176
     1
 40
0.0
176
     1
 40
1.0
176
     1
 90
        0
176
     1
 62
    18
420
        0
176
     1
 90
       50
176
     1
 90
        3
176
     1
 62
     5
420
      255
176
     1
290
     0
176
     1
 90
       50
176
     1
 90
       50
176
     1
 90
       50
176
     1
290
     0
176
     1
 90
       50
176
     1
 62
   256
176
     0
 40
1.0
176
     0
 90
        2
176
     1
  1
strokes_ogs.tif
176
     1
290
     0
176
     1
 40
1.0
176
     1
 40
1.0
176
     1
1001
ACAD
1000
AcDbSavedByObjectVersion
1070
     0
  0
VISUALSTYLE
  5
8550
102
{ACAD_REACTORS
330
854C
102
}
330
854C
100
AcDbVisualStyle
  2
GouraudWithEdges
 70
     3
177
     3
291
     1
 70
    58
 90
        2
176
     1
 90
        2
176
     1
 90
        1
176
     1
 90
        2
176
     1
 40
0.6
176
     1
 40
30.0
176
     1
 62
     7
420
 16777215
176
     1
 90
        1
176
     1
 90
        0
176
     1
 62
     7
176
     1
 62
   257
176
     1
 90
        1
176
     1
 90
        1
176
     1
 40
1.0
176
     1
 90
        0
176
     1
 62
   257
176
     1
 40
1.0
176
     1
 90
        1
176
     1
 90
        6
176
     1
 90
        2
176
     1
 62
     7
176
     1
 90
        5
176
     1
 90
        0
176
     1
 90
        0
176
     1
290
     0
176
     1
 90
       13
176
     1
 40
0.0
176
     1
 90
        0
176
     1
290
     0
176
     1
290
     1
176
     1
290
     1
176
     1
290
     0
176
     1
290
     0
176
     1
290
     0
176
     1
290
     0
176
     1
290
     0
176
     1
290
     0
176
     1
 90
       50
176
     1
 40
0.0
176
     1
 40
1.0
176
     1
 90
        0
176
     1
 62
    18
420
        0
176
     1
 90
       50
176
     1
 90
        3
176
     1
 62
     5
420
      255
176
     1
290
     0
176
     1
 90
       50
176
     1
 90
       50
176
     1
 90
       50
176
     1
290
     0
176
     1
 90
       50
176
     1
 62
   256
176
     0
 40
1.0
176
     0
 90
        2
176
     1
  1
strokes_ogs.tif
176
     1
290
     0
176
     1
 40
1.0
176
     1
 40
1.0
176
     1
1001
ACAD
1000
AcDbSavedByObjectVersion
1070
     0
  0
VISUALSTYLE
  5
8554
102
{ACAD_REACTORS
330
854C
102
}
330
854C
100
AcDbVisualStyle
  2
Hidden
 70
     6
177
     3
291
     0
 70
    58
 90
        1
176
     1
 90
        2
176
     1
 90
        2
176
     1
 90
        0
176
     1
 40
0.6
176
     1
 40
30.0
176
     1
 62
     7
420
 16777215
176
     1
 90
        2
176
     1
 90
        2
176
     1
 62
     7
176
     1
 62
   257
176
     1
 90
        2
176
     1
 90
        1
176
     1
 40
40.0
176
     1
 90
        0
176
     1
 62
   257
176
     1
 40
1.0
176
     1
 90
        1
176
     1
 90
        6
176
     1
 90
        2
176
     1
 62
     7
176
     1
 90
        3
176
     1
 90
        0
176
     1
 90
        0
176
     1
290
     0
176
     1
 90
        1
176
     1
 40
0.0
176
     1
 90
        0
176
     1
290
     0
176
     1
290
     1
176
     1
290
     1
176
     1
290
     0
176
     1
290
     0
176
     1
290
     0
176
     1
290
     0
176
     1
290
     0
176
     1
290
     0
176
     1
 90
       50
176
     1
 40
0.0
176
     1
 40
1.0
176
     1
 90
        0
176
     1
 62
    18
420
        0
176
     1
 90
       50
176
     1
 90
        3
176
     1
 62
     5
420
      255
176
     1
290
     0
176
     1
 90
       50
176
     1
 90
       50
176
     1
 90
       50
176
     1
290
     0
176
     1
 90
       50
176
     1
 62
   256
176
     0
 40
1.0
176
     0
 90
        2
176
     1
  1
strokes_ogs.tif
176
     1
290
     0
176
     1
 40
1.0
176
     1
 40
1.0
176
     1
1001
ACAD
1000
AcDbSavedByObjectVersion
1070
     0
  0
VISUALSTYLE
  5
8562
102
{ACAD_REACTORS
330
854C
102
}
330
854C
100
AcDbVisualStyle
  2
JitterOff
 70
    20
177
     3
291
     1
 70
    58
 90
        2
176
     0
 90
        2
176
     0
 90
        0
176
     0
 90
        0
176
     0
 40
0.6
176
     0
 40
30.0
176
     0
 62
     7
420
 16777215
176
     0
 90
        1
176
     0
 90
        4
176
     0
 62
     7
176
     0
 62
   257
176
     0
 90
        1
176
     0
 90
        1
176
     0
 40
1.0
176
     0
 90
       10
176
     2
 62
     7
176
     0
 40
1.0
176
     0
 90
        1
176
     0
 90
        6
176
     0
 90
        2
176
     0
 62
     7
176
     0
 90
        5
176
     0
 90
        0
176
     0
 90
        0
176
     0
290
     0
176
     0
 90
        1
176
     0
 40
0.0
176
     0
 90
        0
176
     0
290
     0
176
     0
290
     1
176
     0
290
     1
176
     0
290
     0
176
     0
290
     0
176
     0
290
     0
176
     0
290
     0
176
     0
290
     0
176
     0
290
     0
176
     0
 90
       50
176
     0
 40
0.0
176
     0
 40
1.0
176
     0
 90
        0
176
     0
 62
    18
420
        0
176
     0
 90
       50
176
     0
 90
        3
176
     0
 62
     5
420
      255
176
     0
290
     0
176
     0
 90
       50
176
     0
 90
       50
176
     0
 90
       50
176
     0
290
     0
176
     0
 90
       50
176
     0
 62
   256
176
     0
 40
1.0
176
     0
 90
        2
176
     0
  1
strokes_ogs.tif
176
     0
290
     0
176
     0
 40
1.0
176
     0
 40
1.0
176
     0
1001
ACAD
1000
AcDbSavedByObjectVersion
1070
     0
  0
VISUALSTYLE
  5
855A
102
{ACAD_REACTORS
330
854C
102
}
330
854C
100
AcDbVisualStyle
  2
Linepattern
 70
    14
177
     3
291
     1
 70
    58
 90
        2
176
     1
 90
        2
176
     1
 90
        0
176
     1
 90
        0
176
     1
 40
0.6
176
     1
 40
30.0
176
     1
 62
     7
420
 16777215
176
     1
 90
        1
176
     1
 90
        4
176
     1
 62
     7
176
     1
 62
   257
176
     1
 90
        7
176
     1
 90
        7
176
     1
 40
1.0
176
     1
 90
        8
176
     1
 62
     7
176
     1
 40
1.0
176
     1
 90
        1
176
     1
 90
        6
176
     1
 90
        2
176
     1
 62
     7
176
     1
 90
        5
176
     1
 90
        0
176
     1
 90
        0
176
     1
290
     0
176
     1
 90
        1
176
     1
 40
0.0
176
     1
 90
        0
176
     1
290
     0
176
     1
290
     1
176
     1
290
     1
176
     1
290
     0
176
     1
290
     0
176
     1
290
     0
176
     1
290
     0
176
     1
290
     0
176
     1
290
     0
176
     1
 90
       50
176
     1
 40
0.0
176
     1
 40
1.0
176
     1
 90
        0
176
     1
 62
    18
420
        0
176
     1
 90
       50
176
     1
 90
        3
176
     1
 62
     5
420
      255
176
     1
290
     0
176
     1
 90
       50
176
     1
 90
       50
176
     1
 90
       50
176
     1
290
     0
176
     1
 90
       50
176
     1
 62
   256
176
     0
 40
1.0
176
     0
 90
        2
176
     1
  1
strokes_ogs.tif
176
     1
290
     0
176
     1
 40
1.0
176
     1
 40
1.0
176
     1
1001
ACAD
1000
AcDbSavedByObjectVersion
1070
     0
  0
VISUALSTYLE
  5
8563
102
{ACAD_REACTORS
330
854C
102
}
330
854C
100
AcDbVisualStyle
  2
OverhangOff
 70
    21
177
     3
291
     1
 70
    58
 90
        2
176
     0
 90
        2
176
     0
 90
        0
176
     0
 90
        0
176
     0
 40
0.6
176
     0
 40
30.0
176
     0
 62
     7
420
 16777215
176
     0
 90
        1
176
     0
 90
        4
176
     0
 62
     7
176
     0
 62
   257
176
     0
 90
        1
176
     0
 90
        1
176
     0
 40
1.0
176
     0
 90
        9
176
     2
 62
     7
176
     0
 40
1.0
176
     0
 90
        1
176
     0
 90
        6
176
     0
 90
        2
176
     0
 62
     7
176
     0
 90
        5
176
     0
 90
        0
176
     0
 90
        0
176
     0
290
     0
176
     0
 90
        1
176
     0
 40
0.0
176
     0
 90
        0
176
     0
290
     0
176
     0
290
     1
176
     0
290
     1
176
     0
290
     0
176
     0
290
     0
176
     0
290
     0
176
     0
290
     0
176
     0
290
     0
176
     0
290
     0
176
     0
 90
       50
176
     0
 40
0.0
176
     0
 40
1.0
176
     0
 90
        0
176
     0
 62
    18
420
        0
176
     0
 90
       50
176
     0
 90
        3
176
     0
 62
     5
420
      255
176
     0
290
     0
176
     0
 90
       50
176
     0
 90
       50
176
     0
 90
       50
176
     0
290
     0
176
     0
 90
       50
176
     0
 62
   256
176
     0
 40
1.0
176
     0
 90
        2
176
     0
  1
strokes_ogs.tif
176
     0
290
     0
176
     0
 40
1.0
176
     0
 40
1.0
176
     0
1001
ACAD
1000
AcDbSavedByObjectVersion
1070
     0
  0
VISUALSTYLE
  5
8556
102
{ACAD_REACTORS
330
854C
102
}
330
854C
100
AcDbVisualStyle
  2
Realistic
 70
     8
177
     3
291
     0
 70
    58
 90
        2
176
     1
 90
        3
176
     1
 90
        0
176
     1
 90
        2
176
     1
 40
0.6
176
     1
 40
30.0
176
     1
 62
     7
420
 16777215
176
     1
 90
        0
176
     1
 90
        0
176
     1
 62
     7
176
     1
 62
   257
176
     1
 90
        1
176
     1
 90
        1
176
     1
 40
1.0
176
     1
 90
        8
176
     1
 62
   257
176
     1
 40
1.0
176
     1
 90
        1
176
     1
 90
        6
176
     1
 90
        2
176
     1
 62
     7
176
     1
 90
        3
176
     1
 90
        0
176
     1
 90
        0
176
     1
290
     0
176
     1
 90
       13
176
     1
 40
0.0
176
     1
 90
        0
176
     1
290
     0
176
     1
290
     1
176
     1
290
     1
176
     1
290
     0
176
     1
290
     0
176
     1
290
     0
176
     1
290
     0
176
     1
290
     0
176
     1
290
     0
176
     1
 90
       50
176
     1
 40
0.0
176
     1
 40
1.0
176
     1
 90
        0
176
     1
 62
    18
420
        0
176
     1
 90
       50
176
     1
 90
        3
176
     1
 62
     5
420
      255
176
     1
290
     0
176
     1
 90
       50
176
     1
 90
       50
176
     1
 90
       50
176
     1
290
     0
176
     1
 90
       50
176
     1
 62
   256
176
     0
 40
1.0
176
     0
 90
        2
176
     1
  1
strokes_ogs.tif
176
     1
290
     0
176
     1
 40
1.0
176
     1
 40
1.0
176
     1
1001
ACAD
1000
AcDbSavedByObjectVersion
1070
     0
  0
VISUALSTYLE
  5
8561
102
{ACAD_REACTORS
330
854C
102
}
330
854C
100
AcDbVisualStyle
  2
Shaded
 70
    27
177
     3
291
     0
 70
    58
 90
        2
176
     1
 90
        2
176
     1
 90
        1
176
     1
 90
        2
176
     1
 40
0.6
176
     1
 40
30.0
176
     1
 62
     7
420
 16777215
176
     1
 90
        0
176
     1
 90
        4
176
     1
 62
     7
176
     1
 62
   257
176
     1
 90
        1
176
     1
 90
        1
176
     1
 40
1.0
176
     1
 90
        8
176
     1
 62
   257
176
     1
 40
1.0
176
     1
 90
        1
176
     1
 90
        6
176
     1
 90
        2
176
     1
 62
     8
420
  7895160
176
     1
 90
        3
176
     1
 90
        0
176
     1
 90
        0
176
     1
290
     0
176
     1
 90
        5
176
     1
 40
0.0
176
     1
 90
        0
176
     1
290
     0
176
     1
290
     1
176
     1
290
     1
176
     1
290
     0
176
     1
290
     0
176
     1
290
     0
176
     1
290
     0
176
     1
290
     0
176
     1
290
     0
176
     1
 90
       50
176
     1
 40
0.0
176
     1
 40
1.0
176
     1
 90
        0
176
     1
 62
    18
420
        0
176
     1
 90
       50
176
     1
 90
        3
176
     1
 62
     5
420
      255
176
     1
290
     0
176
     1
 90
       50
176
     1
 90
       50
176
     1
 90
       50
176
     1
290
     0
176
     1
 90
       50
176
     1
 62
   256
176
     0
 40
1.0
176
     0
 90
        2
176
     1
  1
strokes_ogs.tif
176
     1
290
     0
176
     1
 40
1.0
176
     1
 40
1.0
176
     1
1001
ACAD
1000
AcDbSavedByObjectVersion
1070
     0
  0
VISUALSTYLE
  5
8560
102
{ACAD_REACTORS
330
854C
102
}
330
854C
100
AcDbVisualStyle
  2
Shaded with edges
 70
    26
177
     3
291
     0
 70
    58
 90
        2
176
     1
 90
        2
176
     1
 90
        1
176
     1
 90
        2
176
     1
 40
0.6
176
     1
 40
30.0
176
     1
 62
     7
420
 16777215
176
     1
 90
        1
176
     1
 90
        2
176
     1
 62
     7
176
     1
 62
   257
176
     1
 90
        2
176
     1
 90
        1
176
     1
 40
1.0
176
     1
 90
        8
176
     1
 62
   257
176
     1
 40
1.0
176
     1
 90
        1
176
     1
 90
        6
176
     1
 90
        2
176
     1
 62
     7
176
     1
 90
        3
176
     1
 90
        0
176
     1
 90
        0
176
     1
290
     0
176
     1
 90
        5
176
     1
 40
0.0
176
     1
 90
        0
176
     1
290
     0
176
     1
290
     1
176
     1
290
     1
176
     1
290
     0
176
     1
290
     0
176
     1
290
     0
176
     1
290
     0
176
     1
290
     0
176
     1
290
     0
176
     1
 90
       50
176
     1
 40
0.0
176
     1
 40
1.0
176
     1
 90
        0
176
     1
 62
    18
420
        0
176
     1
 90
       50
176
     1
 90
        3
176
     1
 62
     5
420
      255
176
     1
290
     0
176
     1
 90
       50
176
     1
 90
       50
176
     1
 90
       50
176
     1
290
     0
176
     1
 90
       50
176
     1
 62
   256
176
     0
 40
1.0
176
     0
 90
        2
176
     1
  1
strokes_ogs.tif
176
     1
290
     0
176
     1
 40
1.0
176
     1
 40
1.0
176
     1
1001
ACAD
1000
AcDbSavedByObjectVersion
1070
     0
  0
VISUALSTYLE
  5
855D
102
{ACAD_REACTORS
330
854C
102
}
330
854C
100
AcDbVisualStyle
  2
Shades of Gray
 70
    23
177
     3
291
     0
 70
    58
 90
        2
176
     1
 90
        2
176
     1
 90
        3
176
     1
 90
        0
176
     1
 40
0.6
176
     1
 40
30.0
176
     1
 62
     7
420
 16777215
176
     1
 90
        2
176
     1
 90
        2
176
     1
 62
     7
176
     1
 62
     7
176
     1
 90
        1
176
     1
 90
        1
176
     1
 40
40.0
176
     1
 90
        8
176
     1
 62
     7
176
     1
 40
1.0
176
     1
 90
        1
176
     1
 90
        6
176
     1
 90
        2
176
     1
 62
     7
176
     1
 90
        3
176
     1
 90
        0
176
     1
 90
        0
176
     1
290
     0
176
     1
 90
        1
176
     1
 40
0.0
176
     1
 90
        0
176
     1
290
     0
176
     1
290
     1
176
     1
290
     1
176
     1
290
     0
176
     1
290
     0
176
     1
290
     0
176
     1
290
     0
176
     1
290
     0
176
     1
290
     0
176
     1
 90
       50
176
     1
 40
0.0
176
     1
 40
1.0
176
     1
 90
        0
176
     1
 62
    18
420
        0
176
     1
 90
       50
176
     1
 90
        3
176
     1
 62
     5
420
      255
176
     1
290
     0
176
     1
 90
       50
176
     1
 90
       50
176
     1
 90
       50
176
     1
290
     0
176
     1
 90
       50
176
     1
 62
   256
176
     0
 40
1.0
176
     0
 90
        2
176
     1
  1
strokes_ogs.tif
176
     1
290
     0
176
     1
 40
1.0
176
     1
 40
1.0
176
     1
1001
ACAD
1000
AcDbSavedByObjectVersion
1070
     0
  0
VISUALSTYLE
  5
855E
102
{ACAD_REACTORS
330
854C
102
}
330
854C
100
AcDbVisualStyle
  2
Sketchy
 70
    24
177
     3
291
     0
 70
    58
 90
        1
176
     1
 90
        2
176
     1
 90
        2
176
     1
 90
        0
176
     1
 40
0.6
176
     1
 40
30.0
176
     1
 62
     7
420
 16777215
176
     1
 90
        2
176
     1
 90
        2
176
     1
 62
     7
176
     1
 62
     7
176
     1
 90
        1
176
     1
 90
        1
176
     1
 40
40.0
176
     1
 90
       11
176
     1
 62
     7
176
     1
 40
1.0
176
     1
 90
        1
176
     1
 90
        6
176
     1
 90
        2
176
     1
 62
     7
176
     1
 90
        6
176
     1
 90
        0
176
     1
 90
        0
176
     1
290
     0
176
     1
 90
        1
176
     1
 40
0.0
176
     1
 90
        0
176
     1
290
     0
176
     1
290
     1
176
     1
290
     1
176
     1
290
     0
176
     1
290
     0
176
     1
290
     0
176
     1
290
     0
176
     1
290
     0
176
     1
290
     0
176
     1
 90
       50
176
     1
 40
0.0
176
     1
 40
1.0
176
     1
 90
        0
176
     1
 62
    18
420
        0
176
     1
 90
       50
176
     1
 90
        3
176
     1
 62
     5
420
      255
176
     1
290
     0
176
     1
 90
       50
176
     1
 90
       50
176
     1
 90
       50
176
     1
290
     0
176
     1
 90
       50
176
     1
 62
   256
176
     0
 40
1.0
176
     0
 90
        2
176
     1
  1
strokes_ogs.tif
176
     1
290
     0
176
     1
 40
1.0
176
     1
 40
1.0
176
     1
1001
ACAD
1000
AcDbSavedByObjectVersion
1070
     0
  0
VISUALSTYLE
  5
8559
102
{ACAD_REACTORS
330
854C
102
}
330
854C
100
AcDbVisualStyle
  2
Thicken
 70
    13
177
     3
291
     1
 70
    58
 90
        2
176
     1
 90
        2
176
     1
 90
        0
176
     1
 90
        0
176
     1
 40
0.6
176
     1
 40
30.0
176
     1
 62
     7
420
 16777215
176
     1
 90
        1
176
     1
 90
        4
176
     1
 62
     7
176
     1
 62
   257
176
     1
 90
        1
176
     1
 90
        1
176
     1
 40
1.0
176
     1
 90
       12
176
     1
 62
     7
176
     1
 40
1.0
176
     1
 90
        1
176
     1
 90
        6
176
     1
 90
        2
176
     1
 62
     7
176
     1
 90
        5
176
     1
 90
        0
176
     1
 90
        0
176
     1
290
     0
176
     1
 90
        1
176
     1
 40
0.0
176
     1
 90
        0
176
     1
290
     0
176
     1
290
     1
176
     1
290
     1
176
     1
290
     0
176
     1
290
     0
176
     1
290
     0
176
     1
290
     0
176
     1
290
     0
176
     1
290
     0
176
     1
 90
       50
176
     1
 40
0.0
176
     1
 40
1.0
176
     1
 90
        0
176
     1
 62
    18
420
        0
176
     1
 90
       50
176
     1
 90
        3
176
     1
 62
     5
420
      255
176
     1
290
     0
176
     1
 90
       50
176
     1
 90
       50
176
     1
 90
       50
176
     1
290
     0
176
     1
 90
       50
176
     1
 62
   256
176
     0
 40
1.0
176
     0
 90
        2
176
     1
  1
strokes_ogs.tif
176
     1
290
     0
176
     1
 40
1.0
176
     1
 40
1.0
176
     1
1001
ACAD
1000
AcDbSavedByObjectVersion
1070
     0
  0
VISUALSTYLE
  5
8553
102
{ACAD_REACTORS
330
854C
102
}
330
854C
100
AcDbVisualStyle
  2
Wireframe
 70
     5
177
     3
291
     0
 70
    58
 90
        0
176
     1
 90
        2
176
     1
 90
        0
176
     1
 90
        0
176
     1
 40
0.6
176
     1
 40
30.0
176
     1
 62
     7
420
 16777215
176
     1
 90
        1
176
     1
 90
        4
176
     1
 62
     7
176
     1
 62
   257
176
     1
 90
        1
176
     1
 90
        1
176
     1
 40
1.0
176
     1
 90
        0
176
     1
 62
   257
176
     1
 40
1.0
176
     1
 90
        1
176
     1
 90
        6
176
     1
 90
        2
176
     1
 62
     7
176
     1
 90
        3
176
     1
 90
        0
176
     1
 90
        0
176
     1
290
     0
176
     1
 90
        1
176
     1
 40
0.0
176
     1
 90
        0
176
     1
290
     0
176
     1
290
     1
176
     1
290
     1
176
     1
290
     0
176
     1
290
     0
176
     1
290
     0
176
     1
290
     0
176
     1
290
     0
176
     1
290
     0
176
     1
 90
       50
176
     1
 40
0.0
176
     1
 40
1.0
176
     1
 90
        0
176
     1
 62
    18
420
        0
176
     1
 90
       50
176
     1
 90
        3
176
     1
 62
     5
420
      255
176
     1
290
     0
176
     1
 90
       50
176
     1
 90
       50
176
     1
 90
       50
176
     1
290
     0
176
     1
 90
       50
176
     1
 62
   256
176
     0
 40
1.0
176
     0
 90
        2
176
     1
  1
strokes_ogs.tif
176
     1
290
     0
176
     1
 40
1.0
176
     1
 40
1.0
176
     1
1001
ACAD
1000
AcDbSavedByObjectVersion
1070
     0
  0
VISUALSTYLE
  5
855F
102
{ACAD_REACTORS
330
854C
102
}
330
854C
100
AcDbVisualStyle
  2
X-Ray
 70
    25
177
     3
291
     0
 70
    58
 90
        2
176
     1
 90
        2
176
     1
 90
        1
176
     1
 90
        1
176
     1
 40
0.5
176
     1
 40
30.0
176
     1
 62
     7
420
 16777215
176
     1
 90
        1
176
     1
 90
        0
176
     1
 62
     7
176
     1
 62
   257
176
     1
 90
        1
176
     1
 90
        1
176
     1
 40
1.0
176
     1
 90
        8
176
     1
 62
     7
176
     1
 40
1.0
176
     1
 90
        1
176
     1
 90
        6
176
     1
 90
        2
176
     1
 62
     7
176
     1
 90
        3
176
     1
 90
        0
176
     1
 90
        0
176
     1
290
     0
176
     1
 90
       13
176
     1
 40
0.0
176
     1
 90
        0
176
     1
290
     0
176
     1
290
     1
176
     1
290
     1
176
     1
290
     0
176
     1
290
     0
176
     1
290
     0
176
     1
290
     0
176
     1
290
     0
176
     1
290
     0
176
     1
 90
       50
176
     1
 40
0.0
176
     1
 40
1.0
176
     1
 90
        0
176
     1
 62
    18
420
        0
176
     1
 90
       50
176
     1
 90
        3
176
     1
 62
     5
420
      255
176
     1
290
     0
176
     1
 90
       50
176
     1
 90
       50
176
     1
 90
       50
176
     1
290
     0
176
     1
 90
       50
176
     1
 62
   256
176
     0
 40
1.0
176
     0
 90
        2
176
     1
  1
strokes_ogs.tif
176
     1
290
     0
176
     1
 40
1.0
176
     1
 40
1.0
176
     1
1001
ACAD
1000
AcDbSavedByObjectVersion
1070
     0
  0
DICTIONARYVAR
  5
85BF
102
{ACAD_REACTORS
330
85B9
102
}
330
85B9
100
DictionaryVariables
280
     0
  1
1:1
  0
DICTIONARYVAR
  5
85BB
102
{ACAD_REACTORS
330
85B9
102
}
330
85B9
100
DictionaryVariables
280
     0
  1
STANDARD
  0
DICTIONARYVAR
  5
85BA
102
{ACAD_REACTORS
330
85B9
102
}
330
85B9
100
DictionaryVariables
280
     0
  1
STANDARD
  0
DICTIONARYVAR
  5
85BC
102
{ACAD_REACTORS
330
85B9
102
}
330
85B9
100
DictionaryVariables
280
     0
  1
Metric50
  0
DICTIONARYVAR
  5
85BD
102
{ACAD_REACTORS
330
85B9
102
}
330
85B9
100
DictionaryVariables
280
     0
  1
Metric50
  0
DICTIONARYVAR
  5
85C1
102
{ACAD_REACTORS
330
85B9
102
}
330
85B9
100
DictionaryVariables
280
     0
  1
1
  0
DICTIONARYVAR
  5
85C2
102
{ACAD_REACTORS
330
85B9
102
}
330
85B9
100
DictionaryVariables
280
     0
  1
15
  0
DICTIONARYVAR
  5
85C0
102
{ACAD_REACTORS
330
85B9
102
}
330
85B9
100
DictionaryVariables
280
     0
  1
0
  0
DICTIONARYVAR
  5
85C7
102
{ACAD_REACTORS
330
85B9
102
}
330
85B9
100
DictionaryVariables
280
     0
  1
0
  0
DICTIONARYVAR
  5
85BE
102
{ACAD_REACTORS
330
85B9
102
}
330
85B9
100
DictionaryVariables
280
     0
  1
0
  0
DICTIONARY
  5
85D2
102
{ACAD_REACTORS
330
85D0
102
}
330
85D0
100
AcDbDictionary
281
     1
  0
DICTIONARY
  5
85D1
102
{ACAD_REACTORS
330
85D0
102
}
330
85D0
100
AcDbDictionary
281
     1
  3
2002838219312
350
85CB
  3
2002838219328
350
85CC
  3
2002838219344
350
85CD
  3
2002838219360
350
85CE
  3
2002838219376
350
85CF
  0
DICTIONARY
  5
85D5
330
857F
100
AcDbDictionary
280
     1
281
     1
  3
ACAD_XREC_ROUNDTRIP
360
85D6
  0
DICTIONARY
  5
853D
330
853C
100
AcDbDictionary
280
     1
281
     1
  3
BUMPTILE
360
853F
  3
DIFFUSETILE
360
853E
  3
OPACITYTILE
360
8542
  3
REFLECTIONTILE
360
8541
  3
REFRACTIONTILE
360
8543
  3
SPECULARTILE
360
8540
  0
DICTIONARY
  5
8535
330
8534
100
AcDbDictionary
280
     1
281
     1
  3
BUMPTILE
360
8537
  3
DIFFUSETILE
360
8536
  3
OPACITYTILE
360
853A
  3
REFLECTIONTILE
360
8539
  3
REFRACTIONTILE
360
853B
  3
SPECULARTILE
360
8538
  0
DICTIONARY
  5
8545
330
8544
100
AcDbDictionary
280
     1
281
     1
  3
BUMPTILE
360
8547
  3
DIFFUSETILE
360
8546
  3
OPACITYTILE
360
854A
  3
REFLECTIONTILE
360
8549
  3
REFRACTIONTILE
360
854B
  3
SPECULARTILE
360
8548
  0
DICTIONARY
  5
85D3
330
857D
100
AcDbDictionary
280
     1
281
     1
  3
ACAD_XREC_ROUNDTRIP
360
85D4
  0
DICTIONARY
  5
85C8
330
8567
100
AcDbDictionary
280
     1
281
     1
  3
ACAD_ROUNDTRIP_2008_TABLESTYLE_CELLSTYLEMAP
360
85C9
  0
XRECORD
  5
85CB
102
{ACAD_REACTORS
330
85D1
102
}
330
85D1
100
AcDbXrecord
280
     1
  1
AcDb_Thumbnail_Schema
102
{ATTRRECORD
341
85CC
  2
AcDbDs::TreatedAsObjectData
280
     1
291
     1
102
ATTRRECORD}
102
{ATTRRECORD
341
85CD
  2
AcDbDs::Legacy
280
     1
291
     1
102
ATTRRECORD}
  2
AcDbDs::ID
280
    10
 91
        8
102
{ATTRRECORD
341
85CE
  2
AcDs:Indexable
280
     1
291
     1
102
ATTRRECORD}
102
{ATTRRECORD
341
85CF
  2
AcDbDs::HandleAttribute
280
     7
282
     1
102
ATTRRECORD}
  2
Thumbnail_Data
280
    15
 91
        0
  0
XRECORD
  5
85CC
102
{ACAD_REACTORS
330
85D1
102
}
330
85D1
100
AcDbXrecord
280
     1
  1
AcDbDs::TreatedAsObjectDataSchema
  2
AcDbDs::TreatedAsObjectData
280
     1
 91
        0
  0
XRECORD
  5
85CD
102
{ACAD_REACTORS
330
85D1
102
}
330
85D1
100
AcDbXrecord
280
     1
  1
AcDbDs::LegacySchema
  2
AcDbDs::Legacy
280
     1
 91
        0
  0
XRECORD
  5
85CE
102
{ACAD_REACTORS
330
85D1
102
}
330
85D1
100
AcDbXrecord
280
     1
  1
AcDbDs::IndexedPropertySchema
  2
AcDs:Indexable
280
     1
 91
        0
  0
XRECORD
  5
85CF
102
{ACAD_REACTORS
330
85D1
102
}
330
85D1
100
AcDbXrecord
280
     1
  1
AcDbDs::HandleAttributeSchema
  2
AcDbDs::HandleAttribute
280
     7
 91
        1
284
     1
  0
XRECORD
  5
85D6
102
{ACAD_REACTORS
330
85D5
102
}
330
85D5
100
AcDbXrecord
280
     1
102
DISPLAYNAME
  1
Metric50
102
FLAGS
 90
        0
  0
XRECORD
  5
853F
102
{ACAD_REACTORS
330
853D
102
}
330
853D
100
AcDbXrecord
280
     1
270
     1
271
     1
  0
XRECORD
  5
853E
102
{ACAD_REACTORS
330
853D
102
}
330
853D
100
AcDbXrecord
280
     1
270
     1
271
     1
  0
XRECORD
  5
8542
102
{ACAD_REACTORS
330
853D
102
}
330
853D
100
AcDbXrecord
280
     1
270
     1
271
     1
  0
XRECORD
  5
8541
102
{ACAD_REACTORS
330
853D
102
}
330
853D
100
AcDbXrecord
280
     1
270
     1
271
     1
  0
XRECORD
  5
8543
102
{ACAD_REACTORS
330
853D
102
}
330
853D
100
AcDbXrecord
280
     1
270
     1
271
     1
  0
XRECORD
  5
8540
102
{ACAD_REACTORS
330
853D
102
}
330
853D
100
AcDbXrecord
280
     1
270
     1
271
     1
  0
XRECORD
  5
8537
102
{ACAD_REACTORS
330
8535
102
}
330
8535
100
AcDbXrecord
280
     1
270
     1
271
     1
  0
XRECORD
  5
8536
102
{ACAD_REACTORS
330
8535
102
}
330
8535
100
AcDbXrecord
280
     1
270
     1
271
     1
  0
XRECORD
  5
853A
102
{ACAD_REACTORS
330
8535
102
}
330
8535
100
AcDbXrecord
280
     1
270
     1
271
     1
  0
XRECORD
  5
8539
102
{ACAD_REACTORS
330
8535
102
}
330
8535
100
AcDbXrecord
280
     1
270
     1
271
     1
  0
XRECORD
  5
853B
102
{ACAD_REACTORS
330
8535
102
}
330
8535
100
AcDbXrecord
280
     1
270
     1
271
     1
  0
XRECORD
  5
8538
102
{ACAD_REACTORS
330
8535
102
}
330
8535
100
AcDbXrecord
280
     1
270
     1
271
     1
  0
XRECORD
  5
8547
102
{ACAD_REACTORS
330
8545
102
}
330
8545
100
AcDbXrecord
280
     1
270
     1
271
     1
  0
XRECORD
  5
8546
102
{ACAD_REACTORS
330
8545
102
}
330
8545
100
AcDbXrecord
280
     1
270
     1
271
     1
  0
XRECORD
  5
854A
102
{ACAD_REACTORS
330
8545
102
}
330
8545
100
AcDbXrecord
280
     1
270
     1
271
     1
  0
XRECORD
  5
8549
102
{ACAD_REACTORS
330
8545
102
}
330
8545
100
AcDbXrecord
280
     1
270
     1
271
     1
  0
XRECORD
  5
854B
102
{ACAD_REACTORS
330
8545
102
}
330
8545
100
AcDbXrecord
280
     1
270
     1
271
     1
  0
XRECORD
  5
8548
102
{ACAD_REACTORS
330
8545
102
}
330
8545
100
AcDbXrecord
280
     1
270
     1
271
     1
  0
XRECORD
  5
85D4
102
{ACAD_REACTORS
330
85D3
102
}
330
85D3
100
AcDbXrecord
280
     1
102
DISPLAYNAME
  1
Metric50
102
FLAGS
 90
        0
  0
CELLSTYLEMAP
  5
85C9
102
{ACAD_REACTORS
330
85C8
102
}
330
85C8
100
AcDbCellStyleMap
 90
        3
300
CELLSTYLE
  1
TABLEFORMAT_BEGIN
 90
        5
170
     1
 91
        0
 92
    32768
 62
   257
 93
        1
300
CONTENTFORMAT
  1
CONTENTFORMAT_BEGIN
 90
        0
 91
        0
 92
      512
 93
        0
300

 40
0.0
140
1.0
 94
        5
 62
     0
340
10
144
6.0
309
CONTENTFORMAT_END
171
     1
301
MARGIN
  1
CELLMARGIN_BEGIN
 40
1.5
 40
1.5
 40
1.5
 40
1.5
 40
4.5
 40
4.5
309
CELLMARGIN_END
 94
        6
 95
        1
302
GRIDFORMAT
  1
GRIDFORMAT_BEGIN
 90
        0
 91
        1
 62
     0
 92
       -2
340
0
 93
        0
 40
1.125
309
GRIDFORMAT_END
 95
        2
302
GRIDFORMAT
  1
GRIDFORMAT_BEGIN
 90
        0
 91
        1
 62
     0
 92
       -2
340
0
 93
        0
 40
1.125
309
GRIDFORMAT_END
 95
        4
302
GRIDFORMAT
  1
GRIDFORMAT_BEGIN
 90
        0
 91
        1
 62
     0
 92
       -2
340
0
 93
        0
 40
1.125
309
GRIDFORMAT_END
 95
        8
302
GRIDFORMAT
  1
GRIDFORMAT_BEGIN
 90
        0
 91
        1
 62
     0
 92
       -2
340
0
 93
        0
 40
1.125
309
GRIDFORMAT_END
 95
       16
302
GRIDFORMAT
  1
GRIDFORMAT_BEGIN
 90
        0
 91
        1
 62
     0
 92
       -2
340
0
 93
        0
 40
1.125
309
GRIDFORMAT_END
 95
       32
302
GRIDFORMAT
  1
GRIDFORMAT_BEGIN
 90
        0
 91
        1
 62
     0
 92
       -2
340
0
 93
        0
 40
1.125
309
GRIDFORMAT_END
309
TABLEFORMAT_END
  1
CELLSTYLE_BEGIN
 90
        1
 91
        1
300
_TITLE
309
CELLSTYLE_END
300
CELLSTYLE
  1
TABLEFORMAT_BEGIN
 90
        5
170
     1
 91
        0
 92
        0
 62
   257
 93
        1
300
CONTENTFORMAT
  1
CONTENTFORMAT_BEGIN
 90
        0
 91
        0
 92
      512
 93
        0
300

 40
0.0
140
1.0
 94
        5
 62
     0
340
10
144
4.5
309
CONTENTFORMAT_END
171
     1
301
MARGIN
  1
CELLMARGIN_BEGIN
 40
1.5
 40
1.5
 40
1.5
 40
1.5
 40
4.5
 40
4.5
309
CELLMARGIN_END
 94
        6
 95
        1
302
GRIDFORMAT
  1
GRIDFORMAT_BEGIN
 90
        0
 91
        1
 62
     0
 92
       -2
340
0
 93
        0
 40
1.125
309
GRIDFORMAT_END
 95
        2
302
GRIDFORMAT
  1
GRIDFORMAT_BEGIN
 90
        0
 91
        1
 62
     0
 92
       -2
340
0
 93
        0
 40
1.125
309
GRIDFORMAT_END
 95
        4
302
GRIDFORMAT
  1
GRIDFORMAT_BEGIN
 90
        0
 91
        1
 62
     0
 92
       -2
340
0
 93
        0
 40
1.125
309
GRIDFORMAT_END
 95
        8
302
GRIDFORMAT
  1
GRIDFORMAT_BEGIN
 90
        0
 91
        1
 62
     0
 92
       -2
340
0
 93
        0
 40
1.125
309
GRIDFORMAT_END
 95
       16
302
GRIDFORMAT
  1
GRIDFORMAT_BEGIN
 90
        0
 91
        1
 62
     0
 92
       -2
340
0
 93
        0
 40
1.125
309
GRIDFORMAT_END
 95
       32
302
GRIDFORMAT
  1
GRIDFORMAT_BEGIN
 90
        0
 91
        1
 62
     0
 92
       -2
340
0
 93
        0
 40
1.125
309
GRIDFORMAT_END
309
TABLEFORMAT_END
  1
CELLSTYLE_BEGIN
 90
        2
 91
        1
300
_HEADER
309
CELLSTYLE_END
300
CELLSTYLE
  1
TABLEFORMAT_BEGIN
 90
        5
170
     1
 91
        0
 92
        0
 62
   257
 93
        1
300
CONTENTFORMAT
  1
CONTENTFORMAT_BEGIN
 90
        0
 91
        0
 92
      512
 93
        0
300

 40
0.0
140
1.0
 94
        2
 62
     0
340
10
144
4.5
309
CONTENTFORMAT_END
171
     1
301
MARGIN
  1
CELLMARGIN_BEGIN
 40
1.5
 40
1.5
 40
1.5
 40
1.5
 40
4.5
 40
4.5
309
CELLMARGIN_END
 94
        6
 95
        1
302
GRIDFORMAT
  1
GRIDFORMAT_BEGIN
 90
        0
 91
        1
 62
     0
 92
       -2
340
0
 93
        0
 40
1.125
309
GRIDFORMAT_END
 95
        2
302
GRIDFORMAT
  1
GRIDFORMAT_BEGIN
 90
        0
 91
        1
 62
     0
 92
       -2
340
0
 93
        0
 40
1.125
309
GRIDFORMAT_END
 95
        4
302
GRIDFORMAT
  1
GRIDFORMAT_BEGIN
 90
        0
 91
        1
 62
     0
 92
       -2
340
0
 93
        0
 40
1.125
309
GRIDFORMAT_END
 95
        8
302
GRIDFORMAT
  1
GRIDFORMAT_BEGIN
 90
        0
 91
        1
 62
     0
 92
       -2
340
0
 93
        0
 40
1.125
309
GRIDFORMAT_END
 95
       16
302
GRIDFORMAT
  1
GRIDFORMAT_BEGIN
 90
        0
 91
        1
 62
     0
 92
       -2
340
0
 93
        0
 40
1.125
309
GRIDFORMAT_END
 95
       32
302
GRIDFORMAT
  1
GRIDFORMAT_BEGIN
 90
        0
 91
        1
 62
     0
 92
       -2
340
0
 93
        0
 40
1.125
309
GRIDFORMAT_END
309
TABLEFORMAT_END
  1
CELLSTYLE_BEGIN
 90
        3
 91
        2
300
_DATA
309
CELLSTYLE_END
  0
ENDSEC
  0
SECTION
  2
ACDSDATA
 70
     2
 71
     8
  0
ACDSSCHEMA
 90
        0
  1
AcDb_Thumbnail_Schema
  2
AcDbDs::ID
280
    10
 91
        8
  2
Thumbnail_Data
280
    15
 91
        0
101
ACDSRECORD
 95
        0
 90
        1
  2
AcDbDs::TreatedAsObjectData
280
     1
291
     1
101
ACDSRECORD
 95
        0
 90
        2
  2
AcDbDs::Legacy
280
     1
291
     1
101
ACDSRECORD
  1
AcDbDs::ID
 90
        3
  2
AcDs:Indexable
280
     1
291
     1
101
ACDSRECORD
  1
AcDbDs::ID
 90
        4
  2
AcDbDs::HandleAttribute
280
     7
282
     1
  0
ACDSSCHEMA
 90
        1
  1
AcDbDs::TreatedAsObjectDataSchema
  2
AcDbDs::TreatedAsObjectData
280
     1
 91
        0
  0
ACDSSCHEMA
 90
        2
  1
AcDbDs::LegacySchema
  2
AcDbDs::Legacy
280
     1
 91
        0
  0
ACDSSCHEMA
 90
        3
  1
AcDbDs::IndexedPropertySchema
  2
AcDs:Indexable
280
     1
 91
        0
  0
ACDSSCHEMA
 90
        4
  1
AcDbDs::HandleAttributeSchema
  2
AcDbDs::HandleAttribute
280
     7
 91
        1
284
     1
  0
ACDSRECORD
 90
        0
  2
AcDbDs::ID
280
    10
320
84C9
  2
Thumbnail_Data
280
    15
 94
     1361
310
89504E470D0A1A0A0000000D49484452000001000000007C0803000000B13B9E5A00000300504C5445000000000000C8C8C80000000000000000000000000000000000000000000000000000330000660000990000CC0000FF0033000033330033660033990033CC0033FF0066000066330066660066990066CC0066FF0099
310
000099330099660099990099CC0099FF00CC0000CC3300CC6600CC9900CCCC00CCFF00FF0000FF3300FF6600FF9900FFCC00FFFF3300003300333300663300993300CC3300FF3333003333333333663333993333CC3333FF3366003366333366663366993366CC3366FF3399003399333399663399993399CC3399FF33CC00
310
33CC3333CC6633CC9933CCCC33CCFF33FF0033FF3333FF6633FF9933FFCC33FFFF6600006600336600666600996600CC6600FF6633006633336633666633996633CC6633FF6666006666336666666666996666CC6666FF6699006699336699666699996699CC6699FF66CC0066CC3366CC6666CC9966CCCC66CCFF66FF0066
310
FF3366FF6666FF9966FFCC66FFFF9900009900339900669900999900CC9900FF9933009933339933669933999933CC9933FF9966009966339966669966999966CC9966FF9999009999339999669999999999CC9999FF99CC0099CC3399CC6699CC9999CCCC99CCFF99FF0099FF3399FF6699FF9999FFCC99FFFFCC0000CC00
310
33CC0066CC0099CC00CCCC00FFCC3300CC3333CC3366CC3399CC33CCCC33FFCC6600CC6633CC6666CC6699CC66CCCC66FFCC9900CC9933CC9966CC9999CC99CCCC99FFCCCC00CCCC33CCCC66CCCC99CCCCCCCCCCFFCCFF00CCFF33CCFF66CCFF99CCFFCCCCFFFFFF0000FF0033FF0066FF0099FF00CCFF00FFFF3300FF3333
310
FF3366FF3399FF33CCFF33FFFF6600FF6633FF6666FF6699FF66CCFF66FFFF9900FF9933FF9966FF9999FF99CCFF99FFFFCC00FFCC33FFCC66FFCC99FFCCCCFFCCFFFFFF00FFFF33FFFF66FFFF99FFFFCCFFFFFF0000000D0D0D1A1A1A2828283535354343435050505D5D5D6B6B6B787878868686939393A1A1A1AEAEAEBB
310
BBBBC9C9C9D6D6D6E4E4E4F1F1F1FFFFFF00000000000000000000000000000000000000000000000000000000000008F1915C0000020C4944415478DAED9C4172C3200C45390E1BEE7F195D23FB16643060373369A79D54FFBD643CB1932CF4224068EAA604000000F0231EDF248E803FFD1A02108080FF29E032FB290A58
310
3E4F060413F07201104E8027F91EEB6356147A086CB1A72160B3921E1A0246F8F56DCFFB91235105BC38693209865B06E700B758EFB6801A02A6ECF03980BD0002108000090166262AC036F404A467A708882DA0A67C59511390E6E0EBA5A23504AC059C5BECF5905505A4F628C555680D011790FCA9960166B9E44F4A7FD6
310
836606F843770E509E0497655050409BFD3CEAB318509A03D25609AA09B8D6C27AFD80F2E44C43807A069CC3E172B63448820A30BBB684EC087D6D114516E0EB81F595F1BE4726900143C0723DBA8029D845402D918F5221AA80F3479E178043C0B5471652C0BC1B484340B75133A08C41105580C75E46D8763A68EF581210
310
D083AD87B63FEA19502267C039FC6B1FA8B603FB986FAFB3F787420B9873DD7BA2B90AA8817BFCED55E80CF0E93E1F593F32601E0225F81C30857E0A98E785E8ABC0A52162FB0E31701DE0158FAFF74EEF0996E36C6E1084AD043F7FF4F16BE7A3F0F32B16BC125CB683BD1F60D34589CDD0FD5F88086D877FFD6B08400002
310
1080000420E0AD05A8DE327311F0950D32402D03D274B76052B879FA7E08080A901D02D401084000021080002101EAFF4C0D000000000000000000000000000000000000DE920FE12CC682319496CA0000000049454E44AE426082
  0
ENDSEC
  0
EOF
