  0
SECTION
  2
HEADER
  9
$ACADVER
  1
AC1027
  9
$ACADMAINTVER
 70
   125
  9
$DWGCODEPAGE
  3
ANSI_932
  9
$LASTSAVEDBY
  1
yasukiyo.ogawa
  9
$REQUIREDVERSIONS
160
                 0
  9
$INSBASE
 10
0.0
 20
0.0
 30
0.0
  9
$EXTMIN
 10
0.0
 20
0.0
 30
0.0
  9
$EXTMAX
 10
3150.0
 20
4425.0
 30
0.0
  9
$LIMMIN
 10
0.0
 20
0.0
  9
$LIMMAX
 10
297.0
 20
210.0
  9
$ORTHOMODE
 70
     1
  9
$REGENMODE
 70
     1
  9
$FILLMODE
 70
     0
  9
$QTEXTMODE
 70
     0
  9
$MIRRTEXT
 70
     1
  9
$LTSCALE
 40
100.0
  9
$ATTMODE
 70
     1
  9
$TEXTSIZE
 40
180.0
  9
$TRACEWID
 40
0.05
  9
$TEXTSTYLE
  7
STANDARD
  9
$CLAYER
  8
3
  9
$CELTYPE
  6
BYLAYER
  9
$CECOLOR
 62
   256
  9
$CELTSCALE
 40
1.0
  9
$DISPSILH
 70
     0
  9
$DIMSCALE
 40
15.0
  9
$DIMASZ
 40
2.0
  9
$DIMEXO
 40
0.5
  9
$DIMDLI
 40
10.0
  9
$DIMRND
 40
0.0
  9
$DIMDLE
 40
0.0
  9
$DIMEXE
 40
1.0
  9
$DIMTP
 40
1.0
  9
$DIMTM
 40
1.0
  9
$DIMTXT
 40
3.0
  9
$DIMCEN
 40
0.0
  9
$DIMTSZ
 40
0.0
  9
$DIMTOL
 70
     0
  9
$DIMLIM
 70
     0
  9
$DIMTIH
 70
     0
  9
$DIMTOH
 70
     0
  9
$DIMSE1
 70
     0
  9
$DIMSE2
 70
     0
  9
$DIMTAD
 70
     1
  9
$DIMZIN
 70
     8
  9
$DIMBLK
  1

  9
$DIMASO
 70
     1
  9
$DIMSHO
 70
     1
  9
$DIMPOST
  1

  9
$DIMAPOST
  1

  9
$DIMALT
 70
     0
  9
$DIMALTD
 70
     2
  9
$DIMALTF
 40
0.039
  9
$DIMLFAC
 40
1.0
  9
$DIMTOFL
 70
     1
  9
$DIMTVP
 40
0.0
  9
$DIMTIX
 70
     0
  9
$DIMSOXD
 70
     0
  9
$DIMSAH
 70
     1
  9
$DIMBLK1
  1
OPEN
  9
$DIMBLK2
  1
OPEN
  9
$DIMSTYLE
  2
IGA
  9
$DIMCLRD
 70
     0
  9
$DIMCLRE
 70
     0
  9
$DIMCLRT
 70
     0
  9
$DIMTFAC
 40
10.0
  9
$DIMGAP
 40
1.0
  9
$DIMJUST
 70
     0
  9
$DIMSD1
 70
     0
  9
$DIMSD2
 70
     0
  9
$DIMTOLJ
 70
     1
  9
$DIMTZIN
 70
     8
  9
$DIMALTZ
 70
     0
  9
$DIMALTTZ
 70
     0
  9
$DIMUPT
 70
     0
  9
$DIMDEC
 70
     0
  9
$DIMTDEC
 70
     0
  9
$DIMALTU
 70
     2
  9
$DIMALTTD
 70
     2
  9
$DIMTXSTY
  7
STANDARD
  9
$DIMAUNIT
 70
     0
  9
$DIMADEC
 70
     0
  9
$DIMALTRND
 40
0.0
  9
$DIMAZIN
 70
     0
  9
$DIMDSEP
 70
    46
  9
$DIMATFIT
 70
     3
  9
$DIMFRAC
 70
     0
  9
$DIMLDRBLK
  1
OPEN
  9
$DIMLUNIT
 70
     2
  9
$DIMLWD
 70
    -2
  9
$DIMLWE
 70
    -2
  9
$DIMTMOVE
 70
     2
  9
$DIMFXL
 40
1.0
  9
$DIMFXLON
 70
     0
  9
$DIMJOGANG
 40
0.7853981633974483
  9
$DIMTFILL
 70
     0
  9
$DIMTFILLCLR
 70
     0
  9
$DIMARCSYM
 70
     0
  9
$DIMLTYPE
  6

  9
$DIMLTEX1
  6

  9
$DIMLTEX2
  6

  9
$DIMTXTDIRECTION
 70
     0
  9
$LUNITS
 70
     2
  9
$LUPREC
 70
     3
  9
$SKETCHINC
 40
0.1
  9
$FILLETRAD
 40
50.0
  9
$AUNITS
 70
     0
  9
$AUPREC
 70
     0
  9
$MENU
  1
acad
  9
$ELEVATION
 40
0.0
  9
$PELEVATION
 40
0.0
  9
$THICKNESS
 40
0.0
  9
$LIMCHECK
 70
     0
  9
$CHAMFERA
 40
0.5
  9
$CHAMFERB
 40
0.5
  9
$CHAMFERC
 40
20.0
  9
$CHAMFERD
 40
0.0
  9
$SKPOLY
 70
     0
  9
$TDCREATE
 40
2451372.418437500
  9
$TDUCREATE
 40
2451372.043440625
  9
$TDUPDATE
 40
2460216.468182870
  9
$TDUUPDATE
 40
2460216.093193785
  9
$TDINDWG
 40
0.0334780324
  9
$TDUSRTIMER
 40
0.0334780324
  9
$USRTIMER
 70
     1
  9
$ANGBASE
 50
0.0
  9
$ANGDIR
 70
     0
  9
$PDMODE
 70
     0
  9
$PDSIZE
 40
0.0
  9
$PLINEWID
 40
0.0
  9
$SPLFRAME
 70
     0
  9
$SPLINETYPE
 70
     6
  9
$SPLINESEGS
 70
     8
  9
$HANDSEED
  5
861E
  9
$SURFTAB1
 70
     6
  9
$SURFTAB2
 70
     6
  9
$SURFTYPE
 70
     6
  9
$SURFU
 70
     6
  9
$SURFV
 70
     6
  9
$UCSBASE
  2

  9
$UCSNAME
  2

  9
$UCSORG
 10
0.0
 20
0.0
 30
0.0
  9
$UCSXDIR
 10
1.0
 20
0.0
 30
0.0
  9
$UCSYDIR
 10
0.0
 20
1.0
 30
0.0
  9
$UCSORTHOREF
  2

  9
$UCSORTHOVIEW
 70
     0
  9
$UCSORGTOP
 10
0.0
 20
0.0
 30
0.0
  9
$UCSORGBOTTOM
 10
0.0
 20
0.0
 30
0.0
  9
$UCSORGLEFT
 10
0.0
 20
0.0
 30
0.0
  9
$UCSORGRIGHT
 10
0.0
 20
0.0
 30
0.0
  9
$UCSORGFRONT
 10
0.0
 20
0.0
 30
0.0
  9
$UCSORGBACK
 10
0.0
 20
0.0
 30
0.0
  9
$PUCSBASE
  2

  9
$PUCSNAME
  2

  9
$PUCSORG
 10
0.0
 20
0.0
 30
0.0
  9
$PUCSXDIR
 10
1.0
 20
0.0
 30
0.0
  9
$PUCSYDIR
 10
0.0
 20
1.0
 30
0.0
  9
$PUCSORTHOREF
  2

  9
$PUCSORTHOVIEW
 70
     0
  9
$PUCSORGTOP
 10
0.0
 20
0.0
 30
0.0
  9
$PUCSORGBOTTOM
 10
0.0
 20
0.0
 30
0.0
  9
$PUCSORGLEFT
 10
0.0
 20
0.0
 30
0.0
  9
$PUCSORGRIGHT
 10
0.0
 20
0.0
 30
0.0
  9
$PUCSORGFRONT
 10
0.0
 20
0.0
 30
0.0
  9
$PUCSORGBACK
 10
0.0
 20
0.0
 30
0.0
  9
$USERI1
 70
     0
  9
$USERI2
 70
     0
  9
$USERI3
 70
     0
  9
$USERI4
 70
     0
  9
$USERI5
 70
     0
  9
$USERR1
 40
0.0
  9
$USERR2
 40
0.0
  9
$USERR3
 40
0.0
  9
$USERR4
 40
0.0
  9
$USERR5
 40
0.0
  9
$WORLDVIEW
 70
     1
  9
$SHADEDGE
 70
     3
  9
$SHADEDIF
 70
    70
  9
$TILEMODE
 70
     1
  9
$MAXACTVP
 70
    16
  9
$PINSBASE
 10
0.0
 20
0.0
 30
0.0
  9
$PLIMCHECK
 70
     0
  9
$PEXTMIN
 10
1.000000000000000E+20
 20
1.000000000000000E+20
 30
1.000000000000000E+20
  9
$PEXTMAX
 10
-1.000000000000000E+20
 20
-1.000000000000000E+20
 30
-1.000000000000000E+20
  9
$PLIMMIN
 10
0.0
 20
0.0
  9
$PLIMMAX
 10
12.0
 20
9.0
  9
$UNITMODE
 70
     0
  9
$VISRETAIN
 70
     0
  9
$PLINEGEN
 70
     0
  9
$PSLTSCALE
 70
     1
  9
$TREEDEPTH
 70
  3020
  9
$CMLSTYLE
  2
STANDARD
  9
$CMLJUST
 70
     0
  9
$CMLSCALE
 40
20.0
  9
$PROXYGRAPHICS
 70
     1
  9
$MEASUREMENT
 70
     1
  9
$CELWEIGHT
370
    -1
  9
$ENDCAPS
280
     0
  9
$JOINSTYLE
280
     0
  9
$LWDISPLAY
290
     0
  9
$INSUNITS
 70
     0
  9
$HYPERLINKBASE
  1

  9
$STYLESHEET
  1

  9
$XEDIT
290
     1
  9
$CEPSNTYPE
380
     0
  9
$PSTYLEMODE
290
     1
  9
$FINGERPRINTGUID
  2
{F0022F33-0927-402E-A1CD-7C95289E3A96}
  9
$VERSIONGUID
  2
{6351D8CB-9BE1-42F2-8331-E35F382A64C5}
  9
$EXTNAMES
290
     1
  9
$PSVPSCALE
 40
0.0
  9
$OLESTARTUP
290
     0
  9
$SORTENTS
280
   127
  9
$INDEXCTL
280
     0
  9
$HIDETEXT
280
     0
  9
$XCLIPFRAME
280
     2
  9
$HALOGAP
280
     0
  9
$OBSCOLOR
 70
   257
  9
$OBSLTYPE
280
     0
  9
$INTERSECTIONDISPLAY
280
     0
  9
$INTERSECTIONCOLOR
 70
   257
  9
$DIMASSOC
280
     1
  9
$PROJECTNAME
  1

  9
$CAMERADISPLAY
290
     0
  9
$LENSLENGTH
 40
50.0
  9
$CAMERAHEIGHT
 40
0.0
  9
$STEPSPERSEC
 40
2.0
  9
$STEPSIZE
 40
6.0
  9
$3DDWFPREC
 40
2.0
  9
$PSOLWIDTH
 40
0.25
  9
$PSOLHEIGHT
 40
4.0
  9
$LOFTANG1
 40
1.570796326794896
  9
$LOFTANG2
 40
1.570796326794896
  9
$LOFTMAG1
 40
0.0
  9
$LOFTMAG2
 40
0.0
  9
$LOFTPARAM
 70
     7
  9
$LOFTNORMALS
280
     1
  9
$LATITUDE
 40
37.795
  9
$LONGITUDE
 40
-122.394
  9
$NORTHDIRECTION
 40
0.0
  9
$TIMEZONE
 70
 -8000
  9
$LIGHTGLYPHDISPLAY
280
     1
  9
$TILEMODELIGHTSYNCH
280
     1
  9
$CMATERIAL
347
8539
  9
$SOLIDHIST
280
     0
  9
$SHOWHIST
280
     1
  9
$DWFFRAME
280
     2
  9
$DGNFRAME
280
     0
  9
$REALWORLDSCALE
290
     1
  9
$INTERFERECOLOR
 62
     1
  9
$INTERFEREOBJVS
345
855B
  9
$INTERFEREVPVS
346
8558
  9
$CSHADOW
280
     0
  9
$SHADOWPLANELOCATION
 40
0.0
  0
ENDSEC
  0
SECTION
  2
CLASSES
  0
CLASS
  1
ACDBDICTIONARYWDFLT
  2
AcDbDictionaryWithDefault
  3
ObjectDBX Classes
 90
        0
 91
        1
280
     0
281
     0
  0
CLASS
  1
MATERIAL
  2
AcDbMaterial
  3
ObjectDBX Classes
 90
     1153
 91
        3
280
     0
281
     0
  0
CLASS
  1
VISUALSTYLE
  2
AcDbVisualStyle
  3
ObjectDBX Classes
 90
     4095
 91
       24
280
     0
281
     0
  0
CLASS
  1
TABLESTYLE
  2
AcDbTableStyle
  3
ObjectDBX Classes
 90
     4095
 91
        1
280
     0
281
     0
  0
CLASS
  1
SCALE
  2
AcDbScale
  3
ObjectDBX Classes
 90
     1153
 91
       17
280
     0
281
     0
  0
CLASS
  1
MLEADERSTYLE
  2
AcDbMLeaderStyle
  3
ACDB_MLEADERSTYLE_CLASS
 90
     4095
 91
        1
280
     0
281
     0
  0
CLASS
  1
ACDBSECTIONVIEWSTYLE
  2
AcDbSectionViewStyle
  3
ObjectDBX Classes
 90
     1025
 91
        1
280
     0
281
     0
  0
CLASS
  1
ACDBDETAILVIEWSTYLE
  2
AcDbDetailViewStyle
  3
ObjectDBX Classes
 90
     1025
 91
        1
280
     0
281
     0
  0
CLASS
  1
SORTENTSTABLE
  2
AcDbSortentsTable
  3
ObjectDBX Classes
 90
        0
 91
        1
280
     0
281
     0
  0
CLASS
  1
DICTIONARYVAR
  2
AcDbDictionaryVar
  3
ObjectDBX Classes
 90
        0
 91
       10
280
     0
281
     0
  0
CLASS
  1
CELLSTYLEMAP
  2
AcDbCellStyleMap
  3
ObjectDBX Classes
 90
     1152
 91
        1
280
     0
281
     0
  0
ENDSEC
  0
SECTION
  2
TABLES
  0
TABLE
  2
VPORT
  5
8
330
0
100
AcDbSymbolTable
 70
     1
1001
ACAD
1000
DbSaveVer
1071
      278
  0
VPORT
  5
8536
330
8
100
AcDbSymbolTableRecord
100
AcDbViewportTableRecord
  2
*Active
 70
     0
 10
0.0
 20
0.0
 11
1.0
 21
1.0
 12
2844.312017355433
 22
2110.003167371397
 13
0.0
 23
0.0
 14
10.0
 24
10.0
 15
10.0
 25
10.0
 16
0.0
 26
0.0
 36
1.0
 17
0.0
 27
0.0
 37
0.0
 40
7122.521947590219
 41
2.250314465408805
 42
50.0
 43
0.0
 44
0.0
 50
0.0
 51
0.0
 71
     0
 72
   100
 73
     1
 74
     0
 75
     0
 76
     0
 77
     0
 78
     0
281
     0
 65
     1
110
0.0
120
0.0
130
0.0
111
1.0
121
0.0
131
0.0
112
0.0
122
1.0
132
0.0
 79
     0
146
0.0
348
8557
 60
     3
 61
     5
292
     1
282
     1
141
0.0
142
0.0
 63
   250
421
  3355443
1001
ACAD_NAV_VCDISPLAY
1070
     3
  0
ENDTAB
  0
TABLE
  2
LTYPE
  5
5
330
0
100
AcDbSymbolTable
 70
     2
  0
LTYPE
  5
13
330
5
100
AcDbSymbolTableRecord
100
AcDbLinetypeTableRecord
  2
BYBLOCK
 70
     0
  3

 72
    65
 73
     0
 40
0.0
  0
LTYPE
  5
14
330
5
100
AcDbSymbolTableRecord
100
AcDbLinetypeTableRecord
  2
BYLAYER
 70
     0
  3

 72
    65
 73
     0
 40
0.0
  0
LTYPE
  5
15
330
5
100
AcDbSymbolTableRecord
100
AcDbLinetypeTableRecord
  2
CONTINUOUS
 70
     0
  3
Solid line
 72
    65
 73
     0
 40
0.0
  0
LTYPE
  5
1F
330
5
100
AcDbSymbolTableRecord
100
AcDbLinetypeTableRecord
  2
CENTER
 70
     0
  3
____ _ ____ _ ____ _ ____ _ ____ _ ____ _ ____ 
 72
    65
 73
     4
 40
2.0
 49
1.25
 74
     0
 49
-0.25
 74
     0
 49
0.25
 74
     0
 49
-0.25
 74
     0
  0
ENDTAB
  0
TABLE
  2
LAYER
  5
2
102
{ACAD_XDICTIONARY
360
85DE
102
}
330
0
100
AcDbSymbolTable
 70
     6
  0
LAYER
  5
F
102
{ACAD_XDICTIONARY
360
85D1
102
}
330
2
100
AcDbSymbolTableRecord
100
AcDbLayerTableRecord
  2
0
 70
     0
 62
     7
  6
CONTINUOUS
370
    -3
390
84DB
347
8549
348
0
  0
LAYER
  5
31
102
{ACAD_XDICTIONARY
360
85D3
102
}
330
2
100
AcDbSymbolTableRecord
100
AcDbLayerTableRecord
  2
3
 70
     0
 62
     2
  6
CONTINUOUS
370
    -3
390
84DB
347
8549
348
0
  0
LAYER
  5
76D0
102
{ACAD_XDICTIONARY
360
85D5
102
}
330
2
100
AcDbSymbolTableRecord
100
AcDbLayerTableRecord
  2
2
 70
     0
 62
     3
  6
CENTER
370
    -3
390
84DB
347
8549
348
0
  0
LAYER
  5
76D1
102
{ACAD_XDICTIONARY
360
85D7
102
}
330
2
100
AcDbSymbolTableRecord
100
AcDbLayerTableRecord
  2
1
 70
     0
 62
     4
  6
CONTINUOUS
370
    -3
390
84DB
347
8549
348
0
  0
LAYER
  5
76D2
102
{ACAD_XDICTIONARY
360
85D9
102
}
330
2
100
AcDbSymbolTableRecord
100
AcDbLayerTableRecord
  2
4
 70
     0
 62
     7
  6
CONTINUOUS
370
    -3
390
84DB
347
8549
348
0
  0
LAYER
  5
7B0D
330
2
100
AcDbSymbolTableRecord
100
AcDbLayerTableRecord
  2
DEFPOINTS
 70
     0
 62
     7
  6
CONTINUOUS
290
     0
370
    -3
390
84DB
347
8549
348
0
  0
ENDTAB
  0
TABLE
  2
STYLE
  5
3
330
0
100
AcDbSymbolTable
 70
     1
  0
STYLE
  5
10
330
3
100
AcDbSymbolTableRecord
100
AcDbTextStyleTableRecord
  2
STANDARD
 70
     0
 40
0.0
 41
1.0
 50
0.0
 71
     0
 42
180.0
  3
simplex.shx
  4
extfont.shx
  0
ENDTAB
  0
TABLE
  2
VIEW
  5
6
330
0
100
AcDbSymbolTable
 70
     0
  0
ENDTAB
  0
TABLE
  2
UCS
  5
7
330
0
100
AcDbSymbolTable
 70
     0
  0
ENDTAB
  0
TABLE
  2
APPID
  5
9
330
0
100
AcDbSymbolTable
 70
     4
  0
APPID
  5
11
330
9
100
AcDbSymbolTableRecord
100
AcDbRegAppTableRecord
  2
ACAD
 70
     0
  0
APPID
  5
8588
330
9
100
AcDbSymbolTableRecord
100
AcDbRegAppTableRecord
  2
AcadAnnoMonitorAlertIconDisabled
 70
     0
  0
APPID
  5
8589
330
9
100
AcDbSymbolTableRecord
100
AcDbRegAppTableRecord
  2
ACAD_EXEMPT_FROM_CAD_STANDARDS
 70
     0
  0
APPID
  5
85E4
330
9
100
AcDbSymbolTableRecord
100
AcDbRegAppTableRecord
  2
ACAD_NAV_VCDISPLAY
 70
     0
  0
ENDTAB
  0
TABLE
  2
DIMSTYLE
  5
A
330
0
100
AcDbSymbolTable
 70
     2
100
AcDbDimStyleTable
 71
     1
340
1D
  0
DIMSTYLE
105
1D
102
{ACAD_REACTORS
330
81FE
330
8494
330
84A1
330
84AE
330
84BB
330
84C8
102
}
330
A
100
AcDbSymbolTableRecord
100
AcDbDimStyleTableRecord
  2
IGA
 70
     0
 40
2.0
 41
2.0
 42
0.5
 43
10.0
 44
1.0
 47
1.0
 48
1.0
 73
     0
 74
     0
 77
     1
 78
     8
140
3.0
141
0.0
143
0.03937
146
10.0
147
1.0
173
     1
271
     1
272
     0
279
     2
284
     8
340
10
341
79FC
343
79FC
344
79FC
  0
DIMSTYLE
105
7B0F
102
{ACAD_REACTORS
330
8154
330
8155
330
8159
330
815A
330
815B
330
818C
330
8193
330
81A2
330
81A3
330
81A4
330
81AB
102
}
330
A
100
AcDbSymbolTableRecord
100
AcDbDimStyleTableRecord
  2
MATSU
 70
     0
 41
2.0
 42
1.0
 43
10.0
 44
1.0
 73
     0
 74
     0
 77
     1
 78
     8
140
3.0
141
0.0
143
0.03937
147
0.5
172
     1
173
     1
176
   256
177
   256
178
   256
284
     8
289
     0
340
10
341
79FC
343
79FC
344
79FC
  0
ENDTAB
  0
TABLE
  2
BLOCK_RECORD
  5
1
330
0
100
AcDbSymbolTable
 70
    21
  0
BLOCK_RECORD
  5
19
102
{ACAD_XDICTIONARY
360
8509
102
}
330
1
100
AcDbSymbolTableRecord
100
AcDbBlockTableRecord
  2
*MODEL_SPACE
340
84DE
 70
     0
280
     1
281
     0
  0
BLOCK_RECORD
  5
16
102
{ACAD_XDICTIONARY
360
8507
102
}
330
1
100
AcDbSymbolTableRecord
100
AcDbBlockTableRecord
  2
*PAPER_SPACE
340
84DF
 70
     0
280
     1
281
     0
  0
BLOCK_RECORD
  5
79FC
330
1
100
AcDbSymbolTableRecord
100
AcDbBlockTableRecord
  2
_OPEN
340
0
102
{BLKREFS
331
85B9
331
85BA
331
848D
331
848E
331
849A
331
849B
331
84A7
331
84A8
331
84B4
331
84B5
331
84C1
331
84C2
331
851F
331
8520
331
832B
331
832C
331
8336
331
8337
331
8341
331
8342
331
838C
331
838D
331
83AD
331
83AE
331
83B8
331
83B9
331
830A
331
830B
331
8315
331
8316
331
8320
331
8321
331
85CB
331
85CC
102
}
 70
     0
280
     1
281
     0
  0
BLOCK_RECORD
  5
7EF6
330
1
100
AcDbSymbolTableRecord
100
AcDbBlockTableRecord
  2
_DOT
340
0
 70
     0
280
     1
281
     0
  0
BLOCK_RECORD
  5
7F53
330
1
100
AcDbSymbolTableRecord
100
AcDbBlockTableRecord
  2
YA_N
340
0
102
{BLKREFS
331
8130
331
8131
331
8132
331
8133
331
8134
331
81B5
331
81B6
331
81B7
331
81B8
331
81B9
331
81BA
331
81BB
102
}
 70
     0
280
     1
281
     0
  0
BLOCK_RECORD
  5
820A
330
1
100
AcDbSymbolTableRecord
100
AcDbBlockTableRecord
  2
*D3
340
0
 70
     0
280
     1
281
     0
  0
BLOCK_RECORD
  5
8216
330
1
100
AcDbSymbolTableRecord
100
AcDbBlockTableRecord
  2
*D4
340
0
 70
     0
280
     1
281
     0
  0
BLOCK_RECORD
  5
8222
330
1
100
AcDbSymbolTableRecord
100
AcDbBlockTableRecord
  2
*D5
340
0
 70
     0
280
     1
281
     0
  0
BLOCK_RECORD
  5
822E
330
1
100
AcDbSymbolTableRecord
100
AcDbBlockTableRecord
  2
*D6
340
0
 70
     0
280
     1
281
     0
  0
BLOCK_RECORD
  5
823A
330
1
100
AcDbSymbolTableRecord
100
AcDbBlockTableRecord
  2
*D7
340
0
 70
     0
280
     1
281
     0
  0
BLOCK_RECORD
  5
8246
330
1
100
AcDbSymbolTableRecord
100
AcDbBlockTableRecord
  2
*D8
340
0
 70
     0
280
     1
281
     0
  0
BLOCK_RECORD
  5
8298
330
1
100
AcDbSymbolTableRecord
100
AcDbBlockTableRecord
  2
*D9
340
0
 70
     0
280
     1
281
     0
  0
BLOCK_RECORD
  5
82B0
330
1
100
AcDbSymbolTableRecord
100
AcDbBlockTableRecord
  2
*D10
340
0
 70
     0
280
     1
281
     0
  0
BLOCK_RECORD
  5
82BC
330
1
100
AcDbSymbolTableRecord
100
AcDbBlockTableRecord
  2
*D11
340
0
 70
     0
280
     1
281
     0
  0
BLOCK_RECORD
  5
82C8
330
1
100
AcDbSymbolTableRecord
100
AcDbBlockTableRecord
  2
*D12
340
0
 70
     0
280
     1
281
     0
  0
BLOCK_RECORD
  5
82D4
330
1
100
AcDbSymbolTableRecord
100
AcDbBlockTableRecord
  2
*D13
340
0
 70
     0
280
     1
281
     0
  0
BLOCK_RECORD
  5
82FA
330
1
100
AcDbSymbolTableRecord
100
AcDbBlockTableRecord
  2
*D14
340
0
 70
     0
280
     1
281
     0
  0
BLOCK_RECORD
  5
843B
330
1
100
AcDbSymbolTableRecord
100
AcDbBlockTableRecord
  2
_NONE
340
0
 70
     0
280
     1
281
     0
  0
BLOCK_RECORD
  5
8488
330
1
100
AcDbSymbolTableRecord
100
AcDbBlockTableRecord
  2
*D16
340
0
 70
     0
280
     1
281
     0
  0
BLOCK_RECORD
  5
8495
330
1
100
AcDbSymbolTableRecord
100
AcDbBlockTableRecord
  2
*D17
340
0
 70
     0
280
     1
281
     0
  0
BLOCK_RECORD
  5
84A2
330
1
100
AcDbSymbolTableRecord
100
AcDbBlockTableRecord
  2
*D18
340
0
 70
     0
280
     1
281
     0
  0
BLOCK_RECORD
  5
84AF
330
1
100
AcDbSymbolTableRecord
100
AcDbBlockTableRecord
  2
*D19
340
0
 70
     0
280
     1
281
     0
  0
BLOCK_RECORD
  5
84BC
330
1
100
AcDbSymbolTableRecord
100
AcDbBlockTableRecord
  2
*D20
340
0
 70
     0
280
     1
281
     0
  0
ENDTAB
  0
ENDSEC
  0
SECTION
  2
BLOCKS
  0
BLOCK
  5
1A
330
19
100
AcDbEntity
  8
0
100
AcDbBlockBegin
  2
*MODEL_SPACE
 70
     0
 10
0.0
 20
0.0
 30
0.0
  3
*MODEL_SPACE
  1

  0
ENDBLK
  5
1B
330
19
100
AcDbEntity
  8
0
100
AcDbBlockEnd
  0
BLOCK
  5
17
330
16
100
AcDbEntity
 67
     1
  8
0
100
AcDbBlockBegin
  2
*PAPER_SPACE
 70
     0
 10
0.0
 20
0.0
 30
0.0
  3
*PAPER_SPACE
  1

  0
ENDBLK
  5
18
330
16
100
AcDbEntity
 67
     1
  8
0
100
AcDbBlockEnd
  0
BLOCK
  5
7A00
330
79FC
100
AcDbEntity
  8
0
100
AcDbBlockBegin
  2
_OPEN
 70
     0
 10
0.0
 20
0.0
 30
0.0
  3
_OPEN
  1

  0
LINE
  5
79FD
330
79FC
100
AcDbEntity
  8
0
  6
ByBlock
 62
     0
100
AcDbLine
 10
-1.0
 20
0.1666666666666666
 30
0.0
 11
0.0
 21
0.0
 31
0.0
  0
LINE
  5
79FE
330
79FC
100
AcDbEntity
  8
0
  6
ByBlock
 62
     0
100
AcDbLine
 10
0.0
 20
0.0
 30
0.0
 11
-1.0
 21
-0.1666666666666666
 31
0.0
  0
LINE
  5
79FF
330
79FC
100
AcDbEntity
  8
0
  6
ByBlock
 62
     0
100
AcDbLine
 10
0.0
 20
0.0
 30
0.0
 11
-1.0
 21
0.0
 31
0.0
  0
ENDBLK
  5
7A01
330
79FC
100
AcDbEntity
  8
0
100
AcDbBlockEnd
  0
BLOCK
  5
7EF7
330
7EF6
100
AcDbEntity
  8
0
100
AcDbBlockBegin
  2
_DOT
 70
     0
 10
0.0
 20
0.0
 30
0.0
  3
_DOT
  1

  0
LWPOLYLINE
  5
7F0C
330
7EF6
100
AcDbEntity
  8
0
  6
ByBlock
 62
     0
100
AcDbPolyline
 90
        2
 70
     1
 43
0.25
 10
-0.125
 20
0.0
 42
1.0
 10
0.125
 20
0.0
 42
1.0
  0
LINE
  5
7F10
330
7EF6
100
AcDbEntity
  8
0
  6
ByBlock
 62
     0
100
AcDbLine
 10
-0.25
 20
0.0
 30
0.0
 11
-1.0
 21
0.0
 31
0.0
  0
ENDBLK
  5
7EFD
330
7EF6
100
AcDbEntity
  8
0
100
AcDbBlockEnd
  0
BLOCK
  5
7F54
330
7F53
100
AcDbEntity
  8
0
100
AcDbBlockBegin
  2
YA_N
 70
     0
 10
0.0
 20
0.0
 30
0.0
  3
YA_N
  1

  0
ENDBLK
  5
7F55
330
7F53
100
AcDbEntity
  8
0
100
AcDbBlockEnd
  0
BLOCK
  5
8306
330
820A
100
AcDbEntity
  8
0
100
AcDbBlockBegin
  2
*D3
 70
     1
 10
0.0
 20
0.0
 30
0.0
  3
*D3
  1

  0
LINE
  5
8307
330
820A
100
AcDbEntity
  8
0
  6
ByBlock
440
 16777216
100
AcDbLine
 10
6469.906723934092
 20
1859.458127060291
 30
0.0
 11
6645.949445047496
 21
1859.458127060291
 31
0.0
  0
LINE
  5
8308
330
820A
100
AcDbEntity
  8
0
  6
ByBlock
440
 16777216
100
AcDbLine
 10
6469.906723934093
 20
1544.458127060291
 30
0.0
 11
6645.949445047496
 21
1544.458127060291
 31
0.0
  0
LINE
  5
8309
330
820A
100
AcDbEntity
  8
0
  6
ByBlock
440
 16777216
100
AcDbLine
 10
6630.949445047495
 20
1829.458127060291
 30
0.0
 11
6630.949445047495
 21
1574.458127060291
 31
0.0
  0
INSERT
  5
830A
330
820A
100
AcDbEntity
  8
0
  6
ByBlock
440
 16777216
100
AcDbBlockReference
  2
_OPEN
 10
6630.949445047495
 20
1859.458127060291
 30
0.0
 41
30.0
 42
30.0
 43
30.0
 50
90.0
  0
INSERT
  5
830B
330
820A
100
AcDbEntity
  8
0
  6
ByBlock
440
 16777216
100
AcDbBlockReference
  2
_OPEN
 10
6630.949445047495
 20
1544.458127060291
 30
0.0
 41
30.0
 42
30.0
 43
30.0
 50
270.0
  0
MTEXT
  5
830C
330
820A
100
AcDbEntity
  8
0
  6
ByBlock
440
 16777216
100
AcDbMText
 10
6600.949445047496
 20
1701.95812706029
 30
0.0
 40
45.0
 41
0.0
 46
0.0
 71
     5
 72
     5
  1
\A1;φ 315
 11
0.0
 21
1.0
 31
0.0
 73
     1
 44
1.0
  0
POINT
  5
830D
330
820A
100
AcDbEntity
  8
DEFPOINTS
  6
ByBlock
 62
     0
440
 16777216
100
AcDbPoint
 10
6454.906723934093
 20
1859.458127060291
 30
0.0
  0
POINT
  5
830E
330
820A
100
AcDbEntity
  8
DEFPOINTS
  6
ByBlock
 62
     0
440
 16777216
100
AcDbPoint
 10
6454.906723934093
 20
1544.458127060291
 30
0.0
  0
POINT
  5
830F
330
820A
100
AcDbEntity
  8
DEFPOINTS
  6
ByBlock
 62
     0
440
 16777216
100
AcDbPoint
 10
6630.949445047495
 20
1544.458127060291
 30
0.0
  0
ENDBLK
  5
8310
330
820A
100
AcDbEntity
  8
0
100
AcDbBlockEnd
  0
BLOCK
  5
8311
330
8216
100
AcDbEntity
  8
0
100
AcDbBlockBegin
  2
*D4
 70
     1
 10
0.0
 20
0.0
 30
0.0
  3
*D4
  1

  0
LINE
  5
8312
330
8216
100
AcDbEntity
  8
0
  6
ByBlock
440
 16777216
100
AcDbLine
 10
4803.861380661795
 20
2084.819553538991
 30
0.0
 11
4803.861380661795
 21
2153.101919406043
 31
0.0
  0
LINE
  5
8313
330
8216
100
AcDbEntity
  8
0
  6
ByBlock
440
 16777216
100
AcDbLine
 10
5079.784367485865
 20
1727.243279310837
 30
0.0
 11
5079.784367485865
 21
2153.101919406043
 31
0.0
  0
LINE
  5
8314
330
8216
100
AcDbEntity
  8
0
  6
ByBlock
440
 16777216
100
AcDbLine
 10
4833.861380661795
 20
2138.101919406043
 30
0.0
 11
5049.784367485865
 21
2138.101919406043
 31
0.0
  0
INSERT
  5
8315
330
8216
100
AcDbEntity
  8
0
  6
ByBlock
440
 16777216
100
AcDbBlockReference
  2
_OPEN
 10
4803.861380661795
 20
2138.101919406043
 30
0.0
 41
30.0
 42
30.0
 43
30.0
 50
180.0
  0
INSERT
  5
8316
330
8216
100
AcDbEntity
  8
0
  6
ByBlock
440
 16777216
100
AcDbBlockReference
  2
_OPEN
 10
5079.784367485865
 20
2138.101919406043
 30
0.0
 41
30.0
 42
30.0
 43
30.0
  0
MTEXT
  5
8317
330
8216
100
AcDbEntity
  8
0
  6
ByBlock
440
 16777216
100
AcDbMText
 10
4941.822874073831
 20
2168.101919406043
 30
0.0
 40
45.0
 41
0.0
 46
0.0
 71
     5
 72
     5
  1
\A1;274
 73
     1
 44
1.0
  0
POINT
  5
8318
330
8216
100
AcDbEntity
  8
DEFPOINTS
  6
ByBlock
 62
     0
440
 16777216
100
AcDbPoint
 10
4803.861380661795
 20
2069.819553538991
 30
0.0
  0
POINT
  5
8319
330
8216
100
AcDbEntity
  8
DEFPOINTS
  6
ByBlock
 62
     0
440
 16777216
100
AcDbPoint
 10
5079.784367485865
 20
1712.243279310837
 30
0.0
  0
POINT
  5
831A
330
8216
100
AcDbEntity
  8
DEFPOINTS
  6
ByBlock
 62
     0
440
 16777216
100
AcDbPoint
 10
5079.784367485865
 20
2138.101919406043
 30
0.0
  0
ENDBLK
  5
831B
330
8216
100
AcDbEntity
  8
0
100
AcDbBlockEnd
  0
BLOCK
  5
831C
330
8222
100
AcDbEntity
  8
0
100
AcDbBlockBegin
  2
*D5
 70
     1
 10
0.0
 20
0.0
 30
0.0
  3
*D5
  1

  0
LINE
  5
831D
330
8222
100
AcDbEntity
  8
0
  6
ByBlock
440
 16777216
100
AcDbLine
 10
4803.861380661795
 20
2084.819553538991
 30
0.0
 11
4803.861380661795
 21
2153.101919406043
 31
0.0
  0
LINE
  5
831E
330
8222
100
AcDbEntity
  8
0
  6
ByBlock
440
 16777216
100
AcDbLine
 10
4558.861380661795
 20
2094.569296735335
 30
0.0
 11
4558.861380661795
 21
2153.101919406043
 31
0.0
  0
LINE
  5
831F
330
8222
100
AcDbEntity
  8
0
  6
ByBlock
440
 16777216
100
AcDbLine
 10
4773.861380661794
 20
2138.101919406043
 30
0.0
 11
4588.861380661795
 21
2138.101919406043
 31
0.0
  0
INSERT
  5
8320
330
8222
100
AcDbEntity
  8
0
  6
ByBlock
440
 16777216
100
AcDbBlockReference
  2
_OPEN
 10
4803.861380661795
 20
2138.101919406043
 30
0.0
 41
30.0
 42
30.0
 43
30.0
  0
INSERT
  5
8321
330
8222
100
AcDbEntity
  8
0
  6
ByBlock
440
 16777216
100
AcDbBlockReference
  2
_OPEN
 10
4558.861380661795
 20
2138.101919406043
 30
0.0
 41
30.0
 42
30.0
 43
30.0
 50
180.0
  0
MTEXT
  5
8322
330
8222
100
AcDbEntity
  8
0
  6
ByBlock
440
 16777216
100
AcDbMText
 10
4681.361380661796
 20
2168.101919406043
 30
0.0
 40
45.0
 41
0.0
 46
0.0
 71
     5
 72
     5
  1
\A1;245
 73
     1
 44
1.0
  0
POINT
  5
8323
330
8222
100
AcDbEntity
  8
DEFPOINTS
  6
ByBlock
 62
     0
440
 16777216
100
AcDbPoint
 10
4803.861380661795
 20
2069.819553538991
 30
0.0
  0
POINT
  5
8324
330
8222
100
AcDbEntity
  8
DEFPOINTS
  6
ByBlock
 62
     0
440
 16777216
100
AcDbPoint
 10
4558.861380661795
 20
2079.569296735335
 30
0.0
  0
POINT
  5
8325
330
8222
100
AcDbEntity
  8
DEFPOINTS
  6
ByBlock
 62
     0
440
 16777216
100
AcDbPoint
 10
4558.861380661795
 20
2138.101919406043
 30
0.0
  0
ENDBLK
  5
8326
330
8222
100
AcDbEntity
  8
0
100
AcDbBlockEnd
  0
BLOCK
  5
8327
330
822E
100
AcDbEntity
  8
0
100
AcDbBlockBegin
  2
*D6
 70
     1
 10
0.0
 20
0.0
 30
0.0
  3
*D6
  1

  0
LINE
  5
8328
330
822E
100
AcDbEntity
  8
0
  6
ByBlock
440
 16777216
100
AcDbLine
 10
4543.861380661795
 20
2052.958127060291
 30
0.0
 11
4342.325337541534
 21
2052.958127060291
 31
0.0
  0
LINE
  5
8329
330
822E
100
AcDbEntity
  8
0
  6
ByBlock
440
 16777216
100
AcDbLine
 10
4513.867556285847
 20
1701.95812706029
 30
0.0
 11
4342.325337541534
 21
1701.95812706029
 31
0.0
  0
LINE
  5
832A
330
822E
100
AcDbEntity
  8
0
  6
ByBlock
440
 16777216
100
AcDbLine
 10
4357.325337541533
 20
2022.958127060291
 30
0.0
 11
4357.325337541533
 21
1731.958127060291
 31
0.0
  0
INSERT
  5
832B
330
822E
100
AcDbEntity
  8
0
  6
ByBlock
440
 16777216
100
AcDbBlockReference
  2
_OPEN
 10
4357.325337541533
 20
2052.958127060291
 30
0.0
 41
30.0
 42
30.0
 43
30.0
 50
90.0
  0
INSERT
  5
832C
330
822E
100
AcDbEntity
  8
0
  6
ByBlock
440
 16777216
100
AcDbBlockReference
  2
_OPEN
 10
4357.325337541533
 20
1701.95812706029
 30
0.0
 41
30.0
 42
30.0
 43
30.0
 50
270.0
  0
MTEXT
  5
832D
330
822E
100
AcDbEntity
  8
0
  6
ByBlock
440
 16777216
100
AcDbMText
 10
4327.325337541533
 20
1877.458127060291
 30
0.0
 40
45.0
 41
0.0
 46
0.0
 71
     5
 72
     5
  1
\A1;351
 11
0.0
 21
1.0
 31
0.0
 73
     1
 44
1.0
  0
POINT
  5
832E
330
822E
100
AcDbEntity
  8
DEFPOINTS
  6
ByBlock
 62
     0
440
 16777216
100
AcDbPoint
 10
4558.861380661794
 20
2052.958127060291
 30
0.0
  0
POINT
  5
832F
330
822E
100
AcDbEntity
  8
DEFPOINTS
  6
ByBlock
 62
     0
440
 16777216
100
AcDbPoint
 10
4528.867556285847
 20
1701.95812706029
 30
0.0
  0
POINT
  5
8330
330
822E
100
AcDbEntity
  8
DEFPOINTS
  6
ByBlock
 62
     0
440
 16777216
100
AcDbPoint
 10
4357.325337541533
 20
1701.95812706029
 30
0.0
  0
ENDBLK
  5
8331
330
822E
100
AcDbEntity
  8
0
100
AcDbBlockEnd
  0
BLOCK
  5
8332
330
823A
100
AcDbEntity
  8
0
100
AcDbBlockBegin
  2
*D7
 70
     1
 10
0.0
 20
0.0
 30
0.0
  3
*D7
  1

  0
LINE
  5
8333
330
823A
100
AcDbEntity
  8
0
  6
ByBlock
440
 16777216
100
AcDbLine
 10
4543.861380661795
 20
2052.958127060291
 30
0.0
 11
4452.424061992561
 21
2052.958127060291
 31
0.0
  0
LINE
  5
8334
330
823A
100
AcDbEntity
  8
0
  6
ByBlock
440
 16777216
100
AcDbLine
 10
4543.861380661795
 20
1727.958127060291
 30
0.0
 11
4452.424061992561
 21
1727.958127060291
 31
0.0
  0
LINE
  5
8335
330
823A
100
AcDbEntity
  8
0
  6
ByBlock
440
 16777216
100
AcDbLine
 10
4467.424061992562
 20
2022.958127060291
 30
0.0
 11
4467.424061992562
 21
1757.958127060291
 31
0.0
  0
INSERT
  5
8336
330
823A
100
AcDbEntity
  8
0
  6
ByBlock
440
 16777216
100
AcDbBlockReference
  2
_OPEN
 10
4467.424061992562
 20
2052.958127060291
 30
0.0
 41
30.0
 42
30.0
 43
30.0
 50
90.0
  0
INSERT
  5
8337
330
823A
100
AcDbEntity
  8
0
  6
ByBlock
440
 16777216
100
AcDbBlockReference
  2
_OPEN
 10
4467.424061992562
 20
1727.958127060291
 30
0.0
 41
30.0
 42
30.0
 43
30.0
 50
270.0
  0
MTEXT
  5
8338
330
823A
100
AcDbEntity
  8
0
  6
ByBlock
440
 16777216
100
AcDbMText
 10
4437.424061992562
 20
1890.458127060291
 30
0.0
 40
45.0
 41
0.0
 46
0.0
 71
     5
 72
     5
  1
\A1;325
 11
0.0
 21
1.0
 31
0.0
 73
     1
 44
1.0
  0
POINT
  5
8339
330
823A
100
AcDbEntity
  8
DEFPOINTS
  6
ByBlock
 62
     0
440
 16777216
100
AcDbPoint
 10
4558.861380661794
 20
2052.958127060291
 30
0.0
  0
POINT
  5
833A
330
823A
100
AcDbEntity
  8
DEFPOINTS
  6
ByBlock
 62
     0
440
 16777216
100
AcDbPoint
 10
4558.861380661794
 20
1727.958127060291
 30
0.0
  0
POINT
  5
833B
330
823A
100
AcDbEntity
  8
DEFPOINTS
  6
ByBlock
 62
     0
440
 16777216
100
AcDbPoint
 10
4467.424061992562
 20
1727.958127060291
 30
0.0
  0
ENDBLK
  5
833C
330
823A
100
AcDbEntity
  8
0
100
AcDbBlockEnd
  0
BLOCK
  5
833D
330
8246
100
AcDbEntity
  8
0
100
AcDbBlockBegin
  2
*D8
 70
     1
 10
0.0
 20
0.0
 30
0.0
  3
*D8
  1

  0
LINE
  5
833E
330
8246
100
AcDbEntity
  8
0
  6
ByBlock
440
 16777216
100
AcDbLine
 10
4513.867556285847
 20
1701.95812706029
 30
0.0
 11
4342.325337541534
 21
1701.95812706029
 31
0.0
  0
LINE
  5
833F
330
8246
100
AcDbEntity
  8
0
  6
ByBlock
440
 16777216
100
AcDbLine
 10
4576.861380661795
 20
1421.958127060291
 30
0.0
 11
4342.325337541534
 21
1421.958127060291
 31
0.0
  0
LINE
  5
8340
330
8246
100
AcDbEntity
  8
0
  6
ByBlock
440
 16777216
100
AcDbLine
 10
4357.325337541533
 20
1671.958127060291
 30
0.0
 11
4357.325337541533
 21
1451.958127060291
 31
0.0
  0
INSERT
  5
8341
330
8246
100
AcDbEntity
  8
0
  6
ByBlock
440
 16777216
100
AcDbBlockReference
  2
_OPEN
 10
4357.325337541533
 20
1701.95812706029
 30
0.0
 41
30.0
 42
30.0
 43
30.0
 50
90.0
  0
INSERT
  5
8342
330
8246
100
AcDbEntity
  8
0
  6
ByBlock
440
 16777216
100
AcDbBlockReference
  2
_OPEN
 10
4357.325337541533
 20
1421.958127060291
 30
0.0
 41
30.0
 42
30.0
 43
30.0
 50
270.0
  0
MTEXT
  5
8343
330
8246
100
AcDbEntity
  8
0
  6
ByBlock
440
 16777216
100
AcDbMText
 10
4327.325337541533
 20
1561.958127060291
 30
0.0
 40
45.0
 41
0.0
 46
0.0
 71
     5
 72
     5
  1
\A1;280
 11
0.0
 21
1.0
 31
0.0
 73
     1
 44
1.0
  0
POINT
  5
8344
330
8246
100
AcDbEntity
  8
DEFPOINTS
  6
ByBlock
 62
     0
440
 16777216
100
AcDbPoint
 10
4528.867556285847
 20
1701.95812706029
 30
0.0
  0
POINT
  5
8345
330
8246
100
AcDbEntity
  8
DEFPOINTS
  6
ByBlock
 62
     0
440
 16777216
100
AcDbPoint
 10
4591.861380661795
 20
1421.958127060291
 30
0.0
  0
POINT
  5
8346
330
8246
100
AcDbEntity
  8
DEFPOINTS
  6
ByBlock
 62
     0
440
 16777216
100
AcDbPoint
 10
4357.325337541533
 20
1421.958127060291
 30
0.0
  0
ENDBLK
  5
8347
330
8246
100
AcDbEntity
  8
0
100
AcDbBlockEnd
  0
BLOCK
  5
8388
330
8298
100
AcDbEntity
  8
0
100
AcDbBlockBegin
  2
*D9
 70
     1
 10
0.0
 20
0.0
 30
0.0
  3
*D9
  1

  0
LINE
  5
8389
330
8298
100
AcDbEntity
  8
0
  6
ByBlock
440
 16777216
100
AcDbLine
 10
6450.706723934093
 20
2067.95812706029
 30
0.0
 11
6450.706723934093
 21
2157.479479225552
 31
0.0
  0
LINE
  5
838A
330
8298
100
AcDbEntity
  8
0
  6
ByBlock
440
 16777216
100
AcDbLine
 10
6025.706723934093
 20
2067.958127060291
 30
0.0
 11
6025.706723934093
 21
2157.479479225552
 31
0.0
  0
LINE
  5
838B
330
8298
100
AcDbEntity
  8
0
  6
ByBlock
440
 16777216
100
AcDbLine
 10
6420.706723934093
 20
2142.479479225553
 30
0.0
 11
6055.706723934093
 21
2142.479479225553
 31
0.0
  0
INSERT
  5
838C
330
8298
100
AcDbEntity
  8
0
  6
ByBlock
440
 16777216
100
AcDbBlockReference
  2
_OPEN
 10
6450.706723934093
 20
2142.479479225553
 30
0.0
 41
30.0
 42
30.0
 43
30.0
  0
INSERT
  5
838D
330
8298
100
AcDbEntity
  8
0
  6
ByBlock
440
 16777216
100
AcDbBlockReference
  2
_OPEN
 10
6025.706723934093
 20
2142.479479225553
 30
0.0
 41
30.0
 42
30.0
 43
30.0
 50
180.0
  0
MTEXT
  5
838E
330
8298
100
AcDbEntity
  8
0
  6
ByBlock
440
 16777216
100
AcDbMText
 10
6238.206723934093
 20
2172.479479225553
 30
0.0
 40
45.0
 41
0.0
 46
0.0
 71
     5
 72
     5
  1
\A1;425
 73
     1
 44
1.0
  0
POINT
  5
838F
330
8298
100
AcDbEntity
  8
DEFPOINTS
  6
ByBlock
 62
     0
440
 16777216
100
AcDbPoint
 10
6450.706723934093
 20
2052.958127060291
 30
0.0
  0
POINT
  5
8390
330
8298
100
AcDbEntity
  8
DEFPOINTS
  6
ByBlock
 62
     0
440
 16777216
100
AcDbPoint
 10
6025.706723934093
 20
2052.958127060291
 30
0.0
  0
POINT
  5
8391
330
8298
100
AcDbEntity
  8
DEFPOINTS
  6
ByBlock
 62
     0
440
 16777216
100
AcDbPoint
 10
6025.706723934093
 20
2142.479479225553
 30
0.0
  0
ENDBLK
  5
8392
330
8298
100
AcDbEntity
  8
0
100
AcDbBlockEnd
  0
BLOCK
  5
839E
330
82B0
100
AcDbEntity
  8
0
100
AcDbBlockBegin
  2
*D10
 70
     1
 10
0.0
 20
0.0
 30
0.0
  3
*D10
  1

  0
LINE
  5
85B6
330
82B0
100
AcDbEntity
  8
3
440
 16777216
370
    -2
100
AcDbLine
 10
2807.088601786227
 20
1694.958127060291
 30
0.0
 11
2807.088601786227
 21
2249.411566198013
 31
0.0
  0
LINE
  5
85B7
330
82B0
100
AcDbEntity
  8
3
440
 16777216
370
    -2
100
AcDbLine
 10
2517.088601786227
 20
2220.436486295182
 30
0.0
 11
2517.088601786227
 21
2249.411566198013
 31
0.0
  0
LINE
  5
85B8
330
82B0
100
AcDbEntity
  8
3
440
 16777216
370
    -2
100
AcDbLine
 10
2777.088601786227
 20
2234.411566198013
 30
0.0
 11
2547.088601786227
 21
2234.411566198013
 31
0.0
  0
INSERT
  5
85B9
330
82B0
100
AcDbEntity
  8
3
440
 16777216
370
    -2
100
AcDbBlockReference
  2
_OPEN
 10
2807.088601786227
 20
2234.411566198013
 30
0.0
 41
30.0
 42
30.0
 43
30.0
  0
INSERT
  5
85BA
330
82B0
100
AcDbEntity
  8
3
440
 16777216
370
    -2
100
AcDbBlockReference
  2
_OPEN
 10
2517.088601786227
 20
2234.411566198013
 30
0.0
 41
30.0
 42
30.0
 43
30.0
 50
180.0
  0
MTEXT
  5
85BB
330
82B0
100
AcDbEntity
  8
3
440
 16777216
100
AcDbMText
 10
2662.088601786227
 20
2276.197280483728
 30
0.0
 40
45.0
 41
0.0
 46
0.0
 71
     5
 72
     1
  1
\A1;(290)
 73
     1
 44
1.0
  0
POINT
  5
85BC
330
82B0
100
AcDbEntity
  8
DEFPOINTS
 62
     0
440
 16777216
100
AcDbPoint
 10
2807.088601786227
 20
1679.958127060291
 30
0.0
  0
POINT
  5
85BD
330
82B0
100
AcDbEntity
  8
DEFPOINTS
 62
     0
440
 16777216
100
AcDbPoint
 10
2517.088601786227
 20
2205.436486295182
 30
0.0
  0
POINT
  5
85BE
330
82B0
100
AcDbEntity
  8
DEFPOINTS
 62
     0
440
 16777216
100
AcDbPoint
 10
2517.088601786227
 20
2234.411566198013
 30
0.0
  0
ENDBLK
  5
83A8
330
82B0
100
AcDbEntity
  8
0
100
AcDbBlockEnd
  0
BLOCK
  5
83A9
330
82BC
100
AcDbEntity
  8
0
100
AcDbBlockBegin
  2
*D11
 70
     1
 10
0.0
 20
0.0
 30
0.0
  3
*D11
  1

  0
LINE
  5
83AA
330
82BC
100
AcDbEntity
  8
0
  6
ByBlock
440
 16777216
100
AcDbLine
 10
5491.861380661795
 20
3034.537089507702
 30
0.0
 11
5491.861380661795
 21
3231.20637347332
 31
0.0
  0
LINE
  5
83AB
330
82BC
100
AcDbEntity
  8
0
  6
ByBlock
440
 16777216
100
AcDbLine
 10
4591.861380661795
 20
3034.537089507702
 30
0.0
 11
4591.861380661795
 21
3231.20637347332
 31
0.0
  0
LINE
  5
83AC
330
82BC
100
AcDbEntity
  8
0
  6
ByBlock
440
 16777216
100
AcDbLine
 10
5461.861380661795
 20
3216.206373473319
 30
0.0
 11
4621.861380661795
 21
3216.206373473319
 31
0.0
  0
INSERT
  5
83AD
330
82BC
100
AcDbEntity
  8
0
  6
ByBlock
440
 16777216
100
AcDbBlockReference
  2
_OPEN
 10
5491.861380661795
 20
3216.206373473319
 30
0.0
 41
30.0
 42
30.0
 43
30.0
  0
INSERT
  5
83AE
330
82BC
100
AcDbEntity
  8
0
  6
ByBlock
440
 16777216
100
AcDbBlockReference
  2
_OPEN
 10
4591.861380661795
 20
3216.206373473319
 30
0.0
 41
30.0
 42
30.0
 43
30.0
 50
180.0
  0
MTEXT
  5
83AF
330
82BC
100
AcDbEntity
  8
0
  6
ByBlock
440
 16777216
100
AcDbMText
 10
5041.861380661795
 20
3246.206373473319
 30
0.0
 40
45.0
 41
0.0
 46
0.0
 71
     5
 72
     5
  1
\A1;900
 73
     1
 44
1.0
  0
POINT
  5
83B0
330
82BC
100
AcDbEntity
  8
DEFPOINTS
  6
ByBlock
 62
     0
440
 16777216
100
AcDbPoint
 10
5491.861380661795
 20
3019.537089507702
 30
0.0
  0
POINT
  5
83B1
330
82BC
100
AcDbEntity
  8
DEFPOINTS
  6
ByBlock
 62
     0
440
 16777216
100
AcDbPoint
 10
4591.861380661795
 20
3019.537089507702
 30
0.0
  0
POINT
  5
83B2
330
82BC
100
AcDbEntity
  8
DEFPOINTS
  6
ByBlock
 62
     0
440
 16777216
100
AcDbPoint
 10
4591.861380661795
 20
3216.206373473319
 30
0.0
  0
ENDBLK
  5
83B3
330
82BC
100
AcDbEntity
  8
0
100
AcDbBlockEnd
  0
BLOCK
  5
83B4
330
82C8
100
AcDbEntity
  8
0
100
AcDbBlockBegin
  2
*D12
 70
     1
 10
0.0
 20
0.0
 30
0.0
  3
*D12
  1

  0
LINE
  5
83B5
330
82C8
100
AcDbEntity
  8
0
  6
ByBlock
440
 16777216
100
AcDbLine
 10
4576.861380661795
 20
3019.537089507702
 30
0.0
 11
4393.37287652653
 21
3019.537089507702
 31
0.0
  0
LINE
  5
83B6
330
82C8
100
AcDbEntity
  8
0
  6
ByBlock
440
 16777216
100
AcDbLine
 10
4576.861380661795
 20
2429.537089507701
 30
0.0
 11
4393.37287652653
 21
2429.537089507701
 31
0.0
  0
LINE
  5
83B7
330
82C8
100
AcDbEntity
  8
0
  6
ByBlock
440
 16777216
100
AcDbLine
 10
4408.37287652653
 20
2989.537089507702
 30
0.0
 11
4408.37287652653
 21
2459.537089507702
 31
0.0
  0
INSERT
  5
83B8
330
82C8
100
AcDbEntity
  8
0
  6
ByBlock
440
 16777216
100
AcDbBlockReference
  2
_OPEN
 10
4408.37287652653
 20
3019.537089507702
 30
0.0
 41
30.0
 42
30.0
 43
30.0
 50
90.0
  0
INSERT
  5
83B9
330
82C8
100
AcDbEntity
  8
0
  6
ByBlock
440
 16777216
100
AcDbBlockReference
  2
_OPEN
 10
4408.37287652653
 20
2429.537089507701
 30
0.0
 41
30.0
 42
30.0
 43
30.0
 50
270.0
  0
MTEXT
  5
83BA
330
82C8
100
AcDbEntity
  8
0
  6
ByBlock
440
 16777216
100
AcDbMText
 10
4378.372876526531
 20
2724.537089507701
 30
0.0
 40
45.0
 41
0.0
 46
0.0
 71
     5
 72
     5
  1
\A1;590
 11
0.0
 21
1.0
 31
0.0
 73
     1
 44
1.0
  0
POINT
  5
83BB
330
82C8
100
AcDbEntity
  8
DEFPOINTS
  6
ByBlock
 62
     0
440
 16777216
100
AcDbPoint
 10
4591.861380661795
 20
3019.537089507702
 30
0.0
  0
POINT
  5
83BC
330
82C8
100
AcDbEntity
  8
DEFPOINTS
  6
ByBlock
 62
     0
440
 16777216
100
AcDbPoint
 10
4591.861380661795
 20
2429.537089507701
 30
0.0
  0
POINT
  5
83BD
330
82C8
100
AcDbEntity
  8
DEFPOINTS
  6
ByBlock
 62
     0
440
 16777216
100
AcDbPoint
 10
4408.37287652653
 20
2429.537089507701
 30
0.0
  0
ENDBLK
  5
83BE
330
82C8
100
AcDbEntity
  8
0
100
AcDbBlockEnd
  0
BLOCK
  5
83F1
330
82D4
100
AcDbEntity
  8
0
100
AcDbBlockBegin
  2
*D13
 70
     1
 10
0.0
 20
0.0
 30
0.0
  3
*D13
  1

  0
LINE
  5
85C9
330
82D4
100
AcDbEntity
  8
3
440
 16777216
370
    -2
100
AcDbLine
 10
2047.088601786228
 20
1868.958127060291
 30
0.0
 11
2047.088601786228
 21
2249.411566198013
 31
0.0
  0
LINE
  5
85CA
330
82D4
100
AcDbEntity
  8
3
440
 16777216
370
    -2
100
AcDbLine
 10
2487.088601786227
 20
2234.411566198013
 30
0.0
 11
2077.088601786228
 21
2234.411566198013
 31
0.0
  0
INSERT
  5
85CB
330
82D4
100
AcDbEntity
  8
3
440
 16777216
370
    -2
100
AcDbBlockReference
  2
_OPEN
 10
2517.088601786227
 20
2234.411566198013
 30
0.0
 41
30.0
 42
30.0
 43
30.0
  0
INSERT
  5
85CC
330
82D4
100
AcDbEntity
  8
3
440
 16777216
370
    -2
100
AcDbBlockReference
  2
_OPEN
 10
2047.088601786228
 20
2234.411566198013
 30
0.0
 41
30.0
 42
30.0
 43
30.0
 50
180.0
  0
MTEXT
  5
85CD
330
82D4
100
AcDbEntity
  8
3
440
 16777216
100
AcDbMText
 10
2282.088601786227
 20
2313.697280483728
 30
0.0
 40
45.0
 41
0.0
 46
0.0
 71
     5
 72
     1
  1
\A1;\P(470)
 73
     1
 44
1.0
  0
POINT
  5
85CE
330
82D4
100
AcDbEntity
  8
DEFPOINTS
 62
     0
440
 16777216
100
AcDbPoint
 10
2517.088601786227
 20
2205.436486295182
 30
0.0
  0
POINT
  5
85CF
330
82D4
100
AcDbEntity
  8
DEFPOINTS
 62
     0
440
 16777216
100
AcDbPoint
 10
2047.088601786228
 20
1853.958127060291
 30
0.0
  0
POINT
  5
85D0
330
82D4
100
AcDbEntity
  8
DEFPOINTS
 62
     0
440
 16777216
100
AcDbPoint
 10
2047.088601786228
 20
2234.411566198013
 30
0.0
  0
ENDBLK
  5
83FA
330
82D4
100
AcDbEntity
  8
0
100
AcDbBlockEnd
  0
BLOCK
  5
83E2
330
82FA
100
AcDbEntity
  8
0
100
AcDbBlockBegin
  2
*D14
 70
     1
 10
0.0
 20
0.0
 30
0.0
  3
*D14
  1

  0
LINE
  5
851C
330
82FA
100
AcDbEntity
  8
3
 62
     0
440
 16777216
100
AcDbLine
 10
837.7432585139304
 20
2087.069296735335
 30
0.0
 11
837.7432585139304
 21
2226.312188916205
 31
0.0
  0
LINE
  5
851D
330
82FA
100
AcDbEntity
  8
3
 62
     0
440
 16777216
100
AcDbLine
 10
1802.743258513929
 20
1544.458127060291
 30
0.0
 11
1802.743258513929
 21
2226.312188916205
 31
0.0
  0
LINE
  5
851E
330
82FA
100
AcDbEntity
  8
3
 62
     0
440
 16777216
100
AcDbLine
 10
867.7432585139303
 20
2211.312188916205
 30
0.0
 11
1772.743258513929
 21
2211.312188916205
 31
0.0
  0
INSERT
  5
851F
330
82FA
100
AcDbEntity
  8
3
 62
     0
440
 16777216
100
AcDbBlockReference
  2
_OPEN
 10
837.7432585139304
 20
2211.312188916205
 30
0.0
 41
30.0
 42
30.0
 43
30.0
 50
180.0
  0
INSERT
  5
8520
330
82FA
100
AcDbEntity
  8
3
 62
     0
440
 16777216
100
AcDbBlockReference
  2
_OPEN
 10
1802.743258513929
 20
2211.312188916205
 30
0.0
 41
30.0
 42
30.0
 43
30.0
  0
MTEXT
  5
8521
330
82FA
100
AcDbEntity
  8
3
 62
     0
440
 16777216
100
AcDbMText
 10
1327.025101616407
 20
2248.812188916205
 30
0.0
 40
45.0
 41
0.0
 46
0.0
 71
     5
 72
     5
  1
\A1;965
 73
     1
 44
1.0
  0
POINT
  5
8522
330
82FA
100
AcDbEntity
  8
DEFPOINTS
 62
     0
440
 16777216
100
AcDbPoint
 10
837.7432585139304
 20
2079.569296735335
 30
0.0
  0
POINT
  5
8523
330
82FA
100
AcDbEntity
  8
DEFPOINTS
 62
     0
440
 16777216
100
AcDbPoint
 10
1802.743258513929
 20
1536.958127060291
 30
0.0
  0
POINT
  5
8524
330
82FA
100
AcDbEntity
  8
DEFPOINTS
 62
     0
440
 16777216
100
AcDbPoint
 10
1802.743258513929
 20
2211.312188916205
 30
0.0
  0
ENDBLK
  5
83EC
330
82FA
100
AcDbEntity
  8
0
100
AcDbBlockEnd
  0
BLOCK
  5
843C
330
843B
100
AcDbEntity
  8
0
100
AcDbBlockBegin
  2
_NONE
 70
     0
 10
0.0
 20
0.0
 30
0.0
  3
_NONE
  1

  0
CIRCLE
  5
843D
330
843B
100
AcDbEntity
  8
0
  6
ByBlock
 62
     0
100
AcDbCircle
 10
0.0
 20
0.0
 30
0.0
 40
0.25
  0
ENDBLK
  5
843E
330
843B
100
AcDbEntity
  8
0
100
AcDbBlockEnd
  0
BLOCK
  5
8489
330
8488
100
AcDbEntity
  8
0
100
AcDbBlockBegin
  2
*D16
 70
     1
 10
0.0
 20
0.0
 30
0.0
  3
*D16
  1

  0
LINE
  5
848A
330
8488
100
AcDbEntity
  8
0
  6
ByBlock
 62
     0
440
 16777216
100
AcDbLine
 10
870.7432585139295
 20
1414.458127060291
 30
0.0
 11
870.7432585139295
 21
1295.351540082225
 31
0.0
  0
LINE
  5
848B
330
8488
100
AcDbEntity
  8
0
  6
ByBlock
 62
     0
440
 16777216
100
AcDbLine
 10
1082.743258513929
 20
1414.45812706029
 30
0.0
 11
1082.743258513929
 21
1295.351540082225
 31
0.0
  0
LINE
  5
848C
330
8488
100
AcDbEntity
  8
0
  6
ByBlock
 62
     0
440
 16777216
100
AcDbLine
 10
900.7432585139294
 20
1310.351540082225
 30
0.0
 11
1052.743258513929
 21
1310.351540082225
 31
0.0
  0
INSERT
  5
848D
330
8488
100
AcDbEntity
  8
0
  6
ByBlock
 62
     0
440
 16777216
100
AcDbBlockReference
  2
_OPEN
 10
870.7432585139295
 20
1310.351540082225
 30
0.0
 41
30.0
 42
30.0
 43
30.0
 50
180.0
  0
INSERT
  5
848E
330
8488
100
AcDbEntity
  8
0
  6
ByBlock
 62
     0
440
 16777216
100
AcDbBlockReference
  2
_OPEN
 10
1082.743258513929
 20
1310.351540082225
 30
0.0
 41
30.0
 42
30.0
 43
30.0
  0
MTEXT
  5
848F
330
8488
100
AcDbEntity
  8
0
  6
ByBlock
 62
     0
440
 16777216
100
AcDbMText
 10
976.7432585139294
 20
1347.851540082225
 30
0.0
 40
45.0
 41
0.0
 46
0.0
 71
     5
 72
     5
  1
\A1;212
 73
     1
 44
1.0
  0
POINT
  5
8490
330
8488
100
AcDbEntity
  8
DEFPOINTS
  6
ByBlock
 62
     0
440
 16777216
100
AcDbPoint
 10
870.7432585139295
 20
1421.958127060291
 30
0.0
  0
POINT
  5
8491
330
8488
100
AcDbEntity
  8
DEFPOINTS
  6
ByBlock
 62
     0
440
 16777216
100
AcDbPoint
 10
1082.743258513929
 20
1421.95812706029
 30
0.0
  0
POINT
  5
8492
330
8488
100
AcDbEntity
  8
DEFPOINTS
  6
ByBlock
 62
     0
440
 16777216
100
AcDbPoint
 10
1082.743258513929
 20
1310.351540082225
 30
0.0
  0
ENDBLK
  5
8493
330
8488
100
AcDbEntity
  8
0
100
AcDbBlockEnd
  0
BLOCK
  5
8496
330
8495
100
AcDbEntity
  8
0
100
AcDbBlockBegin
  2
*D17
 70
     1
 10
0.0
 20
0.0
 30
0.0
  3
*D17
  1

  0
LINE
  5
8497
330
8495
100
AcDbEntity
  8
0
  6
ByBlock
 62
     0
440
 16777216
100
AcDbLine
 10
1082.743258513929
 20
1414.45812706029
 30
0.0
 11
1082.743258513929
 21
1295.351540082225
 31
0.0
  0
LINE
  5
8498
330
8495
100
AcDbEntity
  8
0
  6
ByBlock
 62
     0
440
 16777216
100
AcDbLine
 10
1770.743258513929
 20
1414.458127060291
 30
0.0
 11
1770.743258513929
 21
1295.351540082225
 31
0.0
  0
LINE
  5
8499
330
8495
100
AcDbEntity
  8
0
  6
ByBlock
 62
     0
440
 16777216
100
AcDbLine
 10
1112.743258513929
 20
1310.351540082225
 30
0.0
 11
1740.743258513929
 21
1310.351540082225
 31
0.0
  0
INSERT
  5
849A
330
8495
100
AcDbEntity
  8
0
  6
ByBlock
 62
     0
440
 16777216
100
AcDbBlockReference
  2
_OPEN
 10
1082.743258513929
 20
1310.351540082225
 30
0.0
 41
30.0
 42
30.0
 43
30.0
 50
180.0
  0
INSERT
  5
849B
330
8495
100
AcDbEntity
  8
0
  6
ByBlock
 62
     0
440
 16777216
100
AcDbBlockReference
  2
_OPEN
 10
1770.743258513929
 20
1310.351540082225
 30
0.0
 41
30.0
 42
30.0
 43
30.0
  0
MTEXT
  5
849C
330
8495
100
AcDbEntity
  8
0
  6
ByBlock
 62
     0
440
 16777216
100
AcDbMText
 10
1426.743258513929
 20
1347.851540082225
 30
0.0
 40
45.0
 41
0.0
 46
0.0
 71
     5
 72
     5
  1
\A1;688
 73
     1
 44
1.0
  0
POINT
  5
849D
330
8495
100
AcDbEntity
  8
DEFPOINTS
  6
ByBlock
 62
     0
440
 16777216
100
AcDbPoint
 10
1082.743258513929
 20
1421.95812706029
 30
0.0
  0
POINT
  5
849E
330
8495
100
AcDbEntity
  8
DEFPOINTS
  6
ByBlock
 62
     0
440
 16777216
100
AcDbPoint
 10
1770.743258513929
 20
1421.958127060291
 30
0.0
  0
POINT
  5
849F
330
8495
100
AcDbEntity
  8
DEFPOINTS
  6
ByBlock
 62
     0
440
 16777216
100
AcDbPoint
 10
1770.743258513929
 20
1310.351540082225
 30
0.0
  0
ENDBLK
  5
84A0
330
8495
100
AcDbEntity
  8
0
100
AcDbBlockEnd
  0
BLOCK
  5
84A3
330
84A2
100
AcDbEntity
  8
0
100
AcDbBlockBegin
  2
*D18
 70
     1
 10
0.0
 20
0.0
 30
0.0
  3
*D18
  1

  0
LINE
  5
84A4
330
84A2
100
AcDbEntity
  8
0
  6
ByBlock
 62
     0
440
 16777216
100
AcDbLine
 10
2182.088601786227
 20
1414.458127060291
 30
0.0
 11
2182.088601786227
 21
1295.351540082225
 31
0.0
  0
LINE
  5
84A5
330
84A2
100
AcDbEntity
  8
0
  6
ByBlock
 62
     0
440
 16777216
100
AcDbLine
 10
2517.088601786226
 20
1414.458127060291
 30
0.0
 11
2517.088601786226
 21
1295.351540082225
 31
0.0
  0
LINE
  5
84A6
330
84A2
100
AcDbEntity
  8
0
  6
ByBlock
 62
     0
440
 16777216
100
AcDbLine
 10
2212.088601786227
 20
1310.351540082225
 30
0.0
 11
2487.088601786226
 21
1310.351540082225
 31
0.0
  0
INSERT
  5
84A7
330
84A2
100
AcDbEntity
  8
0
  6
ByBlock
 62
     0
440
 16777216
100
AcDbBlockReference
  2
_OPEN
 10
2182.088601786227
 20
1310.351540082225
 30
0.0
 41
30.0
 42
30.0
 43
30.0
 50
180.0
  0
INSERT
  5
84A8
330
84A2
100
AcDbEntity
  8
0
  6
ByBlock
 62
     0
440
 16777216
100
AcDbBlockReference
  2
_OPEN
 10
2517.088601786226
 20
1310.351540082225
 30
0.0
 41
30.0
 42
30.0
 43
30.0
  0
MTEXT
  5
84A9
330
84A2
100
AcDbEntity
  8
0
  6
ByBlock
 62
     0
440
 16777216
100
AcDbMText
 10
2349.588601786226
 20
1347.851540082225
 30
0.0
 40
45.0
 41
0.0
 46
0.0
 71
     5
 72
     5
  1
\A1;335
 73
     1
 44
1.0
  0
POINT
  5
84AA
330
84A2
100
AcDbEntity
  8
DEFPOINTS
  6
ByBlock
 62
     0
440
 16777216
100
AcDbPoint
 10
2182.088601786227
 20
1421.958127060291
 30
0.0
  0
POINT
  5
84AB
330
84A2
100
AcDbEntity
  8
DEFPOINTS
  6
ByBlock
 62
     0
440
 16777216
100
AcDbPoint
 10
2517.088601786226
 20
1421.958127060291
 30
0.0
  0
POINT
  5
84AC
330
84A2
100
AcDbEntity
  8
DEFPOINTS
  6
ByBlock
 62
     0
440
 16777216
100
AcDbPoint
 10
2517.088601786226
 20
1310.351540082225
 30
0.0
  0
ENDBLK
  5
84AD
330
84A2
100
AcDbEntity
  8
0
100
AcDbBlockEnd
  0
BLOCK
  5
84B0
330
84AF
100
AcDbEntity
  8
0
100
AcDbBlockBegin
  2
*D19
 70
     1
 10
0.0
 20
0.0
 30
0.0
  3
*D19
  1

  0
LINE
  5
84B1
330
84AF
100
AcDbEntity
  8
0
  6
ByBlock
 62
     0
440
 16777216
100
AcDbLine
 10
2517.088601786226
 20
1414.458127060291
 30
0.0
 11
2517.088601786226
 21
1295.351540082225
 31
0.0
  0
LINE
  5
84B2
330
84AF
100
AcDbEntity
  8
0
  6
ByBlock
 62
     0
440
 16777216
100
AcDbLine
 10
2772.088601786227
 20
1414.458127060291
 30
0.0
 11
2772.088601786227
 21
1295.351540082225
 31
0.0
  0
LINE
  5
84B3
330
84AF
100
AcDbEntity
  8
0
  6
ByBlock
 62
     0
440
 16777216
100
AcDbLine
 10
2547.088601786226
 20
1310.351540082225
 30
0.0
 11
2742.088601786227
 21
1310.351540082225
 31
0.0
  0
INSERT
  5
84B4
330
84AF
100
AcDbEntity
  8
0
  6
ByBlock
 62
     0
440
 16777216
100
AcDbBlockReference
  2
_OPEN
 10
2517.088601786226
 20
1310.351540082225
 30
0.0
 41
30.0
 42
30.0
 43
30.0
 50
180.0
  0
INSERT
  5
84B5
330
84AF
100
AcDbEntity
  8
0
  6
ByBlock
 62
     0
440
 16777216
100
AcDbBlockReference
  2
_OPEN
 10
2772.088601786227
 20
1310.351540082225
 30
0.0
 41
30.0
 42
30.0
 43
30.0
  0
MTEXT
  5
84B6
330
84AF
100
AcDbEntity
  8
0
  6
ByBlock
 62
     0
440
 16777216
100
AcDbMText
 10
2644.588601786227
 20
1347.851540082225
 30
0.0
 40
45.0
 41
0.0
 46
0.0
 71
     5
 72
     5
  1
\A1;255
 73
     1
 44
1.0
  0
POINT
  5
84B7
330
84AF
100
AcDbEntity
  8
DEFPOINTS
  6
ByBlock
 62
     0
440
 16777216
100
AcDbPoint
 10
2517.088601786226
 20
1421.958127060291
 30
0.0
  0
POINT
  5
84B8
330
84AF
100
AcDbEntity
  8
DEFPOINTS
  6
ByBlock
 62
     0
440
 16777216
100
AcDbPoint
 10
2772.088601786227
 20
1421.958127060291
 30
0.0
  0
POINT
  5
84B9
330
84AF
100
AcDbEntity
  8
DEFPOINTS
  6
ByBlock
 62
     0
440
 16777216
100
AcDbPoint
 10
2772.088601786227
 20
1310.351540082225
 30
0.0
  0
ENDBLK
  5
84BA
330
84AF
100
AcDbEntity
  8
0
100
AcDbBlockEnd
  0
BLOCK
  5
84BD
330
84BC
100
AcDbEntity
  8
0
100
AcDbBlockBegin
  2
*D20
 70
     1
 10
0.0
 20
0.0
 30
0.0
  3
*D20
  1

  0
LINE
  5
84BE
330
84BC
100
AcDbEntity
  8
0
  6
ByBlock
 62
     0
440
 16777216
100
AcDbLine
 10
830.2432585139294
 20
2052.958127060291
 30
0.0
 11
517.4417863322978
 21
2052.958127060291
 31
0.0
  0
LINE
  5
84BF
330
84BC
100
AcDbEntity
  8
0
  6
ByBlock
 62
     0
440
 16777216
100
AcDbLine
 10
863.2432585139294
 20
1421.958127060291
 30
0.0
 11
517.4417863322978
 21
1421.958127060291
 31
0.0
  0
LINE
  5
84C0
330
84BC
100
AcDbEntity
  8
0
  6
ByBlock
 62
     0
440
 16777216
100
AcDbLine
 10
532.4417863322978
 20
2022.958127060291
 30
0.0
 11
532.4417863322978
 21
1451.958127060291
 31
0.0
  0
INSERT
  5
84C1
330
84BC
100
AcDbEntity
  8
0
  6
ByBlock
 62
     0
440
 16777216
100
AcDbBlockReference
  2
_OPEN
 10
532.4417863322978
 20
2052.958127060291
 30
0.0
 41
30.0
 42
30.0
 43
30.0
 50
90.0
  0
INSERT
  5
84C2
330
84BC
100
AcDbEntity
  8
0
  6
ByBlock
 62
     0
440
 16777216
100
AcDbBlockReference
  2
_OPEN
 10
532.4417863322978
 20
1421.958127060291
 30
0.0
 41
30.0
 42
30.0
 43
30.0
 50
270.0
  0
MTEXT
  5
84C3
330
84BC
100
AcDbEntity
  8
0
  6
ByBlock
 62
     0
440
 16777216
100
AcDbMText
 10
494.9417863322978
 20
1737.45812706029
 30
0.0
 40
45.0
 41
0.0
 46
0.0
 71
     5
 72
     5
  1
\A1;631
 11
0.0
 21
1.0
 31
0.0
 73
     1
 44
1.0
  0
POINT
  5
84C4
330
84BC
100
AcDbEntity
  8
DEFPOINTS
  6
ByBlock
 62
     0
440
 16777216
100
AcDbPoint
 10
837.7432585139295
 20
2052.958127060291
 30
0.0
  0
POINT
  5
84C5
330
84BC
100
AcDbEntity
  8
DEFPOINTS
  6
ByBlock
 62
     0
440
 16777216
100
AcDbPoint
 10
870.7432585139295
 20
1421.958127060291
 30
0.0
  0
POINT
  5
84C6
330
84BC
100
AcDbEntity
  8
DEFPOINTS
  6
ByBlock
 62
     0
440
 16777216
100
AcDbPoint
 10
532.4417863322978
 20
1421.958127060291
 30
0.0
  0
ENDBLK
  5
84C7
330
84BC
100
AcDbEntity
  8
0
100
AcDbBlockEnd
  0
ENDSEC
  0
SECTION
  2
ENTITIES
  0
LINE
  5
7E7F
330
19
100
AcDbEntity
  8
4
100
AcDbLine
 10
2775.0
 20
750.0
 30
0.0
 11
2775.0
 21
450.0
 31
0.0
  0
LINE
  5
7E80
330
19
100
AcDbEntity
  8
4
100
AcDbLine
 10
1725.0
 20
750.0
 30
0.0
 11
1725.0
 21
450.0
 31
0.0
  0
LINE
  5
7E81
330
19
100
AcDbEntity
  8
4
100
AcDbLine
 10
975.0
 20
750.0
 30
0.0
 11
975.0
 21
450.0
 31
0.0
  0
LINE
  5
7E84
330
19
100
AcDbEntity
  8
4
100
AcDbLine
 10
975.0
 20
450.0
 30
0.0
 11
2775.0
 21
450.0
 31
0.0
  0
LINE
  5
7E85
330
19
100
AcDbEntity
  8
4
100
AcDbLine
 10
975.0
 20
600.0
 30
0.0
 11
2775.0
 21
600.0
 31
0.0
  0
TEXT
  5
7E86
330
19
100
AcDbEntity
  8
4
100
AcDbText
 10
1032.753121270352
 20
647.3145387999193
 30
0.0
 40
75.0
  1
機器名称
100
AcDbText
  0
TEXT
  5
7E87
330
19
100
AcDbEntity
  8
4
100
AcDbText
 10
1029.387159037196
 20
482.4677350980164
 30
0.0
 40
75.0
  1
機器型番
100
AcDbText
  0
TEXT
  5
7E88
330
19
100
AcDbEntity
  8
4
100
AcDbText
 10
1768.851932785824
 20
639.2820028649945
 30
0.0
 40
60.0
  1
ミツヤリミットロードファン
100
AcDbText
  0
TEXT
  5
7E89
330
19
100
AcDbEntity
  8
4
100
AcDbText
 10
1779.981743378221
 20
475.739376419915
 30
0.0
 40
75.0
  1
LL#2-5
100
AcDbText
  0
TEXT
  5
7E8B
330
19
100
AcDbEntity
  8
4
100
AcDbText
 10
1206.686190474771
 20
3575.143261998774
 30
0.0
 40
80.99999999999999
  1
床置ベット
100
AcDbText
  0
TEXT
  5
7E8C
330
19
100
AcDbEntity
  8
4
100
AcDbText
 10
474.2513899941696
 20
3800.821464298947
 30
0.0
 40
108.0
  1
遠心式両吸込両持リミットロードファン
100
AcDbText
  0
LINE
  5
7E8D
330
19
100
AcDbEntity
  8
4
100
AcDbLine
 10
375.0
 20
3704.113131397207
 30
0.0
 11
2775.0
 21
3704.113131397207
 31
0.0
  0
LINE
  5
7E8E
330
19
100
AcDbEntity
  8
4
100
AcDbLine
 10
375.0
 20
4004.113131397207
 30
0.0
 11
2775.0
 21
4004.113131397207
 31
0.0
  0
LINE
  5
7E8F
330
19
100
AcDbEntity
  8
4
100
AcDbLine
 10
975.0
 20
750.0
 30
0.0
 11
2775.0
 21
750.0
 31
0.0
  0
LINE
  5
7E90
330
19
100
AcDbEntity
  8
4
100
AcDbLine
 10
375.0
 20
4004.113131397207
 30
0.0
 11
375.0
 21
3704.113131397207
 31
0.0
  0
TEXT
  5
7E91
330
19
100
AcDbEntity
  8
4
100
AcDbText
 10
552.8979421107178
 20
3573.479216319515
 30
0.0
 40
80.99999999999999
  1
左回転左横向
100
AcDbText
  0
TEXT
  5
7E92
330
19
100
AcDbEntity
  8
4
100
AcDbText
 10
2203.454338873935
 20
4059.091622242963
 30
0.0
 40
84.00000000000002
  1
No.
100
AcDbText
  0
TEXT
  5
7E93
330
19
100
AcDbEntity
  8
4
100
AcDbText
 10
1966.94409390002
 20
3575.143261998774
 30
0.0
 40
80.99999999999999
  1
縮尺：1/15
100
AcDbText
  0
LINE
  5
7E94
330
19
100
AcDbEntity
  8
4
100
AcDbLine
 10
2775.0
 20
4004.113131397207
 30
0.0
 11
2775.0
 21
3704.113131397207
 31
0.0
  0
LINE
  5
7E95
330
19
100
AcDbEntity
  8
4
100
AcDbLine
 10
3150.0
 20
4425.0
 30
0.0
 11
3150.0
 21
4425.0
 31
0.0
  0
LINE
  5
7E96
330
19
100
AcDbEntity
  8
4
100
AcDbLine
 10
2160.926133539797
 20
4021.895374688102
 30
0.0
 11
2160.926133539797
 21
4179.978392324628
 31
0.0
  0
LINE
  5
7E97
330
19
100
AcDbEntity
  8
4
100
AcDbLine
 10
2160.926133539797
 20
4179.978392324628
 30
0.0
 11
2775.0
 21
4179.978392324628
 31
0.0
  0
LINE
  5
7E98
330
19
100
AcDbEntity
  8
4
100
AcDbLine
 10
2775.0
 20
4179.978392324628
 30
0.0
 11
2775.0
 21
4021.895374688102
 31
0.0
  0
LINE
  5
7E99
330
19
100
AcDbEntity
  8
4
100
AcDbLine
 10
2775.0
 20
4021.895374688102
 30
0.0
 11
2160.926133539797
 21
4021.895374688102
 31
0.0
  0
LINE
  5
7E9A
330
19
100
AcDbEntity
  8
4
100
AcDbLine
 10
0.0
 20
0.0
 30
0.0
 11
0.0
 21
4425.0
 31
0.0
  0
LINE
  5
7E9B
330
19
100
AcDbEntity
  8
4
100
AcDbLine
 10
0.0
 20
4425.0
 30
0.0
 11
3150.0
 21
4425.0
 31
0.0
  0
LINE
  5
7E9C
330
19
100
AcDbEntity
  8
4
100
AcDbLine
 10
3150.0
 20
4425.0
 30
0.0
 11
3150.0
 21
0.0
 31
0.0
  0
LINE
  5
7E9D
330
19
100
AcDbEntity
  8
4
100
AcDbLine
 10
3150.0
 20
0.0
 30
0.0
 11
0.0
 21
0.0
 31
0.0
  0
INSERT
  5
8130
330
19
100
AcDbEntity
  8
0
100
AcDbBlockReference
  2
YA_N
 10
3932.391056066656
 20
18.09171306838652
 30
0.0
  0
INSERT
  5
8131
330
19
100
AcDbEntity
  8
0
100
AcDbBlockReference
  2
YA_N
 10
3932.391056066656
 20
18.09171306838652
 30
0.0
  0
INSERT
  5
8132
330
19
100
AcDbEntity
  8
0
100
AcDbBlockReference
  2
YA_N
 10
5578.501486385091
 20
366.9515252576145
 30
0.0
  0
INSERT
  5
8133
330
19
100
AcDbEntity
  8
0
100
AcDbBlockReference
  2
YA_N
 10
3716.987419397286
 20
-1431.3922951771
 30
0.0
 41
10.0
 42
10.0
 43
10.0
  0
INSERT
  5
8134
330
19
100
AcDbEntity
  8
0
100
AcDbBlockReference
  2
YA_N
 10
3716.987419397286
 20
-1431.3922951771
 30
0.0
 41
10.0
 42
10.0
 43
10.0
  0
DIMENSION
  5
8154
330
19
100
AcDbEntity
  8
3
100
AcDbDimension
280
     0
  2
*D3
 10
2909.831322899631
 20
1544.458127060291
 30
0.0
 11
2879.83132289963
 21
1701.95812706029
 31
0.0
 12
-3721.118122147866
 22
0.0
 32
0.0
 70
    32
  1
φ <>
 71
     5
 42
-1.0
 73
     0
 74
     0
 75
     0
  3
MATSU
100
AcDbAlignedDimension
 13
2733.788601786227
 23
1859.458127060291
 33
0.0
 14
2733.788601786228
 24
1544.458127060291
 34
0.0
 50
90.0
100
AcDbRotatedDimension
1001
ACAD
1000
DSTYLE
1002
{
1070
    40
1040
15.0
1002
}
  0
DIMENSION
  5
8155
330
19
100
AcDbEntity
  8
3
100
AcDbDimension
280
     0
  2
*D4
 10
1358.666245337999
 20
2138.101919406043
 30
0.0
 11
1220.704751925965
 21
2168.101919406043
 31
0.0
 12
-3721.118122147866
 22
0.0
 32
0.0
 70
    32
  1
274
 71
     5
 42
-1.0
 73
     0
 74
     0
 75
     0
  3
MATSU
100
AcDbAlignedDimension
 13
1082.743258513929
 23
2069.819553538991
 33
0.0
 14
1358.666245337999
 24
1712.243279310837
 34
0.0
100
AcDbRotatedDimension
1001
ACAD
1000
DSTYLE
1002
{
1070
    40
1040
15.0
1002
}
  0
LINE
  5
8156
330
19
100
AcDbEntity
  8
1
100
AcDbLine
 10
2304.588601786228
 20
2052.958127060291
 30
0.0
 11
2304.588601786228
 21
1845.958127060291
 31
0.0
  0
LINE
  5
8157
330
19
100
AcDbEntity
  8
1
100
AcDbLine
 10
2729.588601786227
 20
2052.958127060291
 30
0.0
 11
2729.588601786227
 21
1496.95812706029
 31
0.0
  0
LINE
  5
8158
330
19
100
AcDbEntity
  8
2
100
AcDbLine
 10
807.7494341379814
 20
1701.95812706029
 30
0.0
 11
1375.795167600108
 21
1701.95812706029
 31
0.0
  0
DIMENSION
  5
8159
330
19
100
AcDbEntity
  8
3
100
AcDbDimension
280
     0
  2
*D5
 10
837.7432585139304
 20
2138.101919406043
 30
0.0
 11
960.2432585139304
 21
2168.101919406043
 31
0.0
 12
-3721.118122147866
 22
0.0
 32
0.0
 70
    32
  1
245
 71
     5
 42
-1.0
 73
     0
 74
     0
 75
     0
  3
MATSU
100
AcDbAlignedDimension
 13
1082.743258513929
 23
2069.819553538991
 33
0.0
 14
837.7432585139304
 24
2079.569296735335
 34
0.0
100
AcDbRotatedDimension
1001
ACAD
1000
DSTYLE
1002
{
1070
    40
1040
15.0
1002
}
  0
DIMENSION
  5
815A
330
19
100
AcDbEntity
  8
3
100
AcDbDimension
280
     0
  2
*D6
 10
636.2072153936678
 20
1701.95812706029
 30
0.0
 11
606.2072153936679
 21
1877.458127060291
 31
0.0
 12
-3721.118122147866
 22
0.0
 32
0.0
 70
    32
  1
351
 71
     5
 42
-1.0
 73
     0
 74
     0
 75
     0
  3
MATSU
100
AcDbAlignedDimension
 13
837.7432585139295
 23
2052.958127060291
 33
0.0
 14
807.7494341379814
 24
1701.95812706029
 34
0.0
 50
90.0
100
AcDbRotatedDimension
1001
ACAD
1000
DSTYLE
1002
{
1070
    40
1040
15.0
1002
}
  0
DIMENSION
  5
815B
330
19
100
AcDbEntity
  8
3
100
AcDbDimension
280
     0
  2
*D7
 10
746.3059398446967
 20
1727.958127060291
 30
0.0
 11
716.3059398446967
 21
1890.458127060291
 31
0.0
 12
-3721.118122147866
 22
0.0
 32
0.0
 70
    32
  1
325
 71
     5
 42
-1.0
 73
     0
 74
     0
 75
     0
  3
MATSU
100
AcDbAlignedDimension
 13
837.7432585139295
 23
2052.958127060291
 33
0.0
 14
837.7432585139295
 24
1727.958127060291
 34
0.0
 50
90.0
100
AcDbRotatedDimension
1001
ACAD
1000
DSTYLE
1002
{
1070
    40
1040
15.0
1002
}
  0
LINE
  5
815C
330
19
100
AcDbEntity
  8
1
100
AcDbLine
 10
837.7432585139295
 20
1727.958127060291
 30
0.0
 11
897.3640848840569
 21
1727.958127060291
 31
0.0
  0
LINE
  5
815D
330
19
100
AcDbEntity
  8
1
100
AcDbLine
 10
837.7432585139304
 20
2052.958127060291
 30
0.0
 11
837.7432585139304
 21
2079.569296735335
 31
0.0
  0
LINE
  5
815E
330
19
100
AcDbEntity
  8
1
100
AcDbLine
 10
837.7432585139295
 20
1699.569296735335
 30
0.0
 11
840.7432585139295
 21
1699.569296735335
 31
0.0
  0
LINE
  5
815F
330
19
100
AcDbEntity
  8
1
100
AcDbLine
 10
837.7432585139295
 20
1724.569296735335
 30
0.0
 11
837.7432585139295
 21
1699.569296735335
 31
0.0
  0
LINE
  5
8160
330
19
100
AcDbEntity
  8
2
100
AcDbLine
 10
2032.565217215617
 20
1701.95812706029
 30
0.0
 11
2783.377852839195
 21
1701.95812706029
 31
0.0
  0
LINE
  5
8161
330
19
100
AcDbEntity
  8
1
100
AcDbLine
 10
862.7432585139295
 20
2050.998943386821
 30
0.0
 11
862.7432585139295
 21
2049.998943386821
 31
0.0
  0
LINE
  5
8162
330
19
100
AcDbEntity
  8
1
100
AcDbLine
 10
862.7432585139295
 20
2050.163242262142
 30
0.0
 11
862.7432585139295
 21
1727.958127060291
 31
0.0
  0
LINE
  5
8163
330
19
100
AcDbEntity
  8
2
100
AcDbLine
 10
1082.743258513929
 20
2069.819553538991
 30
0.0
 11
1082.743258513929
 21
1421.95812706029
 31
0.0
  0
LINE
  5
8164
330
19
100
AcDbEntity
  8
1
100
AcDbLine
 10
837.7432585139295
 20
1719.569296735335
 30
0.0
 11
837.7432585139295
 21
2058.457584180804
 31
0.0
  0
LINE
  5
816D
330
19
100
AcDbEntity
  8
1
100
AcDbLine
 10
840.7432585139295
 20
1699.569296735335
 30
0.0
 11
840.7432585139304
 21
2079.569296735335
 31
0.0
  0
LINE
  5
816E
330
19
100
AcDbEntity
  8
1
100
AcDbLine
 10
837.7432585139304
 20
2079.569296735335
 30
0.0
 11
840.7432585139304
 21
2079.569296735335
 31
0.0
  0
LINE
  5
816F
330
19
100
AcDbEntity
  8
1
100
AcDbLine
 10
2182.088601786227
 20
1421.958127060291
 30
0.0
 11
2772.088601786227
 21
1421.958127060291
 31
0.0
  0
LINE
  5
8172
330
19
100
AcDbEntity
  8
2
100
AcDbLine
 10
2517.088601786227
 20
2134.463227886057
 30
0.0
 11
2517.088601786226
 21
1421.958127060291
 31
0.0
  0
LINE
  5
8173
330
19
100
AcDbEntity
  8
1
100
AcDbLine
 10
2772.088601786228
 20
1496.95812706029
 30
0.0
 11
2772.088601786228
 21
1421.958127060291
 31
0.0
  0
LINE
  5
8174
330
19
100
AcDbEntity
  8
1
100
AcDbLine
 10
2182.088601786227
 20
1496.95812706029
 30
0.0
 11
2182.088601786227
 21
1421.958127060291
 31
0.0
  0
LINE
  5
8177
330
19
100
AcDbEntity
  8
1
100
AcDbLine
 10
2304.588601786228
 20
2052.958127060291
 30
0.0
 11
2729.588601786227
 21
2052.958127060291
 31
0.0
  0
LINE
  5
817B
330
19
100
AcDbEntity
  8
1
100
AcDbLine
 10
870.7432585139295
 20
1421.958127060291
 30
0.0
 11
1770.743258513929
 21
1421.958127060291
 31
0.0
  0
LINE
  5
817E
330
19
100
AcDbEntity
  8
1
100
AcDbLine
 10
870.7432585139295
 20
1496.95812706029
 30
0.0
 11
870.7432585139295
 21
1421.958127060291
 31
0.0
  0
LINE
  5
817F
330
19
100
AcDbEntity
  8
1
100
AcDbLine
 10
1770.743258513929
 20
1496.958127060291
 30
0.0
 11
1770.743258513929
 21
1421.958127060291
 31
0.0
  0
LINE
  5
8182
330
19
100
AcDbEntity
  8
2
100
AcDbLine
 10
1602.743258513929
 20
1867.356127060291
 30
0.0
 11
1602.743258513929
 21
1421.958127060291
 31
0.0
  0
LINE
  5
8183
330
19
100
AcDbEntity
  8
2
100
AcDbLine
 10
1793.374587015266
 20
1703.958127060291
 30
0.0
 11
1394.844358513929
 21
1703.958127060291
 31
0.0
  0
LINE
  5
8184
330
19
100
AcDbEntity
  8
2
100
AcDbLine
 10
1082.743258513929
 20
2380.872728829274
 30
0.0
 11
1082.743258513929
 21
3067.825444402695
 31
0.0
  0
LINE
  5
8185
330
19
100
AcDbEntity
  8
1
100
AcDbLine
 10
1770.743258513929
 20
3019.537089507702
 30
0.0
 11
870.7432585139295
 21
3019.537089507702
 31
0.0
  0
LINE
  5
8186
330
19
100
AcDbEntity
  8
1
100
AcDbLine
 10
1770.743258513929
 20
2429.537089507702
 30
0.0
 11
870.7432585139295
 21
2429.537089507701
 31
0.0
  0
LINE
  5
8187
330
19
100
AcDbEntity
  8
1
100
AcDbLine
 10
870.7432585139295
 20
2429.537089507701
 30
0.0
 11
870.7432585139295
 21
2552.037089507702
 31
0.0
  0
LINE
  5
8188
330
19
100
AcDbEntity
  8
1
100
AcDbLine
 10
1770.743258513929
 20
2429.537089507701
 30
0.0
 11
1770.743258513929
 21
3019.537089507702
 31
0.0
  0
LINE
  5
8189
330
19
100
AcDbEntity
  8
1
100
AcDbLine
 10
2807.088601786226
 20
1676.95812706029
 30
0.0
 11
2807.088601786226
 21
1616.958127060291
 31
0.0
  0
LINE
  5
818A
330
19
100
AcDbEntity
  8
1
100
AcDbLine
 10
2740.088601786227
 20
1606.958127060291
 30
0.0
 11
2800.088601786227
 21
1606.958127060291
 31
0.0
  0
LINE
  5
818B
330
19
100
AcDbEntity
  8
1
100
AcDbLine
 10
2740.088601786228
 20
1686.95812706029
 30
0.0
 11
2800.088601786228
 21
1686.958127060291
 31
0.0
  0
DIMENSION
  5
818C
330
19
100
AcDbEntity
  8
3
100
AcDbDimension
280
     0
  2
*D8
 10
636.2072153936678
 20
1421.958127060291
 30
0.0
 11
606.2072153936679
 21
1561.958127060291
 31
0.0
 12
-3721.118122147866
 22
0.0
 32
0.0
 70
    32
 71
     5
 42
-1.0
 73
     0
 74
     0
 75
     0
  3
MATSU
100
AcDbAlignedDimension
 13
807.7494341379814
 23
1701.95812706029
 33
0.0
 14
870.7432585139295
 24
1421.958127060291
 34
0.0
 50
270.0
100
AcDbRotatedDimension
1001
ACAD
1000
DSTYLE
1002
{
1070
    40
1040
15.0
1002
}
  0
DIMENSION
  5
8193
330
19
100
AcDbEntity
  8
3
100
AcDbDimension
280
     0
  2
*D9
 10
2304.588601786228
 20
2142.479479225553
 30
0.0
 11
2517.088601786227
 21
2172.479479225553
 31
0.0
 12
-3721.118122147866
 22
0.0
 32
0.0
 70
    32
 71
     5
 42
-1.0
 73
     0
 74
     0
 75
     0
  3
MATSU
100
AcDbAlignedDimension
 13
2729.588601786227
 23
2052.958127060291
 33
0.0
 14
2304.588601786228
 24
2052.958127060291
 34
0.0
100
AcDbRotatedDimension
1001
ACAD
1000
DSTYLE
1002
{
1070
    40
1040
15.0
1002
}
  0
LINE
  5
8194
330
19
100
AcDbEntity
  8
1
100
AcDbLine
 10
837.7432585139295
 20
2527.037089507701
 30
0.0
 11
837.7432585139295
 21
3002.037089507702
 31
0.0
  0
LINE
  5
8195
330
19
100
AcDbEntity
  8
1
100
AcDbLine
 10
1356.743258513929
 20
2552.037089507702
 30
0.0
 11
1356.743258513929
 21
2977.037089507702
 31
0.0
  0
LINE
  5
8196
330
19
100
AcDbEntity
  8
1
100
AcDbLine
 10
1356.743258513929
 20
2977.037089507702
 30
0.0
 11
840.7432585139295
 21
2977.037089507702
 31
0.0
  0
LINE
  5
8197
330
19
100
AcDbEntity
  8
1
100
AcDbLine
 10
1356.743258513929
 20
2552.037089507702
 30
0.0
 11
840.7432585139295
 21
2552.037089507702
 31
0.0
  0
LINE
  5
8198
330
19
100
AcDbEntity
  8
1
100
AcDbLine
 10
840.7432585139295
 20
2527.037089507701
 30
0.0
 11
840.7432585139295
 21
3002.037089507702
 31
0.0
  0
LINE
  5
8199
330
19
100
AcDbEntity
  8
1
100
AcDbLine
 10
840.7432585139295
 20
2527.037089507701
 30
0.0
 11
837.7432585139295
 21
2527.037089507702
 31
0.0
  0
LINE
  5
819A
330
19
100
AcDbEntity
  8
1
100
AcDbLine
 10
840.7432585139295
 20
3002.037089507702
 30
0.0
 11
837.7432585139295
 21
3002.037089507702
 31
0.0
  0
LINE
  5
819C
330
19
100
AcDbEntity
  8
1
100
AcDbLine
 10
2047.088601786228
 20
1853.958127060291
 30
0.0
 11
2047.088601786227
 21
1551.958127060291
 31
0.0
  0
CIRCLE
  5
819D
330
19
100
AcDbEntity
  8
1
100
AcDbCircle
 10
1082.743258513929
 20
1701.95812706029
 30
0.0
 40
182.5
  0
LINE
  5
819E
330
19
100
AcDbEntity
  8
1
100
AcDbLine
 10
2800.088601786228
 20
1686.958127060291
 30
0.0
 11
2807.088601786226
 21
1676.95812706029
 31
0.0
  0
LINE
  5
819F
330
19
100
AcDbEntity
  8
1
100
AcDbLine
 10
2807.088601786226
 20
1616.958127060291
 30
0.0
 11
2800.088601786227
 21
1606.958127060291
 31
0.0
  0
LINE
  5
81A0
330
19
100
AcDbEntity
  8
1
100
AcDbLine
 10
2740.088601786228
 20
1686.95812706029
 30
0.0
 11
2740.088601786227
 21
1606.958127060291
 31
0.0
  0
LINE
  5
81A1
330
19
100
AcDbEntity
  8
1
100
AcDbLine
 10
1745.243258513929
 20
2294.537089507702
 30
0.0
 11
932.7432585139295
 21
2294.537089507701
 31
0.0
  0
DIMENSION
  5
81A2
330
19
100
AcDbEntity
  8
3
100
AcDbDimension
280
     0
  2
*D10
 10
2517.088601786227
 20
2234.411566198013
 30
0.0
 11
2662.088601786227
 21
2276.197280483728
 31
0.0
 70
    32
  1
(<>)
 71
     5
 42
290.0
 73
     0
 74
     0
 75
     0
  3
MATSU
100
AcDbAlignedDimension
 13
2807.088601786227
 23
1679.958127060291
 33
0.0
 14
2517.088601786227
 24
2205.436486295182
 34
0.0
100
AcDbRotatedDimension
1001
ACAD
1000
DSTYLE
1002
{
1070
    40
1040
15.0
1002
}
  0
DIMENSION
  5
81A3
330
19
100
AcDbEntity
  8
3
100
AcDbDimension
280
     0
  2
*D11
 10
870.7432585139295
 20
3216.206373473319
 30
0.0
 11
1320.743258513929
 21
3246.206373473319
 31
0.0
 12
-3721.118122147866
 22
0.0
 32
0.0
 70
    32
 71
     5
 42
-1.0
 73
     0
 74
     0
 75
     0
  3
MATSU
100
AcDbAlignedDimension
 13
1770.743258513929
 23
3019.537089507702
 33
0.0
 14
870.7432585139295
 24
3019.537089507702
 34
0.0
100
AcDbRotatedDimension
1001
ACAD
1000
DSTYLE
1002
{
1070
    40
1040
15.0
1002
}
  0
DIMENSION
  5
81A4
330
19
100
AcDbEntity
  8
3
100
AcDbDimension
280
     0
  2
*D12
 10
687.254754378665
 20
2429.537089507701
 30
0.0
 11
657.2547543786649
 21
2724.537089507701
 31
0.0
 12
-3721.118122147866
 22
0.0
 32
0.0
 70
    32
 71
     5
 42
-1.0
 73
     0
 74
     0
 75
     0
  3
MATSU
100
AcDbAlignedDimension
 13
870.7432585139295
 23
3019.537089507702
 33
0.0
 14
870.7432585139295
 24
2429.537089507701
 34
0.0
 50
270.0
100
AcDbRotatedDimension
1001
ACAD
1000
DSTYLE
1002
{
1070
    40
1040
15.0
1002
}
  0
LINE
  5
81A5
330
19
100
AcDbEntity
  8
1
100
AcDbLine
 10
1067.743258513929
 20
2485.537089507702
 30
0.0
 11
1067.743258513929
 21
2552.037089507702
 31
0.0
  0
LINE
  5
81A6
330
19
100
AcDbEntity
  8
1
100
AcDbLine
 10
1097.743258513929
 20
2485.537089507702
 30
0.0
 11
1097.743258513929
 21
2552.037089507702
 31
0.0
  0
LINE
  5
81A7
330
19
100
AcDbEntity
  8
1
100
AcDbLine
 10
2239.088601786227
 20
1853.958127060291
 30
0.0
 11
2239.088601786227
 21
1815.017082939218
 31
0.0
  0
LINE
  5
81A8
330
19
100
AcDbEntity
  8
1
100
AcDbLine
 10
2047.088601786227
 20
1853.958127060291
 30
0.0
 11
2239.088601786227
 21
1853.958127060291
 31
0.0
  0
LINE
  5
81A9
330
19
100
AcDbEntity
  8
1
100
AcDbLine
 10
2047.088601786228
 20
1551.958127060291
 30
0.0
 11
2239.088601786228
 21
1551.958127060291
 31
0.0
  0
LINE
  5
81AA
330
19
100
AcDbEntity
  8
1
100
AcDbLine
 10
2239.088601786228
 20
1576.332891872244
 30
0.0
 11
2239.088601786228
 21
1551.958127060291
 31
0.0
  0
DIMENSION
  5
81AB
330
19
100
AcDbEntity
  8
3
100
AcDbDimension
280
     0
  2
*D13
 10
2047.088601786228
 20
2234.411566198013
 30
0.0
 11
2282.088601786227
 21
2313.697280483728
 31
0.0
 70
    32
  1
\P(<>)
 71
     5
 42
469.9999999999991
 73
     0
 74
     0
 75
     0
  3
MATSU
100
AcDbAlignedDimension
 13
2517.088601786227
 23
2205.436486295182
 33
0.0
 14
2047.088601786228
 24
1853.958127060291
 34
0.0
100
AcDbRotatedDimension
1001
ACAD
1000
DSTYLE
1002
{
1070
   287
1070
     4
1070
    40
1040
15.0
1070
    75
1070
     1
1070
   279
1070
     1
1070
   289
1070
     3
1002
}
  0
LINE
  5
81AC
330
19
100
AcDbEntity
  8
2
100
AcDbLine
 10
1795.821956918858
 20
2764.537089507702
 30
0.0
 11
767.8197030672727
 21
2764.537089507702
 31
0.0
  0
LINE
  5
81AE
330
19
100
AcDbEntity
  8
1
100
AcDbLine
 10
870.7432585139295
 20
2977.037089507702
 30
0.0
 11
870.7432585139295
 21
3019.537089507702
 31
0.0
  0
LINE
  5
81B3
330
19
100
AcDbEntity
  8
1
100
AcDbLine
 10
870.7432585139295
 20
1496.95812706029
 30
0.0
 11
1802.743258513929
 21
1496.958127060291
 31
0.0
  0
LINE
  5
81B4
330
19
100
AcDbEntity
  8
1
100
AcDbLine
 10
2182.088601786227
 20
1496.95812706029
 30
0.0
 11
2772.088601786227
 21
1496.95812706029
 31
0.0
  0
INSERT
  5
81B5
330
19
100
AcDbEntity
  8
0
100
AcDbBlockReference
  2
YA_N
 10
12700.670374125
 20
-1.042353153517979
 30
0.0
  0
INSERT
  5
81B6
330
19
100
AcDbEntity
  8
0
100
AcDbBlockReference
  2
YA_N
 10
12700.670374125
 20
-1.042353153517979
 30
0.0
  0
INSERT
  5
81B7
330
19
100
AcDbEntity
  8
0
100
AcDbBlockReference
  2
YA_N
 10
14346.78080444344
 20
347.81745903571
 30
0.0
  0
INSERT
  5
81B8
330
19
100
AcDbEntity
  8
0
100
AcDbBlockReference
  2
YA_N
 10
12485.26673745563
 20
-1450.526361399004
 30
0.0
 41
10.0
 42
10.0
 43
10.0
  0
INSERT
  5
81B9
330
19
100
AcDbEntity
  8
0
100
AcDbBlockReference
  2
YA_N
 10
12485.26673745563
 20
-1450.526361399004
 30
0.0
 41
10.0
 42
10.0
 43
10.0
  0
INSERT
  5
81BA
330
19
100
AcDbEntity
  8
0
  6
ByBlock
 62
     2
100
AcDbBlockReference
  2
YA_N
 10
13856.58041614258
 20
-401.1410369020033
 30
0.0
 41
30.0
 42
30.0
 43
30.0
 50
90.0
  0
INSERT
  5
81BB
330
19
100
AcDbEntity
  8
0
  6
ByBlock
 62
     2
100
AcDbBlockReference
  2
YA_N
 10
13856.58041614258
 20
-401.1410369020033
 30
0.0
 41
30.0
 42
30.0
 43
30.0
 50
90.0
  0
ARC
  5
81BC
330
19
100
AcDbEntity
  8
1
100
AcDbCircle
 10
1602.743258513929
 20
1703.958127060291
 30
0.0
 40
150.0
100
AcDbArc
 50
270.2203672961232
 51
90.22048967544874
  0
CIRCLE
  5
81BD
330
19
100
AcDbEntity
  8
1
100
AcDbCircle
 10
1602.743258513929
 20
1703.958127060291
 30
0.0
 40
75.0
  0
LINE
  5
81BE
330
19
100
AcDbEntity
  8
1
100
AcDbLine
 10
1767.743258513929
 20
1571.958127060291
 30
0.0
 11
1437.743258513929
 21
1571.95812706029
 31
0.0
  0
ARC
  5
81BF
330
19
100
AcDbEntity
  8
1
100
AcDbCircle
 10
1602.743258513929
 20
1703.958127060291
 30
0.0
 40
142.5
100
AcDbArc
 50
180.0
 51
244.787
  0
ARC
  5
81C0
330
19
100
AcDbEntity
  8
1
100
AcDbCircle
 10
1602.743258513929
 20
1703.958127060291
 30
0.0
 40
142.5
100
AcDbArc
 50
295.1874
 51
180.0
  0
LINE
  5
81C1
330
19
100
AcDbEntity
  8
1
100
AcDbLine
 10
1542.20195851393
 20
1574.958127060291
 30
0.0
 11
1663.284558513929
 21
1574.958127060291
 31
0.0
  0
LINE
  5
81C2
330
19
100
AcDbEntity
  8
1
100
AcDbLine
 10
1472.743258513929
 20
1571.958127060291
 30
0.0
 11
1522.743258513929
 21
1571.958127060291
 31
0.0
  0
LINE
  5
81C3
330
19
100
AcDbEntity
  8
1
100
AcDbLine
 10
1483.217658513929
 20
1626.049427060291
 30
0.0
 11
1472.743258513929
 21
1586.958127060291
 31
0.0
  0
LINE
  5
81C4
330
19
100
AcDbEntity
  8
1
100
AcDbLine
 10
1472.743258513929
 20
1586.760727060291
 30
0.0
 11
1472.743258513929
 21
1571.958127060291
 31
0.0
  0
LINE
  5
81C5
330
19
100
AcDbEntity
  8
1
100
AcDbLine
 10
1732.743258513929
 20
1571.958127060291
 30
0.0
 11
1682.743258513929
 21
1571.958127060291
 31
0.0
  0
LINE
  5
81C6
330
19
100
AcDbEntity
  8
1
100
AcDbLine
 10
1722.226058513929
 20
1626.208727060291
 30
0.0
 11
1732.743258513929
 21
1586.958127060291
 31
0.0
  0
LINE
  5
81C7
330
19
100
AcDbEntity
  8
1
100
AcDbLine
 10
1732.743258513929
 20
1586.760727060291
 30
0.0
 11
1732.743258513929
 21
1571.958127060291
 31
0.0
  0
LINE
  5
81C8
330
19
100
AcDbEntity
  8
1
100
AcDbLine
 10
2627.254448048464
 20
1845.958127060291
 30
0.0
 11
2275.254748048464
 21
1845.958127060291
 31
0.0
  0
LINE
  5
81C9
330
19
100
AcDbEntity
  8
1
100
AcDbLine
 10
2627.254448048464
 20
1571.958127060291
 30
0.0
 11
2275.254748048464
 21
1571.958127060292
 31
0.0
  0
LINE
  5
81CA
330
19
100
AcDbEntity
  8
2
100
AcDbLine
 10
2631.764448048464
 20
1703.958127060291
 30
0.0
 11
2172.380748048465
 21
1703.958127060291
 31
0.0
  0
LINE
  5
81CB
330
19
100
AcDbEntity
  8
1
100
AcDbLine
 10
2627.254448048464
 20
1845.958127060292
 30
0.0
 11
2627.254448048464
 21
1571.95812706029
 31
0.0
  0
LINE
  5
81CC
330
19
100
AcDbEntity
  8
1
100
AcDbLine
 10
2275.254748048465
 20
1845.958127060292
 30
0.0
 11
2275.254748048465
 21
1571.958127060291
 31
0.0
  0
LINE
  5
81CD
330
19
100
AcDbEntity
  8
1
100
AcDbLine
 10
2265.254748048465
 20
1645.958127060291
 30
0.0
 11
2265.254748048465
 21
1761.958127060291
 31
0.0
  0
LINE
  5
81CE
330
19
100
AcDbEntity
  8
1
100
AcDbLine
 10
2275.254748048465
 20
1644.958127060291
 30
0.0
 11
2266.254748048464
 21
1644.958127060291
 31
0.0
  0
ARC
  5
81CF
330
19
100
AcDbEntity
  8
1
100
AcDbCircle
 10
2266.254748048464
 20
1645.958127060291
 30
0.0
 40
0.9999
100
AcDbArc
 50
179.9965
 51
270.007
  0
LINE
  5
81D0
330
19
100
AcDbEntity
  8
1
100
AcDbLine
 10
2241.254748048465
 20
1725.958127060291
 30
0.0
 11
2207.088601786227
 21
1725.958127060291
 31
0.0
  0
LINE
  5
81D1
330
19
100
AcDbEntity
  8
1
100
AcDbLine
 10
2258.254748048464
 20
1684.958127060291
 30
0.0
 11
2207.088601786227
 21
1684.958127060291
 31
0.0
  0
LINE
  5
81D2
330
19
100
AcDbEntity
  8
1
100
AcDbLine
 10
2258.254748048464
 20
1722.958127060291
 30
0.0
 11
2207.088601786227
 21
1722.958127060291
 31
0.0
  0
LINE
  5
81D3
330
19
100
AcDbEntity
  8
1
100
AcDbLine
 10
2275.254748048465
 20
1762.958127060291
 30
0.0
 11
2266.254748048464
 21
1762.958127060291
 31
0.0
  0
LINE
  5
81D4
330
19
100
AcDbEntity
  8
1
100
AcDbLine
 10
2258.254748048464
 20
1683.958127060291
 30
0.0
 11
2258.254748048464
 21
1723.958127060291
 31
0.0
  0
LINE
  5
81D5
330
19
100
AcDbEntity
  8
1
100
AcDbLine
 10
2265.254748048465
 20
1683.958127060291
 30
0.0
 11
2258.254748048464
 21
1683.958127060291
 31
0.0
  0
LINE
  5
81D6
330
19
100
AcDbEntity
  8
1
100
AcDbLine
 10
2265.254748048465
 20
1723.958127060291
 30
0.0
 11
2258.254748048464
 21
1723.958127060291
 31
0.0
  0
LINE
  5
81D7
330
19
100
AcDbEntity
  8
1
100
AcDbLine
 10
2241.254748048465
 20
1722.958127060291
 30
0.0
 11
2241.254748048465
 21
1725.958127060291
 31
0.0
  0
ARC
  5
81D8
330
19
100
AcDbEntity
  8
1
100
AcDbCircle
 10
2266.253748048464
 20
1761.958127060291
 30
0.0
 40
0.9998000000000001
100
AcDbArc
 50
89.98600000000001
 51
180.007
  0
LINE
  5
81D9
330
19
100
AcDbEntity
  8
1
100
AcDbLine
 10
1802.743258513929
 20
1536.958127060291
 30
0.0
 11
1402.743258513929
 21
1536.95812706029
 31
0.0
  0
LINE
  5
81DA
330
19
100
AcDbEntity
  8
1
100
AcDbLine
 10
1802.743258513929
 20
1536.958127060291
 30
0.0
 11
1802.743258513929
 21
1496.958127060291
 31
0.0
  0
LINE
  5
81DB
330
19
100
AcDbEntity
  8
1
100
AcDbLine
 10
1402.743258513929
 20
1536.95812706029
 30
0.0
 11
1402.743258513929
 21
1496.95812706029
 31
0.0
  0
LINE
  5
81DC
330
19
100
AcDbEntity
  8
1
100
AcDbLine
 10
1767.743258513929
 20
1571.958127060291
 30
0.0
 11
1777.743258513929
 21
1536.958127060291
 31
0.0
  0
LINE
  5
81DD
330
19
100
AcDbEntity
  8
1
100
AcDbLine
 10
1437.743258513929
 20
1571.958127060291
 30
0.0
 11
1427.743258513929
 21
1536.95812706029
 31
0.0
  0
LINE
  5
81DE
330
19
100
AcDbEntity
  8
1
100
AcDbLine
 10
1460.743258513929
 20
2868.205329459649
 30
0.0
 11
1734.743258513929
 21
2868.205329459649
 31
0.0
  0
LINE
  5
81DF
330
19
100
AcDbEntity
  8
1
100
AcDbLine
 10
1460.743258513929
 20
2516.20562945965
 30
0.0
 11
1734.743258513929
 21
2516.20562945965
 31
0.0
  0
LINE
  5
81E0
330
19
100
AcDbEntity
  8
1
100
AcDbLine
 10
1660.743258513929
 20
2506.20562945965
 30
0.0
 11
1544.743258513929
 21
2506.20562945965
 31
0.0
  0
LINE
  5
81E1
330
19
100
AcDbEntity
  8
1
100
AcDbLine
 10
1734.743258513929
 20
2868.205329459649
 30
0.0
 11
1734.743258513929
 21
2516.205629459649
 31
0.0
  0
LINE
  5
81E2
330
19
100
AcDbEntity
  8
1
100
AcDbLine
 10
1661.743258513929
 20
2516.20562945965
 30
0.0
 11
1661.743258513929
 21
2507.20562945965
 31
0.0
  0
ARC
  5
81E3
330
19
100
AcDbEntity
  8
1
100
AcDbCircle
 10
1660.743258513929
 20
2507.20562945965
 30
0.0
 40
0.9999
100
AcDbArc
 50
269.9965
 51
0.0069999999999659
  0
LINE
  5
81E4
330
19
100
AcDbEntity
  8
1
100
AcDbLine
 10
1460.743258513929
 20
2868.205329459649
 30
0.0
 11
1460.743258513929
 21
2516.205629459649
 31
0.0
  0
LINE
  5
81E5
330
19
100
AcDbEntity
  8
2
100
AcDbLine
 10
1602.743258513929
 20
2872.715329459649
 30
0.0
 11
1602.743258513929
 21
2383.298173236235
 31
0.0
  0
LINE
  5
81E6
330
19
100
AcDbEntity
  8
1
100
AcDbLine
 10
1621.743258513929
 20
2499.20562945965
 30
0.0
 11
1621.743258513929
 21
2454.537089507702
 31
0.0
  0
LINE
  5
81E7
330
19
100
AcDbEntity
  8
1
100
AcDbLine
 10
1583.743258513929
 20
2499.20562945965
 30
0.0
 11
1583.743258513929
 21
2454.537089507701
 31
0.0
  0
LINE
  5
81E8
330
19
100
AcDbEntity
  8
1
100
AcDbLine
 10
1583.743258513929
 20
2482.20562945965
 30
0.0
 11
1580.743258513929
 21
2482.20562945965
 31
0.0
  0
LINE
  5
81E9
330
19
100
AcDbEntity
  8
1
100
AcDbLine
 10
1580.743258513929
 20
2482.20562945965
 30
0.0
 11
1580.743258513929
 21
2454.537089507701
 31
0.0
  0
LINE
  5
81EA
330
19
100
AcDbEntity
  8
1
100
AcDbLine
 10
1622.743258513929
 20
2499.20562945965
 30
0.0
 11
1582.743258513929
 21
2499.20562945965
 31
0.0
  0
LINE
  5
81EB
330
19
100
AcDbEntity
  8
1
100
AcDbLine
 10
1622.743258513929
 20
2506.20562945965
 30
0.0
 11
1622.743258513929
 21
2499.20562945965
 31
0.0
  0
LINE
  5
81EC
330
19
100
AcDbEntity
  8
1
100
AcDbLine
 10
1582.743258513929
 20
2506.20562945965
 30
0.0
 11
1582.743258513929
 21
2499.20562945965
 31
0.0
  0
LINE
  5
81ED
330
19
100
AcDbEntity
  8
1
100
AcDbLine
 10
1543.743258513929
 20
2516.20562945965
 30
0.0
 11
1543.743258513929
 21
2507.20562945965
 31
0.0
  0
ARC
  5
81EE
330
19
100
AcDbEntity
  8
1
100
AcDbCircle
 10
1544.743258513929
 20
2507.204629459649
 30
0.0
 40
0.9998000000000001
100
AcDbArc
 50
179.986
 51
270.007
  0
ARC
  5
81EF
330
19
100
AcDbEntity
  8
1
100
AcDbCircle
 10
1082.743258513929
 20
1701.95812706029
 30
0.0
 40
150.0
100
AcDbArc
 50
90.00000000001081
 51
270.2203672961232
  0
CIRCLE
  5
81F0
330
19
100
AcDbEntity
  8
1
100
AcDbCircle
 10
1082.743258513929
 20
1701.95812706029
 30
0.0
 40
75.0
  0
LINE
  5
81F1
330
19
100
AcDbEntity
  8
1
100
AcDbLine
 10
1602.166019318187
 20
1853.957016372548
 30
0.0
 11
1082.743258513929
 21
1851.958127060291
 31
0.0
  0
LINE
  5
81F2
330
19
100
AcDbEntity
  8
1
100
AcDbLine
 10
1603.320177323718
 20
1553.959236515438
 30
0.0
 11
1083.320177323717
 21
1551.959236515437
 31
0.0
  0
LINE
  5
81F3
330
19
100
AcDbEntity
  8
1
100
AcDbLine
 10
1602.454799109036
 20
1778.957572332718
 30
0.0
 11
1082.454799109036
 21
1776.957572332717
 31
0.0
  0
LINE
  5
81F4
330
19
100
AcDbEntity
  8
1
100
AcDbLine
 10
1603.031717918823
 20
1628.958681787864
 30
0.0
 11
1083.031717918823
 21
1626.958681787864
 31
0.0
  0
LINE
  5
81F5
330
19
100
AcDbEntity
  8
1
100
AcDbLine
 10
2147.088601786227
 20
1776.958127060291
 30
0.0
 11
2207.088601786227
 21
1776.95812706029
 31
0.0
  0
LINE
  5
81F6
330
19
100
AcDbEntity
  8
1
100
AcDbLine
 10
2147.088601786227
 20
1626.95812706029
 30
0.0
 11
2207.088601786227
 21
1626.958127060291
 31
0.0
  0
LINE
  5
81F7
330
19
100
AcDbEntity
  8
1
100
AcDbLine
 10
2147.088601786227
 20
1778.958127060291
 30
0.0
 11
2147.088601786227
 21
1626.95812706029
 31
0.0
  0
LINE
  5
81F8
330
19
100
AcDbEntity
  8
1
100
AcDbLine
 10
2207.088601786227
 20
1778.958127060291
 30
0.0
 11
2207.088601786227
 21
1626.95812706029
 31
0.0
  0
LINE
  5
81F9
330
19
100
AcDbEntity
  8
1
100
AcDbLine
 10
2147.088601786227
 20
1778.958127060291
 30
0.0
 11
2207.088601786227
 21
1778.958127060291
 31
0.0
  0
LINE
  5
81FA
330
19
100
AcDbEntity
  8
1
100
AcDbLine
 10
2147.088601786227
 20
1628.958127060291
 30
0.0
 11
2207.088601786227
 21
1628.95812706029
 31
0.0
  0
LINE
  5
81FB
330
19
100
AcDbEntity
  8
1
100
AcDbLine
 10
2282.254748048464
 20
1536.95812706029
 30
0.0
 11
2552.254748048465
 21
1536.958127060291
 31
0.0
  0
LINE
  5
81FC
330
19
100
AcDbEntity
  8
1
100
AcDbLine
 10
2552.254748048465
 20
1571.958127060291
 30
0.0
 11
2552.254748048465
 21
1496.95812706029
 31
0.0
  0
LINE
  5
81FD
330
19
100
AcDbEntity
  8
1
100
AcDbLine
 10
2282.254748048464
 20
1571.958127060291
 30
0.0
 11
2282.254748048464
 21
1496.95812706029
 31
0.0
  0
DIMENSION
  5
81FE
330
19
100
AcDbEntity
  8
3
100
AcDbDimension
280
     0
  2
*D14
 10
1802.743258513929
 20
2211.312188916205
 30
0.0
 11
1327.025101616407
 21
2211.312188916205
 31
0.0
 70
   160
 71
     5
 42
-1.0
 73
     0
 74
     0
 75
     0
  3
IGA
100
AcDbAlignedDimension
 13
837.7432585139304
 23
2079.569296735335
 33
0.0
 14
1802.743258513929
 24
1536.958127060291
 34
0.0
100
AcDbRotatedDimension
1001
ACAD
1000
DSTYLE
1002
{
1070
   287
1070
     3
1070
    40
1040
15.0
1070
   143
1040
0.039
1070
   172
1070
     1
1070
   271
1070
     0
1070
   279
1070
     0
1070
   288
1070
     1
1002
}
  0
LINE
  5
81FF
330
19
100
AcDbEntity
  8
1
100
AcDbLine
 10
932.7432585139295
 20
2294.537089507701
 30
0.0
 11
932.7432585139295
 21
2486.537089507701
 31
0.0
  0
LINE
  5
8200
330
19
100
AcDbEntity
  8
1
100
AcDbLine
 10
1745.243258513929
 20
2294.537089507702
 30
0.0
 11
1745.243258513929
 21
2486.537089507701
 31
0.0
  0
LINE
  5
8201
330
19
100
AcDbEntity
  8
1
100
AcDbLine
 10
1007.743258513929
 20
2394.537089507701
 30
0.0
 11
1007.743258513929
 21
2454.537089507701
 31
0.0
  0
LINE
  5
8202
330
19
100
AcDbEntity
  8
1
100
AcDbLine
 10
1677.743258513929
 20
2394.537089507702
 30
0.0
 11
1677.743258513929
 21
2454.537089507701
 31
0.0
  0
LINE
  5
8203
330
19
100
AcDbEntity
  8
1
100
AcDbLine
 10
1677.743258513929
 20
2394.537089507702
 30
0.0
 11
1527.743258513928
 21
2394.537089507701
 31
0.0
  0
LINE
  5
8204
330
19
100
AcDbEntity
  8
1
100
AcDbLine
 10
1677.743258513929
 20
2454.537089507702
 30
0.0
 11
1527.743258513928
 21
2454.537089507701
 31
0.0
  0
LINE
  5
8205
330
19
100
AcDbEntity
  8
1
100
AcDbLine
 10
1745.243258513929
 20
2486.537089507701
 30
0.0
 11
932.7432585139295
 21
2486.537089507701
 31
0.0
  0
LINE
  5
8206
330
19
100
AcDbEntity
  8
1
100
AcDbLine
 10
1157.743258513929
 20
2394.537089507701
 30
0.0
 11
1157.743258513929
 21
2454.537089507701
 31
0.0
  0
LINE
  5
8207
330
19
100
AcDbEntity
  8
1
100
AcDbLine
 10
1527.743258513929
 20
2394.537089507702
 30
0.0
 11
1527.743258513929
 21
2454.537089507701
 31
0.0
  0
LINE
  5
8208
330
19
100
AcDbEntity
  8
1
100
AcDbLine
 10
1157.743258513929
 20
2394.537089507701
 30
0.0
 11
1007.743258513929
 21
2394.537089507701
 31
0.0
  0
LINE
  5
8209
330
19
100
AcDbEntity
  8
1
100
AcDbLine
 10
1157.743258513929
 20
2454.537089507701
 30
0.0
 11
1007.743258513929
 21
2454.537089507701
 31
0.0
  0
DIMENSION
  5
8494
330
19
100
AcDbEntity
  8
3
100
AcDbDimension
280
     0
  2
*D16
 10
1082.743258513929
 20
1310.351540082225
 30
0.0
 11
976.7432585139294
 21
1347.851540082225
 31
0.0
 70
    32
 71
     5
 42
-1.0
 73
     0
 74
     0
 75
     0
  3
IGA
100
AcDbAlignedDimension
 13
870.7432585139295
 23
1421.958127060291
 33
0.0
 14
1082.743258513929
 24
1421.95812706029
 34
0.0
100
AcDbRotatedDimension
1001
ACAD
1000
DSTYLE
1002
{
1070
   172
1070
     1
1070
    40
1040
15.0
1070
   271
1070
     0
1070
   143
1040
0.039
1002
}
  0
DIMENSION
  5
84A1
330
19
100
AcDbEntity
  8
3
100
AcDbDimension
280
     0
  2
*D17
 10
1770.743258513929
 20
1310.351540082225
 30
0.0
 11
1426.743258513929
 21
1347.851540082225
 31
0.0
 70
    32
 71
     5
 42
-1.0
 73
     0
 74
     0
 75
     0
  3
IGA
100
AcDbAlignedDimension
 13
1082.743258513929
 23
1421.95812706029
 33
0.0
 14
1770.743258513929
 24
1421.958127060291
 34
0.0
100
AcDbRotatedDimension
1001
ACAD
1000
DSTYLE
1002
{
1070
   172
1070
     1
1070
    40
1040
15.0
1070
   271
1070
     0
1070
   143
1040
0.039
1002
}
  0
DIMENSION
  5
84AE
330
19
100
AcDbEntity
  8
3
100
AcDbDimension
280
     0
  2
*D18
 10
2517.088601786226
 20
1310.351540082225
 30
0.0
 11
2349.588601786226
 21
1347.851540082225
 31
0.0
 70
    32
 71
     5
 42
-1.0
 73
     0
 74
     0
 75
     0
  3
IGA
100
AcDbAlignedDimension
 13
2182.088601786227
 23
1421.958127060291
 33
0.0
 14
2517.088601786226
 24
1421.958127060291
 34
0.0
100
AcDbRotatedDimension
1001
ACAD
1000
DSTYLE
1002
{
1070
   172
1070
     1
1070
    40
1040
15.0
1070
   271
1070
     0
1070
   143
1040
0.039
1002
}
  0
DIMENSION
  5
84BB
330
19
100
AcDbEntity
  8
3
100
AcDbDimension
280
     0
  2
*D19
 10
2772.088601786227
 20
1310.351540082225
 30
0.0
 11
2644.588601786227
 21
1347.851540082225
 31
0.0
 70
    32
 71
     5
 42
-1.0
 73
     0
 74
     0
 75
     0
  3
IGA
100
AcDbAlignedDimension
 13
2517.088601786226
 23
1421.958127060291
 33
0.0
 14
2772.088601786227
 24
1421.958127060291
 34
0.0
100
AcDbRotatedDimension
1001
ACAD
1000
DSTYLE
1002
{
1070
   172
1070
     1
1070
    40
1040
15.0
1070
   271
1070
     0
1070
   143
1040
0.039
1002
}
  0
DIMENSION
  5
84C8
330
19
100
AcDbEntity
  8
3
100
AcDbDimension
280
     0
  2
*D20
 10
532.4417863322978
 20
1421.958127060291
 30
0.0
 11
494.9417863322978
 21
1737.45812706029
 31
0.0
 70
    32
 71
     5
 42
-1.0
 73
     0
 74
     0
 75
     0
  3
IGA
100
AcDbAlignedDimension
 13
837.7432585139295
 23
2052.958127060291
 33
0.0
 14
870.7432585139295
 24
1421.958127060291
 34
0.0
 50
90.0
100
AcDbRotatedDimension
1001
ACAD
1000
DSTYLE
1002
{
1070
   172
1070
     1
1070
    40
1040
15.0
1070
   271
1070
     0
1070
   143
1040
0.039
1002
}
  0
LWPOLYLINE
  5
84CD
330
19
100
AcDbEntity
  8
1
100
AcDbPolyline
 90
        4
 70
     0
 43
0.0
 10
837.7432585139295
 20
2052.958127060291
 10
1082.901612746916
 20
2025.5505527649
 42
-0.3908380251735333
 10
1359.308139394611
 20
1725.958127060289
 42
-0.2872651563285598
 10
1209.402876337715
 20
1496.958127060291
 42
-0.3826939024088523
  0
LWPOLYLINE
  5
84D3
330
19
100
AcDbEntity
  8
1
100
AcDbPolyline
 90
        3
 70
     0
 43
0.0
 10
1000.874655203957
 20
1496.95812706029
 42
-0.2862389647983497
 10
891.5327823076804
 20
1683.45812706029
 42
-0.0652413708697207
 10
897.3640848840569
 20
1727.958127060291
 42
-0.1475914163848442
  0
ENDSEC
  0
SECTION
  2
OBJECTS
  0
DICTIONARY
  5
C
330
0
100
AcDbDictionary
281
     1
  3
ACAD_CIP_PREVIOUS_PRODUCT_INFO
350
8587
  3
ACAD_COLOR
350
856A
  3
ACAD_DETAILVIEWSTYLE
350
8583
  3
ACAD_GROUP
350
D
  3
ACAD_LAYOUT
350
84DC
  3
ACAD_MATERIAL
350
8538
  3
ACAD_MLEADERSTYLE
350
857F
  3
ACAD_MLINESTYLE
350
E
  3
ACAD_PLOTSETTINGS
350
84DD
  3
ACAD_PLOTSTYLENAME
350
84DA
  3
ACAD_SCALELIST
350
856D
  3
ACAD_SECTIONVIEWSTYLE
350
8581
  3
ACAD_TABLESTYLE
350
856B
  3
ACAD_VISUALSTYLE
350
8551
  3
ACDB_RECOMPOSE_DATA
350
8611
  3
AcDbVariableDictionary
350
8600
  3
AcDsDecomposeData
350
8617
  0
DICTIONARY
  5
85DE
330
2
100
AcDbDictionary
280
     1
281
     1
  3
ACAD_LAYERSTATES
360
85DF
  0
DICTIONARY
  5
85D1
330
F
100
AcDbDictionary
280
     1
281
     1
  3
ADSK_XREC_LAYER_RECONCILED
360
85D2
  0
DICTIONARY
  5
85D3
330
31
100
AcDbDictionary
280
     1
281
     1
  3
ADSK_XREC_LAYER_RECONCILED
360
85D4
  0
DICTIONARY
  5
85D5
330
76D0
100
AcDbDictionary
280
     1
281
     1
  3
ADSK_XREC_LAYER_RECONCILED
360
85D6
  0
DICTIONARY
  5
85D7
330
76D1
100
AcDbDictionary
280
     1
281
     1
  3
ADSK_XREC_LAYER_RECONCILED
360
85D8
  0
DICTIONARY
  5
85D9
330
76D2
100
AcDbDictionary
280
     1
281
     1
  3
ADSK_XREC_LAYER_RECONCILED
360
85DA
  0
DICTIONARY
  5
8509
330
19
100
AcDbDictionary
280
     1
281
     1
  3
ACAD_LAYOUTSELFREF
360
850A
  3
ACAD_SORTENTS
360
85C0
  0
DICTIONARY
  5
8507
330
16
100
AcDbDictionary
280
     1
281
     1
  3
ACAD_LAYOUTSELFREF
360
8508
  0
XRECORD
  5
8587
102
{ACAD_REACTORS
330
C
102
}
330
C
100
AcDbXrecord
280
     1
300
ACDLT
300
2023
300

  0
DICTIONARY
  5
856A
102
{ACAD_REACTORS
330
C
102
}
330
C
100
AcDbDictionary
281
     1
  0
DICTIONARY
  5
8583
102
{ACAD_REACTORS
330
C
102
}
330
C
100
AcDbDictionary
281
     1
  3
Metric50
350
8584
  0
DICTIONARY
  5
D
102
{ACAD_REACTORS
330
C
102
}
330
C
100
AcDbDictionary
281
     1
  0
DICTIONARY
  5
84DC
102
{ACAD_REACTORS
330
C
102
}
330
C
100
AcDbDictionary
281
     1
  3
Model
350
84DE
  3
ﾚｲｱｳﾄ1
350
84DF
  0
DICTIONARY
  5
8538
102
{ACAD_REACTORS
330
C
102
}
330
C
100
AcDbDictionary
281
     1
  3
ByBlock
350
8541
  3
ByLayer
350
8539
  3
Global
350
8549
  0
DICTIONARY
  5
857F
102
{ACAD_REACTORS
330
C
102
}
330
C
100
AcDbDictionary
281
     1
  3
Standard
350
8580
  0
DICTIONARY
  5
E
102
{ACAD_REACTORS
330
C
102
}
330
C
100
AcDbDictionary
281
     1
  3
STANDARD
350
1C
  0
DICTIONARY
  5
84DD
102
{ACAD_REACTORS
330
C
102
}
330
C
100
AcDbDictionary
281
     1
  0
ACDBDICTIONARYWDFLT
  5
84DA
102
{ACAD_REACTORS
330
C
102
}
330
C
100
AcDbDictionary
281
     1
  3
Normal
350
84DB
100
AcDbDictionaryWithDefault
340
84DB
  0
DICTIONARY
  5
856D
102
{ACAD_REACTORS
330
C
102
}
330
C
100
AcDbDictionary
281
     1
  3
A0
350
856E
  3
A1
350
856F
  3
A2
350
8570
  3
A3
350
8571
  3
A4
350
8572
  3
A5
350
8573
  3
A6
350
8574
  3
A7
350
8575
  3
A8
350
8576
  3
A9
350
8577
  3
B0
350
8578
  3
B1
350
8579
  3
B2
350
857A
  3
B3
350
857B
  3
B4
350
857C
  3
B5
350
857D
  3
B6
350
857E
  0
DICTIONARY
  5
8581
102
{ACAD_REACTORS
330
C
102
}
330
C
100
AcDbDictionary
281
     1
  3
Metric50
350
8582
  0
DICTIONARY
  5
856B
102
{ACAD_REACTORS
330
C
102
}
330
C
100
AcDbDictionary
281
     1
  3
Standard
350
856C
  0
DICTIONARY
  5
8551
102
{ACAD_REACTORS
330
C
102
}
330
C
100
AcDbDictionary
281
     1
  3
2dWireframe
350
8557
  3
Basic
350
8556
  3
Brighten
350
855D
  3
ColorChange
350
8561
  3
Conceptual
350
855A
  3
Dim
350
855C
  3
EdgeColorOff
350
8569
  3
Facepattern
350
8560
  3
Flat
350
8552
  3
FlatWithEdges
350
8553
  3
Gouraud
350
8554
  3
GouraudWithEdges
350
8555
  3
Hidden
350
8559
  3
JitterOff
350
8567
  3
Linepattern
350
855F
  3
OverhangOff
350
8568
  3
Realistic
350
855B
  3
Shaded
350
8566
  3
Shaded with edges
350
8565
  3
Shades of Gray
350
8562
  3
Sketchy
350
8563
  3
Thicken
350
855E
  3
Wireframe
350
8558
  3
X-Ray
350
8564
  0
XRECORD
  5
8611
102
{ACAD_REACTORS
330
C
102
}
330
C
100
AcDbXrecord
280
     1
 90
        1
330
81AB
330
856C
  0
DICTIONARY
  5
8600
102
{ACAD_REACTORS
330
C
102
}
330
C
100
AcDbDictionary
281
     1
  3
CANNOSCALE
350
8606
  3
CMLEADERSTYLE
350
8602
  3
CTABLESTYLE
350
8601
  3
CVIEWDETAILSTYLE
350
8603
  3
CVIEWSECTIONSTYLE
350
8604
  3
LAYEREVAL
350
8608
  3
LAYERNOTIFY
350
8609
  3
LIGHTINGUNITS
350
8607
  3
MARKUPASSISTMODE
350
860E
  3
MSLTSCALE
350
8605
  0
DICTIONARY
  5
8617
102
{ACAD_REACTORS
330
C
102
}
330
C
100
AcDbDictionary
281
     1
  3
AcDsRecords
350
8619
  3
AcDsSchemas
350
8618
1001
ACAD
1070
     2
  0
DICTIONARY
  5
85DF
102
{ACAD_REACTORS
330
85DE
102
}
330
85DE
100
AcDbDictionary
281
     1
  0
XRECORD
  5
85D2
102
{ACAD_REACTORS
330
85D1
102
}
330
85D1
100
AcDbXrecord
280
     1
290
     1
  0
XRECORD
  5
85D4
102
{ACAD_REACTORS
330
85D3
102
}
330
85D3
100
AcDbXrecord
280
     1
290
     1
  0
XRECORD
  5
85D6
102
{ACAD_REACTORS
330
85D5
102
}
330
85D5
100
AcDbXrecord
280
     1
290
     1
  0
XRECORD
  5
85D8
102
{ACAD_REACTORS
330
85D7
102
}
330
85D7
100
AcDbXrecord
280
     1
290
     1
  0
XRECORD
  5
85DA
102
{ACAD_REACTORS
330
85D9
102
}
330
85D9
100
AcDbXrecord
280
     1
290
     1
  0
XRECORD
  5
850A
102
{ACAD_REACTORS
330
8509
102
}
330
8509
100
AcDbXrecord
280
     1
340
19
  0
SORTENTSTABLE
  5
85C0
102
{ACAD_REACTORS
330
8509
102
}
330
8509
100
AcDbSortentsTable
330
19
331
8173
  5
8174
331
8174
  5
8177
331
8177
  5
817B
331
817B
  5
817E
331
817E
  5
817F
331
817F
  5
8182
331
8182
  5
8183
331
8183
  5
8184
331
8184
  5
8185
331
8185
  5
8186
331
8186
  5
8187
331
8187
  5
8188
331
8188
  5
8189
331
8189
  5
818A
331
818A
  5
818B
331
818B
  5
818C
331
818C
  5
8193
331
8193
  5
8194
331
8194
  5
8195
331
8195
  5
8196
331
8196
  5
8197
331
8197
  5
8198
331
8198
  5
8199
331
8199
  5
819A
331
819A
  5
819C
331
819C
  5
819D
331
819D
  5
819E
331
819E
  5
819F
331
819F
  5
81A0
331
81A0
  5
81A1
331
81A1
  5
81A2
331
81A2
  5
81A3
331
81A3
  5
81A4
331
81A4
  5
81A5
331
81A5
  5
81A6
331
81A6
  5
81A7
331
81A7
  5
81A8
331
81A8
  5
81A9
331
81A9
  5
81AA
331
81AA
  5
81AB
331
81AB
  5
81AC
331
81AC
  5
81AE
331
81AE
  5
81B3
331
81B3
  5
81B4
331
81B4
  5
81B5
331
81B5
  5
81B6
331
81B6
  5
81B7
331
81B7
  5
81B8
331
81B8
  5
81B9
331
81B9
  5
81BA
331
81BA
  5
81BB
331
81BB
  5
81BC
331
81BC
  5
81BD
331
81BD
  5
81BE
331
81BE
  5
81BF
331
81BF
  5
81C0
331
81C0
  5
81C1
331
81C1
  5
81C2
331
81C2
  5
81C3
331
81C3
  5
81C4
331
81C4
  5
81C5
331
81C5
  5
81C6
331
81C6
  5
81C7
331
81C7
  5
81C8
331
81C8
  5
81C9
331
81C9
  5
81CA
331
81CA
  5
81CB
331
81CB
  5
81CC
331
81CC
  5
81CD
331
81CD
  5
81CE
331
81CE
  5
81CF
331
81CF
  5
81D0
331
81D0
  5
81D1
331
81D1
  5
81D2
331
81D2
  5
81D3
331
81D3
  5
81D4
331
81D4
  5
81D5
331
81D5
  5
81D6
331
81D6
  5
81D7
331
81D7
  5
81D8
331
81D8
  5
81D9
331
81D9
  5
81DA
331
81DA
  5
81DB
331
81DB
  5
81DC
331
81DC
  5
81DD
331
81DD
  5
81DE
331
81DE
  5
81DF
331
81DF
  5
81E0
331
81E0
  5
81E1
331
81E1
  5
81E2
331
81E2
  5
81E3
331
81E3
  5
81E4
331
81E4
  5
81E5
331
81E5
  5
81E6
331
81E6
  5
81E7
331
81E7
  5
81E8
331
81E8
  5
81E9
331
81E9
  5
81EA
331
81EA
  5
81EB
331
81EB
  5
81EC
331
81EC
  5
81ED
331
81ED
  5
81EE
331
81EE
  5
81EF
331
81EF
  5
81F0
331
81F0
  5
81F1
331
81F1
  5
81F2
331
81F2
  5
81F3
331
81F3
  5
81F4
331
81F4
  5
81F5
331
81F5
  5
81F6
331
81F6
  5
81F7
331
81F7
  5
81F8
331
81F8
  5
81F9
331
81F9
  5
81FA
331
81FA
  5
81FB
331
81FB
  5
81FC
331
81FC
  5
81FD
331
81FD
  5
81FE
331
81FE
  5
81FF
331
81FF
  5
8200
331
8200
  5
8201
331
8201
  5
8202
331
8202
  5
8203
331
8203
  5
8204
331
8204
  5
8205
331
8205
  5
8206
331
8206
  5
8207
331
8207
  5
8208
331
8208
  5
8209
331
8209
  5
8494
331
8494
  5
84A1
331
84A1
  5
84AE
331
84AE
  5
84BB
331
84BB
  5
84C8
331
84C8
  5
84CD
331
84CD
  5
84D3
331
84D3
  5
85BF
  0
XRECORD
  5
8508
102
{ACAD_REACTORS
330
8507
102
}
330
8507
100
AcDbXrecord
280
     1
340
16
  0
ACDBDETAILVIEWSTYLE
  5
8584
102
{ACAD_XDICTIONARY
360
861C
102
}
102
{ACAD_REACTORS
330
8583
102
}
330
8583
100
AcDbModelDocViewStyle
 70
     0
  3
Metric50
290
     0
100
AcDbDetailViewStyle
 70
     0
 71
     0
 90
        3
 71
     1
340
10
 62
   256
 40
5.0
340
0
 62
   256
 40
5.0
300

 40
0.0
280
     1
 71
     2
340
15
 90
       25
 62
   256
 71
     3
340
10
 62
   256
 40
5.0
 90
        0
 40
15.0
 90
        1
300
%<\AcVar ViewDetailId>% (%<\AcVar ViewScale \f "%sn">%)
 71
     4
340
15
 90
       25
 62
   256
340
15
 90
       25
 62
   256
280
     0
  0
LAYOUT
  5
84DE
102
{ACAD_REACTORS
330
84DC
102
}
330
84DC
100
AcDbPlotSettings
  1

  2
EPSON LP-9300
  4

  6

 40
0.0
 41
0.0
 42
0.0
 43
0.0
 44
0.0
 45
0.0
 46
0.0
 47
0.0
 48
0.0
 49
0.0
140
0.0
141
0.0
142
1.0
143
1.0
 70
  1712
 72
     0
 73
     0
 74
     0
  7

 75
     0
147
1.0
 76
     0
 77
     2
 78
   300
148
0.0
149
0.0
100
AcDbLayout
  1
Model
 70
     1
 71
     0
 10
0.0
 20
0.0
 11
12.0
 21
9.0
 12
0.0
 22
0.0
 32
0.0
 14
0.0
 24
0.0
 34
0.0
 15
0.0
 25
0.0
 35
0.0
146
0.0
 13
0.0
 23
0.0
 33
0.0
 16
1.0
 26
0.0
 36
0.0
 17
0.0
 27
1.0
 37
0.0
 76
     0
330
19
331
8536
  0
LAYOUT
  5
84DF
102
{ACAD_REACTORS
330
84DC
102
}
330
84DC
100
AcDbPlotSettings
  1

  2
EPSON LP-9300
  4

  6

 40
0.0
 41
0.0
 42
0.0
 43
0.0
 44
0.0
 45
0.0
 46
0.0
 47
0.0
 48
0.0
 49
0.0
140
0.0
141
0.0
142
1.0
143
1.0
 70
   688
 72
     0
 73
     0
 74
     5
  7

 75
    16
147
1.0
 76
     0
 77
     2
 78
   300
148
0.0
149
0.0
100
AcDbLayout
  1
ﾚｲｱｳﾄ1
 70
     1
 71
     1
 10
0.0
 20
0.0
 11
12.0
 21
9.0
 12
0.0
 22
0.0
 32
0.0
 14
1.000000000000000E+20
 24
1.000000000000000E+20
 34
1.000000000000000E+20
 15
-1.000000000000000E+20
 25
-1.000000000000000E+20
 35
-1.000000000000000E+20
146
0.0
 13
0.0
 23
0.0
 33
0.0
 16
1.0
 26
0.0
 36
0.0
 17
0.0
 27
1.0
 37
0.0
 76
     0
330
16
  0
MATERIAL
  5
8541
102
{ACAD_XDICTIONARY
360
8542
102
}
102
{ACAD_REACTORS
330
8538
102
}
330
8538
100
AcDbMaterial
  1
ByBlock
 72
     0
 43
0.0208333333333333
 43
0.0
 43
0.0
 43
0.0
 43
0.0
 43
0.0208333333333333
 43
0.0
 43
0.0
 43
0.0
 43
0.0
 43
1.0
 43
0.0
 43
0.0
 43
0.0
 43
0.0
 43
1.0
 77
     0
 47
0.0208333333333333
 47
0.0
 47
0.0
 47
0.0
 47
0.0
 47
0.0208333333333333
 47
0.0
 47
0.0
 47
0.0
 47
0.0
 47
1.0
 47
0.0
 47
0.0
 47
0.0
 47
0.0
 47
1.0
171
     0
 49
0.0208333333333333
 49
0.0
 49
0.0
 49
0.0
 49
0.0
 49
0.0208333333333333
 49
0.0
 49
0.0
 49
0.0
 49
0.0
 49
1.0
 49
0.0
 49
0.0
 49
0.0
 49
0.0
 49
1.0
175
     0
142
0.0208333333333333
142
0.0
142
0.0
142
0.0
142
0.0
142
0.0208333333333333
142
0.0
142
0.0
142
0.0
142
0.0
142
1.0
142
0.0
142
0.0
142
0.0
142
0.0
142
1.0
179
     0
144
0.0208333333333333
144
0.0
144
0.0
144
0.0
144
0.0
144
0.0208333333333333
144
0.0
144
0.0
144
0.0
144
0.0
144
1.0
144
0.0
144
0.0
144
0.0
144
0.0
144
1.0
147
0.0208333333333333
147
0.0
147
0.0
147
0.0
147
0.0
147
0.0208333333333333
147
0.0
147
0.0
147
0.0
147
0.0
147
1.0
147
0.0
147
0.0
147
0.0
147
0.0
147
1.0
  0
MATERIAL
  5
8539
102
{ACAD_XDICTIONARY
360
853A
102
}
102
{ACAD_REACTORS
330
8538
102
}
330
8538
100
AcDbMaterial
  1
ByLayer
 72
     0
 43
0.0208333333333333
 43
0.0
 43
0.0
 43
0.0
 43
0.0
 43
0.0208333333333333
 43
0.0
 43
0.0
 43
0.0
 43
0.0
 43
1.0
 43
0.0
 43
0.0
 43
0.0
 43
0.0
 43
1.0
 77
     0
 47
0.0208333333333333
 47
0.0
 47
0.0
 47
0.0
 47
0.0
 47
0.0208333333333333
 47
0.0
 47
0.0
 47
0.0
 47
0.0
 47
1.0
 47
0.0
 47
0.0
 47
0.0
 47
0.0
 47
1.0
171
     0
 49
0.0208333333333333
 49
0.0
 49
0.0
 49
0.0
 49
0.0
 49
0.0208333333333333
 49
0.0
 49
0.0
 49
0.0
 49
0.0
 49
1.0
 49
0.0
 49
0.0
 49
0.0
 49
0.0
 49
1.0
175
     0
142
0.0208333333333333
142
0.0
142
0.0
142
0.0
142
0.0
142
0.0208333333333333
142
0.0
142
0.0
142
0.0
142
0.0
142
1.0
142
0.0
142
0.0
142
0.0
142
0.0
142
1.0
179
     0
144
0.0208333333333333
144
0.0
144
0.0
144
0.0
144
0.0
144
0.0208333333333333
144
0.0
144
0.0
144
0.0
144
0.0
144
1.0
144
0.0
144
0.0
144
0.0
144
0.0
144
1.0
147
0.0208333333333333
147
0.0
147
0.0
147
0.0
147
0.0
147
0.0208333333333333
147
0.0
147
0.0
147
0.0
147
0.0
147
1.0
147
0.0
147
0.0
147
0.0
147
0.0
147
1.0
  0
MATERIAL
  5
8549
102
{ACAD_XDICTIONARY
360
854A
102
}
102
{ACAD_REACTORS
330
8538
102
}
330
8538
100
AcDbMaterial
  1
Global
 72
     0
 43
0.0208333333333333
 43
0.0
 43
0.0
 43
0.0
 43
0.0
 43
0.0208333333333333
 43
0.0
 43
0.0
 43
0.0
 43
0.0
 43
1.0
 43
0.0
 43
0.0
 43
0.0
 43
0.0
 43
1.0
 77
     0
 47
0.0208333333333333
 47
0.0
 47
0.0
 47
0.0
 47
0.0
 47
0.0208333333333333
 47
0.0
 47
0.0
 47
0.0
 47
0.0
 47
1.0
 47
0.0
 47
0.0
 47
0.0
 47
0.0
 47
1.0
171
     0
 49
0.0208333333333333
 49
0.0
 49
0.0
 49
0.0
 49
0.0
 49
0.0208333333333333
 49
0.0
 49
0.0
 49
0.0
 49
0.0
 49
1.0
 49
0.0
 49
0.0
 49
0.0
 49
0.0
 49
1.0
175
     0
142
0.0208333333333333
142
0.0
142
0.0
142
0.0
142
0.0
142
0.0208333333333333
142
0.0
142
0.0
142
0.0
142
0.0
142
1.0
142
0.0
142
0.0
142
0.0
142
0.0
142
1.0
179
     0
144
0.0208333333333333
144
0.0
144
0.0
144
0.0
144
0.0
144
0.0208333333333333
144
0.0
144
0.0
144
0.0
144
0.0
144
1.0
144
0.0
144
0.0
144
0.0
144
0.0
144
1.0
147
0.0208333333333333
147
0.0
147
0.0
147
0.0
147
0.0
147
0.0208333333333333
147
0.0
147
0.0
147
0.0
147
0.0
147
1.0
147
0.0
147
0.0
147
0.0
147
0.0
147
1.0
  0
MLEADERSTYLE
  5
8580
102
{ACAD_REACTORS
330
857F
102
}
330
857F
100
AcDbMLeaderStyle
179
     2
170
     2
171
     1
172
     0
 90
        2
 40
0.0
 41
0.0
173
     1
 91
-1056964608
340
13
 92
       -2
290
     1
 42
2.0
291
     1
 43
0.36
  3
Standard
 44
4.0
300

342
10
174
     1
178
     6
175
     1
176
     0
 93
-1056964608
 45
4.0
292
     0
297
     0
 46
4.0
 94
-1056964608
 47
1.0
 49
1.0
140
1.0
293
     1
141
0.0
294
     1
177
     0
142
1.0
295
     0
296
     0
143
0.125
271
     0
272
     9
273
     9
298
     1
  0
MLINESTYLE
  5
1C
102
{ACAD_REACTORS
330
E
102
}
330
E
100
AcDbMlineStyle
  2
STANDARD
 70
     0
  3

 62
     0
 51
90.0
 52
90.0
 71
     2
 49
0.5
 62
   256
  6
BYLAYER
 49
-0.5
 62
   256
  6
BYLAYER
  0
ACDBPLACEHOLDER
  5
84DB
102
{ACAD_REACTORS
330
84DA
102
}
330
84DA
  0
SCALE
  5
856E
102
{ACAD_REACTORS
330
856D
102
}
330
856D
100
AcDbScale
 70
     0
300
1:1
140
1.0
141
1.0
290
     1
  0
SCALE
  5
856F
102
{ACAD_REACTORS
330
856D
102
}
330
856D
100
AcDbScale
 70
     0
300
1:2
140
1.0
141
2.0
290
     0
  0
SCALE
  5
8570
102
{ACAD_REACTORS
330
856D
102
}
330
856D
100
AcDbScale
 70
     0
300
1:4
140
1.0
141
4.0
290
     0
  0
SCALE
  5
8571
102
{ACAD_REACTORS
330
856D
102
}
330
856D
100
AcDbScale
 70
     0
300
1:5
140
1.0
141
5.0
290
     0
  0
SCALE
  5
8572
102
{ACAD_REACTORS
330
856D
102
}
330
856D
100
AcDbScale
 70
     0
300
1:8
140
1.0
141
8.0
290
     0
  0
SCALE
  5
8573
102
{ACAD_REACTORS
330
856D
102
}
330
856D
100
AcDbScale
 70
     0
300
1:10
140
1.0
141
10.0
290
     0
  0
SCALE
  5
8574
102
{ACAD_REACTORS
330
856D
102
}
330
856D
100
AcDbScale
 70
     0
300
1:16
140
1.0
141
16.0
290
     0
  0
SCALE
  5
8575
102
{ACAD_REACTORS
330
856D
102
}
330
856D
100
AcDbScale
 70
     0
300
1:20
140
1.0
141
20.0
290
     0
  0
SCALE
  5
8576
102
{ACAD_REACTORS
330
856D
102
}
330
856D
100
AcDbScale
 70
     0
300
1:30
140
1.0
141
30.0
290
     0
  0
SCALE
  5
8577
102
{ACAD_REACTORS
330
856D
102
}
330
856D
100
AcDbScale
 70
     0
300
1:40
140
1.0
141
40.0
290
     0
  0
SCALE
  5
8578
102
{ACAD_REACTORS
330
856D
102
}
330
856D
100
AcDbScale
 70
     0
300
1:50
140
1.0
141
50.0
290
     0
  0
SCALE
  5
8579
102
{ACAD_REACTORS
330
856D
102
}
330
856D
100
AcDbScale
 70
     0
300
1:100
140
1.0
141
100.0
290
     0
  0
SCALE
  5
857A
102
{ACAD_REACTORS
330
856D
102
}
330
856D
100
AcDbScale
 70
     0
300
2:1
140
2.0
141
1.0
290
     0
  0
SCALE
  5
857B
102
{ACAD_REACTORS
330
856D
102
}
330
856D
100
AcDbScale
 70
     0
300
4:1
140
4.0
141
1.0
290
     0
  0
SCALE
  5
857C
102
{ACAD_REACTORS
330
856D
102
}
330
856D
100
AcDbScale
 70
     0
300
8:1
140
8.0
141
1.0
290
     0
  0
SCALE
  5
857D
102
{ACAD_REACTORS
330
856D
102
}
330
856D
100
AcDbScale
 70
     0
300
10:1
140
10.0
141
1.0
290
     0
  0
SCALE
  5
857E
102
{ACAD_REACTORS
330
856D
102
}
330
856D
100
AcDbScale
 70
     0
300
100:1
140
100.0
141
1.0
290
     0
  0
ACDBSECTIONVIEWSTYLE
  5
8582
102
{ACAD_XDICTIONARY
360
861A
102
}
102
{ACAD_REACTORS
330
8581
102
}
330
8581
100
AcDbModelDocViewStyle
 70
     0
  3
Metric50
290
     0
100
AcDbSectionViewStyle
 70
     0
 71
     0
 90
      102
 71
     1
340
10
 62
   256
 40
5.0
340
0
340
0
 62
   256
 40
5.0
300
I, O, Q, S, X, Z
 40
10.0
 90
        0
 40
2.5
 90
        0
 71
     2
340
15
 90
       25
 62
   256
340
15
 90
       50
 62
   256
 40
5.0
 40
2.5
 40
5.0
 71
     3
340
10
 62
   256
 40
5.0
 90
        0
 40
15.0
 90
        1
300
%<\AcVar ViewSectionStartId>%-%<\AcVar ViewSectionEndId>% (%<\AcVar ViewScale \f "%sn">%)
 71
     4
 62
   256
 62
   257
300
ANSI31
 40
1.0
 90
        0
290
     0
290
     0
 90
        6
 40
0.0
 40
1.570796326794896
 40
0.2617993877991494
 40
1.308996938995747
 40
-0.2617993877991494
 40
1.832595714594046
  0
TABLESTYLE
  5
856C
102
{ACAD_XDICTIONARY
360
860F
102
}
102
{ACAD_REACTORS
330
856B
102
}
330
856B
100
AcDbTableStyle
280
     0
  3
Standard
 70
     0
 71
     0
 40
1.5
 41
1.5
280
     0
281
     0
  7
STANDARD
140
4.5
170
     2
 62
     0
 63
     7
283
     0
 90
      512
 91
        0
  1

274
    -2
284
     1
 64
     0
275
    -2
285
     1
 65
     0
276
    -2
286
     1
 66
     0
277
    -2
287
     1
 67
     0
278
    -2
288
     1
 68
     0
279
    -2
289
     1
 69
     0
  7
STANDARD
140
6.0
170
     5
 62
     0
 63
     7
283
     0
 90
      512
 91
        0
  1

274
    -2
284
     1
 64
     0
275
    -2
285
     1
 65
     0
276
    -2
286
     1
 66
     0
277
    -2
287
     1
 67
     0
278
    -2
288
     1
 68
     0
279
    -2
289
     1
 69
     0
  7
STANDARD
140
4.5
170
     5
 62
     0
 63
     7
283
     0
 90
      512
 91
        0
  1

274
    -2
284
     1
 64
     0
275
    -2
285
     1
 65
     0
276
    -2
286
     1
 66
     0
277
    -2
287
     1
 67
     0
278
    -2
288
     1
 68
     0
279
    -2
289
     1
 69
     0
  0
VISUALSTYLE
  5
8557
102
{ACAD_REACTORS
330
8551
102
}
330
8551
100
AcDbVisualStyle
  2
2dWireframe
 70
     4
177
     3
291
     0
 70
    58
 90
        0
176
     1
 90
        2
176
     1
 90
        0
176
     1
 90
        0
176
     1
 40
0.6
176
     1
 40
30.0
176
     1
 62
     7
420
 16777215
176
     1
 90
        1
176
     1
 90
        4
176
     1
 62
     7
176
     1
 62
   257
176
     1
 90
        1
176
     1
 90
        1
176
     1
 40
1.0
176
     1
 90
        0
176
     1
 62
   257
176
     1
 40
1.0
176
     1
 90
        1
176
     1
 90
        6
176
     1
 90
        2
176
     1
 62
     7
176
     1
 90
        5
176
     1
 90
        0
176
     1
 90
        0
176
     1
290
     0
176
     1
 90
        1
176
     1
 40
0.0
176
     1
 90
        0
176
     1
290
     1
176
     1
290
     1
176
     1
290
     0
176
     1
290
     0
176
     1
290
     0
176
     1
290
     0
176
     1
290
     0
176
     1
290
     0
176
     1
290
     0
176
     1
 90
       50
176
     1
 40
0.0
176
     1
 40
1.0
176
     1
 90
        0
176
     1
 62
    18
420
        0
176
     1
 90
       50
176
     1
 90
        3
176
     1
 62
     5
420
      255
176
     1
290
     0
176
     1
 90
       50
176
     1
 90
       50
176
     1
 90
       50
176
     1
290
     0
176
     1
 90
       50
176
     1
 62
   256
176
     0
 40
1.0
176
     0
 90
        2
176
     1
  1
strokes_ogs.tif
176
     1
290
     0
176
     1
 40
1.0
176
     1
 40
1.0
176
     1
1001
ACAD
1000
AcDbSavedByObjectVersion
1070
     0
  0
VISUALSTYLE
  5
8556
102
{ACAD_REACTORS
330
8551
102
}
330
8551
100
AcDbVisualStyle
  2
Basic
 70
     7
177
     3
291
     1
 70
    58
 90
        1
176
     1
 90
        0
176
     1
 90
        1
176
     1
 90
        0
176
     1
 40
0.6
176
     1
 40
30.0
176
     1
 62
     7
420
 16777215
176
     1
 90
        0
176
     1
 90
        4
176
     1
 62
     7
176
     1
 62
   257
176
     1
 90
        1
176
     1
 90
        1
176
     1
 40
1.0
176
     1
 90
        8
176
     1
 62
     7
176
     1
 40
1.0
176
     1
 90
        1
176
     1
 90
        6
176
     1
 90
        2
176
     1
 62
     7
176
     1
 90
        5
176
     1
 90
        0
176
     1
 90
        0
176
     1
290
     0
176
     1
 90
        1
176
     1
 40
0.0
176
     1
 90
        0
176
     1
290
     0
176
     1
290
     1
176
     1
290
     1
176
     1
290
     0
176
     1
290
     0
176
     1
290
     0
176
     1
290
     0
176
     1
290
     0
176
     1
290
     0
176
     1
 90
       50
176
     1
 40
0.0
176
     1
 40
1.0
176
     1
 90
        0
176
     1
 62
    18
420
        0
176
     1
 90
       50
176
     1
 90
        3
176
     1
 62
     5
420
      255
176
     1
290
     0
176
     1
 90
       50
176
     1
 90
       50
176
     1
 90
       50
176
     1
290
     0
176
     1
 90
       50
176
     1
 62
   256
176
     0
 40
1.0
176
     0
 90
        2
176
     1
  1
strokes_ogs.tif
176
     1
290
     0
176
     1
 40
1.0
176
     1
 40
1.0
176
     1
1001
ACAD
1000
AcDbSavedByObjectVersion
1070
     0
  0
VISUALSTYLE
  5
855D
102
{ACAD_REACTORS
330
8551
102
}
330
8551
100
AcDbVisualStyle
  2
Brighten
 70
    12
177
     3
291
     1
 70
    58
 90
        2
176
     1
 90
        2
176
     1
 90
        0
176
     1
 90
        0
176
     1
 40
0.6
176
     1
 40
30.0
176
     1
 62
     7
420
 16777215
176
     1
 90
        1
176
     1
 90
        4
176
     1
 62
     7
176
     1
 62
   257
176
     1
 90
        1
176
     1
 90
        1
176
     1
 40
1.0
176
     1
 90
        8
176
     1
 62
     7
176
     1
 40
1.0
176
     1
 90
        1
176
     1
 90
        6
176
     1
 90
        2
176
     1
 62
     7
176
     1
 90
        5
176
     1
 90
        0
176
     1
 90
        0
176
     1
290
     0
176
     1
 90
        1
176
     1
 40
50.0
176
     1
 90
        0
176
     1
290
     0
176
     1
290
     1
176
     1
290
     1
176
     1
290
     0
176
     1
290
     0
176
     1
290
     0
176
     1
290
     0
176
     1
290
     0
176
     1
290
     0
176
     1
 90
       50
176
     1
 40
0.0
176
     1
 40
1.0
176
     1
 90
        0
176
     1
 62
    18
420
        0
176
     1
 90
       50
176
     1
 90
        3
176
     1
 62
     5
420
      255
176
     1
290
     0
176
     1
 90
       50
176
     1
 90
       50
176
     1
 90
       50
176
     1
290
     0
176
     1
 90
       50
176
     1
 62
   256
176
     0
 40
1.0
176
     0
 90
        2
176
     1
  1
strokes_ogs.tif
176
     1
290
     0
176
     1
 40
1.0
176
     1
 40
1.0
176
     1
1001
ACAD
1000
AcDbSavedByObjectVersion
1070
     0
  0
VISUALSTYLE
  5
8561
102
{ACAD_REACTORS
330
8551
102
}
330
8551
100
AcDbVisualStyle
  2
ColorChange
 70
    16
177
     3
291
     1
 70
    58
 90
        2
176
     1
 90
        2
176
     1
 90
        3
176
     1
 90
        0
176
     1
 40
0.6
176
     1
 40
30.0
176
     1
 62
     8
420
  8421504
176
     1
 90
        1
176
     1
 90
        4
176
     1
 62
     7
176
     1
 62
   257
176
     1
 90
        1
176
     1
 90
        1
176
     1
 40
1.0
176
     1
 90
        8
176
     1
 62
     8
420
  8421504
176
     1
 40
1.0
176
     1
 90
        1
176
     1
 90
        6
176
     1
 90
        2
176
     1
 62
     7
176
     1
 90
        5
176
     1
 90
        0
176
     1
 90
        0
176
     1
290
     0
176
     1
 90
        1
176
     1
 40
0.0
176
     1
 90
        0
176
     1
290
     0
176
     1
290
     1
176
     1
290
     1
176
     1
290
     0
176
     1
290
     0
176
     1
290
     0
176
     1
290
     0
176
     1
290
     0
176
     1
290
     0
176
     1
 90
       50
176
     1
 40
0.0
176
     1
 40
1.0
176
     1
 90
        0
176
     1
 62
    18
420
        0
176
     1
 90
       50
176
     1
 90
        3
176
     1
 62
     5
420
      255
176
     1
290
     0
176
     1
 90
       50
176
     1
 90
       50
176
     1
 90
       50
176
     1
290
     0
176
     1
 90
       50
176
     1
 62
   256
176
     0
 40
1.0
176
     0
 90
        2
176
     1
  1
strokes_ogs.tif
176
     1
290
     0
176
     1
 40
1.0
176
     1
 40
1.0
176
     1
1001
ACAD
1000
AcDbSavedByObjectVersion
1070
     0
  0
VISUALSTYLE
  5
855A
102
{ACAD_REACTORS
330
8551
102
}
330
8551
100
AcDbVisualStyle
  2
Conceptual
 70
     9
177
     3
291
     0
 70
    58
 90
        3
176
     1
 90
        2
176
     1
 90
        0
176
     1
 90
        0
176
     1
 40
0.6
176
     1
 40
30.0
176
     1
 62
     7
420
 16777215
176
     1
 90
        2
176
     1
 90
        2
176
     1
 62
     7
176
     1
 62
   257
176
     1
 90
        1
176
     1
 90
        1
176
     1
 40
179.0
176
     1
 90
        8
176
     1
 62
     7
176
     1
 40
1.0
176
     1
 90
        1
176
     1
 90
        6
176
     1
 90
        2
176
     1
 62
     7
176
     1
 90
        3
176
     1
 90
        0
176
     1
 90
        0
176
     1
290
     0
176
     1
 90
        1
176
     1
 40
0.0
176
     1
 90
        0
176
     1
290
     0
176
     1
290
     1
176
     1
290
     1
176
     1
290
     0
176
     1
290
     0
176
     1
290
     0
176
     1
290
     0
176
     1
290
     0
176
     1
290
     0
176
     1
 90
       50
176
     1
 40
0.0
176
     1
 40
1.0
176
     1
 90
        0
176
     1
 62
    18
420
        0
176
     1
 90
       50
176
     1
 90
        3
176
     1
 62
     5
420
      255
176
     1
290
     0
176
     1
 90
       50
176
     1
 90
       50
176
     1
 90
       50
176
     1
290
     0
176
     1
 90
       50
176
     1
 62
   256
176
     0
 40
1.0
176
     0
 90
        2
176
     1
  1
strokes_ogs.tif
176
     1
290
     0
176
     1
 40
1.0
176
     1
 40
1.0
176
     1
1001
ACAD
1000
AcDbSavedByObjectVersion
1070
     0
  0
VISUALSTYLE
  5
855C
102
{ACAD_REACTORS
330
8551
102
}
330
8551
100
AcDbVisualStyle
  2
Dim
 70
    11
177
     3
291
     1
 70
    58
 90
        2
176
     1
 90
        2
176
     1
 90
        0
176
     1
 90
        0
176
     1
 40
0.6
176
     1
 40
30.0
176
     1
 62
     7
420
 16777215
176
     1
 90
        1
176
     1
 90
        4
176
     1
 62
     7
176
     1
 62
   257
176
     1
 90
        1
176
     1
 90
        1
176
     1
 40
1.0
176
     1
 90
        8
176
     1
 62
     7
176
     1
 40
1.0
176
     1
 90
        1
176
     1
 90
        6
176
     1
 90
        2
176
     1
 62
     7
176
     1
 90
        5
176
     1
 90
        0
176
     1
 90
        0
176
     1
290
     0
176
     1
 90
        1
176
     1
 40
-50.0
176
     1
 90
        0
176
     1
290
     0
176
     1
290
     1
176
     1
290
     1
176
     1
290
     0
176
     1
290
     0
176
     1
290
     0
176
     1
290
     0
176
     1
290
     0
176
     1
290
     0
176
     1
 90
       50
176
     1
 40
0.0
176
     1
 40
1.0
176
     1
 90
        0
176
     1
 62
    18
420
        0
176
     1
 90
       50
176
     1
 90
        3
176
     1
 62
     5
420
      255
176
     1
290
     0
176
     1
 90
       50
176
     1
 90
       50
176
     1
 90
       50
176
     1
290
     0
176
     1
 90
       50
176
     1
 62
   256
176
     0
 40
1.0
176
     0
 90
        2
176
     1
  1
strokes_ogs.tif
176
     1
290
     0
176
     1
 40
1.0
176
     1
 40
1.0
176
     1
1001
ACAD
1000
AcDbSavedByObjectVersion
1070
     0
  0
VISUALSTYLE
  5
8569
102
{ACAD_REACTORS
330
8551
102
}
330
8551
100
AcDbVisualStyle
  2
EdgeColorOff
 70
    22
177
     3
291
     1
 70
    58
 90
        2
176
     0
 90
        2
176
     0
 90
        0
176
     0
 90
        0
176
     0
 40
0.6
176
     0
 40
30.0
176
     0
 62
     7
420
 16777215
176
     0
 90
        1
176
     0
 90
        4
176
     0
 62
     7
176
     0
 62
   257
176
     0
 90
        1
176
     0
 90
        1
176
     0
 40
1.0
176
     0
 90
        8
176
     2
 62
     7
176
     0
 40
1.0
176
     0
 90
        1
176
     0
 90
        6
176
     0
 90
        2
176
     0
 62
     7
176
     0
 90
        5
176
     0
 90
        0
176
     0
 90
        0
176
     0
290
     0
176
     0
 90
        1
176
     0
 40
0.0
176
     0
 90
        0
176
     0
290
     0
176
     0
290
     1
176
     0
290
     1
176
     0
290
     0
176
     0
290
     0
176
     0
290
     0
176
     0
290
     0
176
     0
290
     0
176
     0
290
     0
176
     0
 90
       50
176
     0
 40
0.0
176
     0
 40
1.0
176
     0
 90
        0
176
     0
 62
    18
420
        0
176
     0
 90
       50
176
     0
 90
        3
176
     0
 62
     5
420
      255
176
     0
290
     0
176
     0
 90
       50
176
     0
 90
       50
176
     0
 90
       50
176
     0
290
     0
176
     0
 90
       50
176
     0
 62
   256
176
     0
 40
1.0
176
     0
 90
        2
176
     0
  1
strokes_ogs.tif
176
     0
290
     0
176
     0
 40
1.0
176
     0
 40
1.0
176
     0
1001
ACAD
1000
AcDbSavedByObjectVersion
1070
     0
  0
VISUALSTYLE
  5
8560
102
{ACAD_REACTORS
330
8551
102
}
330
8551
100
AcDbVisualStyle
  2
Facepattern
 70
    15
177
     3
291
     1
 70
    58
 90
        2
176
     1
 90
        2
176
     1
 90
        0
176
     1
 90
        0
176
     1
 40
0.6
176
     1
 40
30.0
176
     1
 62
     7
420
 16777215
176
     1
 90
        1
176
     1
 90
        4
176
     1
 62
     7
176
     1
 62
   257
176
     1
 90
        1
176
     1
 90
        1
176
     1
 40
1.0
176
     1
 90
        8
176
     1
 62
     7
176
     1
 40
1.0
176
     1
 90
        1
176
     1
 90
        6
176
     1
 90
        2
176
     1
 62
     7
176
     1
 90
        5
176
     1
 90
        0
176
     1
 90
        0
176
     1
290
     0
176
     1
 90
        1
176
     1
 40
0.0
176
     1
 90
        0
176
     1
290
     0
176
     1
290
     1
176
     1
290
     1
176
     1
290
     0
176
     1
290
     0
176
     1
290
     0
176
     1
290
     0
176
     1
290
     0
176
     1
290
     0
176
     1
 90
       50
176
     1
 40
0.0
176
     1
 40
1.0
176
     1
 90
        0
176
     1
 62
    18
420
        0
176
     1
 90
       50
176
     1
 90
        3
176
     1
 62
     5
420
      255
176
     1
290
     0
176
     1
 90
       50
176
     1
 90
       50
176
     1
 90
       50
176
     1
290
     0
176
     1
 90
       50
176
     1
 62
   256
176
     0
 40
1.0
176
     0
 90
        2
176
     1
  1
strokes_ogs.tif
176
     1
290
     0
176
     1
 40
1.0
176
     1
 40
1.0
176
     1
1001
ACAD
1000
AcDbSavedByObjectVersion
1070
     0
  0
VISUALSTYLE
  5
8552
102
{ACAD_REACTORS
330
8551
102
}
330
8551
100
AcDbVisualStyle
  2
Flat
 70
     0
177
     3
291
     1
 70
    58
 90
        2
176
     1
 90
        1
176
     1
 90
        1
176
     1
 90
        2
176
     1
 40
0.6
176
     1
 40
30.0
176
     1
 62
     7
420
 16777215
176
     1
 90
        0
176
     1
 90
        0
176
     1
 62
     7
176
     1
 62
   257
176
     1
 90
        1
176
     1
 90
        1
176
     1
 40
1.0
176
     1
 90
        8
176
     1
 62
     7
176
     1
 40
1.0
176
     1
 90
        1
176
     1
 90
        6
176
     1
 90
        2
176
     1
 62
     7
176
     1
 90
        5
176
     1
 90
        0
176
     1
 90
        0
176
     1
290
     0
176
     1
 90
       13
176
     1
 40
0.0
176
     1
 90
        0
176
     1
290
     0
176
     1
290
     1
176
     1
290
     1
176
     1
290
     0
176
     1
290
     0
176
     1
290
     0
176
     1
290
     0
176
     1
290
     0
176
     1
290
     0
176
     1
 90
       50
176
     1
 40
0.0
176
     1
 40
1.0
176
     1
 90
        0
176
     1
 62
    18
420
        0
176
     1
 90
       50
176
     1
 90
        3
176
     1
 62
     5
420
      255
176
     1
290
     0
176
     1
 90
       50
176
     1
 90
       50
176
     1
 90
       50
176
     1
290
     0
176
     1
 90
       50
176
     1
 62
   256
176
     0
 40
1.0
176
     0
 90
        2
176
     1
  1
strokes_ogs.tif
176
     1
290
     0
176
     1
 40
1.0
176
     1
 40
1.0
176
     1
1001
ACAD
1000
AcDbSavedByObjectVersion
1070
     0
  0
VISUALSTYLE
  5
8553
102
{ACAD_REACTORS
330
8551
102
}
330
8551
100
AcDbVisualStyle
  2
FlatWithEdges
 70
     1
177
     3
291
     1
 70
    58
 90
        2
176
     1
 90
        1
176
     1
 90
        1
176
     1
 90
        2
176
     1
 40
0.6
176
     1
 40
30.0
176
     1
 62
     7
420
 16777215
176
     1
 90
        1
176
     1
 90
        0
176
     1
 62
     7
176
     1
 62
   257
176
     1
 90
        1
176
     1
 90
        1
176
     1
 40
1.0
176
     1
 90
        0
176
     1
 62
   257
176
     1
 40
1.0
176
     1
 90
        1
176
     1
 90
        6
176
     1
 90
        2
176
     1
 62
     7
176
     1
 90
        5
176
     1
 90
        0
176
     1
 90
        0
176
     1
290
     0
176
     1
 90
       13
176
     1
 40
0.0
176
     1
 90
        0
176
     1
290
     0
176
     1
290
     1
176
     1
290
     1
176
     1
290
     0
176
     1
290
     0
176
     1
290
     0
176
     1
290
     0
176
     1
290
     0
176
     1
290
     0
176
     1
 90
       50
176
     1
 40
0.0
176
     1
 40
1.0
176
     1
 90
        0
176
     1
 62
    18
420
        0
176
     1
 90
       50
176
     1
 90
        3
176
     1
 62
     5
420
      255
176
     1
290
     0
176
     1
 90
       50
176
     1
 90
       50
176
     1
 90
       50
176
     1
290
     0
176
     1
 90
       50
176
     1
 62
   256
176
     0
 40
1.0
176
     0
 90
        2
176
     1
  1
strokes_ogs.tif
176
     1
290
     0
176
     1
 40
1.0
176
     1
 40
1.0
176
     1
1001
ACAD
1000
AcDbSavedByObjectVersion
1070
     0
  0
VISUALSTYLE
  5
8554
102
{ACAD_REACTORS
330
8551
102
}
330
8551
100
AcDbVisualStyle
  2
Gouraud
 70
     2
177
     3
291
     1
 70
    58
 90
        2
176
     1
 90
        2
176
     1
 90
        1
176
     1
 90
        2
176
     1
 40
0.6
176
     1
 40
30.0
176
     1
 62
     7
420
 16777215
176
     1
 90
        0
176
     1
 90
        0
176
     1
 62
     7
176
     1
 62
   257
176
     1
 90
        1
176
     1
 90
        1
176
     1
 40
1.0
176
     1
 90
        0
176
     1
 62
     7
176
     1
 40
1.0
176
     1
 90
        1
176
     1
 90
        6
176
     1
 90
        2
176
     1
 62
     7
176
     1
 90
        5
176
     1
 90
        0
176
     1
 90
        0
176
     1
290
     0
176
     1
 90
       13
176
     1
 40
0.0
176
     1
 90
        0
176
     1
290
     0
176
     1
290
     1
176
     1
290
     1
176
     1
290
     0
176
     1
290
     0
176
     1
290
     0
176
     1
290
     0
176
     1
290
     0
176
     1
290
     0
176
     1
 90
       50
176
     1
 40
0.0
176
     1
 40
1.0
176
     1
 90
        0
176
     1
 62
    18
420
        0
176
     1
 90
       50
176
     1
 90
        3
176
     1
 62
     5
420
      255
176
     1
290
     0
176
     1
 90
       50
176
     1
 90
       50
176
     1
 90
       50
176
     1
290
     0
176
     1
 90
       50
176
     1
 62
   256
176
     0
 40
1.0
176
     0
 90
        2
176
     1
  1
strokes_ogs.tif
176
     1
290
     0
176
     1
 40
1.0
176
     1
 40
1.0
176
     1
1001
ACAD
1000
AcDbSavedByObjectVersion
1070
     0
  0
VISUALSTYLE
  5
8555
102
{ACAD_REACTORS
330
8551
102
}
330
8551
100
AcDbVisualStyle
  2
GouraudWithEdges
 70
     3
177
     3
291
     1
 70
    58
 90
        2
176
     1
 90
        2
176
     1
 90
        1
176
     1
 90
        2
176
     1
 40
0.6
176
     1
 40
30.0
176
     1
 62
     7
420
 16777215
176
     1
 90
        1
176
     1
 90
        0
176
     1
 62
     7
176
     1
 62
   257
176
     1
 90
        1
176
     1
 90
        1
176
     1
 40
1.0
176
     1
 90
        0
176
     1
 62
   257
176
     1
 40
1.0
176
     1
 90
        1
176
     1
 90
        6
176
     1
 90
        2
176
     1
 62
     7
176
     1
 90
        5
176
     1
 90
        0
176
     1
 90
        0
176
     1
290
     0
176
     1
 90
       13
176
     1
 40
0.0
176
     1
 90
        0
176
     1
290
     0
176
     1
290
     1
176
     1
290
     1
176
     1
290
     0
176
     1
290
     0
176
     1
290
     0
176
     1
290
     0
176
     1
290
     0
176
     1
290
     0
176
     1
 90
       50
176
     1
 40
0.0
176
     1
 40
1.0
176
     1
 90
        0
176
     1
 62
    18
420
        0
176
     1
 90
       50
176
     1
 90
        3
176
     1
 62
     5
420
      255
176
     1
290
     0
176
     1
 90
       50
176
     1
 90
       50
176
     1
 90
       50
176
     1
290
     0
176
     1
 90
       50
176
     1
 62
   256
176
     0
 40
1.0
176
     0
 90
        2
176
     1
  1
strokes_ogs.tif
176
     1
290
     0
176
     1
 40
1.0
176
     1
 40
1.0
176
     1
1001
ACAD
1000
AcDbSavedByObjectVersion
1070
     0
  0
VISUALSTYLE
  5
8559
102
{ACAD_REACTORS
330
8551
102
}
330
8551
100
AcDbVisualStyle
  2
Hidden
 70
     6
177
     3
291
     0
 70
    58
 90
        1
176
     1
 90
        2
176
     1
 90
        2
176
     1
 90
        0
176
     1
 40
0.6
176
     1
 40
30.0
176
     1
 62
     7
420
 16777215
176
     1
 90
        2
176
     1
 90
        2
176
     1
 62
     7
176
     1
 62
   257
176
     1
 90
        2
176
     1
 90
        1
176
     1
 40
40.0
176
     1
 90
        0
176
     1
 62
   257
176
     1
 40
1.0
176
     1
 90
        1
176
     1
 90
        6
176
     1
 90
        2
176
     1
 62
     7
176
     1
 90
        3
176
     1
 90
        0
176
     1
 90
        0
176
     1
290
     0
176
     1
 90
        1
176
     1
 40
0.0
176
     1
 90
        0
176
     1
290
     0
176
     1
290
     1
176
     1
290
     1
176
     1
290
     0
176
     1
290
     0
176
     1
290
     0
176
     1
290
     0
176
     1
290
     0
176
     1
290
     0
176
     1
 90
       50
176
     1
 40
0.0
176
     1
 40
1.0
176
     1
 90
        0
176
     1
 62
    18
420
        0
176
     1
 90
       50
176
     1
 90
        3
176
     1
 62
     5
420
      255
176
     1
290
     0
176
     1
 90
       50
176
     1
 90
       50
176
     1
 90
       50
176
     1
290
     0
176
     1
 90
       50
176
     1
 62
   256
176
     0
 40
1.0
176
     0
 90
        2
176
     1
  1
strokes_ogs.tif
176
     1
290
     0
176
     1
 40
1.0
176
     1
 40
1.0
176
     1
1001
ACAD
1000
AcDbSavedByObjectVersion
1070
     0
  0
VISUALSTYLE
  5
8567
102
{ACAD_REACTORS
330
8551
102
}
330
8551
100
AcDbVisualStyle
  2
JitterOff
 70
    20
177
     3
291
     1
 70
    58
 90
        2
176
     0
 90
        2
176
     0
 90
        0
176
     0
 90
        0
176
     0
 40
0.6
176
     0
 40
30.0
176
     0
 62
     7
420
 16777215
176
     0
 90
        1
176
     0
 90
        4
176
     0
 62
     7
176
     0
 62
   257
176
     0
 90
        1
176
     0
 90
        1
176
     0
 40
1.0
176
     0
 90
       10
176
     2
 62
     7
176
     0
 40
1.0
176
     0
 90
        1
176
     0
 90
        6
176
     0
 90
        2
176
     0
 62
     7
176
     0
 90
        5
176
     0
 90
        0
176
     0
 90
        0
176
     0
290
     0
176
     0
 90
        1
176
     0
 40
0.0
176
     0
 90
        0
176
     0
290
     0
176
     0
290
     1
176
     0
290
     1
176
     0
290
     0
176
     0
290
     0
176
     0
290
     0
176
     0
290
     0
176
     0
290
     0
176
     0
290
     0
176
     0
 90
       50
176
     0
 40
0.0
176
     0
 40
1.0
176
     0
 90
        0
176
     0
 62
    18
420
        0
176
     0
 90
       50
176
     0
 90
        3
176
     0
 62
     5
420
      255
176
     0
290
     0
176
     0
 90
       50
176
     0
 90
       50
176
     0
 90
       50
176
     0
290
     0
176
     0
 90
       50
176
     0
 62
   256
176
     0
 40
1.0
176
     0
 90
        2
176
     0
  1
strokes_ogs.tif
176
     0
290
     0
176
     0
 40
1.0
176
     0
 40
1.0
176
     0
1001
ACAD
1000
AcDbSavedByObjectVersion
1070
     0
  0
VISUALSTYLE
  5
855F
102
{ACAD_REACTORS
330
8551
102
}
330
8551
100
AcDbVisualStyle
  2
Linepattern
 70
    14
177
     3
291
     1
 70
    58
 90
        2
176
     1
 90
        2
176
     1
 90
        0
176
     1
 90
        0
176
     1
 40
0.6
176
     1
 40
30.0
176
     1
 62
     7
420
 16777215
176
     1
 90
        1
176
     1
 90
        4
176
     1
 62
     7
176
     1
 62
   257
176
     1
 90
        7
176
     1
 90
        7
176
     1
 40
1.0
176
     1
 90
        8
176
     1
 62
     7
176
     1
 40
1.0
176
     1
 90
        1
176
     1
 90
        6
176
     1
 90
        2
176
     1
 62
     7
176
     1
 90
        5
176
     1
 90
        0
176
     1
 90
        0
176
     1
290
     0
176
     1
 90
        1
176
     1
 40
0.0
176
     1
 90
        0
176
     1
290
     0
176
     1
290
     1
176
     1
290
     1
176
     1
290
     0
176
     1
290
     0
176
     1
290
     0
176
     1
290
     0
176
     1
290
     0
176
     1
290
     0
176
     1
 90
       50
176
     1
 40
0.0
176
     1
 40
1.0
176
     1
 90
        0
176
     1
 62
    18
420
        0
176
     1
 90
       50
176
     1
 90
        3
176
     1
 62
     5
420
      255
176
     1
290
     0
176
     1
 90
       50
176
     1
 90
       50
176
     1
 90
       50
176
     1
290
     0
176
     1
 90
       50
176
     1
 62
   256
176
     0
 40
1.0
176
     0
 90
        2
176
     1
  1
strokes_ogs.tif
176
     1
290
     0
176
     1
 40
1.0
176
     1
 40
1.0
176
     1
1001
ACAD
1000
AcDbSavedByObjectVersion
1070
     0
  0
VISUALSTYLE
  5
8568
102
{ACAD_REACTORS
330
8551
102
}
330
8551
100
AcDbVisualStyle
  2
OverhangOff
 70
    21
177
     3
291
     1
 70
    58
 90
        2
176
     0
 90
        2
176
     0
 90
        0
176
     0
 90
        0
176
     0
 40
0.6
176
     0
 40
30.0
176
     0
 62
     7
420
 16777215
176
     0
 90
        1
176
     0
 90
        4
176
     0
 62
     7
176
     0
 62
   257
176
     0
 90
        1
176
     0
 90
        1
176
     0
 40
1.0
176
     0
 90
        9
176
     2
 62
     7
176
     0
 40
1.0
176
     0
 90
        1
176
     0
 90
        6
176
     0
 90
        2
176
     0
 62
     7
176
     0
 90
        5
176
     0
 90
        0
176
     0
 90
        0
176
     0
290
     0
176
     0
 90
        1
176
     0
 40
0.0
176
     0
 90
        0
176
     0
290
     0
176
     0
290
     1
176
     0
290
     1
176
     0
290
     0
176
     0
290
     0
176
     0
290
     0
176
     0
290
     0
176
     0
290
     0
176
     0
290
     0
176
     0
 90
       50
176
     0
 40
0.0
176
     0
 40
1.0
176
     0
 90
        0
176
     0
 62
    18
420
        0
176
     0
 90
       50
176
     0
 90
        3
176
     0
 62
     5
420
      255
176
     0
290
     0
176
     0
 90
       50
176
     0
 90
       50
176
     0
 90
       50
176
     0
290
     0
176
     0
 90
       50
176
     0
 62
   256
176
     0
 40
1.0
176
     0
 90
        2
176
     0
  1
strokes_ogs.tif
176
     0
290
     0
176
     0
 40
1.0
176
     0
 40
1.0
176
     0
1001
ACAD
1000
AcDbSavedByObjectVersion
1070
     0
  0
VISUALSTYLE
  5
855B
102
{ACAD_REACTORS
330
8551
102
}
330
8551
100
AcDbVisualStyle
  2
Realistic
 70
     8
177
     3
291
     0
 70
    58
 90
        2
176
     1
 90
        3
176
     1
 90
        0
176
     1
 90
        2
176
     1
 40
0.6
176
     1
 40
30.0
176
     1
 62
     7
420
 16777215
176
     1
 90
        0
176
     1
 90
        0
176
     1
 62
     7
176
     1
 62
   257
176
     1
 90
        1
176
     1
 90
        1
176
     1
 40
1.0
176
     1
 90
        8
176
     1
 62
   257
176
     1
 40
1.0
176
     1
 90
        1
176
     1
 90
        6
176
     1
 90
        2
176
     1
 62
     7
176
     1
 90
        3
176
     1
 90
        0
176
     1
 90
        0
176
     1
290
     0
176
     1
 90
       13
176
     1
 40
0.0
176
     1
 90
        0
176
     1
290
     0
176
     1
290
     1
176
     1
290
     1
176
     1
290
     0
176
     1
290
     0
176
     1
290
     0
176
     1
290
     0
176
     1
290
     0
176
     1
290
     0
176
     1
 90
       50
176
     1
 40
0.0
176
     1
 40
1.0
176
     1
 90
        0
176
     1
 62
    18
420
        0
176
     1
 90
       50
176
     1
 90
        3
176
     1
 62
     5
420
      255
176
     1
290
     0
176
     1
 90
       50
176
     1
 90
       50
176
     1
 90
       50
176
     1
290
     0
176
     1
 90
       50
176
     1
 62
   256
176
     0
 40
1.0
176
     0
 90
        2
176
     1
  1
strokes_ogs.tif
176
     1
290
     0
176
     1
 40
1.0
176
     1
 40
1.0
176
     1
1001
ACAD
1000
AcDbSavedByObjectVersion
1070
     0
  0
VISUALSTYLE
  5
8566
102
{ACAD_REACTORS
330
8551
102
}
330
8551
100
AcDbVisualStyle
  2
Shaded
 70
    27
177
     3
291
     0
 70
    58
 90
        2
176
     1
 90
        2
176
     1
 90
        1
176
     1
 90
        2
176
     1
 40
0.6
176
     1
 40
30.0
176
     1
 62
     7
420
 16777215
176
     1
 90
        0
176
     1
 90
        4
176
     1
 62
     7
176
     1
 62
   257
176
     1
 90
        1
176
     1
 90
        1
176
     1
 40
1.0
176
     1
 90
        8
176
     1
 62
   257
176
     1
 40
1.0
176
     1
 90
        1
176
     1
 90
        6
176
     1
 90
        2
176
     1
 62
     8
420
  7895160
176
     1
 90
        3
176
     1
 90
        0
176
     1
 90
        0
176
     1
290
     0
176
     1
 90
        5
176
     1
 40
0.0
176
     1
 90
        0
176
     1
290
     0
176
     1
290
     1
176
     1
290
     1
176
     1
290
     0
176
     1
290
     0
176
     1
290
     0
176
     1
290
     0
176
     1
290
     0
176
     1
290
     0
176
     1
 90
       50
176
     1
 40
0.0
176
     1
 40
1.0
176
     1
 90
        0
176
     1
 62
    18
420
        0
176
     1
 90
       50
176
     1
 90
        3
176
     1
 62
     5
420
      255
176
     1
290
     0
176
     1
 90
       50
176
     1
 90
       50
176
     1
 90
       50
176
     1
290
     0
176
     1
 90
       50
176
     1
 62
   256
176
     0
 40
1.0
176
     0
 90
        2
176
     1
  1
strokes_ogs.tif
176
     1
290
     0
176
     1
 40
1.0
176
     1
 40
1.0
176
     1
1001
ACAD
1000
AcDbSavedByObjectVersion
1070
     0
  0
VISUALSTYLE
  5
8565
102
{ACAD_REACTORS
330
8551
102
}
330
8551
100
AcDbVisualStyle
  2
Shaded with edges
 70
    26
177
     3
291
     0
 70
    58
 90
        2
176
     1
 90
        2
176
     1
 90
        1
176
     1
 90
        2
176
     1
 40
0.6
176
     1
 40
30.0
176
     1
 62
     7
420
 16777215
176
     1
 90
        1
176
     1
 90
        2
176
     1
 62
     7
176
     1
 62
   257
176
     1
 90
        2
176
     1
 90
        1
176
     1
 40
1.0
176
     1
 90
        8
176
     1
 62
   257
176
     1
 40
1.0
176
     1
 90
        1
176
     1
 90
        6
176
     1
 90
        2
176
     1
 62
     7
176
     1
 90
        3
176
     1
 90
        0
176
     1
 90
        0
176
     1
290
     0
176
     1
 90
        5
176
     1
 40
0.0
176
     1
 90
        0
176
     1
290
     0
176
     1
290
     1
176
     1
290
     1
176
     1
290
     0
176
     1
290
     0
176
     1
290
     0
176
     1
290
     0
176
     1
290
     0
176
     1
290
     0
176
     1
 90
       50
176
     1
 40
0.0
176
     1
 40
1.0
176
     1
 90
        0
176
     1
 62
    18
420
        0
176
     1
 90
       50
176
     1
 90
        3
176
     1
 62
     5
420
      255
176
     1
290
     0
176
     1
 90
       50
176
     1
 90
       50
176
     1
 90
       50
176
     1
290
     0
176
     1
 90
       50
176
     1
 62
   256
176
     0
 40
1.0
176
     0
 90
        2
176
     1
  1
strokes_ogs.tif
176
     1
290
     0
176
     1
 40
1.0
176
     1
 40
1.0
176
     1
1001
ACAD
1000
AcDbSavedByObjectVersion
1070
     0
  0
VISUALSTYLE
  5
8562
102
{ACAD_REACTORS
330
8551
102
}
330
8551
100
AcDbVisualStyle
  2
Shades of Gray
 70
    23
177
     3
291
     0
 70
    58
 90
        2
176
     1
 90
        2
176
     1
 90
        3
176
     1
 90
        0
176
     1
 40
0.6
176
     1
 40
30.0
176
     1
 62
     7
420
 16777215
176
     1
 90
        2
176
     1
 90
        2
176
     1
 62
     7
176
     1
 62
     7
176
     1
 90
        1
176
     1
 90
        1
176
     1
 40
40.0
176
     1
 90
        8
176
     1
 62
     7
176
     1
 40
1.0
176
     1
 90
        1
176
     1
 90
        6
176
     1
 90
        2
176
     1
 62
     7
176
     1
 90
        3
176
     1
 90
        0
176
     1
 90
        0
176
     1
290
     0
176
     1
 90
        1
176
     1
 40
0.0
176
     1
 90
        0
176
     1
290
     0
176
     1
290
     1
176
     1
290
     1
176
     1
290
     0
176
     1
290
     0
176
     1
290
     0
176
     1
290
     0
176
     1
290
     0
176
     1
290
     0
176
     1
 90
       50
176
     1
 40
0.0
176
     1
 40
1.0
176
     1
 90
        0
176
     1
 62
    18
420
        0
176
     1
 90
       50
176
     1
 90
        3
176
     1
 62
     5
420
      255
176
     1
290
     0
176
     1
 90
       50
176
     1
 90
       50
176
     1
 90
       50
176
     1
290
     0
176
     1
 90
       50
176
     1
 62
   256
176
     0
 40
1.0
176
     0
 90
        2
176
     1
  1
strokes_ogs.tif
176
     1
290
     0
176
     1
 40
1.0
176
     1
 40
1.0
176
     1
1001
ACAD
1000
AcDbSavedByObjectVersion
1070
     0
  0
VISUALSTYLE
  5
8563
102
{ACAD_REACTORS
330
8551
102
}
330
8551
100
AcDbVisualStyle
  2
Sketchy
 70
    24
177
     3
291
     0
 70
    58
 90
        1
176
     1
 90
        2
176
     1
 90
        2
176
     1
 90
        0
176
     1
 40
0.6
176
     1
 40
30.0
176
     1
 62
     7
420
 16777215
176
     1
 90
        2
176
     1
 90
        2
176
     1
 62
     7
176
     1
 62
     7
176
     1
 90
        1
176
     1
 90
        1
176
     1
 40
40.0
176
     1
 90
       11
176
     1
 62
     7
176
     1
 40
1.0
176
     1
 90
        1
176
     1
 90
        6
176
     1
 90
        2
176
     1
 62
     7
176
     1
 90
        6
176
     1
 90
        0
176
     1
 90
        0
176
     1
290
     0
176
     1
 90
        1
176
     1
 40
0.0
176
     1
 90
        0
176
     1
290
     0
176
     1
290
     1
176
     1
290
     1
176
     1
290
     0
176
     1
290
     0
176
     1
290
     0
176
     1
290
     0
176
     1
290
     0
176
     1
290
     0
176
     1
 90
       50
176
     1
 40
0.0
176
     1
 40
1.0
176
     1
 90
        0
176
     1
 62
    18
420
        0
176
     1
 90
       50
176
     1
 90
        3
176
     1
 62
     5
420
      255
176
     1
290
     0
176
     1
 90
       50
176
     1
 90
       50
176
     1
 90
       50
176
     1
290
     0
176
     1
 90
       50
176
     1
 62
   256
176
     0
 40
1.0
176
     0
 90
        2
176
     1
  1
strokes_ogs.tif
176
     1
290
     0
176
     1
 40
1.0
176
     1
 40
1.0
176
     1
1001
ACAD
1000
AcDbSavedByObjectVersion
1070
     0
  0
VISUALSTYLE
  5
855E
102
{ACAD_REACTORS
330
8551
102
}
330
8551
100
AcDbVisualStyle
  2
Thicken
 70
    13
177
     3
291
     1
 70
    58
 90
        2
176
     1
 90
        2
176
     1
 90
        0
176
     1
 90
        0
176
     1
 40
0.6
176
     1
 40
30.0
176
     1
 62
     7
420
 16777215
176
     1
 90
        1
176
     1
 90
        4
176
     1
 62
     7
176
     1
 62
   257
176
     1
 90
        1
176
     1
 90
        1
176
     1
 40
1.0
176
     1
 90
       12
176
     1
 62
     7
176
     1
 40
1.0
176
     1
 90
        1
176
     1
 90
        6
176
     1
 90
        2
176
     1
 62
     7
176
     1
 90
        5
176
     1
 90
        0
176
     1
 90
        0
176
     1
290
     0
176
     1
 90
        1
176
     1
 40
0.0
176
     1
 90
        0
176
     1
290
     0
176
     1
290
     1
176
     1
290
     1
176
     1
290
     0
176
     1
290
     0
176
     1
290
     0
176
     1
290
     0
176
     1
290
     0
176
     1
290
     0
176
     1
 90
       50
176
     1
 40
0.0
176
     1
 40
1.0
176
     1
 90
        0
176
     1
 62
    18
420
        0
176
     1
 90
       50
176
     1
 90
        3
176
     1
 62
     5
420
      255
176
     1
290
     0
176
     1
 90
       50
176
     1
 90
       50
176
     1
 90
       50
176
     1
290
     0
176
     1
 90
       50
176
     1
 62
   256
176
     0
 40
1.0
176
     0
 90
        2
176
     1
  1
strokes_ogs.tif
176
     1
290
     0
176
     1
 40
1.0
176
     1
 40
1.0
176
     1
1001
ACAD
1000
AcDbSavedByObjectVersion
1070
     0
  0
VISUALSTYLE
  5
8558
102
{ACAD_REACTORS
330
8551
102
}
330
8551
100
AcDbVisualStyle
  2
Wireframe
 70
     5
177
     3
291
     0
 70
    58
 90
        0
176
     1
 90
        2
176
     1
 90
        0
176
     1
 90
        0
176
     1
 40
0.6
176
     1
 40
30.0
176
     1
 62
     7
420
 16777215
176
     1
 90
        1
176
     1
 90
        4
176
     1
 62
     7
176
     1
 62
   257
176
     1
 90
        1
176
     1
 90
        1
176
     1
 40
1.0
176
     1
 90
        0
176
     1
 62
   257
176
     1
 40
1.0
176
     1
 90
        1
176
     1
 90
        6
176
     1
 90
        2
176
     1
 62
     7
176
     1
 90
        3
176
     1
 90
        0
176
     1
 90
        0
176
     1
290
     0
176
     1
 90
        1
176
     1
 40
0.0
176
     1
 90
        0
176
     1
290
     0
176
     1
290
     1
176
     1
290
     1
176
     1
290
     0
176
     1
290
     0
176
     1
290
     0
176
     1
290
     0
176
     1
290
     0
176
     1
290
     0
176
     1
 90
       50
176
     1
 40
0.0
176
     1
 40
1.0
176
     1
 90
        0
176
     1
 62
    18
420
        0
176
     1
 90
       50
176
     1
 90
        3
176
     1
 62
     5
420
      255
176
     1
290
     0
176
     1
 90
       50
176
     1
 90
       50
176
     1
 90
       50
176
     1
290
     0
176
     1
 90
       50
176
     1
 62
   256
176
     0
 40
1.0
176
     0
 90
        2
176
     1
  1
strokes_ogs.tif
176
     1
290
     0
176
     1
 40
1.0
176
     1
 40
1.0
176
     1
1001
ACAD
1000
AcDbSavedByObjectVersion
1070
     0
  0
VISUALSTYLE
  5
8564
102
{ACAD_REACTORS
330
8551
102
}
330
8551
100
AcDbVisualStyle
  2
X-Ray
 70
    25
177
     3
291
     0
 70
    58
 90
        2
176
     1
 90
        2
176
     1
 90
        1
176
     1
 90
        1
176
     1
 40
0.5
176
     1
 40
30.0
176
     1
 62
     7
420
 16777215
176
     1
 90
        1
176
     1
 90
        0
176
     1
 62
     7
176
     1
 62
   257
176
     1
 90
        1
176
     1
 90
        1
176
     1
 40
1.0
176
     1
 90
        8
176
     1
 62
     7
176
     1
 40
1.0
176
     1
 90
        1
176
     1
 90
        6
176
     1
 90
        2
176
     1
 62
     7
176
     1
 90
        3
176
     1
 90
        0
176
     1
 90
        0
176
     1
290
     0
176
     1
 90
       13
176
     1
 40
0.0
176
     1
 90
        0
176
     1
290
     0
176
     1
290
     1
176
     1
290
     1
176
     1
290
     0
176
     1
290
     0
176
     1
290
     0
176
     1
290
     0
176
     1
290
     0
176
     1
290
     0
176
     1
 90
       50
176
     1
 40
0.0
176
     1
 40
1.0
176
     1
 90
        0
176
     1
 62
    18
420
        0
176
     1
 90
       50
176
     1
 90
        3
176
     1
 62
     5
420
      255
176
     1
290
     0
176
     1
 90
       50
176
     1
 90
       50
176
     1
 90
       50
176
     1
290
     0
176
     1
 90
       50
176
     1
 62
   256
176
     0
 40
1.0
176
     0
 90
        2
176
     1
  1
strokes_ogs.tif
176
     1
290
     0
176
     1
 40
1.0
176
     1
 40
1.0
176
     1
1001
ACAD
1000
AcDbSavedByObjectVersion
1070
     0
  0
DICTIONARYVAR
  5
8606
102
{ACAD_REACTORS
330
8600
102
}
330
8600
100
DictionaryVariables
280
     0
  1
1:1
  0
DICTIONARYVAR
  5
8602
102
{ACAD_REACTORS
330
8600
102
}
330
8600
100
DictionaryVariables
280
     0
  1
STANDARD
  0
DICTIONARYVAR
  5
8601
102
{ACAD_REACTORS
330
8600
102
}
330
8600
100
DictionaryVariables
280
     0
  1
STANDARD
  0
DICTIONARYVAR
  5
8603
102
{ACAD_REACTORS
330
8600
102
}
330
8600
100
DictionaryVariables
280
     0
  1
Metric50
  0
DICTIONARYVAR
  5
8604
102
{ACAD_REACTORS
330
8600
102
}
330
8600
100
DictionaryVariables
280
     0
  1
Metric50
  0
DICTIONARYVAR
  5
8608
102
{ACAD_REACTORS
330
8600
102
}
330
8600
100
DictionaryVariables
280
     0
  1
1
  0
DICTIONARYVAR
  5
8609
102
{ACAD_REACTORS
330
8600
102
}
330
8600
100
DictionaryVariables
280
     0
  1
15
  0
DICTIONARYVAR
  5
8607
102
{ACAD_REACTORS
330
8600
102
}
330
8600
100
DictionaryVariables
280
     0
  1
0
  0
DICTIONARYVAR
  5
860E
102
{ACAD_REACTORS
330
8600
102
}
330
8600
100
DictionaryVariables
280
     0
  1
0
  0
DICTIONARYVAR
  5
8605
102
{ACAD_REACTORS
330
8600
102
}
330
8600
100
DictionaryVariables
280
     0
  1
0
  0
DICTIONARY
  5
8619
102
{ACAD_REACTORS
330
8617
102
}
330
8617
100
AcDbDictionary
281
     1
  0
DICTIONARY
  5
8618
102
{ACAD_REACTORS
330
8617
102
}
330
8617
100
AcDbDictionary
281
     1
  3
2002747693984
350
8612
  3
2002747694000
350
8613
  3
2002747694016
350
8614
  3
2002747694032
350
8615
  3
2002747694048
350
8616
  0
DICTIONARY
  5
861C
330
8584
100
AcDbDictionary
280
     1
281
     1
  3
ACAD_XREC_ROUNDTRIP
360
861D
  0
DICTIONARY
  5
8542
330
8541
100
AcDbDictionary
280
     1
281
     1
  3
BUMPTILE
360
8544
  3
DIFFUSETILE
360
8543
  3
OPACITYTILE
360
8547
  3
REFLECTIONTILE
360
8546
  3
REFRACTIONTILE
360
8548
  3
SPECULARTILE
360
8545
  0
DICTIONARY
  5
853A
330
8539
100
AcDbDictionary
280
     1
281
     1
  3
BUMPTILE
360
853C
  3
DIFFUSETILE
360
853B
  3
OPACITYTILE
360
853F
  3
REFLECTIONTILE
360
853E
  3
REFRACTIONTILE
360
8540
  3
SPECULARTILE
360
853D
  0
DICTIONARY
  5
854A
330
8549
100
AcDbDictionary
280
     1
281
     1
  3
BUMPTILE
360
854C
  3
DIFFUSETILE
360
854B
  3
OPACITYTILE
360
854F
  3
REFLECTIONTILE
360
854E
  3
REFRACTIONTILE
360
8550
  3
SPECULARTILE
360
854D
  0
DICTIONARY
  5
861A
330
8582
100
AcDbDictionary
280
     1
281
     1
  3
ACAD_XREC_ROUNDTRIP
360
861B
  0
DICTIONARY
  5
860F
330
856C
100
AcDbDictionary
280
     1
281
     1
  3
ACAD_ROUNDTRIP_2008_TABLESTYLE_CELLSTYLEMAP
360
8610
  0
XRECORD
  5
8612
102
{ACAD_REACTORS
330
8618
102
}
330
8618
100
AcDbXrecord
280
     1
  1
AcDb_Thumbnail_Schema
102
{ATTRRECORD
341
8613
  2
AcDbDs::TreatedAsObjectData
280
     1
291
     1
102
ATTRRECORD}
102
{ATTRRECORD
341
8614
  2
AcDbDs::Legacy
280
     1
291
     1
102
ATTRRECORD}
  2
AcDbDs::ID
280
    10
 91
        8
102
{ATTRRECORD
341
8615
  2
AcDs:Indexable
280
     1
291
     1
102
ATTRRECORD}
102
{ATTRRECORD
341
8616
  2
AcDbDs::HandleAttribute
280
     7
282
     1
102
ATTRRECORD}
  2
Thumbnail_Data
280
    15
 91
        0
  0
XRECORD
  5
8613
102
{ACAD_REACTORS
330
8618
102
}
330
8618
100
AcDbXrecord
280
     1
  1
AcDbDs::TreatedAsObjectDataSchema
  2
AcDbDs::TreatedAsObjectData
280
     1
 91
        0
  0
XRECORD
  5
8614
102
{ACAD_REACTORS
330
8618
102
}
330
8618
100
AcDbXrecord
280
     1
  1
AcDbDs::LegacySchema
  2
AcDbDs::Legacy
280
     1
 91
        0
  0
XRECORD
  5
8615
102
{ACAD_REACTORS
330
8618
102
}
330
8618
100
AcDbXrecord
280
     1
  1
AcDbDs::IndexedPropertySchema
  2
AcDs:Indexable
280
     1
 91
        0
  0
XRECORD
  5
8616
102
{ACAD_REACTORS
330
8618
102
}
330
8618
100
AcDbXrecord
280
     1
  1
AcDbDs::HandleAttributeSchema
  2
AcDbDs::HandleAttribute
280
     7
 91
        1
284
     1
  0
XRECORD
  5
861D
102
{ACAD_REACTORS
330
861C
102
}
330
861C
100
AcDbXrecord
280
     1
102
DISPLAYNAME
  1
Metric50
102
FLAGS
 90
        0
  0
XRECORD
  5
8544
102
{ACAD_REACTORS
330
8542
102
}
330
8542
100
AcDbXrecord
280
     1
270
     1
271
     1
  0
XRECORD
  5
8543
102
{ACAD_REACTORS
330
8542
102
}
330
8542
100
AcDbXrecord
280
     1
270
     1
271
     1
  0
XRECORD
  5
8547
102
{ACAD_REACTORS
330
8542
102
}
330
8542
100
AcDbXrecord
280
     1
270
     1
271
     1
  0
XRECORD
  5
8546
102
{ACAD_REACTORS
330
8542
102
}
330
8542
100
AcDbXrecord
280
     1
270
     1
271
     1
  0
XRECORD
  5
8548
102
{ACAD_REACTORS
330
8542
102
}
330
8542
100
AcDbXrecord
280
     1
270
     1
271
     1
  0
XRECORD
  5
8545
102
{ACAD_REACTORS
330
8542
102
}
330
8542
100
AcDbXrecord
280
     1
270
     1
271
     1
  0
XRECORD
  5
853C
102
{ACAD_REACTORS
330
853A
102
}
330
853A
100
AcDbXrecord
280
     1
270
     1
271
     1
  0
XRECORD
  5
853B
102
{ACAD_REACTORS
330
853A
102
}
330
853A
100
AcDbXrecord
280
     1
270
     1
271
     1
  0
XRECORD
  5
853F
102
{ACAD_REACTORS
330
853A
102
}
330
853A
100
AcDbXrecord
280
     1
270
     1
271
     1
  0
XRECORD
  5
853E
102
{ACAD_REACTORS
330
853A
102
}
330
853A
100
AcDbXrecord
280
     1
270
     1
271
     1
  0
XRECORD
  5
8540
102
{ACAD_REACTORS
330
853A
102
}
330
853A
100
AcDbXrecord
280
     1
270
     1
271
     1
  0
XRECORD
  5
853D
102
{ACAD_REACTORS
330
853A
102
}
330
853A
100
AcDbXrecord
280
     1
270
     1
271
     1
  0
XRECORD
  5
854C
102
{ACAD_REACTORS
330
854A
102
}
330
854A
100
AcDbXrecord
280
     1
270
     1
271
     1
  0
XRECORD
  5
854B
102
{ACAD_REACTORS
330
854A
102
}
330
854A
100
AcDbXrecord
280
     1
270
     1
271
     1
  0
XRECORD
  5
854F
102
{ACAD_REACTORS
330
854A
102
}
330
854A
100
AcDbXrecord
280
     1
270
     1
271
     1
  0
XRECORD
  5
854E
102
{ACAD_REACTORS
330
854A
102
}
330
854A
100
AcDbXrecord
280
     1
270
     1
271
     1
  0
XRECORD
  5
8550
102
{ACAD_REACTORS
330
854A
102
}
330
854A
100
AcDbXrecord
280
     1
270
     1
271
     1
  0
XRECORD
  5
854D
102
{ACAD_REACTORS
330
854A
102
}
330
854A
100
AcDbXrecord
280
     1
270
     1
271
     1
  0
XRECORD
  5
861B
102
{ACAD_REACTORS
330
861A
102
}
330
861A
100
AcDbXrecord
280
     1
102
DISPLAYNAME
  1
Metric50
102
FLAGS
 90
        0
  0
CELLSTYLEMAP
  5
8610
102
{ACAD_REACTORS
330
860F
102
}
330
860F
100
AcDbCellStyleMap
 90
        3
300
CELLSTYLE
  1
TABLEFORMAT_BEGIN
 90
        5
170
     1
 91
        0
 92
    32768
 62
   257
 93
        1
300
CONTENTFORMAT
  1
CONTENTFORMAT_BEGIN
 90
        0
 91
        0
 92
      512
 93
        0
300

 40
0.0
140
1.0
 94
        5
 62
     0
340
10
144
6.0
309
CONTENTFORMAT_END
171
     1
301
MARGIN
  1
CELLMARGIN_BEGIN
 40
1.5
 40
1.5
 40
1.5
 40
1.5
 40
4.5
 40
4.5
309
CELLMARGIN_END
 94
        6
 95
        1
302
GRIDFORMAT
  1
GRIDFORMAT_BEGIN
 90
        0
 91
        1
 62
     0
 92
       -2
340
0
 93
        0
 40
1.125
309
GRIDFORMAT_END
 95
        2
302
GRIDFORMAT
  1
GRIDFORMAT_BEGIN
 90
        0
 91
        1
 62
     0
 92
       -2
340
0
 93
        0
 40
1.125
309
GRIDFORMAT_END
 95
        4
302
GRIDFORMAT
  1
GRIDFORMAT_BEGIN
 90
        0
 91
        1
 62
     0
 92
       -2
340
0
 93
        0
 40
1.125
309
GRIDFORMAT_END
 95
        8
302
GRIDFORMAT
  1
GRIDFORMAT_BEGIN
 90
        0
 91
        1
 62
     0
 92
       -2
340
0
 93
        0
 40
1.125
309
GRIDFORMAT_END
 95
       16
302
GRIDFORMAT
  1
GRIDFORMAT_BEGIN
 90
        0
 91
        1
 62
     0
 92
       -2
340
0
 93
        0
 40
1.125
309
GRIDFORMAT_END
 95
       32
302
GRIDFORMAT
  1
GRIDFORMAT_BEGIN
 90
        0
 91
        1
 62
     0
 92
       -2
340
0
 93
        0
 40
1.125
309
GRIDFORMAT_END
309
TABLEFORMAT_END
  1
CELLSTYLE_BEGIN
 90
        1
 91
        1
300
_TITLE
309
CELLSTYLE_END
300
CELLSTYLE
  1
TABLEFORMAT_BEGIN
 90
        5
170
     1
 91
        0
 92
        0
 62
   257
 93
        1
300
CONTENTFORMAT
  1
CONTENTFORMAT_BEGIN
 90
        0
 91
        0
 92
      512
 93
        0
300

 40
0.0
140
1.0
 94
        5
 62
     0
340
10
144
4.5
309
CONTENTFORMAT_END
171
     1
301
MARGIN
  1
CELLMARGIN_BEGIN
 40
1.5
 40
1.5
 40
1.5
 40
1.5
 40
4.5
 40
4.5
309
CELLMARGIN_END
 94
        6
 95
        1
302
GRIDFORMAT
  1
GRIDFORMAT_BEGIN
 90
        0
 91
        1
 62
     0
 92
       -2
340
0
 93
        0
 40
1.125
309
GRIDFORMAT_END
 95
        2
302
GRIDFORMAT
  1
GRIDFORMAT_BEGIN
 90
        0
 91
        1
 62
     0
 92
       -2
340
0
 93
        0
 40
1.125
309
GRIDFORMAT_END
 95
        4
302
GRIDFORMAT
  1
GRIDFORMAT_BEGIN
 90
        0
 91
        1
 62
     0
 92
       -2
340
0
 93
        0
 40
1.125
309
GRIDFORMAT_END
 95
        8
302
GRIDFORMAT
  1
GRIDFORMAT_BEGIN
 90
        0
 91
        1
 62
     0
 92
       -2
340
0
 93
        0
 40
1.125
309
GRIDFORMAT_END
 95
       16
302
GRIDFORMAT
  1
GRIDFORMAT_BEGIN
 90
        0
 91
        1
 62
     0
 92
       -2
340
0
 93
        0
 40
1.125
309
GRIDFORMAT_END
 95
       32
302
GRIDFORMAT
  1
GRIDFORMAT_BEGIN
 90
        0
 91
        1
 62
     0
 92
       -2
340
0
 93
        0
 40
1.125
309
GRIDFORMAT_END
309
TABLEFORMAT_END
  1
CELLSTYLE_BEGIN
 90
        2
 91
        1
300
_HEADER
309
CELLSTYLE_END
300
CELLSTYLE
  1
TABLEFORMAT_BEGIN
 90
        5
170
     1
 91
        0
 92
        0
 62
   257
 93
        1
300
CONTENTFORMAT
  1
CONTENTFORMAT_BEGIN
 90
        0
 91
        0
 92
      512
 93
        0
300

 40
0.0
140
1.0
 94
        2
 62
     0
340
10
144
4.5
309
CONTENTFORMAT_END
171
     1
301
MARGIN
  1
CELLMARGIN_BEGIN
 40
1.5
 40
1.5
 40
1.5
 40
1.5
 40
4.5
 40
4.5
309
CELLMARGIN_END
 94
        6
 95
        1
302
GRIDFORMAT
  1
GRIDFORMAT_BEGIN
 90
        0
 91
        1
 62
     0
 92
       -2
340
0
 93
        0
 40
1.125
309
GRIDFORMAT_END
 95
        2
302
GRIDFORMAT
  1
GRIDFORMAT_BEGIN
 90
        0
 91
        1
 62
     0
 92
       -2
340
0
 93
        0
 40
1.125
309
GRIDFORMAT_END
 95
        4
302
GRIDFORMAT
  1
GRIDFORMAT_BEGIN
 90
        0
 91
        1
 62
     0
 92
       -2
340
0
 93
        0
 40
1.125
309
GRIDFORMAT_END
 95
        8
302
GRIDFORMAT
  1
GRIDFORMAT_BEGIN
 90
        0
 91
        1
 62
     0
 92
       -2
340
0
 93
        0
 40
1.125
309
GRIDFORMAT_END
 95
       16
302
GRIDFORMAT
  1
GRIDFORMAT_BEGIN
 90
        0
 91
        1
 62
     0
 92
       -2
340
0
 93
        0
 40
1.125
309
GRIDFORMAT_END
 95
       32
302
GRIDFORMAT
  1
GRIDFORMAT_BEGIN
 90
        0
 91
        1
 62
     0
 92
       -2
340
0
 93
        0
 40
1.125
309
GRIDFORMAT_END
309
TABLEFORMAT_END
  1
CELLSTYLE_BEGIN
 90
        3
 91
        2
300
_DATA
309
CELLSTYLE_END
  0
ENDSEC
  0
SECTION
  2
ACDSDATA
 70
     2
 71
     8
  0
ACDSSCHEMA
 90
        0
  1
AcDb_Thumbnail_Schema
  2
AcDbDs::ID
280
    10
 91
        8
  2
Thumbnail_Data
280
    15
 91
        0
101
ACDSRECORD
 95
        0
 90
        1
  2
AcDbDs::TreatedAsObjectData
280
     1
291
     1
101
ACDSRECORD
 95
        0
 90
        2
  2
AcDbDs::Legacy
280
     1
291
     1
101
ACDSRECORD
  1
AcDbDs::ID
 90
        3
  2
AcDs:Indexable
280
     1
291
     1
101
ACDSRECORD
  1
AcDbDs::ID
 90
        4
  2
AcDbDs::HandleAttribute
280
     7
282
     1
  0
ACDSSCHEMA
 90
        1
  1
AcDbDs::TreatedAsObjectDataSchema
  2
AcDbDs::TreatedAsObjectData
280
     1
 91
        0
  0
ACDSSCHEMA
 90
        2
  1
AcDbDs::LegacySchema
  2
AcDbDs::Legacy
280
     1
 91
        0
  0
ACDSSCHEMA
 90
        3
  1
AcDbDs::IndexedPropertySchema
  2
AcDs:Indexable
280
     1
 91
        0
  0
ACDSSCHEMA
 90
        4
  1
AcDbDs::HandleAttributeSchema
  2
AcDbDs::HandleAttribute
280
     7
 91
        1
284
     1
  0
ACDSRECORD
 90
        0
  2
AcDbDs::ID
280
    10
320
84DE
  2
Thumbnail_Data
280
    15
 94
     1628
310
89504E470D0A1A0A0000000D49484452000001000000007C0803000000B13B9E5A00000300504C5445000000000000C8C8C80000000000000000000000000000000000000000000000000000330000660000990000CC0000FF0033000033330033660033990033CC0033FF0066000066330066660066990066CC0066FF0099
310
000099330099660099990099CC0099FF00CC0000CC3300CC6600CC9900CCCC00CCFF00FF0000FF3300FF6600FF9900FFCC00FFFF3300003300333300663300993300CC3300FF3333003333333333663333993333CC3333FF3366003366333366663366993366CC3366FF3399003399333399663399993399CC3399FF33CC00
310
33CC3333CC6633CC9933CCCC33CCFF33FF0033FF3333FF6633FF9933FFCC33FFFF6600006600336600666600996600CC6600FF6633006633336633666633996633CC6633FF6666006666336666666666996666CC6666FF6699006699336699666699996699CC6699FF66CC0066CC3366CC6666CC9966CCCC66CCFF66FF0066
310
FF3366FF6666FF9966FFCC66FFFF9900009900339900669900999900CC9900FF9933009933339933669933999933CC9933FF9966009966339966669966999966CC9966FF9999009999339999669999999999CC9999FF99CC0099CC3399CC6699CC9999CCCC99CCFF99FF0099FF3399FF6699FF9999FFCC99FFFFCC0000CC00
310
33CC0066CC0099CC00CCCC00FFCC3300CC3333CC3366CC3399CC33CCCC33FFCC6600CC6633CC6666CC6699CC66CCCC66FFCC9900CC9933CC9966CC9999CC99CCCC99FFCCCC00CCCC33CCCC66CCCC99CCCCCCCCCCFFCCFF00CCFF33CCFF66CCFF99CCFFCCCCFFFFFF0000FF0033FF0066FF0099FF00CCFF00FFFF3300FF3333
310
FF3366FF3399FF33CCFF33FFFF6600FF6633FF6666FF6699FF66CCFF66FFFF9900FF9933FF9966FF9999FF99CCFF99FFFFCC00FFCC33FFCC66FFCC99FFCCCCFFCCFFFFFF00FFFF33FFFF66FFFF99FFFFCCFFFFFF0000000D0D0D1A1A1A2828283535354343435050505D5D5D6B6B6B787878868686939393A1A1A1AEAEAEBB
310
BBBBC9C9C9D6D6D6E4E4E4F1F1F1FFFFFF00000000000000000000000000000000000000000000000000000000000008F1915C000001E64944415478DAED9C4172C3200C45390E1BDDFF325C23FBDA08071B683AEEB49D54FFBD4C33AE1D16BC2001F238290100000000000000000000FC008F6F1247C09F36430002FEA980
310
29FA15055C1A3002A209B83B01C613906AD71EEEC295BC6A1053C0FC65D7BF741C861F014B0547020C2FE05E039260C06970887D1FFFED426AF920F44A709900FA85F8026E7D90CD100210105B4029A202CA889C80F4FA7F042808C8B202B690B701310129F5AEFB2993137084806D2EF2D383A680FD404AC036E9E713E66F
310
5A02E44780B6808480CB34A83A0B0C2B21B595E0B414D4AB079C5681BA02E611E0A5815E2088BE1DEE9590325549820B589584CA69A19064049C47C0E54A5401DEBB3DEAF3B912D205B4024164015B4FAD66C19500F325A2C50D813ABC7D29BC29501660BD9F8A02866540E9E1EF3B044F838173C0554115602D2FE4145E40
310
FDAEB3350FFB8194807208F057DD0E5701FB412B93C515D0EE87DA572160E105CC77464C2209BA00B36541603A113607EC49E039EBE5E7AD313F55FACDB2D89BA1D386F810D026893A556A6D87E7D3F10B22655120E9EFC105FC7233042000010840000210F0D602741F991904B4AB9F3D45A222607A904847002170B13136
310
6004300D2200010840000210104080FA6F89010000000000000000000000BC171F7DECB97153248E690000000049454E44AE426082A9B17368007520B49B8096F0A0B43D0B40CEF00014807324786484757FB5CDB1AD83DFBDBA9F64D2C7AA004EF0ECC98E08F0A646038E3DAF01A30928442F7002B84B103DFA80BD150880
310
B65EC0A378EA0665F16ED00290374F4ADE0C915006428FE2EB6DBEF0D2B4BE13B443DC56B6DE20BE7A799E70F980484D8DF904D9363C2BDC5BD3F81C31CAD3E2691A2CF3D54BA418E42B33A74426303A00282D4986E8718CEF0C3DB421001093F0188E8FF533410804E0372F4B000440000440000440000440000440000440
310
005FFFA4E157949C4B96FDBBF3F562C000EC9ACB7E1D5E3C0072F3B34966B5E5B6CA322E80F03EE05E03DCA2DAB38B21FB8090002676114803B8B23487C2044000044000044000044000044000600016FAE9ED7F17F97FBCDF63E8150000000049454E44AE426082
  0
ENDSEC
  0
EOF
