  0
SECTION
  2
HEADER
  9
$ACADVER
  1
AC1009
  9
$INSBASE
 10
0.0
 20
0.0
 30
0.0
  9
$EXTMIN
 10
0.0
 20
0.0
 30
0.0
  9
$EXTMAX
 10
3150.0
 20
4425.0
 30
0.0
  9
$LIMMIN
 10
0.0
 20
0.0
  9
$LIMMAX
 10
297.0
 20
210.0
  9
$ORTHOMODE
 70
     0
  9
$REGENMODE
 70
     1
  9
$FILLMODE
 70
     0
  9
$QTEXTMODE
 70
     0
  9
$MIRRTEXT
 70
     1
  9
$DRAGMODE
 70
     2
  9
$LTSCALE
 40
100.0
  9
$OSMODE
 70
    37
  9
$ATTMODE
 70
     1
  9
$TEXTSIZE
 40
180.0
  9
$TRACEWID
 40
0.05
  9
$TEXTSTYLE
  7
STANDARD
  9
$CLAYER
  8
3
  9
$CELTYPE
  6
BYLAYER
  9
$CECOLOR
 62
   256
  9
$DIMSCALE
 40
15.0
  9
$DIMASZ
 40
2.0
  9
$DIMEXO
 40
0.5
  9
$DIMDLI
 40
10.0
  9
$DIMRND
 40
0.0
  9
$DIMDLE
 40
0.0
  9
$DIMEXE
 40
1.0
  9
$DIMTP
 40
1.0
  9
$DIMTM
 40
1.0
  9
$DIMTXT
 40
3.0
  9
$DIMCEN
 40
0.0
  9
$DIMTSZ
 40
0.0
  9
$DIMTOL
 70
     0
  9
$DIMLIM
 70
     0
  9
$DIMTIH
 70
     0
  9
$DIMTOH
 70
     0
  9
$DIMSE1
 70
     0
  9
$DIMSE2
 70
     0
  9
$DIMTAD
 70
     1
  9
$DIMZIN
 70
     8
  9
$DIMBLK
  1

  9
$DIMASO
 70
     1
  9
$DIMSHO
 70
     1
  9
$DIMPOST
  1

  9
$DIMAPOST
  1

  9
$DIMALT
 70
     0
  9
$DIMALTD
 70
     2
  9
$DIMALTF
 40
0.039
  9
$DIMLFAC
 40
1.0
  9
$DIMTOFL
 70
     1
  9
$DIMTVP
 40
0.0
  9
$DIMTIX
 70
     0
  9
$DIMSOXD
 70
     0
  9
$DIMSAH
 70
     1
  9
$DIMBLK1
  1
OPEN
  9
$DIMBLK2
  1
OPEN
  9
$DIMSTYLE
  2
IGA
  9
$DIMCLRD
 70
     0
  9
$DIMCLRE
 70
     0
  9
$DIMCLRT
 70
     0
  9
$DIMTFAC
 40
10.0
  9
$DIMGAP
 40
1.0
  9
$LUNITS
 70
     2
  9
$LUPREC
 70
     3
  9
$SKETCHINC
 40
0.1
  9
$FILLETRAD
 40
50.0
  9
$AUNITS
 70
     0
  9
$AUPREC
 70
     0
  9
$MENU
  1
acad
  9
$ELEVATION
 40
0.0
  9
$PELEVATION
 40
0.0
  9
$THICKNESS
 40
0.0
  9
$LIMCHECK
 70
     0
  9
$BLIPMODE
 70
     0
  9
$CHAMFERA
 40
0.5
  9
$CHAMFERB
 40
0.5
  9
$SKPOLY
 70
     0
  9
$TDCREATE
 40
2451019.5485409722
  9
$TDUPDATE
 40
2454953.6386017008
  9
$TDINDWG
 40
0.0451475231
  9
$TDUSRTIMER
 40
0.0451475231
  9
$USRTIMER
 70
     1
  9
$ANGBASE
 50
0.0
  9
$ANGDIR
 70
     0
  9
$PDMODE
 70
     0
  9
$PDSIZE
 40
0.0
  9
$PLINEWID
 40
0.0
  9
$COORDS
 70
     1
  9
$SPLFRAME
 70
     0
  9
$SPLINETYPE
 70
     6
  9
$SPLINESEGS
 70
     8
  9
$ATTDIA
 70
     0
  9
$ATTREQ
 70
     1
  9
$HANDLING
 70
 10241
  9
$HANDSEED
  5
87D7
  9
$SURFTAB1
 70
     6
  9
$SURFTAB2
 70
     6
  9
$SURFTYPE
 70
     6
  9
$SURFU
 70
     6
  9
$SURFV
 70
     6
  9
$UCSNAME
  2

  9
$UCSORG
 10
0.0
 20
0.0
 30
0.0
  9
$UCSXDIR
 10
1.0
 20
0.0
 30
0.0
  9
$UCSYDIR
 10
0.0
 20
1.0
 30
0.0
  9
$PUCSNAME
  2

  9
$PUCSORG
 10
0.0
 20
0.0
 30
0.0
  9
$PUCSXDIR
 10
1.0
 20
0.0
 30
0.0
  9
$PUCSYDIR
 10
0.0
 20
1.0
 30
0.0
  9
$USERI1
 70
     0
  9
$USERI2
 70
     0
  9
$USERI3
 70
     0
  9
$USERI4
 70
     0
  9
$USERI5
 70
     0
  9
$USERR1
 40
0.0
  9
$USERR2
 40
0.0
  9
$USERR3
 40
0.0
  9
$USERR4
 40
0.0
  9
$USERR5
 40
0.0
  9
$WORLDVIEW
 70
     1
  9
$SHADEDGE
 70
     3
  9
$SHADEDIF
 70
    70
  9
$TILEMODE
 70
     1
  9
$MAXACTVP
 70
    16
  9
$PLIMCHECK
 70
     0
  9
$PEXTMIN
 10
1.0000000000000000E+020
 20
1.0000000000000000E+020
 30
1.0000000000000000E+020
  9
$PEXTMAX
 10
-1.0000000000000000E+020
 20
-1.0000000000000000E+020
 30
-1.0000000000000000E+020
  9
$PLIMMIN
 10
0.0
 20
0.0
  9
$PLIMMAX
 10
12.0
 20
9.0
  9
$UNITMODE
 70
     0
  9
$VISRETAIN
 70
     0
  9
$PLINEGEN
 70
     0
  9
$PSLTSCALE
 70
     1
  0
ENDSEC
  0
SECTION
  2
TABLES
  0
TABLE
  2
VPORT
 70
     2
  0
VPORT
  2
*ACTIVE
 70
     0
 10
0.0
 20
0.0
 11
1.0
 21
1.0
 12
2917.8688609546639
 22
528.76739192722005
 13
0.0
 23
0.0
 14
10.0
 24
10.0
 15
10.0
 25
10.0
 16
0.0
 26
0.0
 36
1.0
 17
0.0
 27
0.0
 37
0.0
 40
1262.6835633174539
 41
3.1666666666666661
 42
50.0
 43
0.0
 44
0.0
 50
0.0
 51
0.0
 71
     0
 72
   100
 73
     1
 74
     0
 75
     0
 76
     0
 77
     0
 78
     0
  0
ENDTAB
  0
TABLE
  2
LTYPE
 70
     2
  0
LTYPE
  2
CONTINUOUS
 70
     0
  3
Solid line
 72
    65
 73
     0
 40
0.0
  0
LTYPE
  2
CENTER
 70
     0
  3
____ _ ____ _ ____ _ ____ _ ____ _ ____ _ ____ 
 72
    65
 73
     4
 40
2.0
 49
1.25
 49
-0.25
 49
0.25
 49
-0.25
  0
ENDTAB
  0
TABLE
  2
LAYER
 70
     6
  0
LAYER
  2
0
 70
     0
 62
     7
  6
CONTINUOUS
  0
LAYER
  2
3
 70
     0
 62
     2
  6
CONTINUOUS
  0
LAYER
  2
2
 70
     0
 62
     3
  6
CENTER
  0
LAYER
  2
1
 70
     0
 62
     4
  6
CONTINUOUS
  0
LAYER
  2
4
 70
     0
 62
     7
  6
CONTINUOUS
  0
LAYER
  2
DEFPOINTS
 70
     0
 62
     7
  6
CONTINUOUS
  0
ENDTAB
  0
TABLE
  2
STYLE
 70
     1
  0
STYLE
  2
STANDARD
 70
     0
 40
0.0
 41
1.0
 50
0.0
 71
     0
 42
180.0
  3
simplex.shx
  4
extfont.shx
  0
ENDTAB
  0
TABLE
  2
VIEW
 70
     0
  0
ENDTAB
  0
TABLE
  2
UCS
 70
     0
  0
ENDTAB
  0
TABLE
  2
APPID
 70
     1
  0
APPID
  2
ACAD
 70
     0
  0
ENDTAB
  0
TABLE
  2
DIMSTYLE
 70
     1
  0
DIMSTYLE
  2
IGA
 70
     0
  3

  4

  5

  6
OPEN
  7
OPEN
 40
2.0
 41
2.0
 42
0.5
 43
10.0
 44
1.0
 45
0.0
 46
0.0
 47
1.0
 48
1.0
140
3.0
141
0.0
142
0.0
143
0.03937
144
1.0
145
0.0
146
10.0
147
1.0
 71
     0
 72
     0
 73
     0
 74
     0
 75
     0
 76
     0
 77
     1
 78
     8
170
     0
171
     2
172
     0
173
     1
174
     0
175
     0
176
     0
177
     0
178
     0
  0
ENDTAB
  0
ENDSEC
  0
SECTION
  2
BLOCKS
  0
BLOCK
  8
0
  2
$MODEL_SPACE
 70
     0
 10
0.0
 20
0.0
 30
0.0
  3
$MODEL_SPACE
  1

  0
ENDBLK
  5
1B
  8
0
  0
BLOCK
 67
     1
  8
0
  2
$PAPER_SPACE
 70
     0
 10
0.0
 20
0.0
 30
0.0
  3
$PAPER_SPACE
  1

  0
ENDBLK
  5
18
 67
     1
  8
0
  0
BLOCK
  8
0
  2
_OPEN
 70
     0
 10
0.0
 20
0.0
 30
0.0
  3
_OPEN
  1

  0
LINE
  5
7A12
  8
0
  6
BYBLOCK
 62
     0
 10
-1.0
 20
0.1666666666666666
 30
0.0
 11
0.0
 21
0.0
 31
0.0
  0
LINE
  5
7A13
  8
0
  6
BYBLOCK
 62
     0
 10
0.0
 20
0.0
 30
0.0
 11
-1.0
 21
-0.1666666666666666
 31
0.0
  0
LINE
  5
7A14
  8
0
  6
BYBLOCK
 62
     0
 10
0.0
 20
0.0
 30
0.0
 11
-1.0
 21
0.0
 31
0.0
  0
ENDBLK
  5
7A16
  8
0
  0
BLOCK
  8
0
  2
*D1
 70
     1
 10
0.0
 20
0.0
 30
0.0
  3
*D1
  1

  0
LINE
  5
86FE
  8
3
 62
     0
 10
1011.318508026867
 20
1906.4469467452079
 30
0.0
 11
1011.318508026867
 21
1995.057840702689
 31
0.0
  0
LINE
  5
86FF
  8
3
 62
     0
 10
1284.8833889075499
 20
1621.8436660643381
 30
0.0
 11
1284.8833889075499
 21
1995.057840702689
 31
0.0
  0
LINE
  5
8700
  8
3
 62
     0
 10
1041.318508026867
 20
1980.057840702689
 30
0.0
 11
1254.8833889075499
 21
1980.057840702689
 31
0.0
  0
INSERT
  5
8701
  8
3
 62
     0
  2
_OPEN
 10
1011.318508026867
 20
1980.057840702689
 30
0.0
 41
30.0
 42
30.0
 43
30.0
 50
180.0
  0
INSERT
  5
8702
  8
3
 62
     0
  2
_OPEN
 10
1284.8833889075499
 20
1980.057840702689
 30
0.0
 41
30.0
 42
30.0
 43
30.0
  0
TEXT
  8
3
  40
45
  5
87C3
  62
0
  72
0
  71
0
 10
1058.10
 20
1937.91
 30
0.000000
  1
274
  0
POINT
  5
8704
  8
DEFPOINTS
 62
     0
 10
1011.318508026867
 20
1898.9469467452079
 30
0.0
  0
POINT
  5
8705
  8
DEFPOINTS
 62
     0
 10
1284.8833889075499
 20
1614.343666064337
 30
0.0
  0
POINT
  5
8706
  8
DEFPOINTS
 62
     0
 10
1284.8833889075499
 20
1980.057840702689
 30
0.0
  0
ENDBLK
  5
824A
  8
0
  0
BLOCK
  8
0
  2
*D2
 70
     1
 10
0.0
 20
0.0
 30
0.0
  3
*D2
  1

  0
LINE
  5
8711
  8
3
 62
     0
 10
747.35838167638212
 20
1638.343666064337
 30
0.0
 11
500.3290086082244
 21
1638.343666064337
 31
0.0
  0
LINE
  5
8712
  8
3
 62
     0
 10
823.81850802686756
 20
1188.3436660643381
 30
0.0
 11
500.32900860822429
 21
1188.3436660643381
 31
0.0
  0
LINE
  5
8713
  8
3
 62
     0
 10
515.32900860822429
 20
1608.343666064337
 30
0.0
 11
515.32900860822417
 21
1218.343666064337
 31
0.0
  0
INSERT
  5
8714
  8
3
 62
     0
  2
_OPEN
 10
515.32900860822429
 20
1638.343666064337
 30
0.0
 41
30.0
 42
30.0
 43
30.0
 50
90.0
  0
INSERT
  5
8715
  8
3
 62
     0
  2
_OPEN
 10
515.32900860822417
 20
1188.3436660643381
 30
0.0
 41
30.0
 42
30.0
 43
30.0
 50
270.0
  0
TEXT
  8
3
  40
45
  5
87C4
  62
0
  72
0
  71
0
 10
387.829
 20
1333.69
 30
0.000000
  1
450
  0
POINT
  5
8717
  8
DEFPOINTS
 62
     0
 10
754.85838167638212
 20
1638.343666064337
 30
0.0
  0
POINT
  5
8718
  8
DEFPOINTS
 62
     0
 10
831.31850802686768
 20
1188.3436660643381
 30
0.0
  0
POINT
  5
8719
  8
DEFPOINTS
 62
     0
 10
515.32900860822417
 20
1188.3436660643381
 30
0.0
  0
ENDBLK
  5
8647
  8
0
  0
BLOCK
  8
0
  2
*D3
 70
     1
 10
0.0
 20
0.0
 30
0.0
  3
*D3
  1

  0
LINE
  5
871A
  8
3
 62
     0
 10
758.81850802686768
 20
1287.343666064337
 30
0.0
 11
590.80981037203401
 21
1287.343666064337
 31
0.0
  0
LINE
  5
871B
  8
3
 62
     0
 10
747.35838167638212
 20
1638.343666064337
 30
0.0
 11
590.80981037203401
 21
1638.343666064337
 31
0.0
  0
LINE
  5
871C
  8
3
 62
     0
 10
605.80981037203401
 20
1317.3436660643381
 30
0.0
 11
605.80981037203401
 21
1608.343666064337
 31
0.0
  0
INSERT
  5
871D
  8
3
 62
     0
  2
_OPEN
 10
605.80981037203401
 20
1287.343666064337
 30
0.0
 41
30.0
 42
30.0
 43
30.0
 50
270.0
  0
INSERT
  5
871E
  8
3
 62
     0
  2
_OPEN
 10
605.80981037203401
 20
1638.343666064337
 30
0.0
 41
30.0
 42
30.0
 43
30.0
 50
90.0
  0
TEXT
  8
3
  40
45
  5
87C5
  62
0
  72
0
  71
0
 10
478.310
 20
1383.19
 30
0.000000
  1
351
  0
POINT
  5
8720
  8
DEFPOINTS
 62
     0
 10
766.31850802686756
 20
1287.343666064337
 30
0.0
  0
POINT
  5
8721
  8
DEFPOINTS
 62
     0
 10
754.85838167638212
 20
1638.343666064337
 30
0.0
  0
POINT
  5
8722
  8
DEFPOINTS
 62
     0
 10
605.80981037203401
 20
1638.343666064337
 30
0.0
  0
ENDBLK
  5
821E
  8
0
  0
BLOCK
  8
0
  2
*D4
 70
     1
 10
0.0
 20
0.0
 30
0.0
  3
*D4
  1

  0
LINE
  5
8723
  8
3
 62
     0
 10
758.81850802686768
 20
1287.343666064337
 30
0.0
 11
682.84297548849008
 21
1287.343666064337
 31
0.0
  0
LINE
  5
8724
  8
3
 62
     0
 10
758.81850802686768
 20
1612.343666064337
 30
0.0
 11
682.84297548849008
 21
1612.343666064337
 31
0.0
  0
LINE
  5
8725
  8
3
 62
     0
 10
697.84297548848997
 20
1317.3436660643381
 30
0.0
 11
697.84297548848997
 21
1582.343666064337
 31
0.0
  0
INSERT
  5
8726
  8
3
 62
     0
  2
_OPEN
 10
697.84297548848997
 20
1287.343666064337
 30
0.0
 41
30.0
 42
30.0
 43
30.0
 50
270.0
  0
INSERT
  5
8727
  8
3
 62
     0
  2
_OPEN
 10
697.84297548848997
 20
1612.343666064337
 30
0.0
 41
30.0
 42
30.0
 43
30.0
 50
90.0
  0
TEXT
  8
3
  40
45
  5
87C6
  62
0
  72
0
  71
0
 10
570.343
 20
1370.19
 30
0.000000
  1
325
  0
POINT
  5
8729
  8
DEFPOINTS
 62
     0
 10
766.31850802686756
 20
1287.343666064337
 30
0.0
  0
POINT
  5
872A
  8
DEFPOINTS
 62
     0
 10
766.31850802686756
 20
1612.343666064337
 30
0.0
  0
POINT
  5
872B
  8
DEFPOINTS
 62
     0
 10
697.84297548848997
 20
1612.343666064337
 30
0.0
  0
ENDBLK
  5
8229
  8
0
  0
BLOCK
  8
0
  2
*D5
 70
     1
 10
0.0
 20
0.0
 30
0.0
  3
*D5
  1

  0
LINE
  5
872F
  8
3
 62
     0
 10
766.31850802686756
 20
1648.2324963892941
 30
0.0
 11
766.31850802686756
 21
1995.057840702689
 31
0.0
  0
LINE
  5
8730
  8
3
 62
     0
 10
1011.318508026867
 20
1906.4469467452079
 30
0.0
 11
1011.318508026867
 21
1995.057840702689
 31
0.0
  0
LINE
  5
8731
  8
3
 62
     0
 10
796.31850802686768
 20
1980.057840702689
 30
0.0
 11
981.31850802686768
 21
1980.057840702689
 31
0.0
  0
INSERT
  5
8732
  8
3
 62
     0
  2
_OPEN
 10
766.31850802686756
 20
1980.057840702689
 30
0.0
 41
30.0
 42
30.0
 43
30.0
 50
180.0
  0
INSERT
  5
8733
  8
3
 62
     0
  2
_OPEN
 10
1011.318508026867
 20
1980.057840702689
 30
0.0
 41
30.0
 42
30.0
 43
30.0
  0
TEXT
  8
3
  40
45
  5
87C7
  62
0
  72
0
  71
0
 10
798.819
 20
1937.91
 30
0.000000
  1
245
  0
POINT
  5
8735
  8
DEFPOINTS
 62
     0
 10
766.31850802686756
 20
1640.7324963892929
 30
0.0
  0
POINT
  5
8736
  8
DEFPOINTS
 62
     0
 10
1011.318508026867
 20
1898.9469467452079
 30
0.0
  0
POINT
  5
8737
  8
DEFPOINTS
 62
     0
 10
1011.318508026867
 20
1980.057840702689
 30
0.0
  0
ENDBLK
  5
8255
  8
0
  0
BLOCK
  8
0
  2
*D6
 70
     1
 10
0.0
 20
0.0
 30
0.0
  3
*D6
  1

  0
LINE
  5
8738
  8
3
 62
     0
 10
747.35838167638212
 20
1638.343666064337
 30
0.0
 11
500.32900860822411
 21
1638.343666064337
 31
0.0
  0
LINE
  5
8739
  8
3
 62
     0
 10
1022.5834606115581
 20
1864.302570292167
 30
0.0
 11
500.32900860822423
 21
1864.302570292167
 31
0.0
  0
LINE
  5
873A
  8
3
 62
     0
 10
515.32900860822406
 20
1668.3436660643381
 30
0.0
 11
515.32900860822417
 21
1834.302570292168
 31
0.0
  0
INSERT
  5
873B
  8
3
 62
     0
  2
_OPEN
 10
515.32900860822406
 20
1638.343666064337
 30
0.0
 41
30.0
 42
30.0
 43
30.0
 50
270.0
  0
INSERT
  5
873C
  8
3
 62
     0
  2
_OPEN
 10
515.32900860822417
 20
1864.302570292167
 30
0.0
 41
30.0
 42
30.0
 43
30.0
 50
90.0
  0
TEXT
  8
3
  40
45
  5
87C8
  62
0
  72
0
  71
0
 10
387.829
 20
1671.67
 30
0.000000
  1
226
  0
POINT
  5
873E
  8
DEFPOINTS
 62
     0
 10
754.85838167638212
 20
1638.343666064337
 30
0.0
  0
POINT
  5
873F
  8
DEFPOINTS
 62
     0
 10
1030.0834606115579
 20
1864.302570292167
 30
0.0
  0
POINT
  5
8740
  8
DEFPOINTS
 62
     0
 10
515.32900860822417
 20
1864.302570292167
 30
0.0
  0
ENDBLK
  5
863C
  8
0
  0
BLOCK
  8
0
  2
*D7
 70
     1
 10
0.0
 20
0.0
 30
0.0
  3
*D7
  1

  0
LINE
  5
8741
  8
3
 62
     0
 10
2478.579500154724
 20
1867.944107760389
 30
0.0
 11
2478.579500154724
 21
1947.4956487759439
 31
0.0
  0
LINE
  5
8742
  8
3
 62
     0
 10
2714.579500154724
 20
1868.649722912719
 30
0.0
 11
2714.579500154724
 21
1947.4956487759439
 31
0.0
  0
LINE
  5
8743
  8
3
 62
     0
 10
2508.5795001547231
 20
1932.4956487759439
 30
0.0
 11
2684.579500154724
 21
1932.4956487759439
 31
0.0
  0
INSERT
  5
8744
  8
3
 62
     0
  2
_OPEN
 10
2478.579500154724
 20
1932.4956487759439
 30
0.0
 41
30.0
 42
30.0
 43
30.0
 50
180.0
  0
INSERT
  5
8745
  8
3
 62
     0
  2
_OPEN
 10
2714.579500154724
 20
1932.4956487759439
 30
0.0
 41
30.0
 42
30.0
 43
30.0
  0
TEXT
  8
3
  40
45
  5
87C9
  62
0
  72
0
  71
0
 10
2506.58
 20
1890.35
 30
0.000000
  1
236
  0
POINT
  5
8747
  8
DEFPOINTS
 62
     0
 10
2478.579500154724
 20
1860.444107760389
 30
0.0
  0
POINT
  5
8748
  8
DEFPOINTS
 62
     0
 10
2714.579500154724
 20
1861.1497229127201
 30
0.0
  0
POINT
  5
8749
  8
DEFPOINTS
 62
     0
 10
2714.579500154724
 20
1932.4956487759439
 30
0.0
  0
ENDBLK
  5
866D
  8
0
  0
BLOCK
  8
0
  2
*D8
 70
     1
 10
0.0
 20
0.0
 30
0.0
  3
*D8
  1

  0
LINE
  5
8754
  8
3
 62
     0
 10
2750.079500154724
 20
1795.843666064337
 30
0.0
 11
2905.212730239879
 21
1795.843666064337
 31
0.0
  0
LINE
  5
8755
  8
3
 62
     0
 10
2750.079500154724
 20
1480.8436660643381
 30
0.0
 11
2905.212730239879
 21
1480.8436660643381
 31
0.0
  0
LINE
  5
8756
  8
3
 62
     0
 10
2890.212730239879
 20
1765.8436660643381
 30
0.0
 11
2890.212730239879
 21
1510.8436660643381
 31
0.0
  0
INSERT
  5
8757
  8
3
 62
     0
  2
_OPEN
 10
2890.212730239879
 20
1795.843666064337
 30
0.0
 41
30.0
 42
30.0
 43
30.0
 50
90.0
  0
INSERT
  5
8758
  8
3
 62
     0
  2
_OPEN
 10
2890.212730239879
 20
1480.8436660643381
 30
0.0
 41
30.0
 42
30.0
 43
30.0
 50
270.0
  0
TEXT
  8
3
  40
45
  5
87CA
  62
0
  72
0
  71
0
 10
2762.71
 20
1557.36
 30
0.000000
  1
φ315
  0
POINT
  5
875A
  8
DEFPOINTS
 62
     0
 10
2742.5795001547231
 20
1795.843666064337
 30
0.0
  0
POINT
  5
875B
  8
DEFPOINTS
 62
     0
 10
2742.5795001547231
 20
1480.8436660643381
 30
0.0
  0
POINT
  5
875C
  8
DEFPOINTS
 62
     0
 10
2890.212730239879
 20
1480.8436660643381
 30
0.0
  0
ENDBLK
  5
84EF
  8
0
  0
BLOCK
  8
0
  2
*D9
 70
     1
 10
0.0
 20
0.0
 30
0.0
  3
*D9
  1

  0
LINE
  5
875D
  8
3
 62
     0
 10
823.81850802686847
 20
1093.343666064337
 30
0.0
 11
500.32900860822429
 21
1093.3436660643381
 31
0.0
  0
LINE
  5
875E
  8
3
 62
     0
 10
823.81850802686847
 20
1018.343666064337
 30
0.0
 11
500.32900860822429
 21
1018.343666064338
 31
0.0
  0
LINE
  5
875F
  8
3
 62
     0
 10
515.32900860822417
 20
1123.343666064337
 30
0.0
 11
515.32900860822417
 21
1153.343666064337
 31
0.0
  0
LINE
  5
8760
  8
3
 62
     0
 10
515.32900860822417
 20
988.34366606433787
 30
0.0
 11
515.32900860822417
 21
855.48652320719498
 31
0.0
  0
LINE
  5
8761
  8
3
 62
     0
 10
515.32900860822417
 20
1093.343666064337
 30
0.0
 11
515.32900860822417
 21
1018.343666064338
 31
0.0
  0
INSERT
  5
8762
  8
3
 62
     0
  2
_DOT
 10
515.32900860822417
 20
1093.343666064337
 30
0.0
 41
30.0
 42
30.0
 43
30.0
 50
270.0
  0
INSERT
  5
8763
  8
3
 62
     0
  2
_OPEN
 10
515.32900860822417
 20
1018.343666064338
 30
0.0
 41
30.0
 42
30.0
 43
30.0
 50
90.0
  0
TEXT
  8
3
  40
45
  5
87CB
  62
0
  72
0
  71
0
 10
387.829
 20
827.265
 30
0.000000
  1
75
  0
POINT
  5
8765
  8
DEFPOINTS
 62
     0
 10
831.31850802686859
 20
1093.343666064337
 30
0.0
  0
POINT
  5
8766
  8
DEFPOINTS
 62
     0
 10
831.31850802686859
 20
1018.343666064337
 30
0.0
  0
POINT
  5
8767
  8
DEFPOINTS
 62
     0
 10
515.32900860822417
 20
1018.343666064338
 30
0.0
  0
ENDBLK
  5
8693
  8
0
  0
BLOCK
  8
0
  2
_DOT
 70
     0
 10
0.0
 20
0.0
 30
0.0
  3
_DOT
  1

  0
LINE
  5
842A
  8
0
  6
BYBLOCK
 62
     0
 10
0.0
 20
0.0
 30
0.0
 11
-1.0
 21
-0.0000000000000284
 31
0.0
  0
POLYLINE
  5
842B
  8
0
  6
BYBLOCK
 62
     0
 66
     1
 10
0.0
 20
0.0
 30
0.0
 70
     1
 40
0.1666666666666666
 41
0.1666666666666666
  0
VERTEX
  5
8768
  8
0
  6
BYBLOCK
 62
     0
 10
-0.0833333333333286
 20
-0.0000000000000284
 30
0.0
 42
1.0
  0
VERTEX
  5
8769
  8
0
  6
BYBLOCK
 62
     0
 10
0.0833333333333286
 20
-0.0000000000000284
 30
0.0
 42
1.0
  0
SEQEND
  5
876A
  8
0
  6
BYBLOCK
 62
     0
  0
ENDBLK
  5
8404
  8
0
  0
BLOCK
  8
0
  2
*D11
 70
     1
 10
0.0
 20
0.0
 30
0.0
  3
*D11
  1

  0
LINE
  5
8604
  8
0
  6
BYBLOCK
 62
     0
 10
647.88311303668695
 20
1069.8436660643381
 30
0.0
 11
647.88311303668695
 21
966.14836090234724
 31
0.0
  0
LINE
  5
8605
  8
0
  6
BYBLOCK
 62
     0
 10
827.88311303668661
 20
1037.3607135675779
 30
0.0
 11
827.88311303668661
 21
966.14836090234724
 31
0.0
  0
LINE
  5
8606
  8
0
  6
BYBLOCK
 62
     0
 10
677.88311303668695
 20
981.14836090234701
 30
0.0
 11
797.88311303668661
 21
981.14836090234701
 31
0.0
  0
TEXT
  5
8607
  8
3
 62
     0
 10
689.57193504313068
 20
998.2591917151658
 30
0.0
 40
45.0
  1
180
  0
INSERT
  5
8608
  8
0
  6
BYBLOCK
 62
     0
  2
_OPEN
 10
647.88311303668695
 20
981.14836090234701
 30
0.0
 41
30.0
 42
30.0
 43
30.0
 50
180.0
  0
INSERT
  5
8609
  8
0
  6
BYBLOCK
 62
     0
  2
_OPEN
 10
827.88311303668661
 20
981.14836090234701
 30
0.0
 41
30.0
 42
30.0
 43
30.0
  0
POINT
  5
860A
  8
DEFPOINTS
  6
BYBLOCK
 62
     0
 10
647.88311303668695
 20
1077.343666064337
 30
0.0
  0
POINT
  5
860B
  8
DEFPOINTS
  6
BYBLOCK
 62
     0
 10
827.88311303668661
 20
1044.8607135675779
 30
0.0
  0
POINT
  5
860C
  8
DEFPOINTS
  6
BYBLOCK
 62
     0
 10
827.88311303668661
 20
981.14836090234701
 30
0.0
  0
ENDBLK
  5
860D
  8
0
  0
BLOCK
  8
0
  2
*D12
 70
     1
 10
0.0
 20
0.0
 30
0.0
  3
*D12
  1

  0
LINE
  5
876B
  8
3
 62
     0
 10
1631.318508026869
 20
1010.843666064338
 30
0.0
 11
1631.318508026869
 21
907.14836090234724
 31
0.0
  0
LINE
  5
876C
  8
3
 62
     0
 10
1041.3185080268679
 20
922.14836090234701
 30
0.0
 11
1601.318508026869
 21
922.14836090234701
 31
0.0
  0
INSERT
  5
876D
  8
3
 62
     0
  2
_OPEN
 10
1011.318508026868
 20
922.14836090234701
 30
0.0
 41
30.0
 42
30.0
 43
30.0
 50
180.0
  0
INSERT
  5
876E
  8
3
 62
     0
  2
_OPEN
 10
1631.318508026869
 20
922.14836090234701
 30
0.0
 41
30.0
 42
30.0
 43
30.0
  0
TEXT
  8
3
  40
45
  5
87CC
  62
0
  72
0
  71
0
 10
1231.32
 20
879.998
 30
0.000000
  1
620
  0
POINT
  5
8770
  8
DEFPOINTS
 62
     0
 10
1011.318508026868
 20
985.86071356757884
 30
0.0
  0
POINT
  5
8771
  8
DEFPOINTS
 62
     0
 10
1631.318508026869
 20
1018.343666064337
 30
0.0
  0
POINT
  5
8772
  8
DEFPOINTS
 62
     0
 10
1631.318508026869
 20
922.14836090234701
 30
0.0
  0
ENDBLK
  5
8602
  8
0
  0
BLOCK
  8
0
  2
*D13
 70
     1
 10
0.0
 20
0.0
 30
0.0
  3
*D13
  1

  0
LINE
  5
8773
  8
3
 62
     0
 10
1981.579500154724
 20
1010.843666064338
 30
0.0
 11
1981.579500154724
 21
901.86218164731872
 31
0.0
  0
LINE
  5
8774
  8
3
 62
     0
 10
2596.579500154724
 20
975.71513245543485
 30
0.0
 11
2596.579500154724
 21
901.86218164731872
 31
0.0
  0
LINE
  5
8775
  8
3
 62
     0
 10
2011.579500154724
 20
916.86218164731872
 30
0.0
 11
2566.579500154724
 21
916.86218164731872
 31
0.0
  0
INSERT
  5
8776
  8
3
 62
     0
  2
_OPEN
 10
1981.579500154724
 20
916.86218164731872
 30
0.0
 41
30.0
 42
30.0
 43
30.0
 50
180.0
  0
INSERT
  5
8777
  8
3
 62
     0
  2
_OPEN
 10
2596.579500154724
 20
916.86218164731872
 30
0.0
 41
30.0
 42
30.0
 43
30.0
  0
TEXT
  8
3
  40
45
  5
87CD
  62
0
  72
0
  71
0
 10
2230.04
 20
874.712
 30
0.000000
  1
615
  0
POINT
  5
8779
  8
DEFPOINTS
 62
     0
 10
1981.579500154724
 20
1018.343666064338
 30
0.0
  0
POINT
  5
877A
  8
DEFPOINTS
 62
     0
 10
2596.579500154724
 20
983.21513245543474
 30
0.0
  0
POINT
  5
877B
  8
DEFPOINTS
 62
     0
 10
2596.579500154724
 20
916.86218164731872
 30
0.0
  0
ENDBLK
  5
8462
  8
0
  0
BLOCK
  8
0
  2
*D14
 70
     1
 10
0.0
 20
0.0
 30
0.0
  3
*D14
  1

  0
LINE
  5
848A
  8
0
  6
BYBLOCK
 62
     0
 10
2761.5795001547231
 20
1069.8436660643381
 30
0.0
 11
2761.5795001547231
 21
960.86218164731872
 31
0.0
  0
LINE
  5
848B
  8
0
  6
BYBLOCK
 62
     0
 10
2626.579500154724
 20
975.86218164731872
 30
0.0
 11
2731.5795001547222
 21
975.86218164731872
 31
0.0
  0
TEXT
  5
848C
  8
3
 62
     0
 10
2632.4107622744109
 20
992.97302276289145
 30
0.0
 40
45.0
  1
165
  0
INSERT
  5
848D
  8
0
  6
BYBLOCK
 62
     0
  2
_OPEN
 10
2596.579500154724
 20
975.86218164731872
 30
0.0
 41
30.0
 42
30.0
 43
30.0
 50
180.0
  0
INSERT
  5
848E
  8
0
  6
BYBLOCK
 62
     0
  2
_OPEN
 10
2761.5795001547231
 20
975.86218164731872
 30
0.0
 41
30.0
 42
30.0
 43
30.0
  0
POINT
  5
848F
  8
DEFPOINTS
  6
BYBLOCK
 62
     0
 10
2596.579500154724
 20
1042.2151324554341
 30
0.0
  0
POINT
  5
8490
  8
DEFPOINTS
  6
BYBLOCK
 62
     0
 10
2761.5795001547231
 20
1077.3436660643381
 30
0.0
  0
POINT
  5
8491
  8
DEFPOINTS
  6
BYBLOCK
 62
     0
 10
2761.5795001547231
 20
975.86218164731872
 30
0.0
  0
ENDBLK
  5
8492
  8
0
  0
BLOCK
  8
0
  2
*D15
 70
     1
 10
0.0
 20
0.0
 30
0.0
  3
*D15
  1

  0
LINE
  5
877C
  8
3
 62
     0
 10
2596.579500154724
 20
2031.854464283909
 30
0.0
 11
2596.579500154724
 21
2091.659465553621
 31
0.0
  0
LINE
  5
877D
  8
3
 62
     0
 10
1908.579500154724
 20
1745.843666064337
 30
0.0
 11
1908.579500154724
 21
2091.659465553621
 31
0.0
  0
LINE
  5
877E
  8
3
 62
     0
 10
2566.579500154724
 20
2076.659465553621
 30
0.0
 11
1938.579500154724
 21
2076.659465553621
 31
0.0
  0
INSERT
  5
877F
  8
3
 62
     0
  2
_OPEN
 10
2596.579500154724
 20
2076.659465553621
 30
0.0
 41
30.0
 42
30.0
 43
30.0
  0
INSERT
  5
8780
  8
3
 62
     0
  2
_OPEN
 10
1908.579500154724
 20
2076.659465553621
 30
0.0
 41
30.0
 42
30.0
 43
30.0
 50
180.0
  0
TEXT
  8
3
  40
45
  5
87CE
  62
0
  72
0
  71
0
 10
2162.58
 20
2072.01
 30
0.000000
  1
MAX
  0
TEXT
  8
3
  40
45
  5
87CF
  62
0
  72
0
  71
0
 10
2162.58
 20
2013.51
 30
0.000000
  1
760
  0
POINT
  5
8782
  8
DEFPOINTS
 62
     0
 10
2596.579500154724
 20
2024.354464283909
 30
0.0
  0
POINT
  5
8783
  8
DEFPOINTS
 62
     0
 10
1908.579500154724
 20
1738.3436660643381
 30
0.0
  0
POINT
  5
8784
  8
DEFPOINTS
 62
     0
 10
1908.579500154724
 20
2076.659465553621
 30
0.0
  0
ENDBLK
  5
859B
  8
0
  0
BLOCK
  8
0
  2
*D16
 70
     1
 10
0.0
 20
0.0
 30
0.0
  3
*D16
  1

  0
LINE
  5
8785
  8
3
 62
     0
 10
831.31850802686768
 20
3244.5785510674541
 30
0.0
 11
831.31850802686768
 21
3363.535599319529
 31
0.0
  0
LINE
  5
8786
  8
3
 62
     0
 10
1191.318508026867
 20
3244.5785510674541
 30
0.0
 11
1191.318508026867
 21
3363.535599319529
 31
0.0
  0
LINE
  5
8787
  8
3
 62
     0
 10
861.31850802686756
 20
3348.5355993195299
 30
0.0
 11
1161.318508026867
 21
3348.5355993195299
 31
0.0
  0
INSERT
  5
8788
  8
3
 62
     0
  2
_OPEN
 10
831.31850802686768
 20
3348.5355993195299
 30
0.0
 41
30.0
 42
30.0
 43
30.0
 50
180.0
  0
INSERT
  5
8789
  8
3
 62
     0
  2
_OPEN
 10
1191.318508026867
 20
3348.5355993195299
 30
0.0
 41
30.0
 42
30.0
 43
30.0
  0
TEXT
  8
3
  40
45
  5
87D0
  62
0
  72
0
  71
0
 10
906.723
 20
3306.39
 30
0.000000
  1
360
  0
POINT
  5
878B
  8
DEFPOINTS
 62
     0
 10
831.31850802686768
 20
3237.0785510674541
 30
0.0
  0
POINT
  5
878C
  8
DEFPOINTS
 62
     0
 10
1191.318508026867
 20
3237.0785510674541
 30
0.0
  0
POINT
  5
878D
  8
DEFPOINTS
 62
     0
 10
1191.318508026867
 20
3348.5355993195299
 30
0.0
  0
ENDBLK
  5
8528
  8
0
  0
BLOCK
  8
0
  2
*D17
 70
     1
 10
0.0
 20
0.0
 30
0.0
  3
*D17
  1

  0
LINE
  5
878E
  8
3
 62
     0
 10
1631.318508026869
 20
2844.5785510674541
 30
0.0
 11
1631.318508026869
 21
3363.535599319529
 31
0.0
  0
LINE
  5
878F
  8
3
 62
     0
 10
1221.318508026867
 20
3348.5355993195299
 30
0.0
 11
1601.318508026869
 21
3348.5355993195299
 31
0.0
  0
INSERT
  5
8790
  8
3
 62
     0
  2
_OPEN
 10
1191.318508026867
 20
3348.5355993195299
 30
0.0
 41
30.0
 42
30.0
 43
30.0
 50
180.0
  0
INSERT
  5
8791
  8
3
 62
     0
  2
_OPEN
 10
1631.318508026869
 20
3348.5355993195299
 30
0.0
 41
30.0
 42
30.0
 43
30.0
  0
TEXT
  8
3
  40
45
  5
87D1
  62
0
  72
0
  71
0
 10
1321.32
 20
3306.39
 30
0.000000
  1
440
  0
POINT
  5
8793
  8
DEFPOINTS
 62
     0
 10
1191.318508026867
 20
3237.0785510674541
 30
0.0
  0
POINT
  5
8794
  8
DEFPOINTS
 62
     0
 10
1631.318508026869
 20
2837.0785510674541
 30
0.0
  0
POINT
  5
8795
  8
DEFPOINTS
 62
     0
 10
1631.318508026869
 20
3348.5355993195299
 30
0.0
  0
ENDBLK
  5
8534
  8
0
  0
BLOCK
  8
0
  2
*D18
 70
     1
 10
0.0
 20
0.0
 30
0.0
  3
*D18
  1

  0
LINE
  5
8796
  8
3
 62
     0
 10
1638.818508026869
 20
2837.0785510674541
 30
0.0
 11
1779.6288990958751
 21
2837.0785510674541
 31
0.0
  0
LINE
  5
8797
  8
3
 62
     0
 10
1637.666454592061
 20
2457.0785510674532
 30
0.0
 11
1779.6288990958751
 21
2457.0785510674532
 31
0.0
  0
LINE
  5
8798
  8
3
 62
     0
 10
1764.6288990958751
 20
2807.0785510674532
 30
0.0
 11
1764.628899095874
 21
2487.0785510674532
 31
0.0
  0
INSERT
  5
8799
  8
3
 62
     0
  2
_OPEN
 10
1764.6288990958751
 20
2837.0785510674541
 30
0.0
 41
30.0
 42
30.0
 43
30.0
 50
90.0
  0
INSERT
  5
879A
  8
3
 62
     0
  2
_OPEN
 10
1764.628899095874
 20
2457.0785510674532
 30
0.0
 41
30.0
 42
30.0
 43
30.0
 50
270.0
  0
TEXT
  8
3
  40
45
  5
87D2
  62
0
  72
0
  71
0
 10
1637.13
 20
2557.08
 30
0.000000
  1
380
  0
POINT
  5
879C
  8
DEFPOINTS
 62
     0
 10
1631.318508026869
 20
2837.0785510674541
 30
0.0
  0
POINT
  5
879D
  8
DEFPOINTS
 62
     0
 10
1630.166454592061
 20
2457.0785510674532
 30
0.0
  0
POINT
  5
879E
  8
DEFPOINTS
 62
     0
 10
1764.628899095874
 20
2457.0785510674532
 30
0.0
  0
ENDBLK
  5
8572
  8
0
  0
BLOCK
  8
0
  2
*D19
 70
     1
 10
0.0
 20
0.0
 30
0.0
  3
*D19
  1

  0
LINE
  5
879F
  8
3
 62
     0
 10
831.31850802686859
 20
2449.5785510674532
 30
0.0
 11
831.31850802686859
 21
2251.9584364031512
 31
0.0
  0
LINE
  5
87A0
  8
3
 62
     0
 10
1631.3185080268679
 20
2468.5785510674541
 30
0.0
 11
1631.3185080268679
 21
2251.9584364031512
 31
0.0
  0
LINE
  5
87A1
  8
3
 62
     0
 10
861.31850802686847
 20
2266.9584364031498
 30
0.0
 11
1601.3185080268679
 21
2266.9584364031498
 31
0.0
  0
INSERT
  5
87A2
  8
3
 62
     0
  2
_OPEN
 10
831.31850802686859
 20
2266.9584364031498
 30
0.0
 41
30.0
 42
30.0
 43
30.0
 50
180.0
  0
INSERT
  5
87A3
  8
3
 62
     0
  2
_OPEN
 10
1631.3185080268679
 20
2266.9584364031498
 30
0.0
 41
30.0
 42
30.0
 43
30.0
  0
TEXT
  8
3
  40
45
  5
87D3
  62
0
  72
0
  71
0
 10
1141.10
 20
2224.81
 30
0.000000
  1
800
  0
POINT
  5
87A5
  8
DEFPOINTS
 62
     0
 10
831.31850802686859
 20
2457.0785510674532
 30
0.0
  0
POINT
  5
87A6
  8
DEFPOINTS
 62
     0
 10
1631.3185080268679
 20
2476.0785510674541
 30
0.0
  0
POINT
  5
87A7
  8
DEFPOINTS
 62
     0
 10
1631.3185080268679
 20
2266.9584364031498
 30
0.0
  0
ENDBLK
  5
8559
  8
0
  0
BLOCK
  8
0
  2
*D20
 70
     1
 10
0.0
 20
0.0
 30
0.0
  3
*D20
  1

  0
LINE
  5
87A8
  8
3
 62
     0
 10
823.81850802686756
 20
3237.0785510674541
 30
0.0
 11
667.1584526617703
 21
3237.0785510674541
 31
0.0
  0
LINE
  5
87A9
  8
3
 62
     0
 10
823.81850802686847
 20
2457.0785510674532
 30
0.0
 11
667.15845266177007
 21
2457.0785510674532
 31
0.0
  0
LINE
  5
87AA
  8
3
 62
     0
 10
682.15845266177018
 20
3207.0785510674532
 30
0.0
 11
682.15845266177007
 21
2487.0785510674532
 31
0.0
  0
INSERT
  5
87AB
  8
3
 62
     0
  2
_OPEN
 10
682.15845266177018
 20
3237.0785510674541
 30
0.0
 41
30.0
 42
30.0
 43
30.0
 50
90.0
  0
INSERT
  5
87AC
  8
3
 62
     0
  2
_OPEN
 10
682.15845266177007
 20
2457.0785510674532
 30
0.0
 41
30.0
 42
30.0
 43
30.0
 50
270.0
  0
TEXT
  8
3
  40
45
  5
87D4
  62
0
  72
0
  71
0
 10
554.658
 20
2741.96
 30
0.000000
  1
780
  0
POINT
  5
87AE
  8
DEFPOINTS
 62
     0
 10
831.31850802686768
 20
3237.0785510674541
 30
0.0
  0
POINT
  5
87AF
  8
DEFPOINTS
 62
     0
 10
831.31850802686859
 20
2457.0785510674532
 30
0.0
  0
POINT
  5
87B0
  8
DEFPOINTS
 62
     0
 10
682.15845266177007
 20
2457.0785510674532
 30
0.0
  0
ENDBLK
  5
8652
  8
0
  0
BLOCK
  8
0
  2
*D21
 70
     1
 10
0.0
 20
0.0
 30
0.0
  3
*D21
  1

  0
LINE
  5
87B1
  8
3
 62
     0
 10
1022.5834606115581
 20
1864.302570292167
 30
0.0
 11
357.58212817956542
 21
1864.302570292168
 31
0.0
  0
LINE
  5
87B2
  8
3
 62
     0
 10
823.81850802686847
 20
1018.343666064337
 30
0.0
 11
357.58212817956519
 21
1018.343666064338
 31
0.0
  0
LINE
  5
87B3
  8
3
 62
     0
 10
372.58212817956542
 20
1834.302570292168
 30
0.0
 11
372.5821281795653
 21
1048.3436660643381
 31
0.0
  0
INSERT
  5
87B4
  8
3
 62
     0
  2
_OPEN
 10
372.58212817956542
 20
1864.302570292168
 30
0.0
 41
30.0
 42
30.0
 43
30.0
 50
90.0
  0
INSERT
  5
87B5
  8
3
 62
     0
  2
_OPEN
 10
372.5821281795653
 20
1018.343666064338
 30
0.0
 41
30.0
 42
30.0
 43
30.0
 50
270.0
  0
TEXT
  8
3
  40
45
  5
87D5
  62
0
  72
0
  71
0
 10
245.082
 20
1365.13
 30
0.000000
  1
846
  0
POINT
  5
87B7
  8
DEFPOINTS
 62
     0
 10
1030.0834606115579
 20
1864.302570292167
 30
0.0
  0
POINT
  5
87B8
  8
DEFPOINTS
 62
     0
 10
831.31850802686859
 20
1018.343666064337
 30
0.0
  0
POINT
  5
87B9
  8
DEFPOINTS
 62
     0
 10
372.5821281795653
 20
1018.343666064338
 30
0.0
  0
ENDBLK
  5
8686
  8
0
  0
BLOCK
  8
0
  2
*D22
 70
     1
 10
0.0
 20
0.0
 30
0.0
  3
*D22
  1

  0
LINE
  5
85C3
  8
0
  6
BYBLOCK
 62
     0
 10
2717.579500154724
 20
1829.3436928285639
 30
0.0
 11
2717.579500154724
 21
2091.659465553621
 31
0.0
  0
LINE
  5
85C4
  8
0
  6
BYBLOCK
 62
     0
 10
2626.579500154724
 20
2076.659465553621
 30
0.0
 11
2687.579500154724
 21
2076.659465553621
 31
0.0
  0
TEXT
  5
85C5
  8
3
 62
     0
 10
2613.150928726152
 20
2097.4542219179712
 30
0.0
 40
45.0
  1
121
  0
INSERT
  5
85C6
  8
0
  6
BYBLOCK
 62
     0
  2
_OPEN
 10
2596.579500154724
 20
2076.659465553621
 30
0.0
 41
30.0
 42
30.0
 43
30.0
 50
180.0
  0
INSERT
  5
85C7
  8
0
  6
BYBLOCK
 62
     0
  2
_OPEN
 10
2717.579500154724
 20
2076.659465553621
 30
0.0
 41
30.0
 42
30.0
 43
30.0
  0
POINT
  5
85C8
  8
DEFPOINTS
  6
BYBLOCK
 62
     0
 10
2596.579500154724
 20
2024.354464283909
 30
0.0
  0
POINT
  5
85C9
  8
DEFPOINTS
  6
BYBLOCK
 62
     0
 10
2717.579500154724
 20
1821.8436928285639
 30
0.0
  0
POINT
  5
85CA
  8
DEFPOINTS
  6
BYBLOCK
 62
     0
 10
2717.579500154724
 20
2076.659465553621
 30
0.0
  0
ENDBLK
  5
85CB
  8
0
  0
BLOCK
  8
0
  2
*D23
 70
     1
 10
0.0
 20
0.0
 30
0.0
  3
*D23
  1

  0
LINE
  5
87BA
  8
3
 62
     0
 10
766.31850802686756
 20
1648.2324963892941
 30
0.0
 11
766.31850802686756
 21
2094.95605899366
 31
0.0
  0
LINE
  5
87BB
  8
3
 62
     0
 10
1631.318508026867
 20
1270.8436660643381
 30
0.0
 11
1631.318508026867
 21
2094.95605899366
 31
0.0
  0
LINE
  5
87BC
  8
3
 62
     0
 10
796.31850802686768
 20
2079.9560589936609
 30
0.0
 11
1601.318508026867
 21
2079.9560589936609
 31
0.0
  0
INSERT
  5
87BD
  8
3
 62
     0
  2
_OPEN
 10
766.31850802686756
 20
2079.9560589936609
 30
0.0
 41
30.0
 42
30.0
 43
30.0
 50
180.0
  0
INSERT
  5
87BE
  8
3
 62
     0
  2
_OPEN
 10
1631.318508026867
 20
2079.9560589936609
 30
0.0
 41
30.0
 42
30.0
 43
30.0
  0
TEXT
  8
3
  40
45
  5
87D6
  62
0
  72
0
  71
0
 10
1128.32
 20
2037.81
 30
0.000000
  1
865
  0
POINT
  5
87C0
  8
DEFPOINTS
 62
     0
 10
766.31850802686756
 20
1640.7324963892929
 30
0.0
  0
POINT
  5
87C1
  8
DEFPOINTS
 62
     0
 10
1631.318508026867
 20
1263.3436660643381
 30
0.0
  0
POINT
  5
87C2
  8
DEFPOINTS
 62
     0
 10
1631.318508026867
 20
2079.9560589936609
 30
0.0
  0
ENDBLK
  5
8621
  8
0
  0
BLOCK
  8
0
  2
*D24
 70
     1
 10
0.0
 20
0.0
 30
0.0
  3
*D24
  1

  0
LINE
  5
86D0
  8
0
  6
BYBLOCK
 62
     0
 10
640.38311303668615
 20
1188.3436660643381
 30
0.0
 11
316.89361361804271
 21
1188.3436660643381
 31
0.0
  0
LINE
  5
86D1
  8
0
  6
BYBLOCK
 62
     0
 10
640.38311303668695
 20
1093.343666064337
 30
0.0
 11
316.89361361804271
 21
1093.343666064337
 31
0.0
  0
LINE
  5
86D2
  8
0
  6
BYBLOCK
 62
     0
 10
331.89361361804271
 20
1188.3436660643381
 30
0.0
 11
331.89361361804271
 21
1093.343666064337
 31
0.0
  0
TEXT
  5
86D3
  8
3
 62
     0
 10
275.10789933232849
 20
1075.486523207195
 30
0.0
 40
45.0
  1
(95)
 50
90.0
  0
POINT
  5
86D4
  8
DEFPOINTS
  6
BYBLOCK
 62
     0
 10
647.88311303668615
 20
1188.3436660643381
 30
0.0
  0
POINT
  5
86D5
  8
DEFPOINTS
  6
BYBLOCK
 62
     0
 10
647.88311303668695
 20
1093.343666064337
 30
0.0
  0
POINT
  5
86D6
  8
DEFPOINTS
  6
BYBLOCK
 62
     0
 10
331.89361361804271
 20
1093.343666064337
 30
0.0
  0
ENDBLK
  5
86D7
  8
0
  0
ENDSEC
  0
SECTION
  2
ENTITIES
  0
LINE
  5
7CD8
  8
1
 10
1981.579500154724
 20
1263.3436660643381
 30
0.0
 11
2761.5795001547231
 21
1263.3436660643381
 31
0.0
  0
LINE
  5
7CE9
  8
2
 10
2778.6847227960602
 20
1638.343666064337
 30
0.0
 11
1886.7938697498471
 21
1638.343666064337
 31
0.0
  0
LINE
  5
7CEA
  8
1
 10
2423.5795001547231
 20
1581.5436660643379
 30
0.0
 11
2013.579500154724
 21
1581.543666064337
 31
0.0
  0
LINE
  5
7CF2
  8
1
 10
2423.5795001547231
 20
1584.743666064338
 30
0.0
 11
2013.579500154724
 21
1584.743666064338
 31
0.0
  0
LINE
  5
7CF3
  8
1
 10
2761.5795001547231
 20
1188.3436660643381
 30
0.0
 11
1981.579500154724
 21
1188.3436660643381
 31
0.0
  0
DIMENSION
  5
7CF7
  8
3
  2
*D1
 10
1284.8833889075499
 20
1980.057840702689
 30
0.0
 11
1148.1009484672079
 21
2017.557840702689
 31
0.0
 70
     0
 13
1011.318508026867
 23
1898.9469467452079
 33
0.0
 14
1284.8833889075499
 24
1614.343666064337
 34
0.0
1001
ACAD
1000
DSTYLE
1002
{
1070
   287
1070
     3
1070
    40
1040
15.0
1070
   143
1040
0.039
1070
   172
1070
     1
1070
   271
1070
     0
1070
   279
1070
     0
1070
   288
1070
     1
1002
}
  0
ARC
  5
7CF8
  8
1
 10
1030.0834606115579
 20
1609.1503380242459
 30
0.0
 40
255.15223226792139
 50
1.1540559356372131
 51
97.460342772904141
  0
LINE
  5
7CF9
  8
1
 10
960.52416499054652
 20
1552.2046231423931
 30
0.0
 11
1415.1269934723859
 21
1284.135101681421
 31
0.0
  0
LINE
  5
7CFA
  8
1
 10
1045.032520131776
 20
1732.4891141103799
 30
0.0
 11
1541.889526184231
 21
1554.5618381334009
 31
0.0
  0
LINE
  5
7CFB
  8
1
 10
982.31286808333425
 20
1581.855411962568
 30
0.0
 11
1453.5883370137051
 21
1339.8644567917991
 31
0.0
  0
LINE
  5
7CFC
  8
1
 10
1036.1809720963679
 20
1696.77403385706
 30
0.0
 11
1523.659288060581
 21
1489.349152358493
 31
0.0
  0
LINE
  5
7CFD
  8
1
 10
1094.818508026867
 20
1590.743666064338
 30
0.0
 11
1040.818508026867
 21
1590.743666064338
 31
0.0
  0
LINE
  5
7D01
  8
1
 10
1641.3185080268679
 20
1263.3436660643381
 30
0.0
 11
831.31850802686768
 21
1263.3436660643381
 31
0.0
  0
LINE
  5
7D02
  8
1
 10
1631.3185080268679
 20
1188.3436660643381
 30
0.0
 11
831.31850802686768
 21
1188.3436660643381
 31
0.0
  0
LINE
  5
7D03
  8
1
 10
811.31850802686665
 20
1581.5436660643379
 30
0.0
 11
1211.318508026867
 21
1581.5436660643379
 31
0.0
  0
LINE
  5
7D04
  8
2
 10
1366.17936113521
 20
1638.343666064337
 30
0.0
 11
754.85838167638212
 21
1638.343666064337
 31
0.0
  0
LINE
  5
7D05
  8
1
 10
851.31850802686768
 20
1584.743666064338
 30
0.0
 11
1171.318508026867
 21
1584.743666064338
 31
0.0
  0
ARC
  5
7D06
  8
1
 10
987.31850802686847
 20
1614.343666064337
 30
0.0
 40
297.56488088068153
 50
274.610207495868
 51
0.0000000000002036
  0
POLYLINE
  5
7D07
  8
1
 66
     1
 10
0.0
 20
0.0
 30
0.0
 70
     1
  0
VERTEX
  5
8707
  8
1
 10
1111.318508026867
 20
1584.743666064338
 30
0.0
  0
VERTEX
  5
8708
  8
1
 10
911.31850802686756
 20
1584.743666064338
 30
0.0
  0
VERTEX
  5
8709
  8
1
 10
911.31850802686756
 20
1590.743666064338
 30
0.0
  0
VERTEX
  5
870A
  8
1
 10
1111.318508026867
 20
1590.743666064338
 30
0.0
  0
SEQEND
  5
870B
  8
1
  0
POLYLINE
  5
7D0D
  8
1
 66
     1
 10
0.0
 20
0.0
 30
0.0
 70
     1
  0
VERTEX
  5
870C
  8
1
 10
1111.318508026867
 20
1584.743666064338
 30
0.0
  0
VERTEX
  5
870D
  8
1
 10
911.31850802686756
 20
1584.743666064338
 30
0.0
  0
VERTEX
  5
870E
  8
1
 10
911.31850802686756
 20
1590.743666064338
 30
0.0
  0
VERTEX
  5
870F
  8
1
 10
1111.318508026867
 20
1590.743666064338
 30
0.0
  0
SEQEND
  5
8710
  8
1
  0
DIMENSION
  5
7D14
  8
3
  2
*D2
 10
515.32900860822417
 20
1188.3436660643381
 30
0.0
 11
477.82900860822411
 21
1413.3436660643381
 31
0.0
 70
     0
 13
754.85838167638212
 23
1638.343666064337
 33
0.0
 14
831.31850802686768
 24
1188.3436660643381
 34
0.0
 50
90.0
1001
ACAD
1000
DSTYLE
1002
{
1070
   287
1070
     3
1070
    40
1040
15.0
1070
   143
1040
0.039
1070
   172
1070
     1
1070
   271
1070
     0
1070
   279
1070
     0
1070
   288
1070
     1
1002
}
  0
DIMENSION
  5
7D15
  8
3
  2
*D3
 10
605.80981037203401
 20
1638.343666064337
 30
0.0
 11
568.30981037203378
 21
1462.8436660643381
 31
0.0
 70
     0
 13
766.31850802686756
 23
1287.343666064337
 33
0.0
 14
754.85838167638212
 24
1638.343666064337
 34
0.0
 50
90.0
1001
ACAD
1000
DSTYLE
1002
{
1070
   287
1070
     3
1070
    40
1040
15.0
1070
   143
1040
0.039
1070
   172
1070
     1
1070
   271
1070
     0
1070
   279
1070
     0
1070
   288
1070
     1
1002
}
  0
DIMENSION
  5
7D16
  8
3
  2
*D4
 10
697.84297548848997
 20
1612.343666064337
 30
0.0
 11
660.34297548848986
 21
1449.8436660643381
 31
0.0
 70
     0
 13
766.31850802686756
 23
1287.343666064337
 33
0.0
 14
766.31850802686756
 24
1612.343666064337
 34
0.0
 50
90.0
1001
ACAD
1000
DSTYLE
1002
{
1070
   287
1070
     3
1070
    40
1040
15.0
1070
   143
1040
0.039
1070
   172
1070
     1
1070
   271
1070
     0
1070
   279
1070
     0
1070
   288
1070
     1
1002
}
  0
LINE
  5
7D17
  8
1
 10
766.31850802686756
 20
1612.343666064337
 30
0.0
 11
766.31850802686745
 21
1287.343666064337
 31
0.0
  0
LINE
  5
7D18
  8
1
 10
769.31850802686756
 20
1612.343666064337
 30
0.0
 11
769.31850802686756
 21
1287.3436660643381
 31
0.0
  0
LINE
  5
7D19
  8
1
 10
791.31850802686756
 20
1287.343666064337
 30
0.0
 11
791.31850802686756
 21
1612.343666064337
 31
0.0
  0
LINE
  5
7D1A
  8
1
 10
861.31850802686665
 20
1581.5436660643379
 30
0.0
 11
861.31850802686847
 21
1263.3436660643381
 31
0.0
  0
LINE
  5
7D1B
  8
2
 10
1011.318508026867
 20
1732.4829812568139
 30
0.0
 11
1011.318508026868
 21
985.86071356757884
 31
0.0
  0
LINE
  5
7D22
  8
1
 10
831.31850802686768
 20
1338.343666064337
 30
0.0
 11
831.31850802686768
 21
1188.3436660643381
 31
0.0
  0
POLYLINE
  5
7D23
  8
1
 66
     1
 10
0.0
 20
0.0
 30
0.0
  0
VERTEX
  5
872C
  8
1
 10
766.31850802686745
 20
1287.343666064337
 30
0.0
  0
VERTEX
  5
872D
  8
1
 10
1011.2357327490261
 20
1317.741534084266
 30
0.0
  0
SEQEND
  5
872E
  8
1
  0
LINE
  5
7D27
  8
1
 10
861.31850802686756
 20
1268.343666064337
 30
0.0
 11
831.31850802686768
 21
1268.343666064337
 31
0.0
  0
LINE
  5
7D28
  8
1
 10
791.31850802686472
 20
1287.343666064337
 30
0.0
 11
766.31850802686472
 21
1287.343666064337
 31
0.0
  0
ARC
  5
7D29
  8
1
 10
789.31850802686472
 20
1286.343666064337
 30
0.0
 40
2.0
 50
270.0
 51
0.0
  0
LINE
  5
7D2A
  8
1
 10
766.31850802686472
 20
1287.343666064337
 30
0.0
 11
766.31850802686472
 21
1262.343666064337
 31
0.0
  0
LINE
  5
7D2B
  8
1
 10
769.31850802686472
 20
1264.3436660643381
 30
0.0
 11
769.31850802686472
 21
1280.3436660643381
 31
0.0
  0
LINE
  5
7D2C
  8
1
 10
773.31850802686472
 20
1284.343666064337
 30
0.0
 11
789.31850802686472
 21
1284.343666064337
 31
0.0
  0
ARC
  5
7D2D
  8
1
 10
773.31850802686472
 20
1280.3436660643381
 30
0.0
 40
4.0
 50
90.0
 51
180.0
  0
LINE
  5
7D2E
  8
1
 10
766.31850802686756
 20
1287.343666064337
 30
0.0
 11
773.94881970116603
 21
1287.343666064337
 31
0.0
  0
LINE
  5
7D2F
  8
1
 10
766.31850802686472
 20
1262.343666064337
 30
0.0
 11
767.31850802686461
 21
1262.343666064337
 31
0.0
  0
ARC
  5
7D30
  8
1
 10
767.31850802686461
 20
1264.3436660643381
 30
0.0
 40
2.0
 50
270.0
 51
0.0
  0
LINE
  5
7D31
  8
1
 10
791.31850802686381
 20
1290.9140194128511
 30
0.0
 11
791.31850802686381
 21
1291.9140194128511
 31
0.0
  0
LINE
  5
7D32
  8
1
 10
791.31850802686472
 20
1286.343666064337
 30
0.0
 11
791.31850802686472
 21
1287.343666064337
 31
0.0
  0
LINE
  5
7D34
  8
1
 10
861.31850802686824
 20
1338.343666064337
 30
0.0
 11
831.31850802686768
 21
1338.343666064337
 31
0.0
  0
DIMENSION
  5
7D35
  8
3
  2
*D5
 10
1011.318508026867
 20
1980.057840702689
 30
0.0
 11
888.81850802686768
 21
2017.557840702689
 31
0.0
 70
     0
 13
766.31850802686756
 23
1640.7324963892929
 33
0.0
 14
1011.318508026867
 24
1898.9469467452079
 34
0.0
1001
ACAD
1000
DSTYLE
1002
{
1070
   287
1070
     3
1070
    40
1040
15.0
1070
   143
1040
0.039
1070
   172
1070
     1
1070
   271
1070
     0
1070
   279
1070
     0
1070
   288
1070
     1
1002
}
  0
DIMENSION
  5
7D36
  8
3
  2
*D6
 10
515.32900860822417
 20
1864.302570292167
 30
0.0
 11
477.82900860822389
 21
1751.323118178253
 31
0.0
 70
     0
 13
754.85838167638212
 23
1638.343666064337
 33
0.0
 14
1030.0834606115579
 24
1864.302570292167
 34
0.0
 50
90.0
1001
ACAD
1000
DSTYLE
1002
{
1070
   287
1070
     3
1070
    40
1040
15.0
1070
   143
1040
0.039
1070
   172
1070
     1
1070
   271
1070
     0
1070
   279
1070
     0
1070
   288
1070
     1
1002
}
  0
ARC
  5
7D37
  8
1
 10
1011.318508026867
 20
1638.343666064337
 30
0.0
 40
100.0
 50
70.297269738203724
 51
239.47306048950711
  0
ARC
  5
7D38
  8
1
 10
1024.321452102093
 20
1662.4193751265459
 30
0.0
 40
201.58952384937541
 50
97.79780284392973
 51
181.563977764425
  0
CIRCLE
  5
7D3A
  8
1
 10
1011.318508026867
 20
1638.343666064337
 30
0.0
 40
63.5
  0
LINE
  5
7D3B
  8
1
 10
811.31850802686665
 20
1581.543666064337
 30
0.0
 11
811.31850802686665
 21
1541.543666064337
 31
0.0
  0
LINE
  5
7D3C
  8
1
 10
861.31850802686665
 20
1541.5436660643379
 30
0.0
 11
791.31850802686756
 21
1541.543666064337
 31
0.0
  0
LINE
  5
7D3D
  8
1
 10
861.31850802686665
 20
1537.043666064337
 30
0.0
 11
791.31850802686756
 21
1537.043666064337
 31
0.0
  0
LINE
  5
7D3E
  8
1
 10
766.31850802686756
 20
1612.343666064337
 30
0.0
 11
766.31850802686756
 21
1637.343666064337
 31
0.0
  0
ARC
  5
7D3F
  8
1
 10
773.31850802686756
 20
1619.343666064337
 30
0.0
 40
4.0
 50
180.0
 51
270.0
  0
ARC
  5
7D40
  8
1
 10
992.81850802686756
 20
1656.8436660643381
 30
0.0
 40
170.010476206249
 50
179.9999999999996
 51
195.17384176877809
  0
ARC
  5
7D42
  8
1
 10
789.31850802686756
 20
1613.3436660643381
 30
0.0
 40
2.0
 50
0.0
 51
90.0
  0
LINE
  5
7D43
  8
1
 10
766.31850802686756
 20
1612.343666064337
 30
0.0
 11
828.73526080194347
 21
1612.343666064337
 31
0.0
  0
LINE
  5
7D45
  8
1
 10
773.31850802686756
 20
1615.3436660643381
 30
0.0
 11
789.31850802686756
 21
1615.3436660643381
 31
0.0
  0
LINE
  5
7D46
  8
1
 10
791.31850802686756
 20
1613.3436660643381
 30
0.0
 11
791.31850802686756
 21
1612.343666064337
 31
0.0
  0
LINE
  5
7D49
  8
1
 10
769.31850802686756
 20
1635.343666064337
 30
0.0
 11
769.31850802686756
 21
1619.343666064337
 31
0.0
  0
ARC
  5
7D4A
  8
1
 10
767.31850802686768
 20
1635.343666064337
 30
0.0
 40
2.0
 50
0.0
 51
90.0
  0
LINE
  5
7D4B
  8
1
 10
766.31850802686756
 20
1637.343666064337
 30
0.0
 11
767.31850802686768
 21
1637.343666064337
 31
0.0
  0
LINE
  5
7D4C
  8
1
 10
851.31850802686768
 20
1584.743666064338
 30
0.0
 11
851.31850802686768
 21
1581.5436660643379
 31
0.0
  0
CIRCLE
  5
7D4D
  8
1
 10
1011.318508026867
 20
1498.3436660643381
 30
0.0
 40
65.0
  0
LINE
  5
7D4E
  8
2
 10
1081.318508026867
 20
1498.3436660643381
 30
0.0
 11
941.31850802686768
 21
1498.3436660643381
 31
0.0
  0
LINE
  5
7D4F
  8
1
 10
927.81850802686768
 20
1590.743666064338
 30
0.0
 11
981.81850802686756
 21
1590.743666064338
 31
0.0
  0
LINE
  5
7D50
  8
2
 10
1011.318508026867
 20
1898.9469467452079
 30
0.0
 11
1011.318508026867
 21
1751.422908235003
 31
0.0
  0
LINE
  5
7D51
  8
1
 10
1011.318508026867
 20
1738.3436660643381
 30
0.0
 11
1011.318508026867
 21
1738.3436660643381
 31
0.0
  0
ARC
  5
7D52
  8
1
 10
1491.3185080268679
 20
1413.3436660643381
 30
0.0
 40
150.0
 50
239.47306048950711
 51
70.29726973820371
  0
LINE
  5
7D53
  8
1
 10
2265.579500154724
 20
1510.343666064337
 30
0.0
 11
2265.579500154724
 21
1323.343666064337
 31
0.0
  0
LINE
  5
7D54
  8
1
 10
1161.318508026867
 20
1581.5436660643379
 30
0.0
 11
1161.318508026867
 21
1263.3436660643381
 31
0.0
  0
LINE
  5
7D55
  8
2
 10
1491.3185080268679
 20
1317.3595660643371
 30
0.0
 11
1491.3185080268679
 21
1521.8047660643369
 31
0.0
  0
ARC
  5
7D56
  8
1
 10
1491.3185080268679
 20
1413.3436660643381
 30
0.0
 40
100.8
 50
0.0
 51
239.69929999999999
  0
ARC
  5
7D57
  8
1
 10
1491.3185080268679
 20
1413.3436660643381
 30
0.0
 40
100.8
 50
0.0
 51
239.69929999999999
  0
CIRCLE
  5
7D5A
  8
1
 10
1491.3185080268679
 20
1413.3436660643381
 30
0.0
 40
82.599999999999994
  0
LINE
  5
7D5C
  8
1
 10
2000.579500154724
 20
1738.3436660643381
 30
0.0
 11
2000.579500154724
 21
1698.9793776816
 31
0.0
  0
LINE
  5
7D5D
  8
1
 10
1908.579500154724
 20
1738.3436660643381
 30
0.0
 11
1908.579500154724
 21
1263.3436660643381
 31
0.0
  0
LINE
  5
7D5E
  8
1
 10
1988.579500154724
 20
1590.943666064338
 30
0.0
 11
1988.579500154724
 21
1311.743666064337
 31
0.0
  0
LINE
  5
7D5F
  8
1
 10
1938.579500154724
 20
1590.943666064338
 30
0.0
 11
1938.579500154724
 21
1311.743666064337
 31
0.0
  0
LINE
  5
7D60
  8
1
 10
1993.579500154724
 20
1376.843666064337
 30
0.0
 11
1993.579500154724
 21
1449.843666064337
 31
0.0
  0
LINE
  5
7D61
  8
1
 10
2003.579500154724
 20
1510.343666064337
 30
0.0
 11
2003.579500154724
 21
1323.3436660643381
 31
0.0
  0
LINE
  5
7D62
  8
1
 10
1403.3185080268679
 20
1323.3436660643381
 30
0.0
 11
1443.3185080268679
 21
1323.3436660643381
 31
0.0
  0
LINE
  5
7D63
  8
1
 10
1592.2223794955551
 20
1323.3436660643381
 30
0.0
 11
1390.414636558181
 21
1323.3436660643381
 31
0.0
  0
LINE
  5
7D64
  8
2
 10
1386.853308026868
 20
1413.3436660643381
 30
0.0
 11
1597.421308026868
 21
1413.3436660643381
 31
0.0
  0
LINE
  5
7D65
  8
1
 10
1641.3185080268679
 20
1293.3436660643381
 30
0.0
 11
1341.3185080268679
 21
1293.3436660643381
 31
0.0
  0
LINE
  5
7D66
  8
1
 10
1191.318508026867
 20
1338.343666064337
 30
0.0
 11
1191.318508026867
 21
1263.3436660643381
 31
0.0
  0
LINE
  5
7D67
  8
1
 10
1191.318508026867
 20
1268.343666064337
 30
0.0
 11
1161.318508026867
 21
1268.343666064337
 31
0.0
  0
LINE
  5
7D68
  8
1
 10
1191.318508026867
 20
1338.343666064337
 30
0.0
 11
1161.318508026867
 21
1338.343666064337
 31
0.0
  0
LINE
  5
7D69
  8
1
 10
1378.8185080268679
 20
1293.3436660643381
 30
0.0
 11
1390.414636558181
 21
1323.3436660643381
 31
0.0
  0
LINE
  5
7D6A
  8
1
 10
1341.3185080268679
 20
1263.3436660643381
 30
0.0
 11
1341.3185080268679
 21
1293.3436660643381
 31
0.0
  0
LINE
  5
7D6B
  8
1
 10
1421.3185080268679
 20
1318.9771660643371
 30
0.0
 11
1421.3185080268679
 21
1335.8805660643379
 31
0.0
  0
LINE
  5
7D6C
  8
1
 10
1403.3185080268679
 20
1323.3436660643381
 30
0.0
 11
1403.3185080268679
 21
1331.3436660643381
 31
0.0
  0
LINE
  5
7D6D
  8
1
 10
1409.1720080268681
 20
1354.9263660643369
 30
0.0
 11
1403.3185080268679
 21
1331.3436660643381
 31
0.0
  0
LINE
  5
7D6F
  8
1
 10
1603.8185080268679
 20
1293.3436660643381
 30
0.0
 11
1592.2223794955551
 21
1323.3436660643381
 31
0.0
  0
LINE
  5
7D72
  8
1
 10
1440.3944080268679
 20
1326.343666064337
 30
0.0
 11
1542.3495080268681
 21
1326.343666064337
 31
0.0
  0
LINE
  5
7D74
  8
1
 10
1443.3185080268679
 20
1326.3164660643381
 30
0.0
 11
1443.3185080268679
 21
1323.3436660643381
 31
0.0
  0
ARC
  5
7D76
  8
1
 10
1491.3185080268679
 20
1413.3436660643381
 30
0.0
 40
100.8
 50
300.3932999999999
 51
0.0
  0
ARC
  5
7D78
  8
1
 10
1491.3185080268679
 20
1413.3436660643381
 30
0.0
 40
100.8
 50
300.3932999999999
 51
0.0
  0
LINE
  5
7D79
  8
1
 10
1579.3185080268679
 20
1323.3436660643381
 30
0.0
 11
1539.3185080268679
 21
1323.3436660643381
 31
0.0
  0
LINE
  5
7D7A
  8
1
 10
1561.3185080268679
 20
1318.9771660643371
 30
0.0
 11
1561.3185080268679
 21
1335.8805660643379
 31
0.0
  0
LINE
  5
7D7B
  8
1
 10
1539.3185080268679
 20
1326.2746660643379
 30
0.0
 11
1539.3185080268679
 21
1323.3436660643381
 31
0.0
  0
LINE
  5
7D7C
  8
1
 10
1573.4651080268679
 20
1354.9263660643369
 30
0.0
 11
1579.3185080268679
 21
1331.3436660643381
 31
0.0
  0
LINE
  5
7D7D
  8
1
 10
1579.3185080268679
 20
1323.3436660643381
 30
0.0
 11
1579.3185080268679
 21
1331.3436660643381
 31
0.0
  0
LINE
  5
7D7E
  8
1
 10
1631.318508026867
 20
1263.3436660643381
 30
0.0
 11
1631.3185080268679
 21
1188.3436660643381
 31
0.0
  0
LINE
  5
7D7F
  8
1
 10
1641.3185080268679
 20
1263.3436660643381
 30
0.0
 11
1641.318508026867
 21
1293.3436660643381
 31
0.0
  0
LINE
  5
7D80
  8
1
 10
2003.579500154724
 20
1323.3436660643381
 30
0.0
 11
2265.579500154724
 21
1323.343666064337
 31
0.0
  0
LINE
  5
7D81
  8
2
 10
2032.877465551772
 20
1413.3436660643381
 30
0.0
 11
1933.544900154724
 21
1413.3436660643381
 31
0.0
  0
LINE
  5
7D83
  8
1
 10
2023.579500154724
 20
1323.3436660643381
 30
0.0
 11
2023.579500154724
 21
1263.3436660643381
 31
0.0
  0
LINE
  5
7D85
  8
1
 10
1908.579500154724
 20
1263.3436660643381
 30
0.0
 11
2000.579500154724
 21
1263.3436660643381
 31
0.0
  0
LINE
  5
7D86
  8
1
 10
1981.579500154724
 20
1263.3436660643381
 30
0.0
 11
1981.579500154724
 21
1188.3436660643381
 31
0.0
  0
LINE
  5
7D87
  8
1
 10
1988.579500154724
 20
1311.743666064337
 30
0.0
 11
1938.579500154724
 21
1311.743666064337
 31
0.0
  0
LINE
  5
7D88
  8
1
 10
1993.579500154724
 20
1400.843666064337
 30
0.0
 11
1988.579500154724
 21
1400.843666064337
 31
0.0
  0
ARC
  5
7D89
  8
1
 10
1994.5796001547239
 20
1376.843666064337
 30
0.0
 40
1.0000999999999991
 50
180.0
 51
269.99650000000003
  0
ARC
  5
7D8A
  8
1
 10
2002.579500154724
 20
1374.843666064337
 30
0.0
 40
1.0000999999999991
 50
0.0
 51
89.996500000000054
  0
LINE
  5
7D8B
  8
1
 10
1994.579500154724
 20
1375.8436660643381
 30
0.0
 11
2002.579500154724
 21
1375.8436660643381
 31
0.0
  0
LINE
  5
7D8C
  8
1
 10
1993.579500154724
 20
1425.8436660643381
 30
0.0
 11
1988.579500154724
 21
1425.8436660643381
 31
0.0
  0
LINE
  5
7D8D
  8
1
 10
1988.579500154724
 20
1425.8436660643381
 30
0.0
 11
1988.579500154724
 21
1400.843666064337
 31
0.0
  0
LINE
  5
7D8E
  8
1
 10
1275.840636005875
 20
1541.543666064339
 30
0.0
 11
1161.318508026867
 21
1541.5436660643379
 31
0.0
  0
LINE
  5
7D8F
  8
1
 10
1274.6677177587451
 20
1537.0436660643379
 30
0.0
 11
1161.318508026867
 21
1537.0436660643379
 31
0.0
  0
LINE
  5
7D90
  8
1
 10
1211.318508026867
 20
1581.5436660643379
 30
0.0
 11
1211.318508026867
 21
1541.5436660643379
 31
0.0
  0
LINE
  5
7D91
  8
1
 10
1171.318508026867
 20
1584.743666064338
 30
0.0
 11
1171.318508026867
 21
1581.5436660643379
 31
0.0
  0
LINE
  5
7D99
  8
1
 10
2003.579500154724
 20
1510.343666064337
 30
0.0
 11
2265.579500154724
 21
1510.343666064337
 31
0.0
  0
LINE
  5
7D9B
  8
1
 10
1988.579500154724
 20
1701.843666064337
 30
0.0
 11
1988.579500154724
 21
1574.8436660643381
 31
0.0
  0
LINE
  5
7D9C
  8
1
 10
1938.579500154724
 20
1701.843666064337
 30
0.0
 11
1938.579500154724
 21
1574.8436660643381
 31
0.0
  0
LINE
  5
7D9E
  8
1
 10
2023.579500154724
 20
1581.543666064337
 30
0.0
 11
2023.579500154724
 21
1510.343666064337
 31
0.0
  0
LINE
  5
7D9F
  8
1
 10
1988.579500154724
 20
1514.9436660643371
 30
0.0
 11
1938.579500154724
 21
1514.9436660643371
 31
0.0
  0
LINE
  5
7DA0
  8
1
 10
1938.579500154724
 20
1520.3436660643381
 30
0.0
 11
1938.579500154724
 21
1496.3436660643381
 31
0.0
  0
LINE
  5
7DA1
  8
1
 10
1993.579500154724
 20
1449.843666064337
 30
0.0
 11
2003.579500154724
 21
1449.843666064337
 31
0.0
  0
LINE
  5
7DA2
  8
1
 10
1988.579500154724
 20
1574.8436660643381
 30
0.0
 11
1938.579500154724
 21
1574.8436660643381
 31
0.0
  0
LINE
  5
7DA3
  8
1
 10
2013.579500154724
 20
1584.743666064338
 30
0.0
 11
2013.579500154724
 21
1581.543666064337
 31
0.0
  0
LINE
  5
7DA4
  8
1
 10
1908.5795001547251
 20
1738.3436660643381
 30
0.0
 11
2000.579500154724
 21
1738.3436660643381
 31
0.0
  0
LINE
  5
7DA5
  8
1
 10
1988.579500154724
 20
1701.8436660643381
 30
0.0
 11
1938.579500154724
 21
1701.8436660643381
 31
0.0
  0
LINE
  5
7DC6
  8
1
 10
851.31850802686768
 20
2489.0785510674541
 30
0.0
 11
1171.318508026867
 21
2489.0785510674541
 31
0.0
  0
LINE
  5
7DC7
  8
1
 10
851.31850802686847
 20
2899.0785510674541
 30
0.0
 11
993.81850802686768
 21
2899.0785510674541
 31
0.0
  0
LINE
  5
7DC9
  8
1
 10
1151.3185080268649
 20
3232.0785510674541
 30
0.0
 11
871.31850802686756
 21
3232.0785510674541
 31
0.0
  0
LINE
  5
7DCA
  8
1
 10
1287.8833889075499
 20
2954.0785510674541
 30
0.0
 11
770.31850802686904
 21
2954.0785510674541
 31
0.0
  0
LINE
  5
7DCB
  8
1
 10
1287.8833889075499
 20
3190.0785510674541
 30
0.0
 11
770.31850802686904
 21
3190.0785510674541
 31
0.0
  0
LINE
  5
7DCC
  8
1
 10
1151.3185080268661
 20
3192.0785510674541
 30
0.0
 11
871.31850802686756
 21
3192.0785510674541
 31
0.0
  0
LINE
  5
7DCD
  8
2
 10
1311.3497695742319
 20
3072.0785510674541
 30
0.0
 11
761.71938800065163
 21
3072.0785510674541
 31
0.0
  0
LINE
  5
7DCE
  8
1
 10
911.31850802686756
 20
2476.0785510674541
 30
0.0
 11
1641.3185080268679
 21
2476.0785510674541
 31
0.0
  0
LINE
  5
7DD5
  8
1
 10
911.31850802686756
 20
2384.0785510674541
 30
0.0
 11
1641.3185080268679
 21
2384.0785510674541
 31
0.0
  0
LINE
  5
7DD8
  8
1
 10
851.31850802686768
 20
2489.0785510674541
 30
0.0
 11
851.31850802686768
 21
2899.0785510674541
 31
0.0
  0
LINE
  5
7DD9
  8
2
 10
1011.318508026868
 20
3224.2599310761252
 30
0.0
 11
1011.318508026867
 21
2374.9122477915471
 31
0.0
  0
LINE
  5
7DDB
  8
1
 10
831.31850802686859
 20
2954.0785510674541
 30
0.0
 11
831.31850802686859
 21
2457.0785510674532
 31
0.0
  0
LINE
  5
7DE0
  8
1
 10
831.31850802686768
 20
2457.0785510674532
 30
0.0
 11
911.31850802686756
 21
2457.0785510674532
 31
0.0
  0
POINT
  5
7DE1
  8
1
 10
831.31850802686859
 20
2457.0785510674532
 30
0.0
  0
LINE
  5
7DE2
  8
1
 10
911.31850802686756
 20
2384.0785510674541
 30
0.0
 11
911.31850802686756
 21
2476.0785510674541
 31
0.0
  0
LINE
  5
7DE3
  8
1
 10
831.31850802686859
 20
2497.0785510674541
 30
0.0
 11
851.31850802686768
 21
2497.0785510674541
 31
0.0
  0
LINE
  5
7DE5
  8
1
 10
1028.818508026867
 20
2954.0785510674541
 30
0.0
 11
1028.818508026867
 21
2464.0785510674532
 31
0.0
  0
LINE
  5
7DE6
  8
1
 10
993.81850802686768
 20
2954.0785510674541
 30
0.0
 11
993.81850802686768
 21
2464.0785510674532
 31
0.0
  0
LINE
  5
7DE7
  8
1
 10
1074.818508026867
 20
2414.0785510674541
 30
0.0
 11
947.81850802686756
 21
2414.0785510674532
 31
0.0
  0
LINE
  5
7DE8
  8
1
 10
1074.818508026867
 20
2464.0785510674541
 30
0.0
 11
947.81850802686756
 21
2464.0785510674532
 31
0.0
  0
LINE
  5
7DE9
  8
1
 10
947.81850802686756
 20
2464.0785510674532
 30
0.0
 11
947.81850802686756
 21
2414.0785510674532
 31
0.0
  0
LINE
  5
7DEA
  8
1
 10
1074.818508026867
 20
2464.0785510674541
 30
0.0
 11
1074.818508026867
 21
2414.0785510674541
 31
0.0
  0
LINE
  5
7DED
  8
1
 10
767.31850802686859
 20
2927.0785510674532
 30
0.0
 11
767.31850802686859
 21
3217.0785510674541
 31
0.0
  0
LINE
  5
7DEE
  8
1
 10
770.31850802686859
 20
2927.0785510674532
 30
0.0
 11
770.31850802686859
 21
3217.0785510674541
 31
0.0
  0
LINE
  5
7DF0
  8
1
 10
770.31850802686904
 20
2927.0785510674532
 30
0.0
 11
767.31850802686859
 21
2927.0785510674532
 31
0.0
  0
LINE
  5
7DF1
  8
1
 10
871.31850802686756
 20
2954.078551067455
 30
0.0
 11
871.31850802686756
 21
2899.0785510674541
 31
0.0
  0
LINE
  5
7DF4
  8
1
 10
871.31850802686756
 20
3237.0785510674541
 30
0.0
 11
831.31850802686768
 21
3237.0785510674541
 31
0.0
  0
LINE
  5
7DF5
  8
1
 10
770.31850802686904
 20
3217.0785510674541
 30
0.0
 11
767.31850802686859
 21
3217.0785510674532
 31
0.0
  0
POINT
  5
7DF6
  8
1
 10
831.31850802686768
 20
3237.0785510674541
 30
0.0
  0
POINT
  5
7DF7
  8
1
 10
831.31850802686768
 20
3237.0785510674541
 30
0.0
  0
LINE
  5
7DF8
  8
1
 10
831.31850802686768
 20
3237.0785510674541
 30
0.0
 11
831.31850802686768
 21
3190.0785510674541
 31
0.0
  0
LINE
  5
7DF9
  8
1
 10
871.31850802686756
 20
3237.0785510674541
 30
0.0
 11
871.31850802686756
 21
3190.0785510674541
 31
0.0
  0
LINE
  5
7DFD
  8
1
 10
1171.318508026867
 20
2489.0785510674532
 30
0.0
 11
1171.318508026867
 21
2899.0785510674541
 31
0.0
  0
LINE
  5
7DFE
  8
1
 10
1191.3185080268661
 20
2497.0785510674541
 30
0.0
 11
1191.318508026867
 21
2954.0785510674541
 31
0.0
  0
LINE
  5
7DFF
  8
1
 10
1390.3185080268679
 20
2741.0785510674541
 30
0.0
 11
1592.3185080268679
 21
2741.0785510674541
 31
0.0
  0
LINE
  5
7E01
  8
1
 10
1390.3185080268679
 20
2479.0785510674541
 30
0.0
 11
1592.3185080268679
 21
2479.0785510674541
 31
0.0
  0
LINE
  5
7E02
  8
1
 10
1191.318508026867
 20
2797.0785510674541
 30
0.0
 11
1631.318508026867
 21
2797.0785510674541
 31
0.0
  0
LINE
  5
7E03
  8
1
 10
1191.318508026867
 20
2837.0785510674541
 30
0.0
 11
1631.318508026867
 21
2837.0785510674541
 31
0.0
  0
LINE
  5
7E04
  8
1
 10
1408.718508026868
 20
2414.0785510674541
 30
0.0
 11
1573.918508026868
 21
2414.0785510674541
 31
0.0
  0
LINE
  5
7E05
  8
1
 10
1408.718508026868
 20
2464.0785510674541
 30
0.0
 11
1573.918508026868
 21
2464.0785510674541
 31
0.0
  0
LINE
  5
7E06
  8
1
 10
1390.3185080268679
 20
2741.0785510674541
 30
0.0
 11
1390.3185080268679
 21
2479.0785510674541
 31
0.0
  0
LINE
  5
7E07
  8
1
 10
1171.318508026867
 20
2497.0785510674541
 30
0.0
 11
1390.3185080268679
 21
2497.0785510674541
 31
0.0
  0
LINE
  5
7E0A
  8
1
 10
1408.718508026868
 20
2464.0785510674541
 30
0.0
 11
1408.718508026868
 21
2414.0785510674541
 31
0.0
  0
LINE
  5
7E0B
  8
1
 10
1592.3185080268679
 20
2741.0785510674541
 30
0.0
 11
1592.3185080268679
 21
2479.0785510674541
 31
0.0
  0
LINE
  5
7E0C
  8
2
 10
1491.3185080268679
 20
2745.015551067454
 30
0.0
 11
1491.3185080268679
 21
2409.0439510674541
 31
0.0
  0
LINE
  5
7E0E
  8
1
 10
1592.3185080268679
 20
2497.0785510674541
 30
0.0
 11
1631.318508026867
 21
2497.0785510674541
 31
0.0
  0
LINE
  5
7E0F
  8
1
 10
1527.8185080268679
 20
2469.0785510674541
 30
0.0
 11
1454.8185080268679
 21
2469.0785510674541
 31
0.0
  0
LINE
  5
7E10
  8
1
 10
1479.3185080268679
 20
2414.0785510674541
 30
0.0
 11
1503.3185080268679
 21
2414.0785510674541
 31
0.0
  0
LINE
  5
7E11
  8
1
 10
1478.8185080268679
 20
2464.0785510674541
 30
0.0
 11
1503.8185080268679
 21
2464.0785510674541
 31
0.0
  0
LINE
  5
7E12
  8
1
 10
1454.8185080268679
 20
2469.0785510674541
 30
0.0
 11
1454.8185080268679
 21
2479.0785510674541
 31
0.0
  0
LINE
  5
7E13
  8
1
 10
1478.8185080268679
 20
2469.0785510674541
 30
0.0
 11
1478.8185080268679
 21
2464.0785510674541
 31
0.0
  0
LINE
  5
7E14
  8
1
 10
1503.8185080268679
 20
2469.0785510674541
 30
0.0
 11
1503.8185080268679
 21
2464.0785510674541
 31
0.0
  0
LINE
  5
7E15
  8
1
 10
1573.918508026868
 20
2464.0785510674541
 30
0.0
 11
1573.918508026868
 21
2414.0785510674541
 31
0.0
  0
LINE
  5
7E16
  8
1
 10
1528.8185080268679
 20
2470.0785510674541
 30
0.0
 11
1528.8185080268679
 21
2478.0785510674541
 31
0.0
  0
ARC
  5
7E17
  8
1
 10
1527.8185080268679
 20
2470.0786510674552
 30
0.0
 40
1.0000999999999991
 50
270.0
 51
359.99650000000003
  0
ARC
  5
7E18
  8
1
 10
1529.8185080268679
 20
2478.0785510674541
 30
0.0
 40
1.0000999999999991
 50
90.0
 51
179.9965
  0
LINE
  5
7E19
  8
1
 10
1631.3185080268679
 20
2476.0785510674541
 30
0.0
 11
1631.3185080268679
 21
2497.0785510674541
 31
0.0
  0
LINE
  5
7E1A
  8
1
 10
1641.3185080268679
 20
2384.0785510674541
 30
0.0
 11
1641.3185080268679
 21
2476.0785510674541
 31
0.0
  0
LINE
  5
7E1B
  8
1
 10
1631.318508026869
 20
2797.0785510674541
 30
0.0
 11
1631.318508026869
 21
2837.0785510674541
 31
0.0
  0
POINT
  5
7E1C
  8
1
 10
1631.318508026869
 20
2837.0785510674541
 30
0.0
  0
LINE
  5
7E1D
  8
1
 10
1287.8833889075499
 20
2954.0785510674541
 30
0.0
 11
1287.8833889075499
 21
3190.0785510674541
 31
0.0
  0
LINE
  5
7E1E
  8
1
 10
1151.318508026867
 20
2899.0785510674541
 30
0.0
 11
1151.3185080268661
 21
2954.0785510674541
 31
0.0
  0
LINE
  5
7E1F
  8
1
 10
1191.318508026867
 20
3237.0785510674541
 30
0.0
 11
1151.3185080268649
 21
3237.0785510674541
 31
0.0
  0
LINE
  5
7E20
  8
1
 10
1151.3185080268661
 20
3190.0785510674541
 30
0.0
 11
1151.3185080268649
 21
3237.0785510674532
 31
0.0
  0
POINT
  5
7E21
  8
1
 10
1191.318508026867
 20
3237.0785510674541
 30
0.0
  0
LINE
  5
7E22
  8
1
 10
1191.318508026867
 20
3190.0785510674541
 30
0.0
 11
1191.318508026867
 21
3237.0785510674541
 31
0.0
  0
LINE
  5
7E23
  8
1
 10
2478.579500154724
 20
1640.7324963892929
 30
0.0
 11
2478.579500154724
 21
1285.7324963892941
 31
0.0
  0
LINE
  5
7E24
  8
1
 10
2714.5795001547249
 20
1640.7324963892929
 30
0.0
 11
2714.5795001547231
 21
1285.7324963892941
 31
0.0
  0
LINE
  5
7E27
  8
1
 10
2451.579500154724
 20
1635.9548357393819
 30
0.0
 11
2451.579500154724
 21
1263.3436660643381
 31
0.0
  0
LINE
  5
7E28
  8
1
 10
2741.579500154724
 20
1640.7324963892929
 30
0.0
 11
2741.579500154724
 21
1263.3436660643381
 31
0.0
  0
LINE
  5
7E2B
  8
1
 10
2714.5795001547249
 20
1660.9548357393819
 30
0.0
 11
2714.579500154724
 21
1402.384761836508
 31
0.0
  0
LINE
  5
7E2D
  8
2
 10
2596.5795001547231
 20
1920.5659227695469
 30
0.0
 11
2596.579500154724
 21
983.21513245543474
 31
0.0
  0
LINE
  5
7E2E
  8
1
 10
2413.5795001547231
 20
1580.243666064338
 30
0.0
 11
2413.5795001547231
 21
1263.3436660643381
 31
0.0
  0
LINE
  5
7E30
  8
1
 10
2478.579500154724
 20
1285.7324963892929
 30
0.0
 11
2714.579500154724
 21
1285.7324963892929
 31
0.0
  0
LINE
  5
7E34
  8
1
 10
2761.5795001547231
 20
1263.3436660643381
 30
0.0
 11
2761.5795001547231
 21
1188.3436660643381
 31
0.0
  0
DIMENSION
  5
7E36
  8
3
  2
*D7
 10
2714.579500154724
 20
1932.4956487759439
 30
0.0
 11
2596.579500154724
 21
1932.4956487759439
 31
0.0
 70
   128
 13
2478.579500154724
 23
1860.444107760389
 33
0.0
 14
2714.579500154724
 24
1861.1497229127201
 34
0.0
1001
ACAD
1000
DSTYLE
1002
{
1070
   287
1070
     3
1070
    40
1040
15.0
1070
   143
1040
0.039
1070
   172
1070
     1
1070
   271
1070
     0
1070
   279
1070
     0
1070
   288
1070
     1
1002
}
  0
LINE
  5
7E37
  8
1
 10
2716.5795001547249
 20
1640.7324963892929
 30
0.0
 11
2741.579500154724
 21
1640.7324963892929
 31
0.0
  0
ARC
  5
7E38
  8
1
 10
2724.579500154724
 20
1803.8436928285639
 30
0.0
 40
4.0
 50
180.0
 51
270.0
  0
ARC
  5
7E39
  8
1
 10
2718.579500154724
 20
1819.8436928285639
 30
0.0
 40
2.0
 50
0.0
 51
90.0
  0
ARC
  5
7E3A
  8
1
 10
2718.579500154724
 20
1457.843666064337
 30
0.0
 40
2.0
 50
270.0
 51
0.0
  0
ARC
  5
7E3B
  8
1
 10
2724.579500154724
 20
1473.843666064337
 30
0.0
 40
4.0
 50
90.0
 51
180.0
  0
LINE
  5
7E3C
  8
1
 10
2717.579500154724
 20
1821.8436928285639
 30
0.0
 11
2717.579500154724
 21
1635.9548357393819
 31
0.0
  0
LINE
  5
7E3D
  8
1
 10
2478.5795001547231
 20
1861.302570292167
 30
0.0
 11
2478.579500154724
 21
1638.343666064337
 31
0.0
  0
LINE
  5
7E3E
  8
1
 10
2714.579500154724
 20
1861.302570292167
 30
0.0
 11
2714.579500154724
 21
1660.9548357393819
 31
0.0
  0
POLYLINE
  5
7E43
  8
1
 66
     1
 10
0.0
 20
0.0
 30
0.0
 70
     1
  0
VERTEX
  5
874A
  8
1
 10
2413.5795001547231
 20
1541.543666064337
 30
0.0
  0
VERTEX
  5
874B
  8
1
 10
2413.5795001547231
 20
1581.543666064337
 30
0.0
  0
VERTEX
  5
874C
  8
1
 10
2415.5795001547231
 20
1581.543666064337
 30
0.0
 42
-0.4142135623730951
  0
VERTEX
  5
874D
  8
1
 10
2418.5795001547231
 20
1578.543666064337
 30
0.0
  0
VERTEX
  5
874E
  8
1
 10
2418.5795001547231
 20
1551.043666064337
 30
0.0
 42
0.4142135623730951
  0
VERTEX
  5
874F
  8
1
 10
2423.0795001547231
 20
1546.543666064337
 30
0.0
  0
VERTEX
  5
8750
  8
1
 10
2450.5795001547231
 20
1546.543666064337
 30
0.0
 42
-0.4142135623730951
  0
VERTEX
  5
8751
  8
1
 10
2453.5795001547231
 20
1543.543666064337
 30
0.0
  0
VERTEX
  5
8752
  8
1
 10
2453.5795001547231
 20
1541.543666064337
 30
0.0
  0
SEQEND
  5
8753
  8
1
  0
LINE
  5
7E4E
  8
1
 10
2413.5795001547231
 20
1580.243666064338
 30
0.0
 11
2413.5795001547231
 21
1530.243666064338
 31
0.0
  0
LINE
  5
7E4F
  8
1
 10
2413.5795001547231
 20
1580.2436660643391
 30
0.0
 11
2413.5795001547231
 21
1540.2436660643391
 31
0.0
  0
LINE
  5
7E50
  8
1
 10
2426.579500154724
 20
1541.543666064337
 30
0.0
 11
2478.5795001547231
 21
1541.543666064337
 31
0.0
  0
LINE
  5
7E51
  8
1
 10
2426.579500154724
 20
1535.543666064337
 30
0.0
 11
2478.5795001547231
 21
1535.543666064337
 31
0.0
  0
LINE
  5
7E52
  8
1
 10
2426.579500154724
 20
1535.543666064337
 30
0.0
 11
2426.579500154724
 21
1540.243666064338
 31
0.0
  0
LINE
  5
7E53
  8
1
 10
2426.579500154724
 20
1541.5436660643379
 30
0.0
 11
2426.579500154724
 21
1535.543666064337
 31
0.0
  0
LINE
  5
7E54
  8
1
 10
2451.579500154724
 20
1635.9548357393819
 30
0.0
 11
2478.579500154724
 21
1635.9548357393819
 31
0.0
  0
LINE
  5
7E55
  8
1
 10
2478.5795001547249
 20
1655.8436660643381
 30
0.0
 11
1988.579500154724
 21
1655.8436660643381
 31
0.0
  0
LINE
  5
7E57
  8
1
 10
2451.579500154724
 20
1620.843666064337
 30
0.0
 11
1988.579500154724
 21
1620.8436660643381
 31
0.0
  0
LINE
  5
7E59
  8
1
 10
2423.5795001547231
 20
1584.743666064338
 30
0.0
 11
2423.5795001547222
 21
1581.543666064337
 31
0.0
  0
LINE
  5
7E5C
  8
1
 10
2717.579500154724
 20
1455.843666064337
 30
0.0
 11
2717.579500154724
 21
1635.9548357393819
 31
0.0
  0
LINE
  5
7E5D
  8
1
 10
2718.579500154724
 20
1455.843666064337
 30
0.0
 11
2717.579500154724
 21
1455.843666064337
 31
0.0
  0
LINE
  5
7E5E
  8
1
 10
2478.579500154724
 20
1861.302570292167
 30
0.0
 11
2714.579500154724
 21
1861.302570292167
 31
0.0
  0
LINE
  5
7E61
  8
1
 10
2718.579500154724
 20
1821.8436928285639
 30
0.0
 11
2717.579500154724
 21
1821.8436928285639
 31
0.0
  0
LINE
  5
7E62
  8
1
 10
2720.579500154724
 20
1819.8436928285639
 30
0.0
 11
2720.579500154724
 21
1463.717621262211
 31
0.0
  0
DIMENSION
  5
7E63
  8
3
  2
*D8
 10
2890.212730239879
 20
1480.8436660643381
 30
0.0
 11
2890.2127302398781
 21
1637.0127839511911
 31
0.0
 70
   128
 13
2742.5795001547231
 23
1795.843666064337
 33
0.0
 14
2742.5795001547231
 24
1480.8436660643381
 34
0.0
 50
90.0
1001
ACAD
1000
DSTYLE
1002
{
1070
   287
1070
     3
1070
     3
1000
φ<>
1070
    40
1040
15.0
1070
   143
1040
0.039
1070
   172
1070
     1
1070
   271
1070
     0
1070
   279
1070
     0
1070
   288
1070
     1
1002
}
  0
LINE
  5
7E64
  8
1
 10
2742.5795001547231
 20
1480.8436660643381
 30
0.0
 11
2742.5795001547231
 21
1796.8436928285639
 31
0.0
  0
LINE
  5
7E65
  8
1
 10
2720.579500154724
 20
1473.843666064337
 30
0.0
 11
2720.579500154724
 21
1457.843666064337
 31
0.0
  0
LINE
  5
7E66
  8
1
 10
2740.579500154724
 20
1477.843666064337
 30
0.0
 11
2724.579500154724
 21
1477.843666064337
 31
0.0
  0
ARC
  5
7E67
  8
1
 10
2740.579500154724
 20
1479.843666064337
 30
0.0
 40
2.0
 50
270.0
 51
0.0
  0
LINE
  5
7E68
  8
1
 10
2742.5795001547231
 20
1480.8436660643381
 30
0.0
 11
2742.5795001547231
 21
1479.843666064337
 31
0.0
  0
LINE
  5
7E69
  8
1
 10
2720.579500154724
 20
1803.8436928285639
 30
0.0
 11
2720.579500154724
 21
1819.8436928285639
 31
0.0
  0
ARC
  5
7E6A
  8
1
 10
2740.579500154724
 20
1797.8436928285639
 30
0.0
 40
2.0
 50
0.0
 51
90.0
  0
LINE
  5
7E6B
  8
1
 10
2740.579500154724
 20
1799.8436928285639
 30
0.0
 11
2724.579500154724
 21
1799.8436928285639
 31
0.0
  0
LINE
  5
80BA
  8
4
 10
2775.0
 20
750.0
 30
0.0
 11
2775.0
 21
450.0
 31
0.0
  0
LINE
  5
80BB
  8
4
 10
1725.0
 20
750.0
 30
0.0
 11
1725.0
 21
450.0
 31
0.0
  0
LINE
  5
80BC
  8
4
 10
975.0
 20
750.0
 30
0.0
 11
975.0
 21
450.0
 31
0.0
  0
LINE
  5
80BF
  8
4
 10
975.0
 20
450.0
 30
0.0
 11
2775.0
 21
450.0
 31
0.0
  0
LINE
  5
80C0
  8
4
 10
975.0
 20
600.0
 30
0.0
 11
2775.0
 21
600.0
 31
0.0
  0
TEXT
  5
80C1
  8
4
 10
1032.753121270352
 20
647.31453879991932
 30
0.0
 40
75.0
  1
機器名称
  0
TEXT
  5
80C2
  8
4
 10
1029.3871590371959
 20
482.46773509801642
 30
0.0
 40
75.0
  1
機器型番
  0
TEXT
  5
80C3
  8
4
 10
1725.7019222260069
 20
634.0913930483091
 30
0.0
 40
67.5
  1
ミツヤリミットロードファン
  0
TEXT
  5
80C4
  8
4
 10
1779.9817433782209
 20
475.739376419915
 30
0.0
 40
75.0
  1
LL#2-1
  0
TEXT
  5
80C6
  8
4
 10
1170.658110497603
 20
3575.1432619987731
 30
0.0
 40
80.999999999999986
  1
床置防振ベット
  0
TEXT
  5
80C7
  8
4
 10
474.25138999416959
 20
3800.8214642989469
 30
0.0
 40
108.0
  1
遠心式片吸込片持リミットロードファン
  0
LINE
  5
80C8
  8
4
 10
375.0
 20
3704.1131313972069
 30
0.0
 11
2775.0
 21
3704.1131313972069
 31
0.0
  0
LINE
  5
80C9
  8
4
 10
375.0
 20
4004.1131313972069
 30
0.0
 11
2775.0
 21
4004.1131313972069
 31
0.0
  0
LINE
  5
80CA
  8
4
 10
975.0
 20
750.0
 30
0.0
 11
2775.0
 21
750.0
 31
0.0
  0
LINE
  5
80CB
  8
4
 10
375.0
 20
4004.1131313972069
 30
0.0
 11
375.0
 21
3704.1131313972069
 31
0.0
  0
TEXT
  5
80CC
  8
4
 10
516.86986213354965
 20
3573.4792163195152
 30
0.0
 40
80.999999999999986
  1
右回転左横向
  0
TEXT
  5
80CD
  8
4
 10
2203.4543388739339
 20
4059.0916222429628
 30
0.0
 40
84.000000000000014
  1
No.
  0
TEXT
  5
80CE
  8
4
 10
1966.944093900019
 20
3575.1432619987731
 30
0.0
 40
80.999999999999986
  1
縮尺：1/15
  0
LINE
  5
80CF
  8
4
 10
2775.0
 20
4004.1131313972069
 30
0.0
 11
2775.0
 21
3704.1131313972069
 31
0.0
  0
LINE
  5
80D0
  8
4
 10
3150.0
 20
4425.0
 30
0.0
 11
3150.0
 21
4425.0
 31
0.0
  0
LINE
  5
80D1
  8
4
 10
2160.9261335397969
 20
4021.895374688102
 30
0.0
 11
2160.9261335397969
 21
4179.9783923246277
 31
0.0
  0
LINE
  5
80D2
  8
4
 10
2160.9261335397969
 20
4179.9783923246277
 30
0.0
 11
2775.0
 21
4179.9783923246277
 31
0.0
  0
LINE
  5
80D3
  8
4
 10
2775.0
 20
4179.9783923246277
 30
0.0
 11
2775.0
 21
4021.895374688102
 31
0.0
  0
LINE
  5
80D4
  8
4
 10
2775.0
 20
4021.895374688102
 30
0.0
 11
2160.9261335397969
 21
4021.895374688102
 31
0.0
  0
LINE
  5
80D5
  8
4
 10
0.0
 20
0.0
 30
0.0
 11
0.0
 21
4425.0
 31
0.0
  0
LINE
  5
80D6
  8
4
 10
0.0
 20
4425.0
 30
0.0
 11
3150.0
 21
4425.0
 31
0.0
  0
LINE
  5
80D7
  8
4
 10
3150.0
 20
4425.0
 30
0.0
 11
3150.0
 21
0.0
 31
0.0
  0
LINE
  5
80D8
  8
4
 10
3150.0
 20
0.0
 30
0.0
 11
0.0
 21
0.0
 31
0.0
  0
LINE
  5
83A5
  8
1
 10
1631.3185080268679
 20
1093.343666064337
 30
0.0
 11
831.31850802686768
 21
1093.343666064337
 31
0.0
  0
LINE
  5
83A6
  8
1
 10
1631.318508026869
 20
1018.343666064337
 30
0.0
 11
831.31850802686859
 21
1018.343666064337
 31
0.0
  0
LINE
  5
83A7
  8
1
 10
831.31850802686859
 20
1093.343666064337
 30
0.0
 11
831.31850802686859
 21
1018.343666064337
 31
0.0
  0
LINE
  5
83A8
  8
1
 10
1631.3185080268679
 20
1093.343666064337
 30
0.0
 11
1631.318508026869
 21
1018.343666064337
 31
0.0
  0
LINE
  5
83A9
  8
1
 10
2761.579500154724
 20
1093.3436660643381
 30
0.0
 11
1981.579500154724
 21
1093.3436660643381
 31
0.0
  0
LINE
  5
83AA
  8
1
 10
1981.579500154724
 20
1093.3436660643381
 30
0.0
 11
1981.579500154724
 21
1018.343666064338
 31
0.0
  0
LINE
  5
83AB
  8
1
 10
2761.5795001547231
 20
1018.343666064338
 30
0.0
 11
1981.579500154724
 21
1018.343666064338
 31
0.0
  0
LINE
  5
83AC
  8
1
 10
2761.5795001547231
 20
1093.3436660643381
 30
0.0
 11
2761.5795001547231
 21
1018.343666064338
 31
0.0
  0
DIMENSION
  5
83D7
  8
3
  2
*D9
 10
515.32900860822417
 20
1018.343666064338
 30
0.0
 11
477.82900860822411
 21
906.91509463576665
 31
0.0
 70
     0
 13
831.31850802686859
 23
1093.343666064337
 33
0.0
 14
831.31850802686859
 24
1018.343666064337
 34
0.0
 50
90.0
1001
ACAD
1000
DSTYLE
1002
{
1070
   287
1070
     3
1070
    40
1040
15.0
1070
   143
1040
0.039
1070
   172
1070
     1
1070
   271
1070
     0
1070
   279
1070
     0
1070
   288
1070
     1
1070
     6
1000
DOT
1002
}
  0
DIMENSION
  5
843D
  8
3
  2
*D11
 10
1011.318508026868
 20
922.14836090234701
 30
0.0
 11
926.57875860474087
 21
961.7591917151658
 31
0.0
 12
183.43539499018149
 22
-59.0
 32
0.0
 70
   128
 13
831.31850802686859
 23
1018.343666064337
 33
0.0
 14
1011.318508026868
 24
985.86071356757884
 34
0.0
1001
ACAD
1000
DSTYLE
1002
{
1070
   288
1070
     1
1070
   172
1070
     1
1070
    40
1040
15.0
1070
   271
1070
     0
1070
   143
1040
0.039
1002
}
  0
DIMENSION
  5
8449
  8
3
  2
*D12
 10
1631.318508026869
 20
922.14836090234701
 30
0.0
 11
1321.318508026869
 21
959.64836090234701
 31
0.0
 70
     0
 13
1011.318508026868
 23
985.86071356757884
 33
0.0
 14
1631.318508026869
 24
1018.343666064337
 34
0.0
1001
ACAD
1000
DSTYLE
1002
{
1070
   287
1070
     4
1070
    40
1040
15.0
1070
    75
1070
     1
1070
   143
1040
0.039
1070
   172
1070
     1
1070
   271
1070
     0
1070
   279
1070
     1
1070
   288
1070
     1
1002
}
  0
DIMENSION
  5
8463
  8
3
  2
*D13
 10
2596.579500154724
 20
916.86218164731872
 30
0.0
 11
2320.0417364129889
 21
916.86218164731872
 31
0.0
 70
   128
 13
1981.579500154724
 23
1018.343666064338
 33
0.0
 14
2596.579500154724
 24
983.21513245543474
 34
0.0
1001
ACAD
1000
DSTYLE
1002
{
1070
   287
1070
     3
1070
    40
1040
15.0
1070
   143
1040
0.039
1070
   172
1070
     1
1070
   271
1070
     0
1070
   279
1070
     0
1070
   288
1070
     1
1002
}
  0
DIMENSION
  5
8471
  8
3
  2
*D14
 10
2761.5795001547231
 20
916.86218164731872
 30
0.0
 11
2685.9821908458398
 21
956.47302276289145
 31
0.0
 12
0.0
 22
-59.0
 32
0.0
 70
   128
 13
2596.579500154724
 23
983.21513245543474
 33
0.0
 14
2761.5795001547231
 24
1018.343666064338
 34
0.0
1001
ACAD
1000
DSTYLE
1002
{
1070
   288
1070
     1
1070
   172
1070
     1
1070
    75
1070
     1
1070
    40
1040
15.0
1070
   271
1070
     0
1070
   143
1040
0.039
1002
}
  0
DIMENSION
  5
8512
  8
3
  2
*D15
 10
1908.579500154724
 20
2076.659465553621
 30
0.0
 11
2252.579500154724
 21
2151.6594655536201
 31
0.0
 70
     0
  1
MAX\P760
 13
2596.579500154724
 23
2024.354464283909
 33
0.0
 14
1908.579500154724
 24
1738.3436660643381
 34
0.0
1001
ACAD
1000
DSTYLE
1002
{
1070
   287
1070
     3
1070
    40
1040
15.0
1070
   143
1040
0.039
1070
   172
1070
     1
1070
   271
1070
     0
1070
   279
1070
     0
1070
   288
1070
     1
1002
}
  0
DIMENSION
  5
8529
  8
3
  2
*D16
 10
1191.318508026867
 20
3348.5355993195299
 30
0.0
 11
996.72251825798946
 21
3348.5355993195299
 31
0.0
 70
   128
 13
831.31850802686768
 23
3237.0785510674541
 33
0.0
 14
1191.318508026867
 24
3237.0785510674541
 34
0.0
1001
ACAD
1000
DSTYLE
1002
{
1070
   287
1070
     3
1070
    40
1040
15.0
1070
   143
1040
0.039
1070
   172
1070
     1
1070
   271
1070
     0
1070
   279
1070
     0
1070
   288
1070
     1
1002
}
  0
DIMENSION
  5
8535
  8
3
  2
*D17
 10
1631.318508026869
 20
3348.5355993195299
 30
0.0
 11
1411.3185080268679
 21
3386.0355993195299
 31
0.0
 70
     0
 13
1191.318508026867
 23
3237.0785510674541
 33
0.0
 14
1631.318508026869
 24
2837.0785510674541
 34
0.0
1001
ACAD
1000
DSTYLE
1002
{
1070
   287
1070
     4
1070
    40
1040
15.0
1070
    75
1070
     1
1070
   143
1040
0.039
1070
   172
1070
     1
1070
   271
1070
     0
1070
   279
1070
     1
1070
   288
1070
     1
1002
}
  0
DIMENSION
  5
8542
  8
3
  2
*D18
 10
1764.628899095874
 20
2457.0785510674532
 30
0.0
 11
1764.628899095874
 21
2636.7283979132571
 31
0.0
 70
   128
 13
1631.318508026869
 23
2837.0785510674541
 33
0.0
 14
1630.166454592061
 24
2457.0785510674532
 34
0.0
 50
90.0
1001
ACAD
1000
DSTYLE
1002
{
1070
   287
1070
     3
1070
    40
1040
15.0
1070
   143
1040
0.039
1070
   172
1070
     1
1070
   271
1070
     0
1070
   279
1070
     0
1070
   288
1070
     1
1002
}
  0
DIMENSION
  5
855A
  8
3
  2
*D19
 10
1631.3185080268679
 20
2266.9584364031498
 30
0.0
 11
1231.103570763913
 21
2266.9584364031498
 31
0.0
 70
   128
 13
831.31850802686859
 23
2457.0785510674532
 33
0.0
 14
1631.3185080268679
 24
2476.0785510674541
 34
0.0
1001
ACAD
1000
DSTYLE
1002
{
1070
   287
1070
     3
1070
    40
1040
15.0
1070
   143
1040
0.039
1070
   172
1070
     1
1070
   271
1070
     0
1070
   279
1070
     0
1070
   288
1070
     1
1002
}
  0
DIMENSION
  5
8567
  8
3
  2
*D20
 10
682.15845266177007
 20
2457.0785510674532
 30
0.0
 11
682.15845266176984
 21
2821.613383819687
 31
0.0
 70
   128
 13
831.31850802686768
 23
3237.0785510674541
 33
0.0
 14
831.31850802686859
 24
2457.0785510674532
 34
0.0
 50
90.0
1001
ACAD
1000
DSTYLE
1002
{
1070
   287
1070
     3
1070
    40
1040
15.0
1070
   143
1040
0.039
1070
   172
1070
     1
1070
   271
1070
     0
1070
   279
1070
     0
1070
   288
1070
     1
1002
}
  0
DIMENSION
  5
858C
  8
3
  2
*D21
 10
372.5821281795653
 20
1018.343666064338
 30
0.0
 11
372.58212817956507
 21
1444.779736677677
 31
0.0
 70
   128
 13
1030.0834606115579
 23
1864.302570292167
 33
0.0
 14
831.31850802686859
 24
1018.343666064337
 34
0.0
 50
90.0
1001
ACAD
1000
DSTYLE
1002
{
1070
   287
1070
     3
1070
    40
1040
15.0
1070
   143
1040
0.039
1070
   172
1070
     1
1070
   271
1070
     0
1070
   279
1070
     0
1070
   288
1070
     1
1002
}
  0
DIMENSION
  5
85B7
  8
3
  2
*D22
 10
2717.579500154724
 20
2076.659465553621
 30
0.0
 11
2657.079500154724
 21
2119.9542219179712
 31
0.0
 70
   128
 13
2596.579500154724
 23
2024.354464283909
 33
0.0
 14
2717.579500154724
 24
1821.8436928285639
 34
0.0
1001
ACAD
1000
DSTYLE
1002
{
1070
   288
1070
     1
1070
   172
1070
     1
1070
    75
1070
     1
1070
    40
1040
15.0
1070
   271
1070
     0
1070
   143
1040
0.039
1002
}
  0
DIMENSION
  5
8622
  8
3
  2
*D23
 10
1631.318508026867
 20
2079.9560589936609
 30
0.0
 11
1218.3197847383631
 21
2079.9560589936609
 31
0.0
 70
   128
 13
766.31850802686756
 23
1640.7324963892929
 33
0.0
 14
1631.318508026867
 24
1263.3436660643381
 34
0.0
1001
ACAD
1000
DSTYLE
1002
{
1070
   287
1070
     3
1070
    40
1040
15.0
1070
   143
1040
0.039
1070
   172
1070
     1
1070
   271
1070
     0
1070
   279
1070
     0
1070
   288
1070
     1
1002
}
  0
LINE
  5
8657
  8
1
 10
2000.579500154724
 20
1303.232552050127
 30
0.0
 11
2000.579500154724
 21
1263.3436660643381
 31
0.0
  0
LINE
  5
8673
  8
1
 10
1028.818508026867
 20
2899.0785510674541
 30
0.0
 11
1171.3185080268679
 21
2899.0785510674541
 31
0.0
  0
DIMENSION
  5
86AB
  8
3
  2
*D24
 10
515.32900860822417
 20
1093.343666064337
 30
0.0
 11
443.54329432251001
 21
1140.843666064337
 31
0.0
 12
183.43539499018149
 22
0.0
 32
0.0
 70
     0
  1
(<>)
 13
831.31850802686768
 23
1188.3436660643381
 33
0.0
 14
831.31850802686859
 24
1093.343666064337
 34
0.0
 50
90.0
1001
ACAD
1000
DSTYLE
1002
{
1070
   288
1070
     1
1070
   172
1070
     1
1070
    40
1040
15.0
1070
   271
1070
     0
1070
     7
1000
_NONE
1070
     6
1000
_NONE
1070
   143
1040
0.039
1002
}
  0
ENDSEC
  0
EOF
