  0
SECTION
  2
HEADER
  9
$ACADVER
  1
AC1009
  9
$INSBASE
 10
0.0
 20
0.0
 30
0.0
  9
$EXTMIN
 10
0.0
 20
0.0
 30
0.0
  9
$EXTMAX
 10
3150.0
 20
4425.0
 30
0.0
  9
$LIMMIN
 10
0.0
 20
0.0
  9
$LIMMAX
 10
297.0
 20
210.0
  9
$ORTHOMODE
 70
     0
  9
$REGENMODE
 70
     1
  9
$FILLMODE
 70
     0
  9
$QTEXTMODE
 70
     0
  9
$MIRRTEXT
 70
     1
  9
$DRAGMODE
 70
     2
  9
$LTSCALE
 40
100.0
  9
$OSMODE
 70
    37
  9
$ATTMODE
 70
     1
  9
$TEXTSIZE
 40
180.0
  9
$TRACEWID
 40
0.05
  9
$TEXTSTYLE
  7
STANDARD
  9
$CLAYER
  8
1
  9
$CELTYPE
  6
BYLAYER
  9
$CECOLOR
 62
   256
  9
$DIMSCALE
 40
15.0
  9
$DIMASZ
 40
2.0
  9
$DIMEXO
 40
0.5
  9
$DIMDLI
 40
10.0
  9
$DIMRND
 40
0.0
  9
$DIMDLE
 40
0.0
  9
$DIMEXE
 40
1.0
  9
$DIMTP
 40
1.0
  9
$DIMTM
 40
1.0
  9
$DIMTXT
 40
3.0
  9
$DIMCEN
 40
0.0
  9
$DIMTSZ
 40
0.0
  9
$DIMTOL
 70
     0
  9
$DIMLIM
 70
     0
  9
$DIMTIH
 70
     0
  9
$DIMTOH
 70
     0
  9
$DIMSE1
 70
     0
  9
$DIMSE2
 70
     0
  9
$DIMTAD
 70
     1
  9
$DIMZIN
 70
     8
  9
$DIMBLK
  1

  9
$DIMASO
 70
     1
  9
$DIMSHO
 70
     1
  9
$DIMPOST
  1

  9
$DIMAPOST
  1

  9
$DIMALT
 70
     0
  9
$DIMALTD
 70
     2
  9
$DIMALTF
 40
0.039
  9
$DIMLFAC
 40
1.0
  9
$DIMTOFL
 70
     1
  9
$DIMTVP
 40
0.0
  9
$DIMTIX
 70
     0
  9
$DIMSOXD
 70
     0
  9
$DIMSAH
 70
     1
  9
$DIMBLK1
  1
OPEN
  9
$DIMBLK2
  1
OPEN
  9
$DIMSTYLE
  2
IGA
  9
$DIMCLRD
 70
     0
  9
$DIMCLRE
 70
     0
  9
$DIMCLRT
 70
     0
  9
$DIMTFAC
 40
10.0
  9
$DIMGAP
 40
1.0
  9
$LUNITS
 70
     2
  9
$LUPREC
 70
     3
  9
$SKETCHINC
 40
0.1
  9
$FILLETRAD
 40
50.0
  9
$AUNITS
 70
     0
  9
$AUPREC
 70
     0
  9
$MENU
  1
acad
  9
$ELEVATION
 40
0.0
  9
$PELEVATION
 40
0.0
  9
$THICKNESS
 40
0.0
  9
$LIMCHECK
 70
     0
  9
$BLIPMODE
 70
     0
  9
$CHAMFERA
 40
0.5
  9
$CHAMFERB
 40
0.5
  9
$SKPOLY
 70
     0
  9
$TDCREATE
 40
2451019.5994862262
  9
$TDUPDATE
 40
2454953.63844111
  9
$TDINDWG
 40
0.0664010648
  9
$TDUSRTIMER
 40
0.0664010648
  9
$USRTIMER
 70
     1
  9
$ANGBASE
 50
0.0
  9
$ANGDIR
 70
     0
  9
$PDMODE
 70
     0
  9
$PDSIZE
 40
0.0
  9
$PLINEWID
 40
0.0
  9
$COORDS
 70
     1
  9
$SPLFRAME
 70
     0
  9
$SPLINETYPE
 70
     6
  9
$SPLINESEGS
 70
     8
  9
$ATTDIA
 70
     0
  9
$ATTREQ
 70
     1
  9
$HANDLING
 70
 10241
  9
$HANDSEED
  5
8543
  9
$SURFTAB1
 70
     6
  9
$SURFTAB2
 70
     6
  9
$SURFTYPE
 70
     6
  9
$SURFU
 70
     6
  9
$SURFV
 70
     6
  9
$UCSNAME
  2

  9
$UCSORG
 10
0.0
 20
0.0
 30
0.0
  9
$UCSXDIR
 10
1.0
 20
0.0
 30
0.0
  9
$UCSYDIR
 10
0.0
 20
1.0
 30
0.0
  9
$PUCSNAME
  2

  9
$PUCSORG
 10
0.0
 20
0.0
 30
0.0
  9
$PUCSXDIR
 10
1.0
 20
0.0
 30
0.0
  9
$PUCSYDIR
 10
0.0
 20
1.0
 30
0.0
  9
$USERI1
 70
     0
  9
$USERI2
 70
     0
  9
$USERI3
 70
     0
  9
$USERI4
 70
     0
  9
$USERI5
 70
     0
  9
$USERR1
 40
0.0
  9
$USERR2
 40
0.0
  9
$USERR3
 40
0.0
  9
$USERR4
 40
0.0
  9
$USERR5
 40
0.0
  9
$WORLDVIEW
 70
     1
  9
$SHADEDGE
 70
     3
  9
$SHADEDIF
 70
    70
  9
$TILEMODE
 70
     1
  9
$MAXACTVP
 70
    16
  9
$PLIMCHECK
 70
     0
  9
$PEXTMIN
 10
1.0000000000000000E+020
 20
1.0000000000000000E+020
 30
1.0000000000000000E+020
  9
$PEXTMAX
 10
-1.0000000000000000E+020
 20
-1.0000000000000000E+020
 30
-1.0000000000000000E+020
  9
$PLIMMIN
 10
0.0
 20
0.0
  9
$PLIMMAX
 10
12.0
 20
9.0
  9
$UNITMODE
 70
     0
  9
$VISRETAIN
 70
     0
  9
$PLINEGEN
 70
     0
  9
$PSLTSCALE
 70
     1
  0
ENDSEC
  0
SECTION
  2
TABLES
  0
TABLE
  2
VPORT
 70
     2
  0
VPORT
  2
*ACTIVE
 70
     0
 10
0.0
 20
0.0
 11
1.0
 21
1.0
 12
2984.5104908218768
 22
507.33087947034068
 13
0.0
 23
0.0
 14
10.0
 24
10.0
 15
10.0
 25
10.0
 16
0.0
 26
0.0
 36
1.0
 17
0.0
 27
0.0
 37
0.0
 40
1304.7730137599051
 41
3.1666666666666661
 42
50.0
 43
0.0
 44
0.0
 50
0.0
 51
0.0
 71
     0
 72
   100
 73
     1
 74
     0
 75
     0
 76
     0
 77
     0
 78
     0
  0
ENDTAB
  0
TABLE
  2
LTYPE
 70
     2
  0
LTYPE
  2
CONTINUOUS
 70
     0
  3
Solid line
 72
    65
 73
     0
 40
0.0
  0
LTYPE
  2
CENTER
 70
     0
  3
____ _ ____ _ ____ _ ____ _ ____ _ ____ _ ____ 
 72
    65
 73
     4
 40
2.0
 49
1.25
 49
-0.25
 49
0.25
 49
-0.25
  0
ENDTAB
  0
TABLE
  2
LAYER
 70
     6
  0
LAYER
  2
0
 70
     0
 62
     7
  6
CONTINUOUS
  0
LAYER
  2
3
 70
     0
 62
     2
  6
CONTINUOUS
  0
LAYER
  2
2
 70
     0
 62
     3
  6
CENTER
  0
LAYER
  2
1
 70
     0
 62
     4
  6
CONTINUOUS
  0
LAYER
  2
4
 70
     0
 62
     7
  6
CONTINUOUS
  0
LAYER
  2
DEFPOINTS
 70
     0
 62
     7
  6
CONTINUOUS
  0
ENDTAB
  0
TABLE
  2
STYLE
 70
     1
  0
STYLE
  2
STANDARD
 70
     0
 40
0.0
 41
1.0
 50
0.0
 71
     0
 42
180.0
  3
simplex.shx
  4
extfont.shx
  0
ENDTAB
  0
TABLE
  2
VIEW
 70
     0
  0
ENDTAB
  0
TABLE
  2
UCS
 70
     0
  0
ENDTAB
  0
TABLE
  2
APPID
 70
     1
  0
APPID
  2
ACAD
 70
     0
  0
ENDTAB
  0
TABLE
  2
DIMSTYLE
 70
     1
  0
DIMSTYLE
  2
IGA
 70
     0
  3

  4

  5

  6
OPEN
  7
OPEN
 40
2.0
 41
2.0
 42
0.5
 43
10.0
 44
1.0
 45
0.0
 46
0.0
 47
1.0
 48
1.0
140
3.0
141
0.0
142
0.0
143
0.03937
144
1.0
145
0.0
146
10.0
147
1.0
 71
     0
 72
     0
 73
     0
 74
     0
 75
     0
 76
     0
 77
     1
 78
     8
170
     0
171
     2
172
     0
173
     1
174
     0
175
     0
176
     0
177
     0
178
     0
  0
ENDTAB
  0
ENDSEC
  0
SECTION
  2
BLOCKS
  0
BLOCK
  8
0
  2
$MODEL_SPACE
 70
     0
 10
0.0
 20
0.0
 30
0.0
  3
$MODEL_SPACE
  1

  0
ENDBLK
  5
1B
  8
0
  0
BLOCK
 67
     1
  8
0
  2
$PAPER_SPACE
 70
     0
 10
0.0
 20
0.0
 30
0.0
  3
$PAPER_SPACE
  1

  0
ENDBLK
  5
18
 67
     1
  8
0
  0
BLOCK
  8
0
  2
_OPEN
 70
     0
 10
0.0
 20
0.0
 30
0.0
  3
_OPEN
  1

  0
LINE
  5
7A12
  8
0
  6
BYBLOCK
 62
     0
 10
-1.0
 20
0.1666666666666666
 30
0.0
 11
0.0
 21
0.0
 31
0.0
  0
LINE
  5
7A13
  8
0
  6
BYBLOCK
 62
     0
 10
0.0
 20
0.0
 30
0.0
 11
-1.0
 21
-0.1666666666666666
 31
0.0
  0
LINE
  5
7A14
  8
0
  6
BYBLOCK
 62
     0
 10
0.0
 20
0.0
 30
0.0
 11
-1.0
 21
0.0
 31
0.0
  0
ENDBLK
  5
7A16
  8
0
  0
BLOCK
  8
0
  2
*D1
 70
     1
 10
0.0
 20
0.0
 30
0.0
  3
*D1
  1

  0
LINE
  5
8468
  8
3
 62
     0
 10
1929.547384631858
 20
1755.3436183406641
 30
0.0
 11
1929.547384631858
 21
2054.8433527693751
 31
0.0
  0
LINE
  5
8469
  8
3
 62
     0
 10
2617.5473846318582
 20
2008.1693062534259
 30
0.0
 11
2617.5473846318582
 21
2054.8433527693751
 31
0.0
  0
LINE
  5
846A
  8
3
 62
     0
 10
1959.547384631858
 20
2039.8433527693751
 30
0.0
 11
2587.5473846318582
 21
2039.8433527693751
 31
0.0
  0
INSERT
  5
846B
  8
3
 62
     0
  2
_OPEN
 10
1929.547384631858
 20
2039.8433527693751
 30
0.0
 41
30.0
 42
30.0
 43
30.0
 50
180.0
  0
INSERT
  5
846C
  8
3
 62
     0
  2
_OPEN
 10
2617.5473846318582
 20
2039.8433527693751
 30
0.0
 41
30.0
 42
30.0
 43
30.0
  0
TEXT
  8
3
  40
45
  5
852F
  62
0
  72
0
  71
0
 10
2183.55
 20
2035.19
 30
0.000000
  1
MAX
  0
TEXT
  8
3
  40
45
  5
8530
  62
0
  72
0
  71
0
 10
2183.55
 20
1976.69
 30
0.000000
  1
760
  0
POINT
  5
846E
  8
DEFPOINTS
 62
     0
 10
1929.547384631858
 20
1747.8436183406641
 30
0.0
  0
POINT
  5
846F
  8
DEFPOINTS
 62
     0
 10
2617.5473846318582
 20
2000.669306253425
 30
0.0
  0
POINT
  5
8470
  8
DEFPOINTS
 62
     0
 10
2617.5473846318582
 20
2039.8433527693751
 30
0.0
  0
ENDBLK
  5
83A0
  8
0
  0
BLOCK
  8
0
  2
*D2
 70
     1
 10
0.0
 20
0.0
 30
0.0
  3
*D2
  1

  0
LINE
  5
8471
  8
3
 62
     0
 10
2002.547384631858
 20
1020.343618340664
 30
0.0
 11
2002.547384631858
 21
898.75105780189551
 31
0.0
  0
LINE
  5
8472
  8
3
 62
     0
 10
2617.5473846318582
 20
985.21508473176164
 30
0.0
 11
2617.5473846318582
 21
898.75105780189551
 31
0.0
  0
LINE
  5
8473
  8
3
 62
     0
 10
2032.547384631858
 20
913.75105780189563
 30
0.0
 11
2587.5473846318582
 21
913.75105780189563
 31
0.0
  0
INSERT
  5
8474
  8
3
 62
     0
  2
_OPEN
 10
2002.547384631858
 20
913.75105780189563
 30
0.0
 41
30.0
 42
30.0
 43
30.0
 50
180.0
  0
INSERT
  5
8475
  8
3
 62
     0
  2
_OPEN
 10
2617.5473846318582
 20
913.75105780189563
 30
0.0
 41
30.0
 42
30.0
 43
30.0
  0
TEXT
  8
3
  40
45
  5
8531
  62
0
  72
0
  71
0
 10
2220.05
 20
871.601
 30
0.000000
  1
615
  0
POINT
  5
8477
  8
DEFPOINTS
 62
     0
 10
2002.547384631858
 20
1027.8436183406641
 30
0.0
  0
POINT
  5
8478
  8
DEFPOINTS
 62
     0
 10
2617.5473846318582
 20
992.71508473176164
 30
0.0
  0
POINT
  5
8479
  8
DEFPOINTS
 62
     0
 10
2617.5473846318582
 20
913.75105780189563
 30
0.0
  0
ENDBLK
  5
82BB
  8
0
  0
BLOCK
  8
0
  2
*D3
 70
     1
 10
0.0
 20
0.0
 30
0.0
  3
*D3
  1

  0
LINE
  5
847A
  8
3
 62
     0
 10
1334.3807932239349
 20
2546.356611071918
 30
0.0
 11
1334.3807932239349
 21
2370.545470264713
 31
0.0
  0
LINE
  5
847B
  8
3
 62
     0
 10
534.38079322393514
 20
2565.3566110719189
 30
0.0
 11
534.38079322393514
 21
2370.545470264713
 31
0.0
  0
LINE
  5
847C
  8
3
 62
     0
 10
1304.3807932239349
 20
2385.5454702647139
 30
0.0
 11
564.38079322393514
 21
2385.5454702647139
 31
0.0
  0
INSERT
  5
847D
  8
3
 62
     0
  2
_OPEN
 10
1334.3807932239349
 20
2385.5454702647139
 30
0.0
 41
30.0
 42
30.0
 43
30.0
  0
INSERT
  5
847E
  8
3
 62
     0
  2
_OPEN
 10
534.38079322393514
 20
2385.5454702647139
 30
0.0
 41
30.0
 42
30.0
 43
30.0
 50
180.0
  0
TEXT
  8
3
  40
45
  5
8532
  62
0
  72
0
  71
0
 10
844.381
 20
2343.40
 30
0.000000
  1
800
  0
POINT
  5
8480
  8
DEFPOINTS
 62
     0
 10
1334.3807932239349
 20
2553.856611071918
 30
0.0
  0
POINT
  5
8481
  8
DEFPOINTS
 62
     0
 10
534.38079322393514
 20
2572.8566110719189
 30
0.0
  0
POINT
  5
8482
  8
DEFPOINTS
 62
     0
 10
534.38079322393514
 20
2385.5454702647139
 30
0.0
  0
ENDBLK
  5
82B0
  8
0
  0
BLOCK
  8
0
  2
*D4
 70
     1
 10
0.0
 20
0.0
 30
0.0
  3
*D4
  1

  0
LINE
  5
8483
  8
3
 62
     0
 10
1418.3409195744209
 20
1647.8436183406641
 30
0.0
 11
1665.370292642579
 21
1647.8436183406641
 31
0.0
  0
LINE
  5
8484
  8
3
 62
     0
 10
1143.1158406392451
 20
1873.8025225684939
 30
0.0
 11
1665.370292642579
 21
1873.8025225684939
 31
0.0
  0
LINE
  5
8485
  8
3
 62
     0
 10
1650.370292642579
 20
1677.8436183406641
 30
0.0
 11
1650.370292642579
 21
1843.8025225684939
 31
0.0
  0
INSERT
  5
8486
  8
3
 62
     0
  2
_OPEN
 10
1650.370292642579
 20
1647.8436183406641
 30
0.0
 41
30.0
 42
30.0
 43
30.0
 50
270.0
  0
INSERT
  5
8487
  8
3
 62
     0
  2
_OPEN
 10
1650.370292642579
 20
1873.8025225684939
 30
0.0
 41
30.0
 42
30.0
 43
30.0
 50
90.0
  0
TEXT
  8
3
  40
45
  5
8533
  62
0
  72
0
  71
0
 10
1522.87
 20
1681.17
 30
0.000000
  1
226
  0
POINT
  5
8489
  8
DEFPOINTS
 62
     0
 10
1410.8409195744209
 20
1647.8436183406641
 30
0.0
  0
POINT
  5
848A
  8
DEFPOINTS
 62
     0
 10
1135.6158406392451
 20
1873.8025225684939
 30
0.0
  0
POINT
  5
848B
  8
DEFPOINTS
 62
     0
 10
1650.370292642579
 20
1873.8025225684939
 30
0.0
  0
ENDBLK
  5
83D0
  8
0
  0
BLOCK
  8
0
  2
*D5
 70
     1
 10
0.0
 20
0.0
 30
0.0
  3
*D5
  1

  0
LINE
  5
848C
  8
3
 62
     0
 10
1399.3807932239361
 20
1657.73244866562
 30
0.0
 11
1399.3807932239361
 21
2004.5577929790161
 31
0.0
  0
LINE
  5
848D
  8
3
 62
     0
 10
1154.3807932239361
 20
1915.946899021535
 30
0.0
 11
1154.3807932239361
 21
2004.5577929790161
 31
0.0
  0
LINE
  5
848E
  8
3
 62
     0
 10
1369.3807932239361
 20
1989.5577929790161
 30
0.0
 11
1184.3807932239361
 21
1989.5577929790161
 31
0.0
  0
INSERT
  5
848F
  8
3
 62
     0
  2
_OPEN
 10
1399.3807932239361
 20
1989.5577929790161
 30
0.0
 41
30.0
 42
30.0
 43
30.0
  0
INSERT
  5
8490
  8
3
 62
     0
  2
_OPEN
 10
1154.3807932239361
 20
1989.5577929790161
 30
0.0
 41
30.0
 42
30.0
 43
30.0
 50
180.0
  0
TEXT
  8
3
  40
45
  5
8534
  62
0
  72
0
  71
0
 10
1186.88
 20
1947.41
 30
0.000000
  1
245
  0
POINT
  5
8492
  8
DEFPOINTS
 62
     0
 10
1399.3807932239361
 20
1650.23244866562
 30
0.0
  0
POINT
  5
8493
  8
DEFPOINTS
 62
     0
 10
1154.3807932239361
 20
1908.446899021535
 30
0.0
  0
POINT
  5
8494
  8
DEFPOINTS
 62
     0
 10
1154.3807932239361
 20
1989.5577929790161
 30
0.0
  0
ENDBLK
  5
829A
  8
0
  0
BLOCK
  8
0
  2
*D6
 70
     1
 10
0.0
 20
0.0
 30
0.0
  3
*D6
  1

  0
LINE
  5
8319
  8
0
  6
BYBLOCK
 62
     0
 10
1089.800244404071
 20
1079.3436183406641
 30
0.0
 11
1089.800244404071
 21
956.9019110859025
 31
0.0
  0
LINE
  5
831A
  8
0
  6
BYBLOCK
 62
     0
 10
909.80024440407215
 20
1046.8606658439051
 30
0.0
 11
909.80024440407215
 21
956.9019110859025
 31
0.0
  0
LINE
  5
831B
  8
0
  6
BYBLOCK
 62
     0
 10
1059.800244404071
 20
971.90191108590261
 30
0.0
 11
939.80024440407215
 21
971.90191108590261
 31
0.0
  0
TEXT
  5
831C
  8
1
 62
     0
 10
946.22881583264314
 20
994.67727375069796
 30
0.0
 40
45.0
  1
180
  0
INSERT
  5
831D
  8
0
  6
BYBLOCK
 62
     0
  2
_OPEN
 10
1089.800244404071
 20
971.90191108590261
 30
0.0
 41
30.0
 42
30.0
 43
30.0
  0
INSERT
  5
831E
  8
0
  6
BYBLOCK
 62
     0
  2
_OPEN
 10
909.80024440407215
 20
971.90191108590261
 30
0.0
 41
30.0
 42
30.0
 43
30.0
 50
180.0
  0
POINT
  5
831F
  8
DEFPOINTS
  6
BYBLOCK
 62
     0
 10
1089.800244404071
 20
1086.8436183406641
 30
0.0
  0
POINT
  5
8320
  8
DEFPOINTS
  6
BYBLOCK
 62
     0
 10
909.80024440407215
 20
1054.3606658439051
 30
0.0
  0
POINT
  5
8321
  8
DEFPOINTS
  6
BYBLOCK
 62
     0
 10
909.80024440407215
 20
971.90191108590261
 30
0.0
  0
ENDBLK
  5
8322
  8
0
  0
BLOCK
  8
0
  2
*D7
 70
     1
 10
0.0
 20
0.0
 30
0.0
  3
*D7
  1

  0
LINE
  5
8495
  8
3
 62
     0
 10
1341.8807932239349
 20
1027.8436183406641
 30
0.0
 11
1791.2942196306101
 21
1027.8436183406641
 31
0.0
  0
LINE
  5
8496
  8
3
 62
     0
 10
1143.1158406392451
 20
1873.8025225684939
 30
0.0
 11
1791.2942196306101
 21
1873.8025225684939
 31
0.0
  0
LINE
  5
8497
  8
3
 62
     0
 10
1776.2942196306101
 20
1057.8436183406641
 30
0.0
 11
1776.2942196306101
 21
1843.8025225684939
 31
0.0
  0
INSERT
  5
8498
  8
3
 62
     0
  2
_OPEN
 10
1776.2942196306101
 20
1027.8436183406641
 30
0.0
 41
30.0
 42
30.0
 43
30.0
 50
270.0
  0
INSERT
  5
8499
  8
3
 62
     0
  2
_OPEN
 10
1776.2942196306101
 20
1873.8025225684939
 30
0.0
 41
30.0
 42
30.0
 43
30.0
 50
90.0
  0
TEXT
  8
3
  40
45
  5
8535
  62
0
  72
0
  71
0
 10
1648.79
 20
1371.17
 30
0.000000
  1
846
  0
POINT
  5
849B
  8
DEFPOINTS
 62
     0
 10
1334.3807932239349
 20
1027.8436183406641
 30
0.0
  0
POINT
  5
849C
  8
DEFPOINTS
 62
     0
 10
1135.6158406392451
 20
1873.8025225684939
 30
0.0
  0
POINT
  5
849D
  8
DEFPOINTS
 62
     0
 10
1776.2942196306101
 20
1873.8025225684939
 30
0.0
  0
ENDBLK
  5
83FC
  8
0
  0
BLOCK
  8
0
  2
*D8
 70
     1
 10
0.0
 20
0.0
 30
0.0
  3
*D8
  1

  0
LINE
  5
84A8
  8
3
 62
     0
 10
1154.3807932239361
 20
987.86066584390574
 30
0.0
 11
1154.3807932239361
 21
897.90191108590261
 31
0.0
  0
LINE
  5
84A9
  8
3
 62
     0
 10
534.38079322393514
 20
1020.343618340664
 30
0.0
 11
534.38079322393514
 21
897.90191108590261
 31
0.0
  0
LINE
  5
84AA
  8
3
 62
     0
 10
1124.3807932239361
 20
912.90191108590261
 30
0.0
 11
564.38079322393514
 21
912.90191108590261
 31
0.0
  0
INSERT
  5
84AB
  8
3
 62
     0
  2
_OPEN
 10
1154.3807932239361
 20
912.90191108590261
 30
0.0
 41
30.0
 42
30.0
 43
30.0
  0
INSERT
  5
84AC
  8
3
 62
     0
  2
_OPEN
 10
534.38079322393514
 20
912.90191108590261
 30
0.0
 41
30.0
 42
30.0
 43
30.0
 50
180.0
  0
TEXT
  8
3
  40
45
  5
8536
  62
0
  72
0
  71
0
 10
754.381
 20
870.752
 30
0.000000
  1
620
  0
POINT
  5
84AE
  8
DEFPOINTS
 62
     0
 10
1154.3807932239361
 20
995.36066584390562
 30
0.0
  0
POINT
  5
84AF
  8
DEFPOINTS
 62
     0
 10
534.38079322393514
 20
1027.8436183406641
 30
0.0
  0
POINT
  5
84B0
  8
DEFPOINTS
 62
     0
 10
534.38079322393514
 20
912.90191108590261
 30
0.0
  0
ENDBLK
  5
826C
  8
0
  0
BLOCK
  8
0
  2
*D9
 70
     1
 10
0.0
 20
0.0
 30
0.0
  3
*D9
  1

  0
LINE
  5
84B1
  8
3
 62
     0
 10
1154.3807932239361
 20
1915.946899021535
 30
0.0
 11
1154.3807932239361
 21
2004.5577929790161
 31
0.0
  0
LINE
  5
84B2
  8
3
 62
     0
 10
880.81591234325379
 20
1631.3436183406641
 30
0.0
 11
880.81591234325379
 21
2004.5577929790161
 31
0.0
  0
LINE
  5
84B3
  8
3
 62
     0
 10
1124.3807932239361
 20
1989.5577929790161
 30
0.0
 11
910.81591234325367
 21
1989.5577929790161
 31
0.0
  0
INSERT
  5
84B4
  8
3
 62
     0
  2
_OPEN
 10
1154.3807932239361
 20
1989.5577929790161
 30
0.0
 41
30.0
 42
30.0
 43
30.0
  0
INSERT
  5
84B5
  8
3
 62
     0
  2
_OPEN
 10
880.81591234325379
 20
1989.5577929790161
 30
0.0
 41
30.0
 42
30.0
 43
30.0
 50
180.0
  0
TEXT
  8
3
  40
45
  5
8537
  62
0
  72
0
  71
0
 10
927.598
 20
1947.41
 30
0.000000
  1
274
  0
POINT
  5
84B7
  8
DEFPOINTS
 62
     0
 10
1154.3807932239361
 20
1908.446899021535
 30
0.0
  0
POINT
  5
84B8
  8
DEFPOINTS
 62
     0
 10
880.81591234325379
 20
1623.8436183406641
 30
0.0
  0
POINT
  5
84B9
  8
DEFPOINTS
 62
     0
 10
880.81591234325379
 20
1989.5577929790161
 30
0.0
  0
ENDBLK
  5
8261
  8
0
  0
BLOCK
  8
0
  2
*D10
 70
     1
 10
0.0
 20
0.0
 30
0.0
  3
*D10
  1

  0
LINE
  5
84BA
  8
3
 62
     0
 10
1406.8807932239361
 20
1296.8436183406641
 30
0.0
 11
1499.2210050663091
 21
1296.8436183406641
 31
0.0
  0
LINE
  5
84BB
  8
3
 62
     0
 10
1406.8807932239361
 20
1621.843618340665
 30
0.0
 11
1499.2210050663091
 21
1621.843618340665
 31
0.0
  0
LINE
  5
84BC
  8
3
 62
     0
 10
1484.2210050663091
 20
1326.8436183406641
 30
0.0
 11
1484.2210050663091
 21
1591.8436183406641
 31
0.0
  0
INSERT
  5
84BD
  8
3
 62
     0
  2
_OPEN
 10
1484.2210050663091
 20
1296.8436183406641
 30
0.0
 41
30.0
 42
30.0
 43
30.0
 50
270.0
  0
INSERT
  5
84BE
  8
3
 62
     0
  2
_OPEN
 10
1484.2210050663091
 20
1621.843618340665
 30
0.0
 41
30.0
 42
30.0
 43
30.0
 50
90.0
  0
TEXT
  8
3
  40
45
  5
8538
  62
0
  72
0
  71
0
 10
1356.72
 20
1379.69
 30
0.000000
  1
325
  0
POINT
  5
84C0
  8
DEFPOINTS
 62
     0
 10
1399.3807932239361
 20
1296.8436183406641
 30
0.0
  0
POINT
  5
84C1
  8
DEFPOINTS
 62
     0
 10
1399.3807932239361
 20
1621.843618340665
 30
0.0
  0
POINT
  5
84C2
  8
DEFPOINTS
 62
     0
 10
1484.2210050663091
 20
1621.843618340665
 30
0.0
  0
ENDBLK
  5
8256
  8
0
  0
BLOCK
  8
0
  2
*D11
 70
     1
 10
0.0
 20
0.0
 30
0.0
  3
*D11
  1

  0
LINE
  5
84C3
  8
3
 62
     0
 10
1406.8807932239361
 20
1296.8436183406641
 30
0.0
 11
1574.889490878769
 21
1296.8436183406641
 31
0.0
  0
LINE
  5
84C4
  8
3
 62
     0
 10
1418.3409195744209
 20
1647.8436183406641
 30
0.0
 11
1574.889490878769
 21
1647.8436183406641
 31
0.0
  0
LINE
  5
84C5
  8
3
 62
     0
 10
1559.889490878769
 20
1326.8436183406641
 30
0.0
 11
1559.889490878769
 21
1617.8436183406641
 31
0.0
  0
INSERT
  5
84C6
  8
3
 62
     0
  2
_OPEN
 10
1559.889490878769
 20
1296.8436183406641
 30
0.0
 41
30.0
 42
30.0
 43
30.0
 50
270.0
  0
INSERT
  5
84C7
  8
3
 62
     0
  2
_OPEN
 10
1559.889490878769
 20
1647.8436183406641
 30
0.0
 41
30.0
 42
30.0
 43
30.0
 50
90.0
  0
TEXT
  8
3
  40
45
  5
8539
  62
0
  72
0
  71
0
 10
1432.39
 20
1392.69
 30
0.000000
  1
351
  0
POINT
  5
84C9
  8
DEFPOINTS
 62
     0
 10
1399.3807932239361
 20
1296.8436183406641
 30
0.0
  0
POINT
  5
84CA
  8
DEFPOINTS
 62
     0
 10
1410.8409195744209
 20
1647.8436183406641
 30
0.0
  0
POINT
  5
84CB
  8
DEFPOINTS
 62
     0
 10
1559.889490878769
 20
1647.8436183406641
 30
0.0
  0
ENDBLK
  5
824B
  8
0
  0
BLOCK
  8
0
  2
*D12
 70
     1
 10
0.0
 20
0.0
 30
0.0
  3
*D12
  1

  0
LINE
  5
84CC
  8
3
 62
     0
 10
1418.3409195744209
 20
1647.8436183406641
 30
0.0
 11
1665.370292642579
 21
1647.8436183406641
 31
0.0
  0
LINE
  5
84CD
  8
3
 62
     0
 10
1341.8807932239361
 20
1197.8436183406641
 30
0.0
 11
1665.370292642579
 21
1197.8436183406641
 31
0.0
  0
LINE
  5
84CE
  8
3
 62
     0
 10
1650.370292642579
 20
1617.8436183406641
 30
0.0
 11
1650.370292642579
 21
1227.8436183406641
 31
0.0
  0
INSERT
  5
84CF
  8
3
 62
     0
  2
_OPEN
 10
1650.370292642579
 20
1647.8436183406641
 30
0.0
 41
30.0
 42
30.0
 43
30.0
 50
90.0
  0
INSERT
  5
84D0
  8
3
 62
     0
  2
_OPEN
 10
1650.370292642579
 20
1197.8436183406641
 30
0.0
 41
30.0
 42
30.0
 43
30.0
 50
270.0
  0
TEXT
  8
3
  40
45
  5
853A
  62
0
  72
0
  71
0
 10
1522.87
 20
1343.19
 30
0.000000
  1
450
  0
POINT
  5
84D2
  8
DEFPOINTS
 62
     0
 10
1410.8409195744209
 20
1647.8436183406641
 30
0.0
  0
POINT
  5
84D3
  8
DEFPOINTS
 62
     0
 10
1334.3807932239361
 20
1197.8436183406641
 30
0.0
  0
POINT
  5
84D4
  8
DEFPOINTS
 62
     0
 10
1650.370292642579
 20
1197.8436183406641
 30
0.0
  0
ENDBLK
  5
8240
  8
0
  0
BLOCK
  8
0
  2
*D13
 70
     1
 10
0.0
 20
0.0
 30
0.0
  3
*D13
  1

  0
LINE
  5
84D5
  8
3
 62
     0
 10
1341.8807932239349
 20
1102.8436183406641
 30
0.0
 11
1665.370292642579
 21
1102.8436183406641
 31
0.0
  0
LINE
  5
84D6
  8
3
 62
     0
 10
1341.8807932239349
 20
1027.8436183406641
 30
0.0
 11
1665.370292642579
 21
1027.8436183406641
 31
0.0
  0
LINE
  5
84D7
  8
3
 62
     0
 10
1650.370292642579
 20
1132.8436183406641
 30
0.0
 11
1650.370292642579
 21
1162.8436183406641
 31
0.0
  0
LINE
  5
84D8
  8
3
 62
     0
 10
1650.370292642579
 20
997.84361834066442
 30
0.0
 11
1650.370292642579
 21
864.98647548352153
 31
0.0
  0
LINE
  5
84D9
  8
3
 62
     0
 10
1650.370292642579
 20
1102.8436183406641
 30
0.0
 11
1650.370292642579
 21
1027.8436183406641
 31
0.0
  0
INSERT
  5
84DA
  8
3
 62
     0
  2
_DOT
 10
1650.370292642579
 20
1102.8436183406641
 30
0.0
 41
30.0
 42
30.0
 43
30.0
 50
270.0
  0
INSERT
  5
84DB
  8
3
 62
     0
  2
_OPEN
 10
1650.370292642579
 20
1027.8436183406641
 30
0.0
 41
30.0
 42
30.0
 43
30.0
 50
90.0
  0
TEXT
  8
3
  40
45
  5
853B
  62
0
  72
0
  71
0
 10
1522.87
 20
836.765
 30
0.000000
  1
75
  0
POINT
  5
84DD
  8
DEFPOINTS
 62
     0
 10
1334.3807932239349
 20
1102.8436183406641
 30
0.0
  0
POINT
  5
84DE
  8
DEFPOINTS
 62
     0
 10
1334.3807932239349
 20
1027.8436183406641
 30
0.0
  0
POINT
  5
84DF
  8
DEFPOINTS
 62
     0
 10
1650.370292642579
 20
1027.8436183406641
 30
0.0
  0
ENDBLK
  5
83F1
  8
0
  0
BLOCK
  8
0
  2
*D14
 70
     1
 10
0.0
 20
0.0
 30
0.0
  3
*D14
  1

  0
LINE
  5
84E3
  8
3
 62
     0
 10
1334.3807932239361
 20
3341.3566110719189
 30
0.0
 11
1334.3807932239361
 21
3444.6460897852021
 31
0.0
  0
LINE
  5
84E4
  8
3
 62
     0
 10
974.38079322393605
 20
3341.3566110719189
 30
0.0
 11
974.38079322393605
 21
3444.6460897852021
 31
0.0
  0
LINE
  5
84E5
  8
3
 62
     0
 10
1304.3807932239361
 20
3429.6460897852021
 30
0.0
 11
1004.3807932239361
 21
3429.6460897852021
 31
0.0
  0
INSERT
  5
84E6
  8
3
 62
     0
  2
_OPEN
 10
1334.3807932239361
 20
3429.6460897852021
 30
0.0
 41
30.0
 42
30.0
 43
30.0
  0
INSERT
  5
84E7
  8
3
 62
     0
  2
_OPEN
 10
974.38079322393605
 20
3429.6460897852021
 30
0.0
 41
30.0
 42
30.0
 43
30.0
 50
180.0
  0
TEXT
  8
3
  40
45
  5
853C
  62
0
  72
0
  71
0
 10
1064.38
 20
3387.50
 30
0.000000
  1
360
  0
POINT
  5
84E9
  8
DEFPOINTS
 62
     0
 10
1334.3807932239361
 20
3333.8566110719189
 30
0.0
  0
POINT
  5
84EA
  8
DEFPOINTS
 62
     0
 10
974.38079322393605
 20
3333.8566110719189
 30
0.0
  0
POINT
  5
84EB
  8
DEFPOINTS
 62
     0
 10
974.38079322393605
 20
3429.6460897852021
 30
0.0
  0
ENDBLK
  5
821B
  8
0
  0
BLOCK
  8
0
  2
*D15
 70
     1
 10
0.0
 20
0.0
 30
0.0
  3
*D15
  1

  0
LINE
  5
84EC
  8
3
 62
     0
 10
974.38079322393605
 20
3341.3566110719189
 30
0.0
 11
974.38079322393605
 21
3444.6460897852021
 31
0.0
  0
LINE
  5
84ED
  8
3
 62
     0
 10
534.38079322393423
 20
2941.3566110719189
 30
0.0
 11
534.38079322393423
 21
3444.6460897852021
 31
0.0
  0
LINE
  5
84EE
  8
3
 62
     0
 10
944.38079322393605
 20
3429.6460897852021
 30
0.0
 11
564.38079322393423
 21
3429.6460897852021
 31
0.0
  0
INSERT
  5
84EF
  8
3
 62
     0
  2
_OPEN
 10
974.38079322393605
 20
3429.6460897852021
 30
0.0
 41
30.0
 42
30.0
 43
30.0
  0
INSERT
  5
84F0
  8
3
 62
     0
  2
_OPEN
 10
534.38079322393423
 20
3429.6460897852021
 30
0.0
 41
30.0
 42
30.0
 43
30.0
 50
180.0
  0
TEXT
  8
3
  40
45
  5
853D
  62
0
  72
0
  71
0
 10
664.381
 20
3387.50
 30
0.000000
  1
440
  0
POINT
  5
84F2
  8
DEFPOINTS
 62
     0
 10
974.38079322393605
 20
3333.8566110719189
 30
0.0
  0
POINT
  5
84F3
  8
DEFPOINTS
 62
     0
 10
534.38079322393423
 20
2933.856611071918
 30
0.0
  0
POINT
  5
84F4
  8
DEFPOINTS
 62
     0
 10
534.38079322393423
 20
3429.6460897852021
 30
0.0
  0
ENDBLK
  5
8210
  8
0
  0
BLOCK
  8
0
  2
*D16
 70
     1
 10
0.0
 20
0.0
 30
0.0
  3
*D16
  1

  0
LINE
  5
84F5
  8
3
 62
     0
 10
526.88079322393605
 20
2553.856611071918
 30
0.0
 11
421.17458289890772
 21
2553.856611071918
 31
0.0
  0
LINE
  5
84F6
  8
3
 62
     0
 10
526.88079322393423
 20
2933.856611071918
 30
0.0
 11
421.17458289890777
 21
2933.856611071918
 31
0.0
  0
LINE
  5
84F7
  8
3
 62
     0
 10
436.17458289890777
 20
2583.856611071918
 30
0.0
 11
436.17458289890777
 21
2903.8566110719189
 31
0.0
  0
INSERT
  5
84F8
  8
3
 62
     0
  2
_OPEN
 10
436.17458289890777
 20
2553.856611071918
 30
0.0
 41
30.0
 42
30.0
 43
30.0
 50
270.0
  0
INSERT
  5
84F9
  8
3
 62
     0
  2
_OPEN
 10
436.17458289890777
 20
2933.856611071918
 30
0.0
 41
30.0
 42
30.0
 43
30.0
 50
90.0
  0
TEXT
  8
3
  40
45
  5
853E
  62
0
  72
0
  71
0
 10
308.675
 20
2664.21
 30
0.000000
  1
380
  0
POINT
  5
84FB
  8
DEFPOINTS
 62
     0
 10
534.38079322393605
 20
2553.856611071918
 30
0.0
  0
POINT
  5
84FC
  8
DEFPOINTS
 62
     0
 10
534.38079322393423
 20
2933.856611071918
 30
0.0
  0
POINT
  5
84FD
  8
DEFPOINTS
 62
     0
 10
436.17458289890777
 20
2933.856611071918
 30
0.0
  0
ENDBLK
  5
8445
  8
0
  0
BLOCK
  8
0
  2
*D17
 70
     1
 10
0.0
 20
0.0
 30
0.0
  3
*D17
  1

  0
LINE
  5
84FE
  8
3
 62
     0
 10
1341.8807932239349
 20
2553.856611071918
 30
0.0
 11
1486.811275232732
 21
2553.856611071918
 31
0.0
  0
LINE
  5
84FF
  8
3
 62
     0
 10
1341.8807932239361
 20
3333.8566110719189
 30
0.0
 11
1486.811275232732
 21
3333.8566110719189
 31
0.0
  0
LINE
  5
8500
  8
3
 62
     0
 10
1471.811275232732
 20
2583.856611071918
 30
0.0
 11
1471.811275232732
 21
3303.856611071918
 31
0.0
  0
INSERT
  5
8501
  8
3
 62
     0
  2
_OPEN
 10
1471.811275232732
 20
2553.856611071918
 30
0.0
 41
30.0
 42
30.0
 43
30.0
 50
270.0
  0
INSERT
  5
8502
  8
3
 62
     0
  2
_OPEN
 10
1471.811275232732
 20
3333.8566110719189
 30
0.0
 41
30.0
 42
30.0
 43
30.0
 50
90.0
  0
TEXT
  8
3
  40
45
  5
853F
  62
0
  72
0
  71
0
 10
1344.31
 20
2864.21
 30
0.000000
  1
780
  0
POINT
  5
8504
  8
DEFPOINTS
 62
     0
 10
1334.3807932239349
 20
2553.856611071918
 30
0.0
  0
POINT
  5
8505
  8
DEFPOINTS
 62
     0
 10
1334.3807932239361
 20
3333.8566110719189
 30
0.0
  0
POINT
  5
8506
  8
DEFPOINTS
 62
     0
 10
1471.811275232732
 20
3333.8566110719189
 30
0.0
  0
ENDBLK
  5
81FA
  8
0
  0
BLOCK
  8
0
  2
*D18
 70
     1
 10
0.0
 20
0.0
 30
0.0
  3
*D18
  1

  0
LINE
  5
832F
  8
0
  6
BYBLOCK
 62
     0
 10
2617.5473846318582
 20
1044.215084731761
 30
0.0
 11
2617.5473846318582
 21
957.75105780189551
 31
0.0
  0
LINE
  5
8330
  8
0
  6
BYBLOCK
 62
     0
 10
2782.5473846318569
 20
1079.343618340665
 30
0.0
 11
2782.5473846318569
 21
957.75105780189551
 31
0.0
  0
LINE
  5
8331
  8
0
  6
BYBLOCK
 62
     0
 10
2647.5473846318582
 20
972.75105780189551
 30
0.0
 11
2752.5473846318569
 21
972.75105780189551
 31
0.0
  0
TEXT
  5
8332
  8
1
 62
     0
 10
2646.4759560604289
 20
990.66625630195256
 30
0.0
 40
45.0
  1
165
  0
INSERT
  5
8333
  8
0
  6
BYBLOCK
 62
     0
  2
_OPEN
 10
2617.5473846318582
 20
972.75105780189551
 30
0.0
 41
30.0
 42
30.0
 43
30.0
 50
180.0
  0
INSERT
  5
8334
  8
0
  6
BYBLOCK
 62
     0
  2
_OPEN
 10
2782.5473846318569
 20
972.75105780189551
 30
0.0
 41
30.0
 42
30.0
 43
30.0
  0
POINT
  5
8335
  8
DEFPOINTS
  6
BYBLOCK
 62
     0
 10
2617.5473846318582
 20
1051.715084731761
 30
0.0
  0
POINT
  5
8336
  8
DEFPOINTS
  6
BYBLOCK
 62
     0
 10
2782.5473846318569
 20
1086.843618340665
 30
0.0
  0
POINT
  5
8337
  8
DEFPOINTS
  6
BYBLOCK
 62
     0
 10
2782.5473846318569
 20
972.75105780189551
 30
0.0
  0
ENDBLK
  5
8338
  8
0
  0
BLOCK
  8
0
  2
*D19
 70
     1
 10
0.0
 20
0.0
 30
0.0
  3
*D19
  1

  0
LINE
  5
83AD
  8
0
  6
BYBLOCK
 62
     0
 10
2617.5473846318582
 20
2008.1693062534259
 30
0.0
 11
2617.5473846318582
 21
2054.8433527693751
 31
0.0
  0
LINE
  5
83AE
  8
0
  6
BYBLOCK
 62
     0
 10
2738.5473846318582
 20
1838.8436451048899
 30
0.0
 11
2738.5473846318582
 21
2054.8433527693751
 31
0.0
  0
LINE
  5
83AF
  8
0
  6
BYBLOCK
 62
     0
 10
2647.5473846318582
 20
2039.8433527693751
 30
0.0
 11
2708.5473846318582
 21
2039.8433527693751
 31
0.0
  0
TEXT
  5
83B0
  8
1
 62
     0
 10
2634.1188132032862
 20
2061.7769318288442
 30
0.0
 40
45.0
  1
121
  0
INSERT
  5
83B1
  8
0
  6
BYBLOCK
 62
     0
  2
_OPEN
 10
2617.5473846318582
 20
2039.8433527693751
 30
0.0
 41
30.0
 42
30.0
 43
30.0
 50
180.0
  0
INSERT
  5
83B2
  8
0
  6
BYBLOCK
 62
     0
  2
_OPEN
 10
2738.5473846318582
 20
2039.8433527693751
 30
0.0
 41
30.0
 42
30.0
 43
30.0
  0
POINT
  5
83B3
  8
DEFPOINTS
  6
BYBLOCK
 62
     0
 10
2617.5473846318582
 20
2000.669306253425
 30
0.0
  0
POINT
  5
83B4
  8
DEFPOINTS
  6
BYBLOCK
 62
     0
 10
2738.5473846318582
 20
1831.3436451048899
 30
0.0
  0
POINT
  5
83B5
  8
DEFPOINTS
  6
BYBLOCK
 62
     0
 10
2738.5473846318582
 20
2039.8433527693751
 30
0.0
  0
ENDBLK
  5
83B6
  8
0
  0
BLOCK
  8
0
  2
*D20
 70
     1
 10
0.0
 20
0.0
 30
0.0
  3
*D20
  1

  0
LINE
  5
8507
  8
3
 62
     0
 10
2499.5473846318582
 20
1877.359621313966
 30
0.0
 11
2499.5473846318582
 21
1951.318882084131
 31
0.0
  0
LINE
  5
8508
  8
3
 62
     0
 10
2735.5473846318582
 20
1878.1276608648491
 30
0.0
 11
2735.5473846318582
 21
1951.318882084131
 31
0.0
  0
LINE
  5
8509
  8
3
 62
     0
 10
2529.5473846318582
 20
1936.318882084131
 30
0.0
 11
2705.5473846318582
 21
1936.318882084131
 31
0.0
  0
INSERT
  5
850A
  8
3
 62
     0
  2
_OPEN
 10
2499.5473846318582
 20
1936.318882084131
 30
0.0
 41
30.0
 42
30.0
 43
30.0
 50
180.0
  0
INSERT
  5
850B
  8
3
 62
     0
  2
_OPEN
 10
2735.5473846318582
 20
1936.318882084131
 30
0.0
 41
30.0
 42
30.0
 43
30.0
  0
TEXT
  8
3
  40
45
  5
8540
  62
0
  72
0
  71
0
 10
2527.55
 20
1894.17
 30
0.000000
  1
236
  0
POINT
  5
850D
  8
DEFPOINTS
 62
     0
 10
2499.5473846318582
 20
1869.859621313966
 30
0.0
  0
POINT
  5
850E
  8
DEFPOINTS
 62
     0
 10
2735.5473846318582
 20
1870.6276608648491
 30
0.0
  0
POINT
  5
850F
  8
DEFPOINTS
 62
     0
 10
2735.5473846318582
 20
1936.318882084131
 30
0.0
  0
ENDBLK
  5
83AB
  8
0
  0
BLOCK
  8
0
  2
*D21
 70
     1
 10
0.0
 20
0.0
 30
0.0
  3
*D21
  1

  0
LINE
  5
851A
  8
3
 62
     0
 10
2771.0473846318582
 20
1805.3436183406641
 30
0.0
 11
2905.7273561743459
 21
1805.3436183406641
 31
0.0
  0
LINE
  5
851B
  8
3
 62
     0
 10
2771.0473846318582
 20
1490.3436183406641
 30
0.0
 11
2905.7273561743459
 21
1490.3436183406641
 31
0.0
  0
LINE
  5
851C
  8
3
 62
     0
 10
2890.7273561743459
 20
1775.343618340665
 30
0.0
 11
2890.7273561743459
 21
1520.3436183406641
 31
0.0
  0
INSERT
  5
851D
  8
3
 62
     0
  2
_OPEN
 10
2890.7273561743459
 20
1805.3436183406641
 30
0.0
 41
30.0
 42
30.0
 43
30.0
 50
90.0
  0
INSERT
  5
851E
  8
3
 62
     0
  2
_OPEN
 10
2890.7273561743459
 20
1490.3436183406641
 30
0.0
 41
30.0
 42
30.0
 43
30.0
 50
270.0
  0
TEXT
  8
3
  40
45
  5
8541
  62
0
  72
0
  71
0
 10
2763.23
 20
1568.19
 30
0.000000
  1
φ315
  0
POINT
  5
8520
  8
DEFPOINTS
 62
     0
 10
2763.5473846318582
 20
1805.3436183406641
 30
0.0
  0
POINT
  5
8521
  8
DEFPOINTS
 62
     0
 10
2763.5473846318582
 20
1490.3436183406641
 30
0.0
  0
POINT
  5
8522
  8
DEFPOINTS
 62
     0
 10
2890.7273561743459
 20
1490.3436183406641
 30
0.0
  0
ENDBLK
  5
8343
  8
0
  0
BLOCK
  8
0
  2
_DOT
 70
     0
 10
0.0
 20
0.0
 30
0.0
  3
_DOT
  1

  0
LINE
  5
8167
  8
0
  6
BYBLOCK
 62
     0
 10
0.0
 20
0.0
 30
0.0
 11
-1.0
 21
-0.0000000000000284
 31
0.0
  0
POLYLINE
  5
8168
  8
0
  6
BYBLOCK
 62
     0
 66
     1
 10
0.0
 20
0.0
 30
0.0
 70
     1
 40
0.1666666666666666
 41
0.1666666666666666
  0
VERTEX
  5
8523
  8
0
  6
BYBLOCK
 62
     0
 10
-0.0833333333333286
 20
-0.0000000000000284
 30
0.0
 42
1.0
  0
VERTEX
  5
8524
  8
0
  6
BYBLOCK
 62
     0
 10
0.0833333333333286
 20
-0.0000000000000284
 30
0.0
 42
1.0
  0
SEQEND
  5
8525
  8
0
  6
BYBLOCK
 62
     0
  0
ENDBLK
  5
8159
  8
0
  0
BLOCK
  8
0
  2
*D23
 70
     1
 10
0.0
 20
0.0
 30
0.0
  3
*D23
  1

  0
LINE
  5
8526
  8
3
 62
     0
 10
1399.3807932239361
 20
1657.73244866562
 30
0.0
 11
1399.3807932239361
 21
2104.7511775917369
 31
0.0
  0
LINE
  5
8527
  8
3
 62
     0
 10
534.38079322393605
 20
1280.3436183406641
 30
0.0
 11
534.38079322393605
 21
2104.7511775917369
 31
0.0
  0
LINE
  5
8528
  8
3
 62
     0
 10
1369.3807932239361
 20
2089.7511775917369
 30
0.0
 11
564.38079322393605
 21
2089.7511775917369
 31
0.0
  0
INSERT
  5
8529
  8
3
 62
     0
  2
_OPEN
 10
1399.3807932239361
 20
2089.7511775917369
 30
0.0
 41
30.0
 42
30.0
 43
30.0
  0
INSERT
  5
852A
  8
3
 62
     0
  2
_OPEN
 10
534.38079322393605
 20
2089.7511775917369
 30
0.0
 41
30.0
 42
30.0
 43
30.0
 50
180.0
  0
TEXT
  8
3
  40
45
  5
8542
  62
0
  72
0
  71
0
 10
912.391
 20
2047.60
 30
0.000000
  1
865
  0
POINT
  5
852C
  8
DEFPOINTS
 62
     0
 10
1399.3807932239361
 20
1650.23244866562
 30
0.0
  0
POINT
  5
852D
  8
DEFPOINTS
 62
     0
 10
534.38079322393605
 20
1272.8436183406641
 30
0.0
  0
POINT
  5
852E
  8
DEFPOINTS
 62
     0
 10
534.38079322393605
 20
2089.7511775917369
 30
0.0
  0
ENDBLK
  5
82E9
  8
0
  0
BLOCK
  8
0
  2
*D24
 70
     1
 10
0.0
 20
0.0
 30
0.0
  3
*D24
  1

  0
LINE
  5
842F
  8
0
  6
BYBLOCK
 62
     0
 10
1289.470673089075
 20
1197.8436183406641
 30
0.0
 11
1612.9601725077191
 21
1197.8436183406641
 31
0.0
  0
LINE
  5
8430
  8
0
  6
BYBLOCK
 62
     0
 10
1289.4706730890739
 20
1102.8436183406641
 30
0.0
 11
1612.9601725077191
 21
1102.8436183406641
 31
0.0
  0
LINE
  5
8431
  8
0
  6
BYBLOCK
 62
     0
 10
1597.9601725077191
 20
1197.8436183406641
 30
0.0
 11
1597.9601725077191
 21
1102.8436183406641
 31
0.0
  0
TEXT
  5
8432
  8
1
 62
     0
 10
1684.7458867934331
 20
1084.986475483521
 30
0.0
 40
45.0
  1
(95)
 50
90.0
  0
POINT
  5
8433
  8
DEFPOINTS
  6
BYBLOCK
 62
     0
 10
1281.970673089075
 20
1197.8436183406641
 30
0.0
  0
POINT
  5
8434
  8
DEFPOINTS
  6
BYBLOCK
 62
     0
 10
1281.9706730890739
 20
1102.8436183406641
 30
0.0
  0
POINT
  5
8435
  8
DEFPOINTS
  6
BYBLOCK
 62
     0
 10
1597.9601725077191
 20
1102.8436183406641
 30
0.0
  0
ENDBLK
  5
8436
  8
0
  0
ENDSEC
  0
SECTION
  2
ENTITIES
  0
DIMENSION
  5
7CDC
  8
3
  2
*D1
 10
2617.5473846318582
 20
2039.8433527693751
 30
0.0
 11
2273.5473846318582
 21
2114.8433527693751
 31
0.0
 70
     0
  1
MAX\P760
 13
1929.547384631858
 23
1747.8436183406641
 33
0.0
 14
2617.5473846318582
 24
2000.669306253425
 34
0.0
1001
ACAD
1000
DSTYLE
1002
{
1070
   287
1070
     3
1070
    40
1040
15.0
1070
   143
1040
0.039
1070
   172
1070
     1
1070
   271
1070
     0
1070
   279
1070
     0
1070
   288
1070
     1
1002
}
  0
DIMENSION
  5
7CDE
  8
3
  2
*D2
 10
2617.5473846318582
 20
913.75105780189563
 30
0.0
 11
2310.0473846318582
 21
951.25105780189563
 31
0.0
 70
     0
 13
2002.547384631858
 23
1027.8436183406641
 33
0.0
 14
2617.5473846318582
 24
992.71508473176164
 34
0.0
1001
ACAD
1000
DSTYLE
1002
{
1070
   287
1070
     3
1070
    40
1040
15.0
1070
   143
1040
0.039
1070
   172
1070
     1
1070
   271
1070
     0
1070
   279
1070
     0
1070
   288
1070
     1
1002
}
  0
LINE
  5
7CDF
  8
1
 10
2002.547384631858
 20
1272.8436183406641
 30
0.0
 11
2472.5473846318582
 21
1272.8436183406641
 31
0.0
  0
LINE
  5
7CE7
  8
1
 10
2782.5473846318569
 20
1027.843618340665
 30
0.0
 11
2002.547384631858
 21
1027.8436183406641
 31
0.0
  0
LINE
  5
7CE8
  8
1
 10
2782.5473846318569
 20
1102.8436183406641
 30
0.0
 11
2002.547384631858
 21
1102.8436183406641
 31
0.0
  0
LINE
  5
7CE9
  8
2
 10
2799.6526072731931
 20
1647.8436183406641
 30
0.0
 11
1907.7617542269811
 21
1647.8436183406641
 31
0.0
  0
LINE
  5
7CEA
  8
1
 10
2444.5473846318569
 20
1591.0436183406639
 30
0.0
 11
2034.547384631858
 21
1591.0436183406639
 31
0.0
  0
LINE
  5
7CEB
  8
1
 10
2444.5473846318569
 20
1594.2436183406639
 30
0.0
 11
2034.547384631858
 21
1594.2436183406639
 31
0.0
  0
LINE
  5
7CEC
  8
1
 10
2782.5473846318569
 20
1197.843618340665
 30
0.0
 11
2002.547384631858
 21
1197.8436183406641
 31
0.0
  0
DIMENSION
  5
7CED
  8
3
  2
*D3
 10
534.38079322393514
 20
2385.5454702647139
 30
0.0
 11
934.38079322393526
 21
2423.0454702647139
 31
0.0
 70
     0
 13
1334.3807932239349
 23
2553.856611071918
 33
0.0
 14
534.38079322393514
 24
2572.8566110719189
 34
0.0
1001
ACAD
1000
DSTYLE
1002
{
1070
   287
1070
     3
1070
    40
1040
15.0
1070
   143
1040
0.039
1070
   172
1070
     1
1070
   271
1070
     0
1070
   279
1070
     0
1070
   288
1070
     1
1002
}
  0
LINE
  5
7CEE
  8
1
 10
1237.8807932239361
 20
1600.2436183406639
 30
0.0
 11
1183.8807932239361
 21
1600.2436183406639
 31
0.0
  0
LINE
  5
7CEF
  8
1
 10
1084.3807932239361
 20
1507.8436183406641
 30
0.0
 11
1224.3807932239361
 21
1507.8436183406641
 31
0.0
  0
CIRCLE
  5
7CF0
  8
1
 10
1154.3807932239361
 20
1507.8436183406641
 30
0.0
 40
65.0
  0
CIRCLE
  5
7CF1
  8
1
 10
1154.3807932239361
 20
1647.8436183406641
 30
0.0
 40
63.5
  0
ARC
  5
7CF2
  8
1
 10
1154.3807932239361
 20
1647.8436183406641
 30
0.0
 40
100.0
 50
300.52693951049281
 51
109.70273026179621
  0
ARC
  5
7CF4
  8
1
 10
1141.3778491487101
 20
1671.9193274028721
 30
0.0
 40
201.58952384937541
 50
358.43602223557491
 51
82.202197156070284
  0
DIMENSION
  5
7CF5
  8
3
  2
*D4
 10
1650.370292642579
 20
1873.8025225684939
 30
0.0
 11
1612.870292642579
 21
1760.8230704545799
 31
0.0
 70
     0
 13
1410.8409195744209
 23
1647.8436183406641
 33
0.0
 14
1135.6158406392451
 24
1873.8025225684939
 34
0.0
 50
270.0
1001
ACAD
1000
DSTYLE
1002
{
1070
   287
1070
     3
1070
    40
1040
15.0
1070
   143
1040
0.039
1070
   172
1070
     1
1070
   271
1070
     0
1070
   279
1070
     0
1070
   288
1070
     1
1002
}
  0
DIMENSION
  5
7CF6
  8
3
  2
*D5
 10
1154.3807932239361
 20
1989.5577929790161
 30
0.0
 11
1276.8807932239361
 21
2027.0577929790161
 31
0.0
 70
     0
 13
1399.3807932239361
 23
1650.23244866562
 33
0.0
 14
1154.3807932239361
 24
1908.446899021535
 34
0.0
1001
ACAD
1000
DSTYLE
1002
{
1070
   287
1070
     3
1070
    40
1040
15.0
1070
   143
1040
0.039
1070
   172
1070
     1
1070
   271
1070
     0
1070
   279
1070
     0
1070
   288
1070
     1
1002
}
  0
DIMENSION
  5
7CF8
  8
3
  2
*D6
 10
1154.3807932239361
 20
912.90191108590261
 30
0.0
 11
1244.3807932239349
 21
958.17727375069796
 31
0.0
 12
244.58054881986391
 22
-59.0
 32
0.0
 70
   128
 13
1334.3807932239349
 23
1027.8436183406641
 33
0.0
 14
1154.3807932239361
 24
995.36066584390562
 34
0.0
1001
ACAD
1000
DSTYLE
1002
{
1070
   288
1070
     1
1070
   172
1070
     1
1070
    40
1040
15.0
1070
   271
1070
     0
1070
   143
1040
0.039
1002
}
  0
DIMENSION
  5
7CF9
  8
3
  2
*D7
 10
1776.2942196306101
 20
1873.8025225684939
 30
0.0
 11
1738.7942196306101
 21
1450.823070454579
 31
0.0
 70
     0
 13
1334.3807932239349
 23
1027.8436183406641
 33
0.0
 14
1135.6158406392451
 24
1873.8025225684939
 34
0.0
 50
270.0
1001
ACAD
1000
DSTYLE
1002
{
1070
   287
1070
     3
1070
    40
1040
15.0
1070
   143
1040
0.039
1070
   172
1070
     1
1070
   271
1070
     0
1070
   279
1070
     0
1070
   288
1070
     1
1002
}
  0
LINE
  5
7CFA
  8
1
 10
1314.3807932239361
 20
1594.2436183406639
 30
0.0
 11
994.38079322393605
 21
1594.2436183406639
 31
0.0
  0
LINE
  5
7CFB
  8
2
 10
799.51994011559316
 20
1647.8436183406641
 30
0.0
 11
1410.8409195744209
 21
1647.8436183406641
 31
0.0
  0
LINE
  5
7CFC
  8
1
 10
1354.380793223937
 20
1591.0436183406639
 30
0.0
 11
954.38079322393605
 21
1591.043618340665
 31
0.0
  0
LINE
  5
7CFD
  8
1
 10
534.38079322393514
 20
1027.8436183406641
 30
0.0
 11
1334.3807932239361
 21
1027.8436183406641
 31
0.0
  0
LINE
  5
7CFE
  8
1
 10
534.38079322393514
 20
1102.8436183406641
 30
0.0
 11
1334.3807932239361
 21
1102.8436183406641
 31
0.0
  0
LINE
  5
7CFF
  8
1
 10
524.38079322393605
 20
1272.8436183406641
 30
0.0
 11
1334.3807932239361
 21
1272.8436183406641
 31
0.0
  0
LINE
  5
7D00
  8
1
 10
534.38079322393514
 20
1197.8436183406641
 30
0.0
 11
1334.3807932239361
 21
1197.8436183406641
 31
0.0
  0
LINE
  5
7D01
  8
1
 10
1205.175136260257
 20
1561.70457541872
 30
0.0
 11
750.57230777841687
 21
1293.6350539577479
 31
0.0
  0
POLYLINE
  5
7D03
  8
1
 66
     1
 10
0.0
 20
0.0
 30
0.0
 70
     1
  0
VERTEX
  5
849E
  8
1
 10
1054.3807932239361
 20
1594.2436183406639
 30
0.0
  0
VERTEX
  5
849F
  8
1
 10
1254.3807932239361
 20
1594.2436183406639
 30
0.0
  0
VERTEX
  5
84A0
  8
1
 10
1254.3807932239361
 20
1600.2436183406639
 30
0.0
  0
VERTEX
  5
84A1
  8
1
 10
1054.3807932239361
 20
1600.2436183406639
 30
0.0
  0
SEQEND
  5
84A2
  8
1
  0
POLYLINE
  5
7D09
  8
1
 66
     1
 10
0.0
 20
0.0
 30
0.0
 70
     1
  0
VERTEX
  5
84A3
  8
1
 10
1054.3807932239361
 20
1594.2436183406639
 30
0.0
  0
VERTEX
  5
84A4
  8
1
 10
1254.3807932239361
 20
1594.2436183406639
 30
0.0
  0
VERTEX
  5
84A5
  8
1
 10
1254.3807932239361
 20
1600.2436183406639
 30
0.0
  0
VERTEX
  5
84A6
  8
1
 10
1054.3807932239361
 20
1600.2436183406639
 30
0.0
  0
SEQEND
  5
84A7
  8
1
  0
ARC
  5
7D10
  8
1
 10
674.38079322393514
 20
1422.8436183406641
 30
0.0
 40
100.8
 50
300.30070000000001
 51
180.0
  0
ARC
  5
7D11
  8
1
 10
674.38079322393514
 20
1422.8436183406641
 30
0.0
 40
100.8
 50
300.30070000000001
 51
180.0
  0
CIRCLE
  5
7D14
  8
1
 10
674.38079322393514
 20
1422.8436183406641
 30
0.0
 40
82.599999999999994
  0
ARC
  5
7D15
  8
1
 10
674.38079322393514
 20
1422.8436183406641
 30
0.0
 40
150.0
 50
109.70273026179621
 51
300.52693951049281
  0
LINE
  5
7D16
  8
1
 10
1004.3807932239361
 20
1591.0436183406639
 30
0.0
 11
1004.3807932239361
 21
1272.8436183406641
 31
0.0
  0
LINE
  5
7D17
  8
2
 10
674.38079322393514
 20
1326.859518340664
 30
0.0
 11
674.38079322393514
 21
1531.3047183406641
 31
0.0
  0
LINE
  5
7D18
  8
2
 10
1154.3807932239361
 20
1741.9829335331401
 30
0.0
 11
1154.3807932239361
 21
995.36066584390562
 31
0.0
  0
ARC
  5
7D19
  8
1
 10
1178.3807932239349
 20
1623.8436183406641
 30
0.0
 40
297.56488088068153
 50
179.9999999999998
 51
265.389792504132
  0
LINE
  5
7D1A
  8
1
 10
1183.386433167469
 20
1591.3553642388949
 30
0.0
 11
712.11096423709841
 21
1349.364409068126
 31
0.0
  0
DIMENSION
  5
7D1B
  8
3
  2
*D8
 10
534.38079322393514
 20
912.90191108590261
 30
0.0
 11
844.38079322393548
 21
950.40191108590261
 31
0.0
 70
     0
 13
1154.3807932239361
 23
995.36066584390562
 33
0.0
 14
534.38079322393514
 24
1027.8436183406641
 34
0.0
1001
ACAD
1000
DSTYLE
1002
{
1070
   287
1070
     3
1070
    40
1040
15.0
1070
   143
1040
0.039
1070
   172
1070
     1
1070
   271
1070
     0
1070
   279
1070
     0
1070
   288
1070
     1
1002
}
  0
LINE
  5
7D1C
  8
1
 10
534.38079322393514
 20
1102.8436183406641
 30
0.0
 11
534.38079322393514
 21
1027.8436183406641
 31
0.0
  0
LINE
  5
7D1F
  8
1
 10
725.30489322393521
 20
1335.8436183406641
 30
0.0
 11
623.34979322393519
 21
1335.8436183406641
 31
0.0
  0
LINE
  5
7D20
  8
1
 10
725.30489322393521
 20
1335.8436183406641
 30
0.0
 11
623.34979322393519
 21
1335.8436183406641
 31
0.0
  0
LINE
  5
7D21
  8
1
 10
573.47692175524844
 20
1332.8436183406641
 30
0.0
 11
775.2846646926223
 21
1332.8436183406641
 31
0.0
  0
LINE
  5
7D22
  8
1
 10
524.38079322393605
 20
1302.8436183406641
 30
0.0
 11
824.38079322393503
 21
1302.8436183406641
 31
0.0
  0
LINE
  5
7D23
  8
2
 10
778.84599322393569
 20
1422.8436183406641
 30
0.0
 11
568.27799322393548
 21
1422.8436183406641
 31
0.0
  0
LINE
  5
7D24
  8
1
 10
561.88079322393514
 20
1302.8436183406641
 30
0.0
 11
573.47692175524844
 21
1332.8436183406641
 31
0.0
  0
LINE
  5
7D25
  8
1
 10
534.38079322393605
 20
1272.8436183406641
 30
0.0
 11
534.38079322393514
 21
1197.8436183406641
 31
0.0
  0
LINE
  5
7D26
  8
1
 10
524.38079322393605
 20
1272.8436183406641
 30
0.0
 11
524.38079322393605
 21
1302.8436183406641
 31
0.0
  0
ARC
  5
7D28
  8
1
 10
674.38079322393514
 20
1422.8436183406641
 30
0.0
 40
100.8
 50
180.0
 51
239.6066999999999
  0
ARC
  5
7D2A
  8
1
 10
674.38079322393514
 20
1422.8436183406641
 30
0.0
 40
100.8
 50
180.0
 51
239.6066999999999
  0
LINE
  5
7D2B
  8
1
 10
586.38079322393514
 20
1332.8436183406641
 30
0.0
 11
626.38079322393514
 21
1332.8436183406641
 31
0.0
  0
LINE
  5
7D2C
  8
1
 10
586.38079322393514
 20
1332.8436183406641
 30
0.0
 11
586.38079322393514
 21
1340.8436183406641
 31
0.0
  0
LINE
  5
7D2D
  8
1
 10
592.23419322393499
 20
1364.426318340664
 30
0.0
 11
586.38079322393514
 21
1340.8436183406641
 31
0.0
  0
LINE
  5
7D2E
  8
1
 10
604.38079322393514
 20
1328.477118340664
 30
0.0
 11
604.38079322393514
 21
1345.3805183406639
 31
0.0
  0
LINE
  5
7D2F
  8
1
 10
626.38079322393514
 20
1335.7746183406639
 30
0.0
 11
626.38079322393514
 21
1332.8436183406641
 31
0.0
  0
LINE
  5
7D30
  8
1
 10
786.88079322393514
 20
1302.8436183406641
 30
0.0
 11
775.2846646926223
 21
1332.8436183406641
 31
0.0
  0
LINE
  5
7D31
  8
1
 10
824.38079322393503
 20
1272.8436183406641
 30
0.0
 11
824.38079322393503
 21
1302.8436183406641
 31
0.0
  0
LINE
  5
7D32
  8
1
 10
762.38079322393514
 20
1332.8436183406641
 30
0.0
 11
722.38079322393514
 21
1332.8436183406641
 31
0.0
  0
LINE
  5
7D33
  8
1
 10
722.38079322393514
 20
1335.8164183406641
 30
0.0
 11
722.38079322393514
 21
1332.8436183406641
 31
0.0
  0
LINE
  5
7D34
  8
1
 10
744.38079322393514
 20
1328.477118340664
 30
0.0
 11
744.38079322393514
 21
1345.3805183406639
 31
0.0
  0
LINE
  5
7D35
  8
1
 10
762.38079322393514
 20
1332.8436183406641
 30
0.0
 11
762.38079322393514
 21
1340.8436183406641
 31
0.0
  0
LINE
  5
7D36
  8
1
 10
756.52729322393543
 20
1364.426318340664
 30
0.0
 11
762.38079322393514
 21
1340.8436183406641
 31
0.0
  0
LINE
  5
7D37
  8
1
 10
974.38079322393605
 20
1347.8436183406641
 30
0.0
 11
974.38079322393605
 21
1272.8436183406641
 31
0.0
  0
LINE
  5
7D38
  8
1
 10
974.38079322393605
 20
1277.8436183406641
 30
0.0
 11
1004.3807932239361
 21
1277.8436183406641
 31
0.0
  0
LINE
  5
7D39
  8
1
 10
974.38079322393605
 20
1347.8436183406641
 30
0.0
 11
1004.3807932239361
 21
1347.8436183406641
 31
0.0
  0
DIMENSION
  5
7D3B
  8
3
  2
*D9
 10
880.81591234325379
 20
1989.5577929790161
 30
0.0
 11
1017.598352783595
 21
2027.0577929790161
 31
0.0
 70
     0
 13
1154.3807932239361
 23
1908.446899021535
 33
0.0
 14
880.81591234325379
 24
1623.8436183406641
 34
0.0
1001
ACAD
1000
DSTYLE
1002
{
1070
   287
1070
     3
1070
    40
1040
15.0
1070
   143
1040
0.039
1070
   172
1070
     1
1070
   271
1070
     0
1070
   279
1070
     0
1070
   288
1070
     1
1002
}
  0
LINE
  5
7D3C
  8
1
 10
1129.5183291544349
 20
1706.2739861333871
 30
0.0
 11
642.04001319022245
 21
1498.849104634819
 31
0.0
  0
LINE
  5
7D3D
  8
1
 10
1120.6667811190271
 20
1741.989066386707
 30
0.0
 11
623.809775066572
 21
1564.061790409728
 31
0.0
  0
ARC
  5
7D3E
  8
1
 10
1135.6158406392451
 20
1618.650290300573
 30
0.0
 40
255.15223226792139
 50
82.539657227095873
 51
178.8459440643627
  0
LINE
  5
7D3F
  8
1
 10
954.38079322393605
 20
1591.0436183406639
 30
0.0
 11
954.38079322393605
 21
1551.043618340665
 31
0.0
  0
LINE
  5
7D40
  8
1
 10
891.03158349205785
 20
1546.543618340665
 30
0.0
 11
1004.3807932239361
 21
1546.543618340665
 31
0.0
  0
LINE
  5
7D41
  8
1
 10
889.85866524492849
 20
1551.043618340665
 30
0.0
 11
1004.3807932239361
 21
1551.043618340665
 31
0.0
  0
LINE
  5
7D42
  8
1
 10
994.38079322393605
 20
1594.2436183406639
 30
0.0
 11
994.38079322393605
 21
1591.0436183406639
 31
0.0
  0
LINE
  5
7D43
  8
1
 10
1070.8807932239361
 20
1600.2436183406639
 30
0.0
 11
1124.8807932239361
 21
1600.2436183406639
 31
0.0
  0
LINE
  5
7D44
  8
2
 10
1154.3807932239361
 20
1908.446899021535
 30
0.0
 11
1154.3807932239361
 21
1760.922860511329
 31
0.0
  0
LINE
  5
7D45
  8
1
 10
1154.3807932239361
 20
1747.8436183406641
 30
0.0
 11
1154.3807932239361
 21
1747.8436183406641
 31
0.0
  0
LINE
  5
7D46
  8
1
 10
1399.3807932239361
 20
1621.8436183406641
 30
0.0
 11
1399.3807932239361
 21
1296.8436183406641
 31
0.0
  0
LINE
  5
7D47
  8
1
 10
1374.3807932239349
 20
1296.8436183406641
 30
0.0
 11
1374.3807932239361
 21
1621.8436183406641
 31
0.0
  0
LINE
  5
7D48
  8
1
 10
1396.3807932239361
 20
1621.843618340665
 30
0.0
 11
1396.3807932239361
 21
1296.8436183406641
 31
0.0
  0
DIMENSION
  5
7D49
  8
3
  2
*D10
 10
1484.2210050663091
 20
1621.843618340665
 30
0.0
 11
1484.221005066308
 21
1459.3436183406641
 31
0.0
 70
   128
 13
1399.3807932239361
 23
1296.8436183406641
 33
0.0
 14
1399.3807932239361
 24
1621.843618340665
 34
0.0
 50
270.0
1001
ACAD
1000
DSTYLE
1002
{
1070
   287
1070
     3
1070
    40
1040
15.0
1070
   143
1040
0.039
1070
   172
1070
     1
1070
   271
1070
     0
1070
   279
1070
     0
1070
   288
1070
     1
1002
}
  0
DIMENSION
  5
7D4A
  8
3
  2
*D11
 10
1559.889490878769
 20
1647.8436183406641
 30
0.0
 11
1522.389490878769
 21
1472.343618340665
 31
0.0
 70
     0
 13
1399.3807932239361
 23
1296.8436183406641
 33
0.0
 14
1410.8409195744209
 24
1647.8436183406641
 34
0.0
 50
270.0
1001
ACAD
1000
DSTYLE
1002
{
1070
   287
1070
     3
1070
    40
1040
15.0
1070
   143
1040
0.039
1070
   172
1070
     1
1070
   271
1070
     0
1070
   279
1070
     0
1070
   288
1070
     1
1002
}
  0
DIMENSION
  5
7D4B
  8
3
  2
*D12
 10
1650.370292642579
 20
1197.8436183406641
 30
0.0
 11
1612.870292642579
 21
1422.843618340665
 31
0.0
 70
     0
 13
1410.8409195744209
 23
1647.8436183406641
 33
0.0
 14
1334.3807932239361
 24
1197.8436183406641
 34
0.0
 50
270.0
1001
ACAD
1000
DSTYLE
1002
{
1070
   287
1070
     3
1070
    40
1040
15.0
1070
   143
1040
0.039
1070
   172
1070
     1
1070
   271
1070
     0
1070
   279
1070
     0
1070
   288
1070
     1
1002
}
  0
LINE
  5
7D4C
  8
1
 10
1304.380793223937
 20
1591.0436183406639
 30
0.0
 11
1304.3807932239349
 21
1272.8436183406641
 31
0.0
  0
LINE
  5
7D4E
  8
1
 10
2021.547384631858
 20
1747.8436183406641
 30
0.0
 11
2021.547384631858
 21
1715.686161952962
 31
0.0
  0
LINE
  5
7D4F
  8
1
 10
1929.547384631858
 20
1747.8436183406641
 30
0.0
 11
1929.547384631858
 21
1272.8436183406641
 31
0.0
  0
LINE
  5
7D50
  8
1
 10
2009.547384631858
 20
1600.4436183406649
 30
0.0
 11
2009.547384631858
 21
1321.2436183406639
 31
0.0
  0
LINE
  5
7D51
  8
1
 10
1959.547384631858
 20
1600.4436183406649
 30
0.0
 11
1959.547384631858
 21
1321.2436183406639
 31
0.0
  0
LINE
  5
7D52
  8
1
 10
2014.547384631858
 20
1386.3436183406641
 30
0.0
 11
2014.547384631858
 21
1459.3436183406641
 31
0.0
  0
LINE
  5
7D53
  8
1
 10
2024.547384631858
 20
1519.8436183406641
 30
0.0
 11
2024.547384631858
 21
1332.8436183406641
 31
0.0
  0
DIMENSION
  5
7D54
  8
3
  2
*D13
 10
1650.370292642579
 20
1027.8436183406641
 30
0.0
 11
1612.870292642579
 21
916.41504691209309
 31
0.0
 70
     0
 13
1334.3807932239349
 23
1102.8436183406641
 33
0.0
 14
1334.3807932239349
 24
1027.8436183406641
 34
0.0
 50
270.0
1001
ACAD
1000
DSTYLE
1002
{
1070
   287
1070
     3
1070
    40
1040
15.0
1070
   143
1040
0.039
1070
   172
1070
     1
1070
   271
1070
     0
1070
   279
1070
     0
1070
   288
1070
     1
1070
     6
1000
DOT
1002
}
  0
LINE
  5
7D56
  8
1
 10
1334.3807932239349
 20
1102.8436183406641
 30
0.0
 11
1334.3807932239349
 21
1027.8436183406641
 31
0.0
  0
POLYLINE
  5
7D58
  8
1
 66
     1
 10
0.0
 20
0.0
 30
0.0
  0
VERTEX
  5
84E0
  8
1
 10
1399.3807932239361
 20
1296.7210660250539
 30
0.0
  0
VERTEX
  5
84E1
  8
1
 10
1154.463568501777
 20
1327.2414863605929
 30
0.0
  0
SEQEND
  5
84E2
  8
1
  0
LINE
  5
7D5C
  8
1
 10
1334.3807932239361
 20
1347.8436183406641
 30
0.0
 11
1334.3807932239361
 21
1197.8436183406641
 31
0.0
  0
LINE
  5
7D5D
  8
1
 10
1304.3807932239361
 20
1277.8436183406641
 30
0.0
 11
1334.3807932239361
 21
1277.8436183406641
 31
0.0
  0
LINE
  5
7D5E
  8
1
 10
1304.3807932239349
 20
1347.8436183406641
 30
0.0
 11
1334.3807932239361
 21
1347.8436183406641
 31
0.0
  0
LINE
  5
7D5F
  8
1
 10
1374.3807932239381
 20
1300.413971689178
 30
0.0
 11
1374.3807932239381
 21
1301.413971689178
 31
0.0
  0
LINE
  5
7D60
  8
1
 10
1374.380793223937
 20
1295.8436183406641
 30
0.0
 11
1374.380793223937
 21
1296.8436183406641
 31
0.0
  0
LINE
  5
7D61
  8
1
 10
1392.380793223937
 20
1293.8436183406641
 30
0.0
 11
1376.380793223937
 21
1293.8436183406641
 31
0.0
  0
LINE
  5
7D62
  8
1
 10
1399.380793223937
 20
1296.8436183406641
 30
0.0
 11
1399.380793223937
 21
1271.8436183406641
 31
0.0
  0
LINE
  5
7D63
  8
1
 10
1396.3807932239361
 20
1273.8436183406641
 30
0.0
 11
1396.3807932239361
 21
1289.8436183406641
 31
0.0
  0
ARC
  5
7D64
  8
1
 10
1392.380793223937
 20
1289.8436183406641
 30
0.0
 40
4.0
 50
0.0
 51
90.0
  0
LINE
  5
7D65
  8
1
 10
1399.3807932239361
 20
1296.8436183406641
 30
0.0
 11
1391.750481549637
 21
1296.8436183406641
 31
0.0
  0
LINE
  5
7D66
  8
1
 10
1399.380793223937
 20
1271.8436183406641
 30
0.0
 11
1398.380793223937
 21
1271.8436183406641
 31
0.0
  0
ARC
  5
7D67
  8
1
 10
1398.380793223937
 20
1273.8436183406641
 30
0.0
 40
2.0
 50
180.0
 51
270.0
  0
LINE
  5
7D68
  8
1
 10
1374.380793223937
 20
1296.8436183406641
 30
0.0
 11
1399.380793223937
 21
1296.8436183406641
 31
0.0
  0
ARC
  5
7D69
  8
1
 10
1376.380793223937
 20
1295.8436183406641
 30
0.0
 40
2.0
 50
180.0
 51
270.0
  0
LINE
  5
7D6B
  8
1
 10
2009.547384631858
 20
1321.2436183406639
 30
0.0
 11
1959.547384631858
 21
1321.2436183406639
 31
0.0
  0
LINE
  5
7D6C
  8
1
 10
1929.547384631858
 20
1272.8436183406641
 30
0.0
 11
2021.547384631858
 21
1272.8436183406641
 31
0.0
  0
LINE
  5
7D6D
  8
2
 10
2053.845350028907
 20
1422.8436183406641
 30
0.0
 11
1905.5012644048941
 21
1422.8436183406641
 31
0.0
  0
LINE
  5
7D6E
  8
1
 10
2002.547384631858
 20
1102.8436183406641
 30
0.0
 11
2002.547384631858
 21
1027.8436183406641
 31
0.0
  0
LINE
  5
7D6F
  8
1
 10
2024.547384631858
 20
1332.8436183406641
 30
0.0
 11
2041.3473846318579
 21
1332.8436183406641
 31
0.0
  0
LINE
  5
7D72
  8
1
 10
2002.547384631858
 20
1272.8436183406641
 30
0.0
 11
2002.547384631858
 21
1197.8436183406641
 31
0.0
  0
LINE
  5
7D73
  8
1
 10
2014.547384631858
 20
1410.3436183406641
 30
0.0
 11
2009.547384631858
 21
1410.3436183406641
 31
0.0
  0
ARC
  5
7D74
  8
1
 10
2015.547484631858
 20
1386.3436183406641
 30
0.0
 40
1.0000999999999991
 50
180.0
 51
269.99650000000003
  0
ARC
  5
7D75
  8
1
 10
2023.547384631858
 20
1384.3436183406641
 30
0.0
 40
1.0000999999999991
 50
0.0
 51
89.996500000000054
  0
LINE
  5
7D76
  8
1
 10
2015.547384631858
 20
1385.3436183406641
 30
0.0
 11
2023.547384631858
 21
1385.3436183406641
 31
0.0
  0
LINE
  5
7D77
  8
1
 10
2014.547384631858
 20
1435.3436183406641
 30
0.0
 11
2009.547384631858
 21
1435.3436183406641
 31
0.0
  0
LINE
  5
7D78
  8
1
 10
2009.547384631858
 20
1435.3436183406641
 30
0.0
 11
2009.547384631858
 21
1410.3436183406641
 31
0.0
  0
LINE
  5
7D7A
  8
1
 10
1399.3807932239361
 20
1621.843618340665
 30
0.0
 11
1336.96404044886
 21
1621.8436183406641
 31
0.0
  0
LINE
  5
7D7C
  8
1
 10
1304.380793223937
 20
1546.5436183406639
 30
0.0
 11
1374.3807932239361
 21
1546.5436183406639
 31
0.0
  0
LINE
  5
7D7D
  8
1
 10
1304.380793223937
 20
1551.043618340665
 30
0.0
 11
1374.3807932239361
 21
1551.0436183406639
 31
0.0
  0
LINE
  5
7D7E
  8
1
 10
1354.380793223937
 20
1591.0436183406639
 30
0.0
 11
1354.380793223937
 21
1551.0436183406639
 31
0.0
  0
ARC
  5
7D80
  8
1
 10
1172.8807932239361
 20
1666.3436183406641
 30
0.0
 40
170.010476206249
 50
344.82615823122183
 51
0.0000000000004071
  0
LINE
  5
7D81
  8
1
 10
1314.3807932239361
 20
1594.2436183406639
 30
0.0
 11
1314.3807932239361
 21
1591.0436183406639
 31
0.0
  0
LINE
  5
7D82
  8
1
 10
1399.3807932239361
 20
1621.843618340665
 30
0.0
 11
1399.3807932239361
 21
1646.8436183406641
 31
0.0
  0
ARC
  5
7D83
  8
1
 10
1392.3807932239361
 20
1628.8436183406641
 30
0.0
 40
4.0
 50
270.0
 51
0.0
  0
LINE
  5
7D84
  8
1
 10
1374.3807932239361
 20
1622.8436183406641
 30
0.0
 11
1374.3807932239361
 21
1621.843618340665
 31
0.0
  0
LINE
  5
7D86
  8
1
 10
1392.3807932239361
 20
1624.8436183406641
 30
0.0
 11
1376.3807932239361
 21
1624.8436183406641
 31
0.0
  0
ARC
  5
7D87
  8
1
 10
1376.3807932239361
 20
1622.8436183406641
 30
0.0
 40
2.0
 50
90.0
 51
180.0
  0
LINE
  5
7D88
  8
1
 10
1396.3807932239361
 20
1644.8436183406641
 30
0.0
 11
1396.3807932239361
 21
1628.8436183406641
 31
0.0
  0
ARC
  5
7D89
  8
1
 10
1398.3807932239361
 20
1644.8436183406641
 30
0.0
 40
2.0
 50
90.0
 51
180.0
  0
LINE
  5
7D8A
  8
1
 10
1399.3807932239361
 20
1646.8436183406641
 30
0.0
 11
1398.3807932239361
 21
1646.8436183406641
 31
0.0
  0
LINE
  5
7D8B
  8
1
 10
2009.547384631858
 20
1524.443618340664
 30
0.0
 11
1959.547384631858
 21
1524.443618340664
 31
0.0
  0
LINE
  5
7D8C
  8
1
 10
1929.547384631858
 20
1747.8436183406641
 30
0.0
 11
2021.547384631858
 21
1747.8436183406641
 31
0.0
  0
LINE
  5
7D8D
  8
1
 10
2009.547384631858
 20
1584.3436183406641
 30
0.0
 11
1959.547384631858
 21
1584.3436183406641
 31
0.0
  0
LINE
  5
7D8E
  8
1
 10
2009.547384631858
 20
1711.343618340665
 30
0.0
 11
1959.547384631858
 21
1711.343618340665
 31
0.0
  0
LINE
  5
7D8F
  8
1
 10
1959.547384631858
 20
1711.3436183406641
 30
0.0
 11
1959.547384631858
 21
1584.3436183406641
 31
0.0
  0
LINE
  5
7D90
  8
1
 10
1959.547384631858
 20
1529.843618340665
 30
0.0
 11
1959.547384631858
 21
1505.843618340665
 31
0.0
  0
LINE
  5
7D99
  8
1
 10
2009.547384631858
 20
1711.3436183406641
 30
0.0
 11
2009.547384631858
 21
1584.3436183406641
 31
0.0
  0
LINE
  5
7D9B
  8
1
 10
2024.547384631858
 20
1519.8436183406641
 30
0.0
 11
2041.3473846318579
 21
1519.8436183406641
 31
0.0
  0
LINE
  5
7D9D
  8
1
 10
2044.547384631858
 20
1591.0436183406639
 30
0.0
 11
2044.5473846318559
 21
1272.8436183406641
 31
0.0
  0
LINE
  5
7D9E
  8
1
 10
2014.547384631858
 20
1459.3436183406641
 30
0.0
 11
2024.547384631858
 21
1459.3436183406641
 31
0.0
  0
LINE
  5
7DB6
  8
1
 10
1090.8807932239361
 20
2560.8566110719189
 30
0.0
 11
1217.8807932239361
 21
2560.856611071918
 31
0.0
  0
LINE
  5
7DB7
  8
1
 10
1090.8807932239361
 20
2510.8566110719189
 30
0.0
 11
1217.8807932239361
 21
2510.856611071918
 31
0.0
  0
LINE
  5
7DBA
  8
1
 10
1254.3807932239361
 20
2480.8566110719189
 30
0.0
 11
524.38079322393514
 21
2480.8566110719189
 31
0.0
  0
LINE
  5
7DBB
  8
1
 10
1254.3807932239361
 20
2572.8566110719189
 30
0.0
 11
524.38079322393514
 21
2572.8566110719189
 31
0.0
  0
LINE
  5
7DBC
  8
2
 10
854.34953167657125
 20
3168.8566110719189
 30
0.0
 11
1403.9799132501521
 21
3168.8566110719189
 31
0.0
  0
LINE
  5
7DBD
  8
1
 10
1014.380793223937
 20
3288.8566110719189
 30
0.0
 11
1294.3807932239361
 21
3288.8566110719189
 31
0.0
  0
LINE
  5
7DBE
  8
1
 10
877.81591234325367
 20
3286.8566110719189
 30
0.0
 11
1395.380793223934
 21
3286.856611071918
 31
0.0
  0
LINE
  5
7DBF
  8
1
 10
877.81591234325367
 20
3050.8566110719189
 30
0.0
 11
1395.380793223934
 21
3050.8566110719189
 31
0.0
  0
LINE
  5
7DC0
  8
1
 10
1014.380793223937
 20
3328.856611071918
 30
0.0
 11
1294.3807932239361
 21
3328.856611071918
 31
0.0
  0
DIMENSION
  5
7DC1
  8
3
  2
*D14
 10
974.38079322393605
 20
3429.6460897852021
 30
0.0
 11
1154.3807932239361
 21
3467.1460897852021
 31
0.0
 70
     0
 13
1334.3807932239361
 23
3333.8566110719189
 33
0.0
 14
974.38079322393605
 24
3333.8566110719189
 34
0.0
1001
ACAD
1000
DSTYLE
1002
{
1070
   287
1070
     3
1070
    40
1040
15.0
1070
   143
1040
0.039
1070
   172
1070
     1
1070
   271
1070
     0
1070
   279
1070
     0
1070
   288
1070
     1
1002
}
  0
LINE
  5
7DC2
  8
1
 10
1314.3807932239349
 20
2995.856611071918
 30
0.0
 11
1171.8807932239361
 21
2995.856611071918
 31
0.0
  0
LINE
  5
7DC3
  8
1
 10
1314.3807932239361
 20
2585.856611071918
 30
0.0
 11
994.38079322393605
 21
2585.856611071918
 31
0.0
  0
DIMENSION
  5
7DCA
  8
3
  2
*D15
 10
534.38079322393423
 20
3429.6460897852021
 30
0.0
 11
754.38079322393514
 21
3467.1460897852021
 31
0.0
 70
     0
 13
974.38079322393605
 23
3333.8566110719189
 33
0.0
 14
534.38079322393423
 24
2933.856611071918
 34
0.0
1001
ACAD
1000
DSTYLE
1002
{
1070
   287
1070
     3
1070
    40
1040
15.0
1070
   143
1040
0.039
1070
   172
1070
     1
1070
   271
1070
     0
1070
   279
1070
     0
1070
   288
1070
     1
1002
}
  0
DIMENSION
  5
7DCB
  8
3
  2
*D16
 10
436.17458289890777
 20
2933.856611071918
 30
0.0
 11
398.67458289890732
 21
2743.856611071918
 31
0.0
 70
     0
 13
534.38079322393605
 23
2553.856611071918
 33
0.0
 14
534.38079322393423
 24
2933.856611071918
 34
0.0
 50
270.0
1001
ACAD
1000
DSTYLE
1002
{
1070
   287
1070
     3
1070
    40
1040
15.0
1070
   143
1040
0.039
1070
   172
1070
     1
1070
   271
1070
     0
1070
   279
1070
     0
1070
   288
1070
     1
1002
}
  0
LINE
  5
7DCE
  8
1
 10
974.38079322393696
 20
2593.8566110719189
 30
0.0
 11
974.38079322393605
 21
3050.8566110719189
 31
0.0
  0
LINE
  5
7DCF
  8
1
 10
994.38079322393605
 20
2585.856611071918
 30
0.0
 11
994.38079322393605
 21
2995.856611071918
 31
0.0
  0
LINE
  5
7DD0
  8
2
 10
1154.3807932239349
 20
3321.03799108059
 30
0.0
 11
1154.3807932239361
 21
2471.6903077960119
 31
0.0
  0
LINE
  5
7DD1
  8
1
 10
994.38079322393605
 20
2593.8566110719189
 30
0.0
 11
775.38079322393514
 21
2593.8566110719189
 31
0.0
  0
LINE
  5
7DD2
  8
1
 10
974.38079322393605
 20
2933.856611071918
 30
0.0
 11
534.38079322393605
 21
2933.856611071918
 31
0.0
  0
LINE
  5
7DD3
  8
1
 10
974.38079322393605
 20
2893.8566110719189
 30
0.0
 11
534.38079322393605
 21
2893.8566110719189
 31
0.0
  0
LINE
  5
7DD4
  8
2
 10
674.38079322393514
 20
2841.7936110719188
 30
0.0
 11
674.38079322393514
 21
2505.822011071919
 31
0.0
  0
LINE
  5
7DD5
  8
1
 10
573.38079322393514
 20
2837.8566110719189
 30
0.0
 11
573.38079322393514
 21
2575.8566110719189
 31
0.0
  0
LINE
  5
7DD6
  8
1
 10
775.38079322393514
 20
2837.8566110719189
 30
0.0
 11
775.38079322393514
 21
2575.8566110719189
 31
0.0
  0
LINE
  5
7DD7
  8
1
 10
637.88079322393514
 20
2565.8566110719189
 30
0.0
 11
710.88079322393514
 21
2565.8566110719189
 31
0.0
  0
LINE
  5
7DD8
  8
1
 10
756.98079322393539
 20
2560.8566110719189
 30
0.0
 11
591.78079322393558
 21
2560.8566110719189
 31
0.0
  0
LINE
  5
7DD9
  8
1
 10
756.98079322393539
 20
2510.856611071918
 30
0.0
 11
591.78079322393558
 21
2510.856611071918
 31
0.0
  0
LINE
  5
7DDA
  8
1
 10
775.38079322393514
 20
2575.8566110719189
 30
0.0
 11
573.38079322393514
 21
2575.8566110719189
 31
0.0
  0
LINE
  5
7DDC
  8
1
 10
534.38079322393514
 20
2572.8566110719189
 30
0.0
 11
534.38079322393514
 21
2593.8566110719189
 31
0.0
  0
LINE
  5
7DDD
  8
1
 10
524.38079322393514
 20
2480.8566110719189
 30
0.0
 11
524.38079322393514
 21
2572.856611071918
 31
0.0
  0
LINE
  5
7DDE
  8
1
 10
591.78079322393558
 20
2560.8566110719189
 30
0.0
 11
591.78079322393558
 21
2510.856611071918
 31
0.0
  0
ARC
  5
7DDF
  8
1
 10
635.88079322393514
 20
2574.8566110719189
 30
0.0
 40
1.0000999999999991
 50
0.0034999999999464
 51
90.0
  0
ARC
  5
7DE0
  8
1
 10
637.88079322393514
 20
2566.8567110719191
 30
0.0
 40
1.0000999999999991
 50
180.00349999999989
 51
270.0
  0
LINE
  5
7DE1
  8
1
 10
636.88079322393514
 20
2566.8566110719189
 30
0.0
 11
636.88079322393514
 21
2574.8566110719189
 31
0.0
  0
LINE
  5
7DE2
  8
1
 10
573.38079322393514
 20
2593.8566110719189
 30
0.0
 11
534.38079322393605
 21
2593.8566110719189
 31
0.0
  0
LINE
  5
7DE3
  8
1
 10
686.38079322393514
 20
2510.8566110719189
 30
0.0
 11
662.38079322393514
 21
2510.8566110719189
 31
0.0
  0
LINE
  5
7DE4
  8
1
 10
661.88079322393514
 20
2565.8566110719189
 30
0.0
 11
661.88079322393514
 21
2560.8566110719189
 31
0.0
  0
LINE
  5
7DE5
  8
1
 10
686.88079322393514
 20
2565.8566110719189
 30
0.0
 11
686.88079322393514
 21
2560.8566110719189
 31
0.0
  0
LINE
  5
7DE6
  8
1
 10
686.88079322393514
 20
2560.8566110719189
 30
0.0
 11
661.88079322393514
 21
2560.8566110719189
 31
0.0
  0
LINE
  5
7DE7
  8
1
 10
710.88079322393514
 20
2565.8566110719189
 30
0.0
 11
710.88079322393514
 21
2575.8566110719189
 31
0.0
  0
LINE
  5
7DE8
  8
1
 10
756.98079322393539
 20
2560.8566110719189
 30
0.0
 11
756.98079322393539
 21
2510.856611071918
 31
0.0
  0
LINE
  5
7DE9
  8
1
 10
775.38079322393514
 20
2837.8566110719189
 30
0.0
 11
573.38079322393514
 21
2837.8566110719189
 31
0.0
  0
LINE
  5
7DEA
  8
1
 10
534.38079322393423
 20
2893.8566110719189
 30
0.0
 11
534.38079322393423
 21
2933.856611071918
 31
0.0
  0
POINT
  5
7DEB
  8
1
 10
534.38079322393423
 20
2933.856611071918
 30
0.0
  0
LINE
  5
7DEE
  8
1
 10
1171.8807932239361
 20
3050.8566110719189
 30
0.0
 11
1171.8807932239361
 21
2560.856611071918
 31
0.0
  0
LINE
  5
7DEF
  8
1
 10
1136.8807932239361
 20
3050.8566110719189
 30
0.0
 11
1136.8807932239361
 21
2560.856611071918
 31
0.0
  0
LINE
  5
7DF0
  8
1
 10
1090.8807932239361
 20
2560.8566110719189
 30
0.0
 11
1090.8807932239361
 21
2510.856611071918
 31
0.0
  0
LINE
  5
7DF6
  8
1
 10
877.81591234325367
 20
3050.8566110719189
 30
0.0
 11
877.81591234325367
 21
3286.8566110719189
 31
0.0
  0
LINE
  5
7DF8
  8
1
 10
1014.3807932239361
 20
2995.856611071918
 30
0.0
 11
1014.380793223937
 21
3050.8566110719189
 31
0.0
  0
LINE
  5
7DFB
  8
1
 10
974.38079322393605
 20
3333.8566110719189
 30
0.0
 11
1014.380793223937
 21
3333.8566110719189
 31
0.0
  0
LINE
  5
7DFC
  8
1
 10
974.38079322393605
 20
3286.8566110719189
 30
0.0
 11
974.38079322393605
 21
3333.8566110719189
 31
0.0
  0
POINT
  5
7DFD
  8
1
 10
974.38079322393605
 20
3333.8566110719189
 30
0.0
  0
LINE
  5
7DFE
  8
1
 10
1014.380793223937
 20
3286.8566110719189
 30
0.0
 11
1014.380793223937
 21
3333.856611071918
 31
0.0
  0
LINE
  5
7DFF
  8
1
 10
1334.3807932239349
 20
3050.8566110719189
 30
0.0
 11
1334.3807932239349
 21
2553.856611071918
 31
0.0
  0
DIMENSION
  5
7E00
  8
3
  2
*D17
 10
1471.811275232732
 20
3333.8566110719189
 30
0.0
 11
1434.311275232732
 21
2943.8566110719189
 31
0.0
 70
     0
 13
1334.3807932239349
 23
2553.856611071918
 33
0.0
 14
1334.3807932239361
 24
3333.8566110719189
 34
0.0
 50
270.0
1001
ACAD
1000
DSTYLE
1002
{
1070
   287
1070
     3
1070
    40
1040
15.0
1070
   143
1040
0.039
1070
   172
1070
     1
1070
   271
1070
     0
1070
   279
1070
     0
1070
   288
1070
     1
1002
}
  0
LINE
  5
7E01
  8
1
 10
1314.3807932239361
 20
2585.856611071918
 30
0.0
 11
1314.3807932239361
 21
2995.856611071918
 31
0.0
  0
LINE
  5
7E04
  8
1
 10
1334.3807932239361
 20
2553.856611071918
 30
0.0
 11
1254.3807932239361
 21
2553.856611071918
 31
0.0
  0
LINE
  5
7E05
  8
1
 10
1217.8807932239361
 20
2560.856611071918
 30
0.0
 11
1217.8807932239361
 21
2510.856611071918
 31
0.0
  0
LINE
  5
7E06
  8
1
 10
1254.3807932239361
 20
2480.8566110719189
 30
0.0
 11
1254.3807932239361
 21
2572.8566110719189
 31
0.0
  0
POINT
  5
7E07
  8
1
 10
1334.3807932239349
 20
2553.856611071918
 30
0.0
  0
LINE
  5
7E0A
  8
1
 10
1334.3807932239349
 20
2593.8566110719189
 30
0.0
 11
1314.3807932239361
 21
2593.8566110719189
 31
0.0
  0
LINE
  5
7E0B
  8
1
 10
1395.3807932239349
 20
3023.856611071918
 30
0.0
 11
1395.3807932239349
 21
3313.8566110719189
 31
0.0
  0
LINE
  5
7E0C
  8
1
 10
1398.3807932239349
 20
3023.856611071918
 30
0.0
 11
1398.3807932239349
 21
3313.8566110719189
 31
0.0
  0
LINE
  5
7E0D
  8
1
 10
1294.3807932239361
 20
3050.8566110719189
 30
0.0
 11
1294.3807932239361
 21
2995.856611071918
 31
0.0
  0
LINE
  5
7E0E
  8
1
 10
1395.380793223934
 20
3023.856611071918
 30
0.0
 11
1398.3807932239349
 21
3023.856611071918
 31
0.0
  0
LINE
  5
7E0F
  8
1
 10
1294.3807932239361
 20
3333.8566110719189
 30
0.0
 11
1334.3807932239361
 21
3333.8566110719189
 31
0.0
  0
LINE
  5
7E10
  8
1
 10
1294.3807932239361
 20
3333.8566110719189
 30
0.0
 11
1294.3807932239361
 21
3286.8566110719189
 31
0.0
  0
LINE
  5
7E11
  8
1
 10
1334.3807932239361
 20
3333.8566110719189
 30
0.0
 11
1334.3807932239361
 21
3286.8566110719189
 31
0.0
  0
POINT
  5
7E12
  8
1
 10
1334.3807932239361
 20
3333.8566110719189
 30
0.0
  0
POINT
  5
7E13
  8
1
 10
1334.3807932239361
 20
3333.8566110719189
 30
0.0
  0
LINE
  5
7E14
  8
1
 10
1395.380793223934
 20
3313.8566110719189
 30
0.0
 11
1398.3807932239349
 21
3313.856611071918
 31
0.0
  0
LINE
  5
7E15
  8
1
 10
2735.5201828314862
 20
1295.23244866562
 30
0.0
 11
2499.5473846318582
 21
1620.4547880157079
 31
0.0
  0
LINE
  5
7E16
  8
1
 10
2735.5473846318582
 20
1620.4547880157079
 30
0.0
 11
2499.5473846318582
 21
1295.23244866562
 31
0.0
  0
LINE
  5
7E19
  8
1
 10
2735.5473846318582
 20
1620.4547880157079
 30
0.0
 11
2735.5473846318582
 21
1411.8847141128349
 31
0.0
  0
LINE
  5
7E1A
  8
1
 10
2735.5473846318582
 20
1620.4547880157079
 30
0.0
 11
2735.5473846318582
 21
1295.23244866562
 31
0.0
  0
LINE
  5
7E1B
  8
1
 10
2499.5473846318582
 20
1620.4547880157079
 30
0.0
 11
2499.5473846318582
 21
1411.8847141128349
 31
0.0
  0
LINE
  5
7E1D
  8
1
 10
2499.5473846318582
 20
1620.4547880157079
 30
0.0
 11
2499.5473846318582
 21
1295.23244866562
 31
0.0
  0
LINE
  5
7E21
  8
1
 10
2472.5473846318569
 20
1645.4547880157079
 30
0.0
 11
2472.5473846318582
 21
1270.23244866562
 31
0.0
  0
LINE
  5
7E22
  8
1
 10
2762.5473846318591
 20
1645.4547880157079
 30
0.0
 11
2762.5473846318569
 21
1270.23244866562
 31
0.0
  0
LINE
  5
7E23
  8
2
 10
2617.5473846318582
 20
1939.586468818288
 30
0.0
 11
2617.5473846318582
 21
992.71508473176164
 31
0.0
  0
LINE
  5
7E24
  8
1
 10
2434.5473846318569
 20
1589.7436183406651
 30
0.0
 11
2434.5473846318569
 21
1272.8436183406641
 31
0.0
  0
DIMENSION
  5
7E25
  8
3
  2
*D18
 10
2782.5473846318569
 20
913.75105780189563
 30
0.0
 11
2700.0473846318582
 21
954.16625630195256
 31
0.0
 12
0.0
 22
-59.0
 32
0.0
 70
   128
 13
2617.5473846318582
 23
992.71508473176164
 33
0.0
 14
2782.5473846318569
 24
1027.843618340665
 34
0.0
1001
ACAD
1000
DSTYLE
1002
{
1070
   288
1070
     1
1070
   172
1070
     1
1070
    40
1040
15.0
1070
   271
1070
     0
1070
   143
1040
0.039
1002
}
  0
LINE
  5
7E26
  8
1
 10
2499.5473846318582
 20
1295.23244866562
 30
0.0
 11
2735.5473846318569
 21
1295.23244866562
 31
0.0
  0
LINE
  5
7E28
  8
1
 10
2472.5473846318582
 20
1270.23244866562
 30
0.0
 11
2762.5473846318569
 21
1270.23244866562
 31
0.0
  0
LINE
  5
7E29
  8
1
 10
2499.5473846318569
 20
1295.23244866562
 30
0.0
 11
2735.5473846318582
 21
1295.23244866562
 31
0.0
  0
LINE
  5
7E2A
  8
1
 10
2782.5473846318569
 20
1102.8436183406641
 30
0.0
 11
2782.5473846318569
 21
1027.8436183406641
 31
0.0
  0
LINE
  5
7E2B
  8
1
 10
2782.5473846318569
 20
1272.8436183406641
 30
0.0
 11
2782.5473846318569
 21
1197.8436183406641
 31
0.0
  0
LINE
  5
7E2C
  8
1
 10
2762.5473846318569
 20
1272.8436183406641
 30
0.0
 11
2782.5473846318569
 21
1272.8436183406641
 31
0.0
  0
DIMENSION
  5
7E2D
  8
3
  2
*D19
 10
2738.5473846318582
 20
2039.8433527693751
 30
0.0
 11
2678.0473846318582
 21
2084.2769318288442
 31
0.0
 70
   128
 13
2617.5473846318582
 23
2000.669306253425
 33
0.0
 14
2738.5473846318582
 24
1831.3436451048899
 34
0.0
1001
ACAD
1000
DSTYLE
1002
{
1070
   288
1070
     1
1070
   172
1070
     1
1070
    40
1040
15.0
1070
   271
1070
     0
1070
   143
1040
0.039
1002
}
  0
DIMENSION
  5
7E2E
  8
3
  2
*D20
 10
2735.5473846318582
 20
1936.318882084131
 30
0.0
 11
2617.5473846318582
 21
1973.818882084131
 31
0.0
 70
     0
 13
2499.5473846318582
 23
1869.859621313966
 33
0.0
 14
2735.5473846318582
 24
1870.6276608648491
 34
0.0
1001
ACAD
1000
DSTYLE
1002
{
1070
   287
1070
     3
1070
    40
1040
15.0
1070
   143
1040
0.039
1070
   172
1070
     1
1070
   271
1070
     0
1070
   279
1070
     0
1070
   288
1070
     1
1002
}
  0
LINE
  5
7E2F
  8
1
 10
2499.5473846318582
 20
1620.4547880157079
 30
0.0
 11
2735.5473846318582
 21
1620.4547880157079
 31
0.0
  0
LINE
  5
7E30
  8
1
 10
2499.5473846318582
 20
1870.8025225684939
 30
0.0
 11
2735.5473846318582
 21
1870.8025225684939
 31
0.0
  0
LINE
  5
7E31
  8
1
 10
2472.5473846318582
 20
1645.4547880157079
 30
0.0
 11
2762.5473846318582
 21
1645.4547880157079
 31
0.0
  0
LINE
  5
7E32
  8
1
 10
2499.5473846318582
 20
1870.8025225684939
 30
0.0
 11
2499.5473846318582
 21
1645.4547880157079
 31
0.0
  0
POLYLINE
  5
7E3D
  8
1
 66
     1
 10
0.0
 20
0.0
 30
0.0
 70
     1
  0
VERTEX
  5
8510
  8
1
 10
2434.5473846318569
 20
1551.0436183406639
 30
0.0
  0
VERTEX
  5
8511
  8
1
 10
2434.5473846318569
 20
1591.0436183406639
 30
0.0
  0
VERTEX
  5
8512
  8
1
 10
2436.5473846318569
 20
1591.0436183406639
 30
0.0
 42
-0.4142135623730951
  0
VERTEX
  5
8513
  8
1
 10
2439.5473846318569
 20
1588.0436183406639
 30
0.0
  0
VERTEX
  5
8514
  8
1
 10
2439.5473846318569
 20
1560.5436183406639
 30
0.0
 42
0.4142135623730951
  0
VERTEX
  5
8515
  8
1
 10
2444.0473846318569
 20
1556.0436183406639
 30
0.0
  0
VERTEX
  5
8516
  8
1
 10
2471.5473846318569
 20
1556.0436183406639
 30
0.0
 42
-0.4142135623730951
  0
VERTEX
  5
8517
  8
1
 10
2474.5473846318569
 20
1553.0436183406639
 30
0.0
  0
VERTEX
  5
8518
  8
1
 10
2474.5473846318569
 20
1551.0436183406639
 30
0.0
  0
SEQEND
  5
8519
  8
1
  0
LINE
  5
7E48
  8
1
 10
2434.5473846318569
 20
1589.7436183406651
 30
0.0
 11
2434.5473846318569
 21
1539.7436183406639
 31
0.0
  0
LINE
  5
7E49
  8
1
 10
2434.5473846318569
 20
1589.7436183406651
 30
0.0
 11
2434.5473846318569
 21
1549.7436183406651
 31
0.0
  0
LINE
  5
7E4A
  8
1
 10
2447.5473846318582
 20
1551.0436183406639
 30
0.0
 11
2499.5473846318582
 21
1551.0436183406639
 31
0.0
  0
LINE
  5
7E4B
  8
1
 10
2447.5473846318582
 20
1545.0436183406639
 30
0.0
 11
2499.5473846318582
 21
1545.0436183406639
 31
0.0
  0
LINE
  5
7E4C
  8
1
 10
2447.5473846318582
 20
1545.0436183406639
 30
0.0
 11
2447.5473846318582
 21
1549.7436183406651
 31
0.0
  0
LINE
  5
7E4D
  8
1
 10
2447.5473846318582
 20
1551.0436183406639
 30
0.0
 11
2447.5473846318582
 21
1545.0436183406639
 31
0.0
  0
LINE
  5
7E4E
  8
1
 10
2472.5473846318582
 20
1630.3436183406641
 30
0.0
 11
2009.547384631858
 21
1630.3436183406641
 31
0.0
  0
LINE
  5
7E4F
  8
1
 10
2499.5473846318582
 20
1665.343618340665
 30
0.0
 11
2009.547384631858
 21
1665.3436183406629
 31
0.0
  0
LINE
  5
7E62
  8
1
 10
2444.5473846318569
 20
1594.2436183406639
 30
0.0
 11
2444.547384631855
 21
1591.0436183406639
 31
0.0
  0
LINE
  5
7E68
  8
1
 10
2741.5473846318582
 20
1829.343645104891
 30
0.0
 11
2741.5473846318582
 21
1645.4547880157079
 31
0.0
  0
LINE
  5
7E69
  8
1
 10
2738.5473846318582
 20
1831.3436451048899
 30
0.0
 11
2738.5473846318582
 21
1645.454788015709
 31
0.0
  0
LINE
  5
7E6A
  8
1
 10
2735.5473846318582
 20
1870.8025225684939
 30
0.0
 11
2735.5473846318582
 21
1670.4547880157079
 31
0.0
  0
DIMENSION
  5
7E6C
  8
3
  2
*D21
 10
2890.7273561743459
 20
1490.3436183406641
 30
0.0
 11
2853.227356174345
 21
1647.843618340665
 31
0.0
 70
     0
 13
2763.5473846318582
 23
1805.3436183406641
 33
0.0
 14
2763.5473846318582
 24
1490.3436183406641
 34
0.0
 50
90.0
1001
ACAD
1000
DSTYLE
1002
{
1070
   287
1070
     3
1070
     3
1000
φ<>
1070
    40
1040
15.0
1070
   143
1040
0.039
1070
   172
1070
     1
1070
   271
1070
     0
1070
   279
1070
     0
1070
   288
1070
     1
1002
}
  0
LINE
  5
7E6D
  8
1
 10
2763.5473846318582
 20
1490.3436183406641
 30
0.0
 11
2763.5473846318582
 21
1806.3436451048899
 31
0.0
  0
LINE
  5
7E6E
  8
1
 10
2763.5473846318582
 20
1490.3436183406641
 30
0.0
 11
2762.5473846318582
 21
1490.3436183406641
 31
0.0
  0
LINE
  5
7E6F
  8
1
 10
2735.5473846318582
 20
1650.23244866562
 30
0.0
 11
2735.5473846318582
 21
1645.4547880157079
 31
0.0
  0
LINE
  5
7E72
  8
1
 10
2735.5473846318582
 20
1670.454788015709
 30
0.0
 11
2735.5473846318582
 21
1645.4547880157079
 31
0.0
  0
LINE
  5
7E73
  8
1
 10
2741.5473846318582
 20
1813.3436451048899
 30
0.0
 11
2741.5473846318582
 21
1829.343645104891
 31
0.0
  0
LINE
  5
7E74
  8
1
 10
2761.5473846318582
 20
1809.3436451048899
 30
0.0
 11
2745.5473846318582
 21
1809.3436451048899
 31
0.0
  0
ARC
  5
7E75
  8
1
 10
2745.5473846318582
 20
1813.3436451048899
 30
0.0
 40
4.0
 50
180.0
 51
270.0
  0
ARC
  5
7E76
  8
1
 10
2761.5473846318582
 20
1807.3436451048899
 30
0.0
 40
2.0
 50
0.0
 51
90.0
  0
ARC
  5
7E78
  8
1
 10
2739.5473846318582
 20
1829.343645104891
 30
0.0
 40
2.0
 50
0.0
 51
90.0
  0
LINE
  5
7E79
  8
1
 10
2739.5473846318582
 20
1831.3436451048899
 30
0.0
 11
2738.5473846318582
 21
1831.3436451048899
 31
0.0
  0
LINE
  5
80C8
  8
4
 10
2775.0
 20
750.0
 30
0.0
 11
2775.0
 21
450.0
 31
0.0
  0
LINE
  5
80C9
  8
4
 10
1725.0
 20
750.0
 30
0.0
 11
1725.0
 21
450.0
 31
0.0
  0
LINE
  5
80CA
  8
4
 10
975.0
 20
750.0
 30
0.0
 11
975.0
 21
450.0
 31
0.0
  0
LINE
  5
80CD
  8
4
 10
975.0
 20
450.0
 30
0.0
 11
2775.0
 21
450.0
 31
0.0
  0
LINE
  5
80CE
  8
4
 10
975.0
 20
600.0
 30
0.0
 11
2775.0
 21
600.0
 31
0.0
  0
TEXT
  5
80CF
  8
4
 10
1032.753121270352
 20
647.31453879991932
 30
0.0
 40
75.0
  1
機器名称
  0
TEXT
  5
80D0
  8
4
 10
1029.3871590371959
 20
482.46773509801642
 30
0.0
 40
75.0
  1
機器型番
  0
TEXT
  5
80D1
  8
4
 10
1732.1895767098961
 20
633.28095353542062
 30
0.0
 40
67.5
  1
ミツヤリミットロードファン
  0
TEXT
  5
80D2
  8
4
 10
1779.9817433782209
 20
475.739376419915
 30
0.0
 40
75.0
  1
LL#2-1
  0
TEXT
  5
80D4
  8
4
 10
1227.4252258462179
 20
3575.1432619987731
 30
0.0
 40
80.999999999999986
  1
床置防振ベット
  0
TEXT
  5
80D5
  8
4
 10
474.25138999416959
 20
3800.8214642989469
 30
0.0
 40
108.0
  1
遠心式片吸込片持リミットロードファン
  0
LINE
  5
80D6
  8
4
 10
375.0
 20
3704.1131313972069
 30
0.0
 11
2775.0
 21
3704.1131313972069
 31
0.0
  0
LINE
  5
80D7
  8
4
 10
375.0
 20
4004.1131313972069
 30
0.0
 11
2775.0
 21
4004.1131313972069
 31
0.0
  0
LINE
  5
80D8
  8
4
 10
975.0
 20
750.0
 30
0.0
 11
2775.0
 21
750.0
 31
0.0
  0
LINE
  5
80D9
  8
4
 10
375.0
 20
4004.1131313972069
 30
0.0
 11
375.0
 21
3704.1131313972069
 31
0.0
  0
TEXT
  5
80DA
  8
4
 10
573.63697748216509
 20
3573.4792163195152
 30
0.0
 40
80.999999999999986
  1
左回転右横向
  0
TEXT
  5
80DB
  8
4
 10
2203.4543388739339
 20
4059.0916222429628
 30
0.0
 40
84.000000000000014
  1
No.
  0
TEXT
  5
80DC
  8
4
 10
1966.944093900019
 20
3575.1432619987731
 30
0.0
 40
80.999999999999986
  1
縮尺：1/15
  0
LINE
  5
80DD
  8
4
 10
2775.0
 20
4004.1131313972069
 30
0.0
 11
2775.0
 21
3704.1131313972069
 31
0.0
  0
LINE
  5
80DE
  8
4
 10
3150.0
 20
4425.0
 30
0.0
 11
3150.0
 21
4425.0
 31
0.0
  0
LINE
  5
80DF
  8
4
 10
2160.9261335397969
 20
4021.895374688102
 30
0.0
 11
2160.9261335397969
 21
4179.9783923246277
 31
0.0
  0
LINE
  5
80E0
  8
4
 10
2160.9261335397969
 20
4179.9783923246277
 30
0.0
 11
2775.0
 21
4179.9783923246277
 31
0.0
  0
LINE
  5
80E1
  8
4
 10
2775.0
 20
4179.9783923246277
 30
0.0
 11
2775.0
 21
4021.895374688102
 31
0.0
  0
LINE
  5
80E2
  8
4
 10
2775.0
 20
4021.895374688102
 30
0.0
 11
2160.9261335397969
 21
4021.895374688102
 31
0.0
  0
LINE
  5
80E3
  8
4
 10
0.0
 20
0.0
 30
0.0
 11
0.0
 21
4425.0
 31
0.0
  0
LINE
  5
80E4
  8
4
 10
0.0
 20
4425.0
 30
0.0
 11
3150.0
 21
4425.0
 31
0.0
  0
LINE
  5
80E5
  8
4
 10
3150.0
 20
4425.0
 30
0.0
 11
3150.0
 21
0.0
 31
0.0
  0
LINE
  5
80E6
  8
4
 10
3150.0
 20
0.0
 30
0.0
 11
0.0
 21
0.0
 31
0.0
  0
DIMENSION
  5
82DE
  8
3
  2
*D23
 10
534.38079322393605
 20
2089.7511775917369
 30
0.0
 11
1002.3908153307329
 21
2089.7511775917369
 31
0.0
 70
   128
 13
1399.3807932239361
 23
1650.23244866562
 33
0.0
 14
534.38079322393605
 24
1272.8436183406641
 34
0.0
1001
ACAD
1000
DSTYLE
1002
{
1070
   287
1070
     3
1070
    40
1040
15.0
1070
   143
1040
0.039
1070
   172
1070
     1
1070
   271
1070
     0
1070
   279
1070
     0
1070
   288
1070
     1
1002
}
  0
LINE
  5
837E
  8
1
 10
2021.547384631858
 20
1307.699744625897
 30
0.0
 11
2021.547384631858
 21
1272.8436183406641
 31
0.0
  0
LINE
  5
83BC
  8
1
 10
1136.8807932239361
 20
2995.856611071918
 30
0.0
 11
994.38079322393514
 21
2995.856611071918
 31
0.0
  0
DIMENSION
  5
840A
  8
3
  2
*D24
 10
1650.370292642579
 20
1102.8436183406641
 30
0.0
 11
1722.156006928293
 21
1150.3436183406641
 31
0.0
 12
52.410120134860342
 22
0.0
 32
0.0
 70
     0
  1
(<>)
 13
1334.3807932239361
 23
1197.8436183406641
 33
0.0
 14
1334.3807932239349
 24
1102.8436183406641
 34
0.0
 50
90.0
1001
ACAD
1000
DSTYLE
1002
{
1070
   288
1070
     1
1070
   172
1070
     1
1070
    40
1040
15.0
1070
   271
1070
     0
1070
     7
1000
_NONE
1070
     6
1000
_NONE
1070
   143
1040
0.039
1002
}
  0
ENDSEC
  0
EOF
