  0
SECTION
  2
HEADER
  9
$ACADVER
  1
AC1009
  9
$INSBASE
 10
0.0
 20
0.0
 30
0.0
  9
$EXTMIN
 10
0.0
 20
0.0
 30
0.0
  9
$EXTMAX
 10
3150.0
 20
4425.0
 30
0.0
  9
$LIMMIN
 10
0.0
 20
0.0
  9
$LIMMAX
 10
297.0
 20
210.0
  9
$ORTHOMODE
 70
     0
  9
$REGENMODE
 70
     1
  9
$FILLMODE
 70
     0
  9
$QTEXTMODE
 70
     0
  9
$MIRRTEXT
 70
     1
  9
$DRAGMODE
 70
     2
  9
$LTSCALE
 40
100.0
  9
$OSMODE
 70
    37
  9
$ATTMODE
 70
     1
  9
$TEXTSIZE
 40
180.0
  9
$TRACEWID
 40
0.05
  9
$TEXTSTYLE
  7
STANDARD
  9
$CLAYER
  8
3
  9
$CELTYPE
  6
BYLAYER
  9
$CECOLOR
 62
   256
  9
$DIMSCALE
 40
15.0
  9
$DIMASZ
 40
2.0
  9
$DIMEXO
 40
0.5
  9
$DIMDLI
 40
10.0
  9
$DIMRND
 40
0.0
  9
$DIMDLE
 40
0.0
  9
$DIMEXE
 40
1.0
  9
$DIMTP
 40
1.0
  9
$DIMTM
 40
1.0
  9
$DIMTXT
 40
3.0
  9
$DIMCEN
 40
0.0
  9
$DIMTSZ
 40
0.0
  9
$DIMTOL
 70
     0
  9
$DIMLIM
 70
     0
  9
$DIMTIH
 70
     0
  9
$DIMTOH
 70
     0
  9
$DIMSE1
 70
     0
  9
$DIMSE2
 70
     0
  9
$DIMTAD
 70
     1
  9
$DIMZIN
 70
     8
  9
$DIMBLK
  1

  9
$DIMASO
 70
     1
  9
$DIMSHO
 70
     1
  9
$DIMPOST
  1

  9
$DIMAPOST
  1

  9
$DIMALT
 70
     0
  9
$DIMALTD
 70
     2
  9
$DIMALTF
 40
0.039
  9
$DIMLFAC
 40
1.0
  9
$DIMTOFL
 70
     1
  9
$DIMTVP
 40
0.0
  9
$DIMTIX
 70
     0
  9
$DIMSOXD
 70
     0
  9
$DIMSAH
 70
     1
  9
$DIMBLK1
  1
OPEN
  9
$DIMBLK2
  1
OPEN
  9
$DIMSTYLE
  2
IGA
  9
$DIMCLRD
 70
     0
  9
$DIMCLRE
 70
     0
  9
$DIMCLRT
 70
     0
  9
$DIMTFAC
 40
10.0
  9
$DIMGAP
 40
1.0
  9
$LUNITS
 70
     2
  9
$LUPREC
 70
     3
  9
$SKETCHINC
 40
0.1
  9
$FILLETRAD
 40
50.0
  9
$AUNITS
 70
     0
  9
$AUPREC
 70
     0
  9
$MENU
  1
acad
  9
$ELEVATION
 40
0.0
  9
$PELEVATION
 40
0.0
  9
$THICKNESS
 40
0.0
  9
$LIMCHECK
 70
     0
  9
$BLIPMODE
 70
     0
  9
$CHAMFERA
 40
0.5
  9
$CHAMFERB
 40
0.5
  9
$SKPOLY
 70
     0
  9
$TDCREATE
 40
2451019.5951290498
  9
$TDUPDATE
 40
2454953.6383902892
  9
$TDINDWG
 40
0.0239154398
  9
$TDUSRTIMER
 40
0.0239154398
  9
$USRTIMER
 70
     1
  9
$ANGBASE
 50
0.0
  9
$ANGDIR
 70
     0
  9
$PDMODE
 70
     0
  9
$PDSIZE
 40
0.0
  9
$PLINEWID
 40
0.0
  9
$COORDS
 70
     1
  9
$SPLFRAME
 70
     0
  9
$SPLINETYPE
 70
     6
  9
$SPLINESEGS
 70
     8
  9
$ATTDIA
 70
     0
  9
$ATTREQ
 70
     1
  9
$HANDLING
 70
 10241
  9
$HANDSEED
  5
854C
  9
$SURFTAB1
 70
     6
  9
$SURFTAB2
 70
     6
  9
$SURFTYPE
 70
     6
  9
$SURFU
 70
     6
  9
$SURFV
 70
     6
  9
$UCSNAME
  2

  9
$UCSORG
 10
0.0
 20
0.0
 30
0.0
  9
$UCSXDIR
 10
1.0
 20
0.0
 30
0.0
  9
$UCSYDIR
 10
0.0
 20
1.0
 30
0.0
  9
$PUCSNAME
  2

  9
$PUCSORG
 10
0.0
 20
0.0
 30
0.0
  9
$PUCSXDIR
 10
1.0
 20
0.0
 30
0.0
  9
$PUCSYDIR
 10
0.0
 20
1.0
 30
0.0
  9
$USERI1
 70
     0
  9
$USERI2
 70
     0
  9
$USERI3
 70
     0
  9
$USERI4
 70
     0
  9
$USERI5
 70
     0
  9
$USERR1
 40
0.0
  9
$USERR2
 40
0.0
  9
$USERR3
 40
0.0
  9
$USERR4
 40
0.0
  9
$USERR5
 40
0.0
  9
$WORLDVIEW
 70
     1
  9
$SHADEDGE
 70
     3
  9
$SHADEDIF
 70
    70
  9
$TILEMODE
 70
     1
  9
$MAXACTVP
 70
    16
  9
$PLIMCHECK
 70
     0
  9
$PEXTMIN
 10
1.0000000000000000E+020
 20
1.0000000000000000E+020
 30
1.0000000000000000E+020
  9
$PEXTMAX
 10
-1.0000000000000000E+020
 20
-1.0000000000000000E+020
 30
-1.0000000000000000E+020
  9
$PLIMMIN
 10
0.0
 20
0.0
  9
$PLIMMAX
 10
12.0
 20
9.0
  9
$UNITMODE
 70
     0
  9
$VISRETAIN
 70
     0
  9
$PLINEGEN
 70
     0
  9
$PSLTSCALE
 70
     1
  0
ENDSEC
  0
SECTION
  2
TABLES
  0
TABLE
  2
VPORT
 70
     2
  0
VPORT
  2
*ACTIVE
 70
     0
 10
0.0
 20
0.0
 11
1.0
 21
1.0
 12
2887.738688409469
 22
503.75812843677522
 13
0.0
 23
0.0
 14
10.0
 24
10.0
 15
10.0
 25
10.0
 16
0.0
 26
0.0
 36
1.0
 17
0.0
 27
0.0
 37
0.0
 40
1234.6239255188279
 41
3.1666666666666661
 42
50.0
 43
0.0
 44
0.0
 50
0.0
 51
0.0
 71
     0
 72
   100
 73
     1
 74
     0
 75
     0
 76
     0
 77
     0
 78
     0
  0
ENDTAB
  0
TABLE
  2
LTYPE
 70
     2
  0
LTYPE
  2
CONTINUOUS
 70
     0
  3
Solid line
 72
    65
 73
     0
 40
0.0
  0
LTYPE
  2
CENTER
 70
     0
  3
____ _ ____ _ ____ _ ____ _ ____ _ ____ _ ____ 
 72
    65
 73
     4
 40
2.0
 49
1.25
 49
-0.25
 49
0.25
 49
-0.25
  0
ENDTAB
  0
TABLE
  2
LAYER
 70
     6
  0
LAYER
  2
0
 70
     0
 62
     7
  6
CONTINUOUS
  0
LAYER
  2
3
 70
     0
 62
     2
  6
CONTINUOUS
  0
LAYER
  2
2
 70
     0
 62
     3
  6
CENTER
  0
LAYER
  2
1
 70
     0
 62
     4
  6
CONTINUOUS
  0
LAYER
  2
4
 70
     0
 62
     7
  6
CONTINUOUS
  0
LAYER
  2
DEFPOINTS
 70
     0
 62
     7
  6
CONTINUOUS
  0
ENDTAB
  0
TABLE
  2
STYLE
 70
     1
  0
STYLE
  2
STANDARD
 70
     0
 40
0.0
 41
1.0
 50
0.0
 71
     0
 42
180.0
  3
simplex.shx
  4
extfont.shx
  0
ENDTAB
  0
TABLE
  2
VIEW
 70
     0
  0
ENDTAB
  0
TABLE
  2
UCS
 70
     0
  0
ENDTAB
  0
TABLE
  2
APPID
 70
     1
  0
APPID
  2
ACAD
 70
     0
  0
ENDTAB
  0
TABLE
  2
DIMSTYLE
 70
     1
  0
DIMSTYLE
  2
IGA
 70
     0
  3

  4

  5

  6
OPEN
  7
OPEN
 40
2.0
 41
2.0
 42
0.5
 43
10.0
 44
1.0
 45
0.0
 46
0.0
 47
1.0
 48
1.0
140
3.0
141
0.0
142
0.0
143
0.03937
144
1.0
145
0.0
146
10.0
147
1.0
 71
     0
 72
     0
 73
     0
 74
     0
 75
     0
 76
     0
 77
     1
 78
     8
170
     0
171
     2
172
     0
173
     1
174
     0
175
     0
176
     0
177
     0
178
     0
  0
ENDTAB
  0
ENDSEC
  0
SECTION
  2
BLOCKS
  0
BLOCK
  8
0
  2
$MODEL_SPACE
 70
     0
 10
0.0
 20
0.0
 30
0.0
  3
$MODEL_SPACE
  1

  0
ENDBLK
  5
1B
  8
0
  0
BLOCK
 67
     1
  8
0
  2
$PAPER_SPACE
 70
     0
 10
0.0
 20
0.0
 30
0.0
  3
$PAPER_SPACE
  1

  0
ENDBLK
  5
18
 67
     1
  8
0
  0
BLOCK
  8
0
  2
_OPEN
 70
     0
 10
0.0
 20
0.0
 30
0.0
  3
_OPEN
  1

  0
LINE
  5
7A8C
  8
0
  6
BYBLOCK
 62
     0
 10
-1.0
 20
0.1666666666666666
 30
0.0
 11
0.0
 21
0.0
 31
0.0
  0
LINE
  5
7A8D
  8
0
  6
BYBLOCK
 62
     0
 10
0.0
 20
0.0
 30
0.0
 11
-1.0
 21
-0.1666666666666666
 31
0.0
  0
LINE
  5
7A8E
  8
0
  6
BYBLOCK
 62
     0
 10
0.0
 20
0.0
 30
0.0
 11
-1.0
 21
0.0
 31
0.0
  0
ENDBLK
  5
7A90
  8
0
  0
BLOCK
  8
0
  2
*D1
 70
     1
 10
0.0
 20
0.0
 30
0.0
  3
*D1
  1

  0
LINE
  5
844F
  8
3
 62
     0
 10
1867.100328659694
 20
1036.993552235838
 30
0.0
 11
1867.100328659694
 21
926.76293656680923
 31
0.0
  0
LINE
  5
8450
  8
3
 62
     0
 10
2482.1003286596938
 20
1019.721051370573
 30
0.0
 11
2482.1003286596938
 21
926.76293656680923
 31
0.0
  0
LINE
  5
8451
  8
3
 62
     0
 10
1897.100328659694
 20
941.76293656680923
 30
0.0
 11
2452.1003286596938
 21
941.76293656680923
 31
0.0
  0
INSERT
  5
8452
  8
3
 62
     0
  2
_OPEN
 10
1867.100328659694
 20
941.76293656680923
 30
0.0
 41
30.0
 42
30.0
 43
30.0
 50
180.0
  0
INSERT
  5
8453
  8
3
 62
     0
  2
_OPEN
 10
2482.1003286596938
 20
941.76293656680923
 30
0.0
 41
30.0
 42
30.0
 43
30.0
  0
TEXT
  8
3
  40
45
  5
8539
  62
0
  72
0
  71
0
 10
2084.60
 20
899.613
 30
0.000000
  1
615
  0
POINT
  5
8455
  8
DEFPOINTS
 62
     0
 10
1867.100328659694
 20
1044.4935522358369
 30
0.0
  0
POINT
  5
8456
  8
DEFPOINTS
 62
     0
 10
2482.1003286596938
 20
1027.2210513705729
 30
0.0
  0
POINT
  5
8457
  8
DEFPOINTS
 62
     0
 10
2482.1003286596938
 20
941.76293656680923
 30
0.0
  0
ENDBLK
  5
8329
  8
0
  0
BLOCK
  8
0
  2
*D2
 70
     1
 10
0.0
 20
0.0
 30
0.0
  3
*D2
  1

  0
LINE
  5
8458
  8
3
 62
     0
 10
2482.1003286596938
 20
1964.2198703781521
 30
0.0
 11
2482.1003286596938
 21
2010.8939716895791
 31
0.0
  0
LINE
  5
8459
  8
3
 62
     0
 10
1794.1003286596949
 20
1676.9935522358369
 30
0.0
 11
1794.1003286596949
 21
2010.8939716895791
 31
0.0
  0
LINE
  5
845A
  8
3
 62
     0
 10
2452.1003286596938
 20
1995.8939716895791
 30
0.0
 11
1824.1003286596949
 21
1995.8939716895791
 31
0.0
  0
INSERT
  5
845B
  8
3
 62
     0
  2
_OPEN
 10
2482.1003286596938
 20
1995.8939716895791
 30
0.0
 41
30.0
 42
30.0
 43
30.0
  0
INSERT
  5
845C
  8
3
 62
     0
  2
_OPEN
 10
1794.1003286596949
 20
1995.8939716895791
 30
0.0
 41
30.0
 42
30.0
 43
30.0
 50
180.0
  0
TEXT
  8
3
  40
45
  5
853A
  62
0
  72
0
  71
0
 10
2048.10
 20
1991.24
 30
0.000000
  1
MAX
  0
TEXT
  8
3
  40
45
  5
853B
  62
0
  72
0
  71
0
 10
2048.10
 20
1932.74
 30
0.000000
  1
760
  0
POINT
  5
845E
  8
DEFPOINTS
 62
     0
 10
2482.1003286596938
 20
1956.7198703781521
 30
0.0
  0
POINT
  5
845F
  8
DEFPOINTS
 62
     0
 10
1794.1003286596949
 20
1669.4935522358369
 30
0.0
  0
POINT
  5
8460
  8
DEFPOINTS
 62
     0
 10
1794.1003286596949
 20
1995.8939716895791
 30
0.0
  0
ENDBLK
  5
831E
  8
0
  0
BLOCK
  8
0
  2
*D3
 70
     1
 10
0.0
 20
0.0
 30
0.0
  3
*D3
  1

  0
LINE
  5
8475
  8
3
 62
     0
 10
753.87773054550644
 20
2389.4562521328689
 30
0.0
 11
753.87773054550644
 21
2213.6451113256649
 31
0.0
  0
LINE
  5
8476
  8
3
 62
     0
 10
1553.877730545506
 20
2408.4562521328698
 30
0.0
 11
1553.877730545506
 21
2213.6451113256649
 31
0.0
  0
LINE
  5
8477
  8
3
 62
     0
 10
783.87773054550644
 20
2228.6451113256649
 30
0.0
 11
1523.877730545506
 21
2228.6451113256649
 31
0.0
  0
INSERT
  5
8478
  8
3
 62
     0
  2
_OPEN
 10
753.87773054550644
 20
2228.6451113256649
 30
0.0
 41
30.0
 42
30.0
 43
30.0
 50
180.0
  0
INSERT
  5
8479
  8
3
 62
     0
  2
_OPEN
 10
1553.877730545506
 20
2228.6451113256649
 30
0.0
 41
30.0
 42
30.0
 43
30.0
  0
TEXT
  8
3
  40
45
  5
853C
  62
0
  72
0
  71
0
 10
1063.88
 20
2186.50
 30
0.000000
  1
800
  0
POINT
  5
847B
  8
DEFPOINTS
 62
     0
 10
753.87773054550644
 20
2396.9562521328698
 30
0.0
  0
POINT
  5
847C
  8
DEFPOINTS
 62
     0
 10
1553.877730545506
 20
2415.9562521328712
 30
0.0
  0
POINT
  5
847D
  8
DEFPOINTS
 62
     0
 10
1553.877730545506
 20
2228.6451113256649
 30
0.0
  0
ENDBLK
  5
8313
  8
0
  0
BLOCK
  8
0
  2
*D4
 70
     1
 10
0.0
 20
0.0
 30
0.0
  3
*D4
  1

  0
LINE
  5
847E
  8
3
 62
     0
 10
933.87773054550553
 20
1022.1202663610489
 30
0.0
 11
933.87773054550553
 21
932.83753294792427
 31
0.0
  0
LINE
  5
847F
  8
3
 62
     0
 10
1553.8777305455051
 20
1036.993552235838
 30
0.0
 11
1553.8777305455051
 21
932.83753294792427
 31
0.0
  0
LINE
  5
8480
  8
3
 62
     0
 10
963.87773054550564
 20
947.83753294792427
 30
0.0
 11
1523.877730545506
 21
947.83753294792427
 31
0.0
  0
INSERT
  5
8481
  8
3
 62
     0
  2
_OPEN
 10
933.87773054550553
 20
947.83753294792427
 30
0.0
 41
30.0
 42
30.0
 43
30.0
 50
180.0
  0
INSERT
  5
8482
  8
3
 62
     0
  2
_OPEN
 10
1553.8777305455051
 20
947.83753294792427
 30
0.0
 41
30.0
 42
30.0
 43
30.0
  0
TEXT
  8
3
  40
45
  5
853D
  62
0
  72
0
  71
0
 10
1153.88
 20
905.688
 30
0.000000
  1
620
  0
POINT
  5
8484
  8
DEFPOINTS
 62
     0
 10
933.87773054550553
 20
1029.6202663610491
 30
0.0
  0
POINT
  5
8485
  8
DEFPOINTS
 62
     0
 10
1553.8777305455051
 20
1044.4935522358369
 30
0.0
  0
POINT
  5
8486
  8
DEFPOINTS
 62
     0
 10
1553.8777305455051
 20
947.83753294792427
 30
0.0
  0
ENDBLK
  5
8308
  8
0
  0
BLOCK
  8
0
  2
*D5
 70
     1
 10
0.0
 20
0.0
 30
0.0
  3
*D5
  1

  0
LINE
  5
8487
  8
3
 62
     0
 10
1284.8776701058259
 20
1821.9935522358369
 30
0.0
 11
1284.8776701058259
 21
1985.232094050928
 31
0.0
  0
LINE
  5
8488
  8
3
 62
     0
 10
933.87773054550553
 20
1854.8913002968241
 30
0.0
 11
933.87773054550553
 21
1985.232094050928
 31
0.0
  0
LINE
  5
8489
  8
3
 62
     0
 10
1254.8776701058271
 20
1970.232094050928
 30
0.0
 11
963.87773054550564
 21
1970.232094050928
 31
0.0
  0
INSERT
  5
848A
  8
3
 62
     0
  2
_OPEN
 10
1284.8776701058259
 20
1970.232094050928
 30
0.0
 41
30.0
 42
30.0
 43
30.0
  0
INSERT
  5
848B
  8
3
 62
     0
  2
_OPEN
 10
933.87773054550553
 20
1970.232094050928
 30
0.0
 41
30.0
 42
30.0
 43
30.0
 50
180.0
  0
TEXT
  8
3
  40
45
  5
853E
  62
0
  72
0
  71
0
 10
1019.38
 20
1928.08
 30
0.000000
  1
351
  0
POINT
  5
848D
  8
DEFPOINTS
 62
     0
 10
1284.8776701058259
 20
1814.4935522358369
 30
0.0
  0
POINT
  5
848E
  8
DEFPOINTS
 62
     0
 10
933.87773054550553
 20
1847.3913002968241
 30
0.0
  0
POINT
  5
848F
  8
DEFPOINTS
 62
     0
 10
933.87773054550553
 20
1970.232094050928
 30
0.0
  0
ENDBLK
  5
82FD
  8
0
  0
BLOCK
  8
0
  2
*D6
 70
     1
 10
0.0
 20
0.0
 30
0.0
  3
*D6
  1

  0
LINE
  5
8490
  8
3
 62
     0
 10
1284.8776701058259
 20
1821.9935522358369
 30
0.0
 11
1284.8776701058259
 21
1888.4619128249551
 31
0.0
  0
LINE
  5
8491
  8
3
 62
     0
 10
959.87773054550553
 20
1821.9935522358369
 30
0.0
 11
959.87773054550553
 21
1888.4619128249551
 31
0.0
  0
LINE
  5
8492
  8
3
 62
     0
 10
1254.8776701058271
 20
1873.4619128249551
 30
0.0
 11
989.87773054550553
 21
1873.4619128249551
 31
0.0
  0
INSERT
  5
8493
  8
3
 62
     0
  2
_OPEN
 10
1284.8776701058259
 20
1873.4619128249551
 30
0.0
 41
30.0
 42
30.0
 43
30.0
  0
INSERT
  5
8494
  8
3
 62
     0
  2
_OPEN
 10
959.87773054550553
 20
1873.4619128249551
 30
0.0
 41
30.0
 42
30.0
 43
30.0
 50
180.0
  0
TEXT
  8
3
  40
45
  5
853F
  62
0
  72
0
  71
0
 10
1032.38
 20
1831.31
 30
0.000000
  1
325
  0
POINT
  5
8496
  8
DEFPOINTS
 62
     0
 10
1284.8776701058259
 20
1814.4935522358369
 30
0.0
  0
POINT
  5
8497
  8
DEFPOINTS
 62
     0
 10
959.87773054550553
 20
1814.4935522358369
 30
0.0
  0
POINT
  5
8498
  8
DEFPOINTS
 62
     0
 10
959.87773054550553
 20
1873.4619128249551
 30
0.0
  0
ENDBLK
  5
82F2
  8
0
  0
BLOCK
  8
0
  2
*D7
 70
     1
 10
0.0
 20
0.0
 30
0.0
  3
*D7
  1

  0
LINE
  5
8499
  8
3
 62
     0
 10
746.37773054550587
 20
1044.4935522358369
 30
0.0
 11
420.3333968209202
 21
1044.4935522358369
 31
0.0
  0
LINE
  5
849A
  8
3
 62
     0
 10
923.98890022054957
 20
1814.4935522358369
 30
0.0
 11
420.33339682092043
 21
1814.4935522358369
 31
0.0
  0
LINE
  5
849B
  8
3
 62
     0
 10
435.33339682092009
 20
1074.4935522358369
 30
0.0
 11
435.33339682092031
 21
1784.493552235838
 31
0.0
  0
INSERT
  5
849C
  8
3
 62
     0
  2
_OPEN
 10
435.33339682092009
 20
1044.4935522358369
 30
0.0
 41
30.0
 42
30.0
 43
30.0
 50
270.0
  0
INSERT
  5
849D
  8
3
 62
     0
  2
_OPEN
 10
435.33339682092031
 20
1814.4935522358369
 30
0.0
 41
30.0
 42
30.0
 43
30.0
 50
90.0
  0
TEXT
  8
3
  40
45
  5
8540
  62
0
  72
0
  71
0
 10
307.833
 20
1349.84
 30
0.000000
  1
770
  0
POINT
  5
849F
  8
DEFPOINTS
 62
     0
 10
753.87773054550587
 20
1044.4935522358369
 30
0.0
  0
POINT
  5
84A0
  8
DEFPOINTS
 62
     0
 10
931.48890022054945
 20
1814.4935522358369
 30
0.0
  0
POINT
  5
84A1
  8
DEFPOINTS
 62
     0
 10
435.33339682092031
 20
1814.4935522358369
 30
0.0
  0
ENDBLK
  5
83F9
  8
0
  0
BLOCK
  8
0
  2
*D8
 70
     1
 10
0.0
 20
0.0
 30
0.0
  3
*D8
  1

  0
LINE
  5
84A2
  8
3
 62
     0
 10
669.91760419501998
 20
1569.4935522358369
 30
0.0
 11
560.28853562848383
 21
1569.4935522358369
 31
0.0
  0
LINE
  5
84A3
  8
3
 62
     0
 10
746.37773054550553
 20
1214.4935522358369
 30
0.0
 11
560.2885356284836
 21
1214.4935522358369
 31
0.0
  0
LINE
  5
84A4
  8
3
 62
     0
 10
575.28853562848383
 20
1539.4935522358369
 30
0.0
 11
575.28853562848371
 21
1244.4935522358369
 31
0.0
  0
INSERT
  5
84A5
  8
3
 62
     0
  2
_OPEN
 10
575.28853562848383
 20
1569.4935522358369
 30
0.0
 41
30.0
 42
30.0
 43
30.0
 50
90.0
  0
INSERT
  5
84A6
  8
3
 62
     0
  2
_OPEN
 10
575.28853562848371
 20
1214.4935522358369
 30
0.0
 41
30.0
 42
30.0
 43
30.0
 50
270.0
  0
TEXT
  8
3
  40
45
  5
8541
  62
0
  72
0
  71
0
 10
447.789
 20
1312.34
 30
0.000000
  1
355
  0
POINT
  5
84A8
  8
DEFPOINTS
 62
     0
 10
677.41760419501986
 20
1569.4935522358369
 30
0.0
  0
POINT
  5
84A9
  8
DEFPOINTS
 62
     0
 10
753.87773054550553
 20
1214.4935522358369
 30
0.0
  0
POINT
  5
84AA
  8
DEFPOINTS
 62
     0
 10
575.28853562848371
 20
1214.4935522358369
 30
0.0
  0
ENDBLK
  5
82DC
  8
0
  0
BLOCK
  8
0
  2
*D9
 70
     1
 10
0.0
 20
0.0
 30
0.0
  3
*D9
  1

  0
LINE
  5
838E
  8
0
  6
BYBLOCK
 62
     0
 10
753.87773054550587
 20
1095.9935522358369
 30
0.0
 11
753.87773054550587
 21
990.87807641096686
 31
0.0
  0
LINE
  5
838F
  8
0
  6
BYBLOCK
 62
     0
 10
933.87773054550553
 20
1081.1202663610491
 30
0.0
 11
933.87773054550553
 21
990.87807641096686
 31
0.0
  0
LINE
  5
8390
  8
0
  6
BYBLOCK
 62
     0
 10
783.87773054550587
 20
1005.878076410967
 30
0.0
 11
903.87773054550541
 21
1005.878076410967
 31
0.0
  0
TEXT
  5
8391
  8
3
 62
     0
 10
790.3063019740772
 20
1023.184659587619
 30
0.0
 40
45.0
  1
180
  0
INSERT
  5
8392
  8
0
  6
BYBLOCK
 62
     0
  2
_OPEN
 10
753.87773054550587
 20
1005.878076410967
 30
0.0
 41
30.0
 42
30.0
 43
30.0
 50
180.0
  0
INSERT
  5
8393
  8
0
  6
BYBLOCK
 62
     0
  2
_OPEN
 10
933.87773054550553
 20
1005.878076410967
 30
0.0
 41
30.0
 42
30.0
 43
30.0
  0
POINT
  5
8394
  8
DEFPOINTS
  6
BYBLOCK
 62
     0
 10
753.87773054550587
 20
1103.4935522358369
 30
0.0
  0
POINT
  5
8395
  8
DEFPOINTS
  6
BYBLOCK
 62
     0
 10
933.87773054550553
 20
1088.6202663610491
 30
0.0
  0
POINT
  5
8396
  8
DEFPOINTS
  6
BYBLOCK
 62
     0
 10
933.87773054550553
 20
1005.878076410967
 30
0.0
  0
ENDBLK
  5
8397
  8
0
  0
BLOCK
  8
0
  2
*D10
 70
     1
 10
0.0
 20
0.0
 30
0.0
  3
*D10
  1

  0
LINE
  5
84AB
  8
3
 62
     0
 10
746.37773054550587
 20
1119.4935522358369
 30
0.0
 11
560.2885356284836
 21
1119.4935522358369
 31
0.0
  0
LINE
  5
84AC
  8
3
 62
     0
 10
746.37773054550587
 20
1044.4935522358369
 30
0.0
 11
560.2885356284836
 21
1044.4935522358369
 31
0.0
  0
LINE
  5
84AD
  8
3
 62
     0
 10
575.28853562848371
 20
1149.4935522358369
 30
0.0
 11
575.28853562848371
 21
1179.4935522358369
 31
0.0
  0
LINE
  5
84AE
  8
3
 62
     0
 10
575.28853562848371
 20
1014.493552235837
 30
0.0
 11
575.28853562848371
 21
881.63640937869479
 31
0.0
  0
LINE
  5
84AF
  8
3
 62
     0
 10
575.28853562848371
 20
1119.4935522358369
 30
0.0
 11
575.28853562848371
 21
1044.4935522358369
 31
0.0
  0
INSERT
  5
84B0
  8
3
 62
     0
  2
_DOT
 10
575.28853562848371
 20
1119.4935522358369
 30
0.0
 41
30.0
 42
30.0
 43
30.0
 50
270.0
  0
INSERT
  5
84B1
  8
3
 62
     0
  2
_OPEN
 10
575.28853562848371
 20
1044.4935522358369
 30
0.0
 41
30.0
 42
30.0
 43
30.0
 50
90.0
  0
TEXT
  8
3
  40
45
  5
8542
  62
0
  72
0
  71
0
 10
447.789
 20
853.415
 30
0.000000
  1
75
  0
POINT
  5
84B3
  8
DEFPOINTS
 62
     0
 10
753.87773054550587
 20
1119.4935522358369
 30
0.0
  0
POINT
  5
84B4
  8
DEFPOINTS
 62
     0
 10
753.87773054550587
 20
1044.4935522358369
 30
0.0
  0
POINT
  5
84B5
  8
DEFPOINTS
 62
     0
 10
575.28853562848371
 20
1044.4935522358369
 30
0.0
  0
ENDBLK
  5
83E3
  8
0
  0
BLOCK
  8
0
  2
*D11
 70
     1
 10
0.0
 20
0.0
 30
0.0
  3
*D11
  1

  0
LINE
  5
84B6
  8
3
 62
     0
 10
933.87773054550553
 20
1854.8913002968241
 30
0.0
 11
933.87773054550553
 21
1985.232094050928
 31
0.0
  0
LINE
  5
84B7
  8
3
 62
     0
 10
707.91882631767567
 20
1558.2285996511459
 30
0.0
 11
707.91882631767567
 21
1985.232094050928
 31
0.0
  0
LINE
  5
84B8
  8
3
 62
     0
 10
903.87773054550541
 20
1970.232094050928
 30
0.0
 11
737.91882631767555
 21
1970.232094050928
 31
0.0
  0
INSERT
  5
84B9
  8
3
 62
     0
  2
_OPEN
 10
933.87773054550553
 20
1970.232094050928
 30
0.0
 41
30.0
 42
30.0
 43
30.0
  0
INSERT
  5
84BA
  8
3
 62
     0
  2
_OPEN
 10
707.91882631767567
 20
1970.232094050928
 30
0.0
 41
30.0
 42
30.0
 43
30.0
 50
180.0
  0
TEXT
  8
3
  40
45
  5
8543
  62
0
  72
0
  71
0
 10
730.898
 20
1928.08
 30
0.000000
  1
226
  0
POINT
  5
84BC
  8
DEFPOINTS
 62
     0
 10
933.87773054550553
 20
1847.3913002968241
 30
0.0
  0
POINT
  5
84BD
  8
DEFPOINTS
 62
     0
 10
707.91882631767567
 20
1550.7285996511459
 30
0.0
  0
POINT
  5
84BE
  8
DEFPOINTS
 62
     0
 10
707.91882631767567
 20
1970.232094050928
 30
0.0
  0
ENDBLK
  5
82AA
  8
0
  0
BLOCK
  8
0
  2
*D12
 70
     1
 10
0.0
 20
0.0
 30
0.0
  3
*D12
  1

  0
LINE
  5
84BF
  8
3
 62
     0
 10
923.98890022054957
 20
1814.4935522358369
 30
0.0
 11
560.28853562848383
 21
1814.4935522358369
 31
0.0
  0
LINE
  5
84C0
  8
3
 62
     0
 10
669.91760419501998
 20
1569.4935522358369
 30
0.0
 11
560.2885356284836
 21
1569.4935522358369
 31
0.0
  0
LINE
  5
84C1
  8
3
 62
     0
 10
575.28853562848371
 20
1784.4935522358369
 30
0.0
 11
575.28853562848371
 21
1599.4935522358369
 31
0.0
  0
INSERT
  5
84C2
  8
3
 62
     0
  2
_OPEN
 10
575.28853562848383
 20
1814.4935522358369
 30
0.0
 41
30.0
 42
30.0
 43
30.0
 50
90.0
  0
INSERT
  5
84C3
  8
3
 62
     0
  2
_OPEN
 10
575.28853562848371
 20
1569.4935522358369
 30
0.0
 41
30.0
 42
30.0
 43
30.0
 50
270.0
  0
TEXT
  8
3
  40
45
  5
8544
  62
0
  72
0
  71
0
 10
447.789
 20
1612.34
 30
0.000000
  1
245
  0
POINT
  5
84C5
  8
DEFPOINTS
 62
     0
 10
931.48890022054945
 20
1814.4935522358369
 30
0.0
  0
POINT
  5
84C6
  8
DEFPOINTS
 62
     0
 10
677.41760419501986
 20
1569.4935522358369
 30
0.0
  0
POINT
  5
84C7
  8
DEFPOINTS
 62
     0
 10
575.28853562848371
 20
1569.4935522358369
 30
0.0
  0
ENDBLK
  5
829F
  8
0
  0
BLOCK
  8
0
  2
*D13
 70
     1
 10
0.0
 20
0.0
 30
0.0
  3
*D13
  1

  0
LINE
  5
84D2
  8
3
 62
     0
 10
1113.8777305455051
 20
3184.4562521328698
 30
0.0
 11
1113.8777305455051
 21
3287.745730846153
 31
0.0
  0
LINE
  5
84D3
  8
3
 62
     0
 10
1553.8777305455069
 20
2784.4562521328712
 30
0.0
 11
1553.8777305455069
 21
3287.745730846153
 31
0.0
  0
LINE
  5
84D4
  8
3
 62
     0
 10
1143.8777305455051
 20
3272.745730846153
 30
0.0
 11
1523.8777305455069
 21
3272.745730846153
 31
0.0
  0
INSERT
  5
84D5
  8
3
 62
     0
  2
_OPEN
 10
1113.8777305455051
 20
3272.745730846153
 30
0.0
 41
30.0
 42
30.0
 43
30.0
 50
180.0
  0
INSERT
  5
84D6
  8
3
 62
     0
  2
_OPEN
 10
1553.8777305455069
 20
3272.745730846153
 30
0.0
 41
30.0
 42
30.0
 43
30.0
  0
TEXT
  8
3
  40
45
  5
8545
  62
0
  72
0
  71
0
 10
1243.88
 20
3230.60
 30
0.000000
  1
440
  0
POINT
  5
84D8
  8
DEFPOINTS
 62
     0
 10
1113.8777305455051
 20
3176.9562521328712
 30
0.0
  0
POINT
  5
84D9
  8
DEFPOINTS
 62
     0
 10
1553.8777305455069
 20
2776.9562521328712
 30
0.0
  0
POINT
  5
84DA
  8
DEFPOINTS
 62
     0
 10
1553.8777305455069
 20
3272.745730846153
 30
0.0
  0
ENDBLK
  5
8294
  8
0
  0
BLOCK
  8
0
  2
*D14
 70
     1
 10
0.0
 20
0.0
 30
0.0
  3
*D14
  1

  0
LINE
  5
84DB
  8
3
 62
     0
 10
746.37773054550644
 20
2396.9562521328698
 30
0.0
 11
601.44724853670903
 21
2396.9562521328698
 31
0.0
  0
LINE
  5
84DC
  8
3
 62
     0
 10
746.37773054550553
 20
3176.9562521328712
 30
0.0
 11
601.44724853670914
 21
3176.9562521328712
 31
0.0
  0
LINE
  5
84DD
  8
3
 62
     0
 10
616.44724853670903
 20
2426.9562521328689
 30
0.0
 11
616.44724853670914
 21
3146.9562521328698
 31
0.0
  0
INSERT
  5
84DE
  8
3
 62
     0
  2
_OPEN
 10
616.44724853670903
 20
2396.9562521328698
 30
0.0
 41
30.0
 42
30.0
 43
30.0
 50
270.0
  0
INSERT
  5
84DF
  8
3
 62
     0
  2
_OPEN
 10
616.44724853670914
 20
3176.9562521328712
 30
0.0
 41
30.0
 42
30.0
 43
30.0
 50
90.0
  0
TEXT
  8
3
  40
45
  5
8546
  62
0
  72
0
  71
0
 10
488.947
 20
2707.31
 30
0.000000
  1
780
  0
POINT
  5
84E1
  8
DEFPOINTS
 62
     0
 10
753.87773054550644
 20
2396.9562521328698
 30
0.0
  0
POINT
  5
84E2
  8
DEFPOINTS
 62
     0
 10
753.87773054550553
 20
3176.9562521328712
 30
0.0
  0
POINT
  5
84E3
  8
DEFPOINTS
 62
     0
 10
616.44724853670914
 20
3176.9562521328712
 30
0.0
  0
ENDBLK
  5
8289
  8
0
  0
BLOCK
  8
0
  2
*D15
 70
     1
 10
0.0
 20
0.0
 30
0.0
  3
*D15
  1

  0
LINE
  5
84E4
  8
3
 62
     0
 10
753.87773054550553
 20
3184.4562521328698
 30
0.0
 11
753.87773054550553
 21
3287.745730846153
 31
0.0
  0
LINE
  5
84E5
  8
3
 62
     0
 10
1113.8777305455051
 20
3184.4562521328698
 30
0.0
 11
1113.8777305455051
 21
3287.745730846153
 31
0.0
  0
LINE
  5
84E6
  8
3
 62
     0
 10
783.87773054550553
 20
3272.745730846153
 30
0.0
 11
1083.8777305455051
 21
3272.745730846153
 31
0.0
  0
INSERT
  5
84E7
  8
3
 62
     0
  2
_OPEN
 10
753.87773054550553
 20
3272.745730846153
 30
0.0
 41
30.0
 42
30.0
 43
30.0
 50
180.0
  0
INSERT
  5
84E8
  8
3
 62
     0
  2
_OPEN
 10
1113.8777305455051
 20
3272.745730846153
 30
0.0
 41
30.0
 42
30.0
 43
30.0
  0
TEXT
  8
3
  40
45
  5
8547
  62
0
  72
0
  71
0
 10
843.878
 20
3230.60
 30
0.000000
  1
360
  0
POINT
  5
84EA
  8
DEFPOINTS
 62
     0
 10
753.87773054550553
 20
3176.9562521328712
 30
0.0
  0
POINT
  5
84EB
  8
DEFPOINTS
 62
     0
 10
1113.8777305455051
 20
3176.9562521328712
 30
0.0
  0
POINT
  5
84EC
  8
DEFPOINTS
 62
     0
 10
1113.8777305455051
 20
3272.745730846153
 30
0.0
  0
ENDBLK
  5
827E
  8
0
  0
BLOCK
  8
0
  2
*D16
 70
     1
 10
0.0
 20
0.0
 30
0.0
  3
*D16
  1

  0
LINE
  5
84ED
  8
3
 62
     0
 10
1561.3777305455051
 20
2396.9562521328698
 30
0.0
 11
1702.024009150957
 21
2396.9562521328698
 31
0.0
  0
LINE
  5
84EE
  8
3
 62
     0
 10
1561.3777305455069
 20
2776.9562521328712
 30
0.0
 11
1702.0240091509579
 21
2776.9562521328712
 31
0.0
  0
LINE
  5
84EF
  8
3
 62
     0
 10
1687.0240091509579
 20
2426.9562521328689
 30
0.0
 11
1687.0240091509579
 21
2746.9562521328698
 31
0.0
  0
INSERT
  5
84F0
  8
3
 62
     0
  2
_OPEN
 10
1687.0240091509579
 20
2396.9562521328698
 30
0.0
 41
30.0
 42
30.0
 43
30.0
 50
270.0
  0
INSERT
  5
84F1
  8
3
 62
     0
  2
_OPEN
 10
1687.0240091509579
 20
2776.9562521328712
 30
0.0
 41
30.0
 42
30.0
 43
30.0
 50
90.0
  0
TEXT
  8
3
  40
45
  5
8548
  62
0
  72
0
  71
0
 10
1559.52
 20
2507.31
 30
0.000000
  1
380
  0
POINT
  5
84F3
  8
DEFPOINTS
 62
     0
 10
1553.8777305455051
 20
2396.9562521328698
 30
0.0
  0
POINT
  5
84F4
  8
DEFPOINTS
 62
     0
 10
1553.8777305455069
 20
2776.9562521328712
 30
0.0
  0
POINT
  5
84F5
  8
DEFPOINTS
 62
     0
 10
1687.0240091509579
 20
2776.9562521328712
 30
0.0
  0
ENDBLK
  5
8273
  8
0
  0
BLOCK
  8
0
  2
*D17
 70
     1
 10
0.0
 20
0.0
 30
0.0
  3
*D17
  1

  0
LINE
  5
84F6
  8
3
 62
     0
 10
2635.6003286596952
 20
1726.9935522358369
 30
0.0
 11
2770.2803002021819
 21
1726.9935522358369
 31
0.0
  0
LINE
  5
84F7
  8
3
 62
     0
 10
2635.6003286596952
 20
1411.9935522358369
 30
0.0
 11
2770.2803002021819
 21
1411.9935522358369
 31
0.0
  0
LINE
  5
84F8
  8
3
 62
     0
 10
2755.2803002021819
 20
1696.9935522358369
 30
0.0
 11
2755.2803002021819
 21
1441.9935522358369
 31
0.0
  0
INSERT
  5
84F9
  8
3
 62
     0
  2
_OPEN
 10
2755.2803002021819
 20
1726.9935522358369
 30
0.0
 41
30.0
 42
30.0
 43
30.0
 50
90.0
  0
INSERT
  5
84FA
  8
3
 62
     0
  2
_OPEN
 10
2755.2803002021819
 20
1411.9935522358369
 30
0.0
 41
30.0
 42
30.0
 43
30.0
 50
270.0
  0
TEXT
  8
3
  40
45
  5
8549
  62
0
  72
0
  71
0
 10
2627.78
 20
1489.84
 30
0.000000
  1
φ315
  0
POINT
  5
84FC
  8
DEFPOINTS
 62
     0
 10
2628.1003286596938
 20
1726.9935522358369
 30
0.0
  0
POINT
  5
84FD
  8
DEFPOINTS
 62
     0
 10
2628.1003286596938
 20
1411.9935522358369
 30
0.0
  0
POINT
  5
84FE
  8
DEFPOINTS
 62
     0
 10
2755.2803002021819
 20
1411.9935522358369
 30
0.0
  0
ENDBLK
  5
83B8
  8
0
  0
BLOCK
  8
0
  2
*D18
 70
     1
 10
0.0
 20
0.0
 30
0.0
  3
*D18
  1

  0
LINE
  5
8399
  8
0
  6
BYBLOCK
 62
     0
 10
2674.2707396304741
 20
1078.7210513705729
 30
0.0
 11
2674.2707396304741
 21
985.76293656680923
 31
0.0
  0
LINE
  5
839A
  8
0
  6
BYBLOCK
 62
     0
 10
2839.2707396304731
 20
1095.993552235838
 30
0.0
 11
2839.2707396304731
 21
985.76293656680923
 31
0.0
  0
LINE
  5
839B
  8
0
  6
BYBLOCK
 62
     0
 10
2704.2707396304731
 20
1000.762936566809
 30
0.0
 11
2809.2707396304731
 21
1000.762936566809
 31
0.0
  0
TEXT
  5
839C
  8
3
 62
     0
 10
2703.1993110590438
 20
1013.165754826657
 30
0.0
 40
45.0
  1
165
  0
INSERT
  5
839D
  8
0
  6
BYBLOCK
 62
     0
  2
_OPEN
 10
2674.2707396304741
 20
1000.762936566809
 30
0.0
 41
30.0
 42
30.0
 43
30.0
 50
180.0
  0
INSERT
  5
839E
  8
0
  6
BYBLOCK
 62
     0
  2
_OPEN
 10
2839.2707396304731
 20
1000.762936566809
 30
0.0
 41
30.0
 42
30.0
 43
30.0
  0
POINT
  5
839F
  8
DEFPOINTS
  6
BYBLOCK
 62
     0
 10
2674.2707396304741
 20
1086.2210513705729
 30
0.0
  0
POINT
  5
83A0
  8
DEFPOINTS
  6
BYBLOCK
 62
     0
 10
2839.2707396304731
 20
1103.493552235838
 30
0.0
  0
POINT
  5
83A1
  8
DEFPOINTS
  6
BYBLOCK
 62
     0
 10
2839.2707396304731
 20
1000.762936566809
 30
0.0
  0
ENDBLK
  5
83A2
  8
0
  0
BLOCK
  8
0
  2
*D19
 70
     1
 10
0.0
 20
0.0
 30
0.0
  3
*D19
  1

  0
LINE
  5
83A4
  8
0
  6
BYBLOCK
 62
     0
 10
2795.2707396304731
 20
1759.4935522358369
 30
0.0
 11
2795.2707396304731
 21
2010.6214280467209
 31
0.0
  0
LINE
  5
83A5
  8
0
  6
BYBLOCK
 62
     0
 10
2674.2707396304741
 20
1964.2198703781521
 30
0.0
 11
2674.2707396304741
 21
2010.6214280467209
 31
0.0
  0
LINE
  5
83A6
  8
0
  6
BYBLOCK
 62
     0
 10
2765.2707396304731
 20
1995.6214280467209
 30
0.0
 11
2704.2707396304731
 21
1995.6214280467209
 31
0.0
  0
TEXT
  5
83A7
  8
3
 62
     0
 10
2690.842168201902
 20
2014.004134086663
 30
0.0
 40
45.0
  1
121
  0
INSERT
  5
83A8
  8
0
  6
BYBLOCK
 62
     0
  2
_OPEN
 10
2795.2707396304731
 20
1995.6214280467209
 30
0.0
 41
30.0
 42
30.0
 43
30.0
  0
INSERT
  5
83A9
  8
0
  6
BYBLOCK
 62
     0
  2
_OPEN
 10
2674.2707396304741
 20
1995.6214280467209
 30
0.0
 41
30.0
 42
30.0
 43
30.0
 50
180.0
  0
POINT
  5
83AA
  8
DEFPOINTS
  6
BYBLOCK
 62
     0
 10
2795.2707396304731
 20
1751.9935522358369
 30
0.0
  0
POINT
  5
83AB
  8
DEFPOINTS
  6
BYBLOCK
 62
     0
 10
2674.2707396304741
 20
1956.7198703781521
 30
0.0
  0
POINT
  5
83AC
  8
DEFPOINTS
  6
BYBLOCK
 62
     0
 10
2674.2707396304741
 20
1995.6214280467209
 30
0.0
  0
ENDBLK
  5
83AD
  8
0
  0
BLOCK
  8
0
  2
*D20
 70
     1
 10
0.0
 20
0.0
 30
0.0
  3
*D20
  1

  0
LINE
  5
8510
  8
3
 62
     0
 10
2364.1003286596952
 20
1826.9935522358369
 30
0.0
 11
2364.1003286596952
 21
1909.0971296887201
 31
0.0
  0
LINE
  5
8511
  8
3
 62
     0
 10
2600.1003286596952
 20
1823.9935522358369
 30
0.0
 11
2600.1003286596952
 21
1909.0971296887201
 31
0.0
  0
LINE
  5
8512
  8
3
 62
     0
 10
2394.1003286596938
 20
1894.0971296887201
 30
0.0
 11
2570.1003286596952
 21
1894.0971296887201
 31
0.0
  0
INSERT
  5
8513
  8
3
 62
     0
  2
_OPEN
 10
2364.1003286596952
 20
1894.0971296887201
 30
0.0
 41
30.0
 42
30.0
 43
30.0
 50
180.0
  0
INSERT
  5
8514
  8
3
 62
     0
  2
_OPEN
 10
2600.1003286596952
 20
1894.0971296887201
 30
0.0
 41
30.0
 42
30.0
 43
30.0
  0
TEXT
  8
3
  40
45
  5
854A
  62
0
  72
0
  71
0
 10
2375.89
 20
1851.95
 30
0.000000
  1
236
  0
POINT
  5
8516
  8
DEFPOINTS
 62
     0
 10
2364.1003286596952
 20
1819.4935522358369
 30
0.0
  0
POINT
  5
8517
  8
DEFPOINTS
 62
     0
 10
2600.1003286596952
 20
1816.4935522358369
 30
0.0
  0
POINT
  5
8518
  8
DEFPOINTS
 62
     0
 10
2600.1003286596952
 20
1894.0971296887201
 30
0.0
  0
ENDBLK
  5
8243
  8
0
  0
BLOCK
  8
0
  2
_DOT
 70
     0
 10
0.0
 20
0.0
 30
0.0
  3
_DOT
  1

  0
LINE
  5
8170
  8
0
  6
BYBLOCK
 62
     0
 10
0.0
 20
0.0
 30
0.0
 11
-1.0
 21
-0.0000000000000284
 31
0.0
  0
POLYLINE
  5
8171
  8
0
  6
BYBLOCK
 62
     0
 66
     1
 10
0.0
 20
0.0
 30
0.0
 70
     1
 40
0.1666666666666666
 41
0.1666666666666666
  0
VERTEX
  5
852D
  8
0
  6
BYBLOCK
 62
     0
 10
-0.0833333333333286
 20
-0.0000000000000284
 30
0.0
 42
1.0
  0
VERTEX
  5
852E
  8
0
  6
BYBLOCK
 62
     0
 10
0.0833333333333286
 20
-0.0000000000000284
 30
0.0
 42
1.0
  0
SEQEND
  5
852F
  8
0
  6
BYBLOCK
 62
     0
  0
ENDBLK
  5
8162
  8
0
  0
BLOCK
  8
0
  2
*D22
 70
     1
 10
0.0
 20
0.0
 30
0.0
  3
*D22
  1

  0
LINE
  5
8530
  8
3
 62
     0
 10
707.91882631767544
 20
1558.2285996511459
 30
0.0
 11
707.91882631767544
 21
2087.7689594417038
 31
0.0
  0
LINE
  5
8531
  8
3
 62
     0
 10
1553.8777305455051
 20
1296.9935522358369
 30
0.0
 11
1553.8777305455051
 21
2087.7689594417038
 31
0.0
  0
LINE
  5
8532
  8
3
 62
     0
 10
737.91882631767544
 20
2072.7689594417038
 30
0.0
 11
1523.8777305455051
 21
2072.7689594417038
 31
0.0
  0
INSERT
  5
8533
  8
3
 62
     0
  2
_OPEN
 10
707.91882631767544
 20
2072.7689594417038
 30
0.0
 41
30.0
 42
30.0
 43
30.0
 50
180.0
  0
INSERT
  5
8534
  8
3
 62
     0
  2
_OPEN
 10
1553.8777305455051
 20
2072.7689594417038
 30
0.0
 41
30.0
 42
30.0
 43
30.0
  0
TEXT
  8
3
  40
45
  5
854B
  62
0
  72
0
  71
0
 10
1069.16
 20
2030.62
 30
0.000000
  1
846
  0
POINT
  5
8536
  8
DEFPOINTS
 62
     0
 10
707.91882631767544
 20
1550.7285996511459
 30
0.0
  0
POINT
  5
8537
  8
DEFPOINTS
 62
     0
 10
1553.8777305455051
 20
1289.4935522358369
 30
0.0
  0
POINT
  5
8538
  8
DEFPOINTS
 62
     0
 10
1553.8777305455051
 20
2072.7689594417038
 30
0.0
  0
ENDBLK
  5
8238
  8
0
  0
BLOCK
  8
0
  2
*D23
 70
     1
 10
0.0
 20
0.0
 30
0.0
  3
*D23
  1

  0
LINE
  5
8420
  8
0
  6
BYBLOCK
 62
     0
 10
746.37773054550553
 20
1214.4935522358369
 30
0.0
 11
560.2885356284836
 21
1214.4935522358369
 31
0.0
  0
LINE
  5
8421
  8
0
  6
BYBLOCK
 62
     0
 10
746.37773054550587
 20
1119.4935522358369
 30
0.0
 11
560.2885356284836
 21
1119.4935522358369
 31
0.0
  0
LINE
  5
8422
  8
0
  6
BYBLOCK
 62
     0
 10
575.28853562848371
 20
1214.4935522358369
 30
0.0
 11
575.28853562848371
 21
1119.4935522358369
 31
0.0
  0
TEXT
  5
8423
  8
3
 62
     0
 10
518.50282134276938
 20
1101.636409378694
 30
0.0
 40
45.0
  1
(95)
 50
90.0
  0
POINT
  5
8424
  8
DEFPOINTS
  6
BYBLOCK
 62
     0
 10
753.87773054550553
 20
1214.4935522358369
 30
0.0
  0
POINT
  5
8425
  8
DEFPOINTS
  6
BYBLOCK
 62
     0
 10
753.87773054550587
 20
1119.4935522358369
 30
0.0
  0
POINT
  5
8426
  8
DEFPOINTS
  6
BYBLOCK
 62
     0
 10
575.28853562848371
 20
1119.4935522358369
 30
0.0
  0
ENDBLK
  5
8427
  8
0
  0
BLOCK
  8
0
  2
_NONE
 70
     0
 10
0.0
 20
0.0
 30
0.0
  3
_NONE
  1

  0
CIRCLE
  5
840A
  8
0
  6
BYBLOCK
 62
     0
 10
0.0
 20
0.0
 30
0.0
 40
0.25
  0
ENDBLK
  5
840B
  8
0
  0
ENDSEC
  0
SECTION
  2
ENTITIES
  0
DIMENSION
  5
7CE9
  8
3
  2
*D1
 10
2482.1003286596938
 20
941.76293656680923
 30
0.0
 11
2174.6003286596938
 21
979.26293656680923
 31
0.0
 70
     0
 13
1867.100328659694
 23
1044.4935522358369
 33
0.0
 14
2482.1003286596938
 24
1027.2210513705729
 34
0.0
1001
ACAD
1000
DSTYLE
1002
{
1070
   287
1070
     3
1070
    40
1040
15.0
1070
   143
1040
0.039
1070
   172
1070
     1
1070
   271
1070
     0
1070
   279
1070
     0
1070
   288
1070
     1
1002
}
  0
DIMENSION
  5
7CEA
  8
3
  2
*D2
 10
1794.1003286596949
 20
1995.8939716895791
 30
0.0
 11
2138.1003286596952
 21
2070.8939716895788
 31
0.0
 70
     0
  1
MAX\P760
 13
2482.1003286596938
 23
1956.7198703781521
 33
0.0
 14
1794.1003286596949
 24
1669.4935522358369
 34
0.0
1001
ACAD
1000
DSTYLE
1002
{
1070
   287
1070
     3
1070
    40
1040
15.0
1070
   143
1040
0.039
1070
   172
1070
     1
1070
   271
1070
     0
1070
   279
1070
     0
1070
   288
1070
     1
1002
}
  0
LINE
  5
7CEB
  8
1
 10
2362.1003286596938
 20
1551.9935522358369
 30
0.0
 11
1874.1003286596949
 21
1551.9935522358369
 31
0.0
  0
LINE
  5
7CEC
  8
1
 10
2362.1003286596938
 20
1586.9935522358369
 30
0.0
 11
1874.1003286596949
 21
1586.9935522358369
 31
0.0
  0
POLYLINE
  5
7CED
  8
1
 66
     1
 10
0.0
 20
0.0
 30
0.0
 70
     1
  0
VERTEX
  5
8461
  8
1
 10
2299.1003286596929
 20
1472.6935522358369
 30
0.0
  0
VERTEX
  5
8462
  8
1
 10
2299.1003286596929
 20
1512.6935522358369
 30
0.0
  0
VERTEX
  5
8463
  8
1
 10
2301.1003286596938
 20
1512.6935522358369
 30
0.0
 42
-0.4142135623730951
  0
VERTEX
  5
8464
  8
1
 10
2304.1003286596938
 20
1509.6935522358369
 30
0.0
  0
VERTEX
  5
8465
  8
1
 10
2304.1003286596938
 20
1482.1935522358369
 30
0.0
 42
0.4142135623730951
  0
VERTEX
  5
8466
  8
1
 10
2308.6003286596929
 20
1477.6935522358369
 30
0.0
  0
VERTEX
  5
8467
  8
1
 10
2336.1003286596929
 20
1477.6935522358369
 30
0.0
 42
-0.4142135623730951
  0
VERTEX
  5
8468
  8
1
 10
2339.1003286596929
 20
1474.6935522358369
 30
0.0
  0
VERTEX
  5
8469
  8
1
 10
2339.1003286596929
 20
1472.6935522358369
 30
0.0
  0
SEQEND
  5
846A
  8
1
  0
LINE
  5
7CF8
  8
1
 10
2647.1003286596938
 20
1044.493552235838
 30
0.0
 11
1867.100328659694
 21
1044.4935522358369
 31
0.0
  0
LINE
  5
7CF9
  8
1
 10
2647.1003286596938
 20
1119.4935522358369
 30
0.0
 11
1867.100328659694
 21
1119.4935522358369
 31
0.0
  0
LINE
  5
7CFA
  8
2
 10
2516.9741436568929
 20
1569.4935522358369
 30
0.0
 11
1772.314698254818
 21
1569.4935522358369
 31
0.0
  0
LINE
  5
7CFB
  8
1
 10
2312.1003286596952
 20
1472.6935522358369
 30
0.0
 11
2364.1003286596952
 21
1472.6935522358369
 31
0.0
  0
POLYLINE
  5
7CFC
  8
1
 66
     1
 10
0.0
 20
0.0
 30
0.0
 70
     1
  0
VERTEX
  5
846B
  8
1
 10
2362.1003286596938
 20
1289.4935522358369
 30
0.0
  0
VERTEX
  5
846C
  8
1
 10
2362.1003286596938
 20
1329.4935522358369
 30
0.0
  0
VERTEX
  5
846D
  8
1
 10
2360.1003286596938
 20
1329.4935522358369
 30
0.0
 42
0.4142135623730951
  0
VERTEX
  5
846E
  8
1
 10
2357.1003286596938
 20
1326.4935522358369
 30
0.0
  0
VERTEX
  5
846F
  8
1
 10
2357.1003286596938
 20
1298.9935522358369
 30
0.0
 42
-0.4142135623730951
  0
VERTEX
  5
8470
  8
1
 10
2352.6003286596938
 20
1294.4935522358369
 30
0.0
  0
VERTEX
  5
8471
  8
1
 10
2325.1003286596938
 20
1294.4935522358369
 30
0.0
 42
0.4142135623730951
  0
VERTEX
  5
8472
  8
1
 10
2322.1003286596938
 20
1291.4935522358369
 30
0.0
  0
VERTEX
  5
8473
  8
1
 10
2322.1003286596938
 20
1289.4935522358369
 30
0.0
  0
SEQEND
  5
8474
  8
1
  0
LINE
  5
7D07
  8
1
 10
2312.1003286596952
 20
1466.6935522358369
 30
0.0
 11
2364.1003286596952
 21
1466.6935522358369
 31
0.0
  0
LINE
  5
7D08
  8
1
 10
2647.1003286596938
 20
1214.493552235838
 30
0.0
 11
1867.100328659694
 21
1214.4935522358369
 31
0.0
  0
LINE
  5
7D09
  8
1
 10
2647.1003286596938
 20
1289.4935522358369
 30
0.0
 11
1867.100328659694
 21
1289.4935522358369
 31
0.0
  0
DIMENSION
  5
7D0A
  8
3
  2
*D3
 10
1553.877730545506
 20
2228.6451113256649
 30
0.0
 11
1153.877730545506
 21
2266.1451113256649
 31
0.0
 70
     0
 13
753.87773054550644
 23
2396.9562521328698
 33
0.0
 14
1553.877730545506
 24
2415.9562521328712
 34
0.0
1001
ACAD
1000
DSTYLE
1002
{
1070
   287
1070
     3
1070
    40
1040
15.0
1070
   143
1040
0.039
1070
   172
1070
     1
1070
   271
1070
     0
1070
   279
1070
     0
1070
   288
1070
     1
1002
}
  0
LINE
  5
7D0B
  8
1
 10
1563.877730545506
 20
2323.9562521328698
 30
0.0
 11
1563.877730545506
 21
2415.9562521328698
 31
0.0
  0
LINE
  5
7D0C
  8
1
 10
833.87773054550553
 20
2323.9562521328698
 30
0.0
 11
833.87773054550553
 21
2415.9562521328712
 31
0.0
  0
LINE
  5
7D0D
  8
1
 10
1496.477730545505
 20
2403.9562521328712
 30
0.0
 11
1496.477730545505
 21
2353.9562521328698
 31
0.0
  0
LINE
  5
7D0E
  8
1
 10
1331.2777305455061
 20
2403.9562521328712
 30
0.0
 11
1331.2777305455061
 21
2353.9562521328698
 31
0.0
  0
LINE
  5
7D0F
  8
1
 10
997.37773054550553
 20
2403.9562521328712
 30
0.0
 11
997.37773054550553
 21
2353.9562521328698
 31
0.0
  0
LINE
  5
7D10
  8
1
 10
870.37773054550553
 20
2403.9562521328698
 30
0.0
 11
870.37773054550553
 21
2353.9562521328689
 31
0.0
  0
LINE
  5
7D11
  8
2
 10
1413.877730545506
 20
2684.8932521328702
 30
0.0
 11
1413.877730545506
 21
2348.9216521328699
 31
0.0
  0
LINE
  5
7D12
  8
2
 10
933.87773054550576
 20
3164.137632141541
 30
0.0
 11
933.8777305455053
 21
2314.7899488569628
 31
0.0
  0
LINE
  5
7D13
  8
1
 10
1284.8776701058259
 20
1789.4935522358369
 30
0.0
 11
959.87773054550553
 21
1789.4935522358369
 31
0.0
  0
DIMENSION
  5
7D15
  8
3
  2
*D4
 10
1553.8777305455051
 20
947.83753294792427
 30
0.0
 11
1243.8777305455051
 21
985.33753294792427
 31
0.0
 70
     0
 13
933.87773054550553
 23
1029.6202663610491
 33
0.0
 14
1553.8777305455051
 24
1044.4935522358369
 34
0.0
1001
ACAD
1000
DSTYLE
1002
{
1070
   287
1070
     3
1070
    40
1040
15.0
1070
   143
1040
0.039
1070
   172
1070
     1
1070
   271
1070
     0
1070
   279
1070
     0
1070
   288
1070
     1
1002
}
  0
DIMENSION
  5
7D16
  8
3
  2
*D5
 10
933.87773054550553
 20
1970.232094050928
 30
0.0
 11
1109.377700325666
 21
2007.732094050928
 31
0.0
 70
     0
 13
1284.8776701058259
 23
1814.4935522358369
 33
0.0
 14
933.87773054550553
 24
1847.3913002968241
 34
0.0
1001
ACAD
1000
DSTYLE
1002
{
1070
   287
1070
     3
1070
    40
1040
15.0
1070
   143
1040
0.039
1070
   172
1070
     1
1070
   271
1070
     0
1070
   279
1070
     0
1070
   288
1070
     1
1002
}
  0
DIMENSION
  5
7D17
  8
3
  2
*D6
 10
959.87773054550553
 20
1873.4619128249551
 30
0.0
 11
1122.377700325666
 21
1910.9619128249551
 31
0.0
 70
     0
 13
1284.8776701058259
 23
1814.4935522358369
 33
0.0
 14
959.87773054550553
 24
1814.4935522358369
 34
0.0
1001
ACAD
1000
DSTYLE
1002
{
1070
   287
1070
     3
1070
    40
1040
15.0
1070
   143
1040
0.039
1070
   172
1070
     1
1070
   271
1070
     0
1070
   279
1070
     0
1070
   288
1070
     1
1002
}
  0
LINE
  5
7D18
  8
1
 10
833.87773054550553
 20
2323.9562521328698
 30
0.0
 11
1563.877730545506
 21
2323.9562521328698
 31
0.0
  0
LINE
  5
7D19
  8
1
 10
898.16384143930463
 20
1476.0884232283249
 30
0.0
 11
1360.306896886204
 21
1299.3858587245691
 31
0.0
  0
LINE
  5
7D1A
  8
1
 10
950.18199571317064
 20
1668.1554543933701
 30
0.0
 11
1438.334128297003
 21
1587.4864054721361
 31
0.0
  0
LINE
  5
7D1B
  8
1
 10
914.93599995604006
 20
1508.88447005935
 30
0.0
 11
1389.238566030705
 21
1360.6540217196521
 31
0.0
  0
LINE
  5
7D1C
  8
1
 10
948.11126865620008
 20
1631.377769875324
 30
0.0
 11
1432.3925375997319
 21
1519.991762897595
 31
0.0
  0
LINE
  5
7D22
  8
1
 10
1233.0987464923589
 20
1472.6935522358381
 30
0.0
 11
1083.8777305455051
 21
1472.6935522358381
 31
0.0
  0
LINE
  5
7D23
  8
1
 10
1231.0794099305681
 20
1468.1935522358369
 30
0.0
 11
1083.8777305455051
 21
1468.1935522358369
 31
0.0
  0
LINE
  5
7D24
  8
2
 10
1288.7385836538481
 20
1569.4935522358369
 30
0.0
 11
677.41760419501986
 21
1569.4935522358369
 31
0.0
  0
LINE
  5
7D25
  8
1
 10
1553.8777305455051
 20
1214.4935522358369
 30
0.0
 11
753.87773054550553
 21
1214.4935522358369
 31
0.0
  0
LINE
  5
7D26
  8
1
 10
1563.877730545506
 20
1289.4935522358369
 30
0.0
 11
753.87773054550553
 21
1289.4935522358369
 31
0.0
  0
LINE
  5
7D27
  8
1
 10
959.87773054550564
 20
1811.4935522358369
 30
0.0
 11
1284.8776701058259
 21
1811.4935522358369
 31
0.0
  0
LINE
  5
7D28
  8
1
 10
959.87773054550564
 20
1814.493552235838
 30
0.0
 11
1284.8776701058259
 21
1814.4935522358369
 31
0.0
  0
ARC
  5
7D29
  8
1
 10
957.87773054550553
 20
1593.4935522358369
 30
0.0
 40
300.56488088068153
 50
269.99999999999972
 51
355.389792504132
  0
LINE
  5
7D2A
  8
1
 10
1553.8777305455051
 20
1119.4935522358369
 30
0.0
 11
753.87773054550553
 21
1119.4935522358369
 31
0.0
  0
LINE
  5
7D2B
  8
1
 10
1553.8777305455051
 20
1044.4935522358369
 30
0.0
 11
753.87773054550553
 21
1044.4935522358369
 31
0.0
  0
DIMENSION
  5
7D2C
  8
3
  2
*D7
 10
435.33339682092031
 20
1814.4935522358369
 30
0.0
 11
397.83339682091997
 21
1429.4935522358369
 31
0.0
 70
     0
 13
753.87773054550587
 23
1044.4935522358369
 33
0.0
 14
931.48890022054945
 24
1814.4935522358369
 34
0.0
 50
90.0
1001
ACAD
1000
DSTYLE
1002
{
1070
   287
1070
     3
1070
    40
1040
15.0
1070
   143
1040
0.039
1070
   172
1070
     1
1070
   271
1070
     0
1070
   279
1070
     0
1070
   288
1070
     1
1002
}
  0
DIMENSION
  5
7D2D
  8
3
  2
*D8
 10
575.28853562848371
 20
1214.4935522358369
 30
0.0
 11
537.7885356284836
 21
1391.9935522358369
 31
0.0
 70
     0
 13
677.41760419501986
 23
1569.4935522358369
 33
0.0
 14
753.87773054550553
 24
1214.4935522358369
 34
0.0
 50
90.0
1001
ACAD
1000
DSTYLE
1002
{
1070
   287
1070
     3
1070
    40
1040
15.0
1070
   143
1040
0.039
1070
   172
1070
     1
1070
   271
1070
     0
1070
   279
1070
     0
1070
   288
1070
     1
1002
}
  0
ARC
  5
7D2E
  8
1
 10
963.0710585855968
 20
1550.7285996511459
 30
0.0
 40
255.15223226792139
 50
172.53965722709589
 51
268.84594406436281
  0
ARC
  5
7D2F
  8
1
 10
933.87773054550553
 20
1569.4935522358369
 30
0.0
 40
100.0
 50
80.616453042858865
 51
249.0754108565159
  0
CIRCLE
  5
7D30
  8
1
 10
933.87773054550553
 20
1569.4935522358369
 30
0.0
 40
63.5
  0
LINE
  5
7D37
  8
1
 10
733.87773054550462
 20
1512.6935522358369
 30
0.0
 11
733.87773054550462
 21
1472.6935522358369
 31
0.0
  0
LINE
  5
7D38
  8
1
 10
783.87773054550462
 20
1512.6935522358369
 30
0.0
 11
783.87773054550553
 21
1289.4935522358369
 31
0.0
  0
LINE
  5
7D39
  8
1
 10
1133.8777305455051
 20
1512.6935522358369
 30
0.0
 11
1133.8777305455051
 21
1472.6935522358381
 31
0.0
  0
LINE
  5
7D3A
  8
1
 10
1083.8777305455051
 20
1512.6935522358369
 30
0.0
 11
1083.8777305455051
 21
1289.4935522358369
 31
0.0
  0
LINE
  5
7D3B
  8
2
 10
933.87773054550553
 20
1663.6328674283129
 30
0.0
 11
933.87773054550553
 21
1029.6202663610491
 31
0.0
  0
DIMENSION
  5
7D3D
  8
3
  2
*D9
 10
933.87773054550553
 20
946.87807641096697
 30
0.0
 11
843.87773054550576
 21
986.68465958761954
 31
0.0
 12
0.0
 22
-59.0
 32
0.0
 70
   128
 13
753.87773054550587
 23
1044.4935522358369
 33
0.0
 14
933.87773054550553
 24
1029.6202663610491
 34
0.0
1001
ACAD
1000
DSTYLE
1002
{
1070
   288
1070
     1
1070
   172
1070
     1
1070
    40
1040
15.0
1070
   271
1070
     0
1070
   143
1040
0.039
1002
}
  0
DIMENSION
  5
7D3E
  8
3
  2
*D10
 10
575.28853562848371
 20
1044.4935522358369
 30
0.0
 11
537.7885356284836
 21
933.06498080726635
 31
0.0
 70
     0
 13
753.87773054550587
 23
1119.4935522358369
 33
0.0
 14
753.87773054550587
 24
1044.4935522358369
 34
0.0
 50
90.0
1001
ACAD
1000
DSTYLE
1002
{
1070
   287
1070
     3
1070
    40
1040
15.0
1070
   143
1040
0.039
1070
   172
1070
     1
1070
   271
1070
     0
1070
   279
1070
     0
1070
   288
1070
     1
1070
     6
1000
DOT
1002
}
  0
LINE
  5
7D3F
  8
1
 10
753.87773054550553
 20
1329.4935522358369
 30
0.0
 11
753.87773054550553
 21
1214.4935522358369
 31
0.0
  0
LINE
  5
7D41
  8
1
 10
753.87773054550587
 20
1119.4935522358369
 30
0.0
 11
753.87773054550587
 21
1044.4935522358369
 31
0.0
  0
LINE
  5
7D42
  8
1
 10
783.87773054550553
 20
1294.4935522358369
 30
0.0
 11
753.87773054550553
 21
1294.4935522358369
 31
0.0
  0
LINE
  5
7D43
  8
1
 10
783.87773054550496
 20
1329.4935522358369
 30
0.0
 11
753.87773054550553
 21
1329.4935522358369
 31
0.0
  0
LINE
  5
7D44
  8
1
 10
783.87773054550462
 20
1472.6935522358369
 30
0.0
 11
720.14474670029733
 21
1472.6935522358369
 31
0.0
  0
LINE
  5
7D45
  8
1
 10
783.87773054550462
 20
1468.1935522358369
 30
0.0
 11
721.63653831259194
 21
1468.1935522358369
 31
0.0
  0
CIRCLE
  5
7D46
  8
1
 10
933.87773054550553
 20
1389.4935522358369
 30
0.0
 40
65.0
  0
LINE
  5
7D47
  8
2
 10
1003.877730545505
 20
1389.4935522358369
 30
0.0
 11
863.87773054550564
 21
1389.4935522358369
 31
0.0
  0
LINE
  5
7D48
  8
1
 10
1113.8777305455051
 20
1329.4935522358369
 30
0.0
 11
1083.8777305455051
 21
1329.4935522358369
 31
0.0
  0
LINE
  5
7D49
  8
1
 10
1113.8777305455051
 20
1294.4935522358369
 30
0.0
 11
1083.8777305455051
 21
1294.4935522358369
 31
0.0
  0
LINE
  5
7D4A
  8
1
 10
1113.8777305455051
 20
1329.4935522358369
 30
0.0
 11
1113.8777305455051
 21
1289.4935522358369
 31
0.0
  0
DIMENSION
  5
7D4B
  8
3
  2
*D11
 10
707.91882631767567
 20
1970.232094050928
 30
0.0
 11
820.89827843159048
 21
2007.732094050928
 31
0.0
 70
     0
 13
933.87773054550553
 23
1847.3913002968241
 33
0.0
 14
707.91882631767567
 24
1550.7285996511459
 34
0.0
1001
ACAD
1000
DSTYLE
1002
{
1070
   287
1070
     3
1070
    40
1040
15.0
1070
   143
1040
0.039
1070
   172
1070
     1
1070
   271
1070
     0
1070
   279
1070
     0
1070
   288
1070
     1
1002
}
  0
DIMENSION
  5
7D4C
  8
3
  2
*D12
 10
575.28853562848371
 20
1569.4935522358369
 30
0.0
 11
537.78853562848337
 21
1691.993552235838
 31
0.0
 70
     0
 13
931.48890022054945
 23
1814.4935522358369
 33
0.0
 14
677.41760419501986
 24
1569.4935522358369
 34
0.0
 50
90.0
1001
ACAD
1000
DSTYLE
1002
{
1070
   287
1070
     3
1070
    40
1040
15.0
1070
   143
1040
0.039
1070
   172
1070
     1
1070
   271
1070
     0
1070
   279
1070
     0
1070
   288
1070
     1
1002
}
  0
ARC
  5
7D4D
  8
1
 10
909.80202148329784
 20
1556.4906081606121
 30
0.0
 40
201.58952384937541
 50
88.436022235574967
 51
172.20219715607021
  0
LINE
  5
7D4E
  8
1
 10
773.87773054550553
 20
1515.893552235837
 30
0.0
 11
1093.8777305455051
 21
1515.893552235837
 31
0.0
  0
POLYLINE
  5
7D4F
  8
1
 66
     1
 10
0.0
 20
0.0
 30
0.0
 70
     1
  0
VERTEX
  5
84C8
  8
1
 10
1033.8777305455051
 20
1515.893552235837
 30
0.0
  0
VERTEX
  5
84C9
  8
1
 10
833.87773054550553
 20
1515.893552235837
 30
0.0
  0
VERTEX
  5
84CA
  8
1
 10
833.87773054550553
 20
1521.893552235837
 30
0.0
  0
VERTEX
  5
84CB
  8
1
 10
1033.8777305455051
 20
1521.893552235837
 30
0.0
  0
SEQEND
  5
84CC
  8
1
  0
POLYLINE
  5
7D55
  8
1
 66
     1
 10
0.0
 20
0.0
 30
0.0
 70
     1
  0
VERTEX
  5
84CD
  8
1
 10
1033.8777305455051
 20
1515.893552235837
 30
0.0
  0
VERTEX
  5
84CE
  8
1
 10
833.87773054550553
 20
1515.893552235837
 30
0.0
  0
VERTEX
  5
84CF
  8
1
 10
833.87773054550553
 20
1521.893552235837
 30
0.0
  0
VERTEX
  5
84D0
  8
1
 10
1033.8777305455051
 20
1521.893552235837
 30
0.0
  0
SEQEND
  5
84D1
  8
1
  0
LINE
  5
7D5B
  8
1
 10
733.87773054550462
 20
1512.6935522358369
 30
0.0
 11
1133.8777305455051
 21
1512.6935522358381
 31
0.0
  0
LINE
  5
7D5C
  8
1
 10
773.87773054550553
 20
1515.893552235837
 30
0.0
 11
773.87773054550553
 21
1512.6935522358369
 31
0.0
  0
LINE
  5
7D5D
  8
2
 10
933.87773054550553
 20
1847.3913002968241
 30
0.0
 11
933.87773054550553
 21
1682.572794406502
 31
0.0
  0
LINE
  5
7D5E
  8
1
 10
1017.377730545505
 20
1521.893552235837
 30
0.0
 11
963.37773054550553
 21
1521.893552235837
 31
0.0
  0
LINE
  5
7D5F
  8
1
 10
850.37773054550564
 20
1521.893552235837
 30
0.0
 11
904.37773054550553
 21
1521.893552235837
 31
0.0
  0
LINE
  5
7D60
  8
1
 10
933.87773054550553
 20
1669.4935522358369
 30
0.0
 11
933.87773054550553
 21
1669.4935522358369
 31
0.0
  0
LINE
  5
7D61
  8
1
 10
1093.8777305455051
 20
1515.893552235837
 30
0.0
 11
1093.8777305455051
 21
1512.6935522358369
 31
0.0
  0
ARC
  5
7D62
  8
1
 10
915.37773054550598
 20
1587.9935522358369
 30
0.0
 40
170.010476206249
 50
74.82615823122201
 51
90.000000000000384
  0
ARC
  5
7D63
  8
1
 10
952.87773054550541
 20
1807.4935522358369
 30
0.0
 40
4.0
 50
0.0
 51
90.0
  0
LINE
  5
7D65
  8
1
 10
959.87773054550553
 20
1814.4935522358369
 30
0.0
 11
959.87773054550553
 21
1752.0767994607611
 31
0.0
  0
LINE
  5
7D67
  8
1
 10
956.87773054550553
 20
1807.4935522358369
 30
0.0
 11
956.87773054550553
 21
1791.4935522358369
 31
0.0
  0
ARC
  5
7D68
  8
1
 10
958.87773054550553
 20
1791.4935522358369
 30
0.0
 40
2.0
 50
180.0
 51
270.0
  0
LINE
  5
7D69
  8
1
 10
958.87773054550553
 20
1789.4935522358369
 30
0.0
 11
959.87773054550553
 21
1789.4935522358369
 31
0.0
  0
LINE
  5
7D6B
  8
1
 10
959.87773054550553
 20
1814.4935522358369
 30
0.0
 11
934.87773054550553
 21
1814.4935522358369
 31
0.0
  0
LINE
  5
7D6C
  8
1
 10
934.87773054550553
 20
1814.4935522358369
 30
0.0
 11
934.87773054550553
 21
1813.4935522358369
 31
0.0
  0
ARC
  5
7D6D
  8
1
 10
936.87773054550541
 20
1813.4935522358369
 30
0.0
 40
2.0
 50
180.0
 51
270.0
  0
LINE
  5
7D6E
  8
1
 10
936.87773054550541
 20
1811.4935522358369
 30
0.0
 11
952.87773054550541
 21
1811.4935522358369
 31
0.0
  0
LINE
  5
7D6F
  8
1
 10
997.37773054550553
 20
2353.9562521328698
 30
0.0
 11
870.37773054550553
 21
2353.9562521328689
 31
0.0
  0
LINE
  5
7D70
  8
1
 10
1886.100328659694
 20
1669.4935522358369
 30
0.0
 11
1886.100328659694
 21
1636.6968892914661
 31
0.0
  0
LINE
  5
7D71
  8
1
 10
1794.1003286596949
 20
1669.4935522358369
 30
0.0
 11
1794.1003286596949
 21
1289.4935522358369
 31
0.0
  0
LINE
  5
7D72
  8
1
 10
1874.1003286596949
 20
1632.9935522358369
 30
0.0
 11
1874.1003286596949
 21
1505.9935522358369
 31
0.0
  0
LINE
  5
7D73
  8
1
 10
1874.1003286596949
 20
1522.093552235837
 30
0.0
 11
1874.1003286596949
 21
1356.8935522358379
 31
0.0
  0
LINE
  5
7D74
  8
1
 10
1824.100328659694
 20
1522.093552235837
 30
0.0
 11
1824.100328659694
 21
1356.8935522358379
 31
0.0
  0
LINE
  5
7D75
  8
1
 10
1889.1003286596949
 20
1540.493552235838
 30
0.0
 11
1889.1003286596949
 21
1338.4935522358369
 31
0.0
  0
LINE
  5
7D76
  8
1
 10
2151.1003286596952
 20
1540.493552235838
 30
0.0
 11
2151.1003286596952
 21
1338.4935522358369
 31
0.0
  0
LINE
  5
7D77
  8
1
 10
1824.1003286596949
 20
1632.9935522358369
 30
0.0
 11
1824.1003286596949
 21
1505.9935522358369
 31
0.0
  0
ARC
  5
7D78
  8
1
 10
1413.877730545506
 20
1439.4935522358369
 30
0.0
 40
150.0
 50
249.0754108565159
 51
80.616453042858907
  0
CIRCLE
  5
7D79
  8
1
 10
1413.877730545506
 20
1439.4935522358369
 30
0.0
 40
82.599999999999994
  0
LINE
  5
7D7A
  8
2
 10
1413.877730545506
 20
1343.509452235837
 30
0.0
 11
1413.877730545506
 21
1547.9546522358371
 31
0.0
  0
ARC
  5
7D7B
  8
1
 10
1413.877730545506
 20
1439.4935522358369
 30
0.0
 40
100.8
 50
0.0
 51
239.69929999999999
  0
ARC
  5
7D7D
  8
1
 10
1413.877730545506
 20
1439.4935522358369
 30
0.0
 40
100.8
 50
0.0
 51
239.69929999999999
  0
LINE
  5
7D7F
  8
1
 10
2299.1003286596929
 20
1511.393552235837
 30
0.0
 11
2299.1003286596929
 21
1461.393552235837
 31
0.0
  0
LINE
  5
7D80
  8
1
 10
2299.1003286596929
 20
1511.3935522358379
 30
0.0
 11
2299.1003286596929
 21
1471.3935522358379
 31
0.0
  0
LINE
  5
7D81
  8
1
 10
2299.1003286596929
 20
1511.393552235837
 30
0.0
 11
2299.1003286596929
 21
1289.4935522358369
 31
0.0
  0
LINE
  5
7D84
  8
1
 10
1514.781602014192
 20
1349.4935522358369
 30
0.0
 11
1312.9738590768191
 21
1349.4935522358369
 31
0.0
  0
LINE
  5
7D85
  8
1
 10
1563.877730545506
 20
1319.4935522358369
 30
0.0
 11
1263.877730545506
 21
1319.4935522358369
 31
0.0
  0
LINE
  5
7D86
  8
2
 10
1309.412530545505
 20
1439.4935522358369
 30
0.0
 11
1519.9805305455061
 21
1439.4935522358369
 31
0.0
  0
ARC
  5
7D87
  8
1
 10
1413.877730545506
 20
1439.4935522358369
 30
0.0
 40
100.8
 50
300.3932999999999
 51
0.0
  0
ARC
  5
7D89
  8
1
 10
1413.877730545506
 20
1439.4935522358369
 30
0.0
 40
100.8
 50
300.3932999999999
 51
0.0
  0
LINE
  5
7D8B
  8
1
 10
1325.877730545506
 20
1349.4935522358369
 30
0.0
 11
1365.877730545506
 21
1349.4935522358369
 31
0.0
  0
LINE
  5
7D8C
  8
1
 10
1301.377730545506
 20
1319.4935522358369
 30
0.0
 11
1312.9738590768191
 21
1349.4935522358369
 31
0.0
  0
LINE
  5
7D8D
  8
1
 10
1263.877730545506
 20
1289.4935522358369
 30
0.0
 11
1263.877730545506
 21
1319.4935522358369
 31
0.0
  0
LINE
  5
7D8E
  8
1
 10
1331.7312305455059
 20
1381.076252235837
 30
0.0
 11
1325.877730545506
 21
1357.4935522358369
 31
0.0
  0
LINE
  5
7D8F
  8
1
 10
1325.877730545506
 20
1349.4935522358369
 30
0.0
 11
1325.877730545506
 21
1357.4935522358369
 31
0.0
  0
LINE
  5
7D90
  8
1
 10
1343.877730545506
 20
1345.127052235837
 30
0.0
 11
1343.877730545506
 21
1362.0304522358369
 31
0.0
  0
LINE
  5
7D91
  8
1
 10
1362.9536305455049
 20
1352.4935522358369
 30
0.0
 11
1464.9087305455059
 21
1352.4935522358369
 31
0.0
  0
LINE
  5
7D92
  8
1
 10
1362.9536305455049
 20
1352.4935522358369
 30
0.0
 11
1464.9087305455059
 21
1352.4935522358369
 31
0.0
  0
LINE
  5
7D95
  8
1
 10
1365.877730545506
 20
1352.4663522358369
 30
0.0
 11
1365.877730545506
 21
1349.4935522358369
 31
0.0
  0
LINE
  5
7D96
  8
1
 10
1501.877730545506
 20
1349.4935522358369
 30
0.0
 11
1461.877730545506
 21
1349.4935522358369
 31
0.0
  0
LINE
  5
7D97
  8
1
 10
1461.877730545506
 20
1352.4245522358369
 30
0.0
 11
1461.877730545506
 21
1349.4935522358369
 31
0.0
  0
LINE
  5
7D98
  8
1
 10
1496.024330545506
 20
1381.076252235837
 30
0.0
 11
1501.877730545506
 21
1357.4935522358369
 31
0.0
  0
LINE
  5
7D99
  8
1
 10
1501.877730545506
 20
1349.4935522358369
 30
0.0
 11
1501.877730545506
 21
1357.4935522358369
 31
0.0
  0
LINE
  5
7D9A
  8
1
 10
1483.877730545506
 20
1345.127052235837
 30
0.0
 11
1483.877730545506
 21
1362.0304522358369
 31
0.0
  0
LINE
  5
7D9B
  8
1
 10
1553.8777305455051
 20
1289.4935522358369
 30
0.0
 11
1553.8777305455051
 21
1214.4935522358369
 31
0.0
  0
LINE
  5
7D9C
  8
1
 10
1553.8777305455051
 20
1119.4935522358369
 30
0.0
 11
1553.8777305455051
 21
1044.4935522358369
 31
0.0
  0
LINE
  5
7D9D
  8
1
 10
1526.3777305455051
 20
1319.4935522358369
 30
0.0
 11
1514.781602014192
 21
1349.4935522358369
 31
0.0
  0
LINE
  5
7D9E
  8
1
 10
1563.877730545506
 20
1289.4935522358369
 30
0.0
 11
1563.8777305455051
 21
1319.4935522358369
 31
0.0
  0
LINE
  5
7D9F
  8
1
 10
2151.1003286596952
 20
1338.4935522358369
 30
0.0
 11
1889.1003286596949
 21
1338.4935522358369
 31
0.0
  0
LINE
  5
7DA0
  8
2
 10
2155.037328659695
 20
1439.493552235838
 30
0.0
 11
1819.065728659695
 21
1439.493552235838
 31
0.0
  0
LINE
  5
7DA1
  8
1
 10
1867.1003286596949
 20
1289.4935522358369
 30
0.0
 11
1867.100328659694
 21
1214.4935522358369
 31
0.0
  0
LINE
  5
7DA2
  8
1
 10
1867.100328659694
 20
1119.4935522358369
 30
0.0
 11
1867.1003286596949
 21
1044.4935522358369
 31
0.0
  0
LINE
  5
7DA3
  8
1
 10
1794.1003286596949
 20
1289.4935522358369
 30
0.0
 11
1886.1003286596949
 21
1289.4935522358369
 31
0.0
  0
LINE
  5
7DA4
  8
1
 10
1874.1003286596949
 20
1505.9935522358369
 30
0.0
 11
1824.1003286596949
 21
1505.9935522358369
 31
0.0
  0
LINE
  5
7DA5
  8
1
 10
1874.1003286596949
 20
1356.8935522358379
 30
0.0
 11
1824.100328659694
 21
1356.893552235837
 31
0.0
  0
LINE
  5
7DA6
  8
1
 10
1824.1003286596949
 20
1451.4935522358369
 30
0.0
 11
1824.1003286596949
 21
1427.4935522358369
 31
0.0
  0
LINE
  5
7DA8
  8
1
 10
1909.1003286596949
 20
1338.4935522358369
 30
0.0
 11
1909.1003286596949
 21
1289.4935522358369
 31
0.0
  0
LINE
  5
7DA9
  8
1
 10
1879.1003286596949
 20
1402.9935522358369
 30
0.0
 11
1879.1003286596949
 21
1475.9935522358369
 31
0.0
  0
LINE
  5
7DAA
  8
1
 10
1874.1003286596949
 20
1451.993552235838
 30
0.0
 11
1874.1003286596949
 21
1426.9935522358369
 31
0.0
  0
LINE
  5
7DAB
  8
1
 10
1879.1003286596949
 20
1426.9935522358369
 30
0.0
 11
1874.1003286596949
 21
1426.9935522358369
 31
0.0
  0
ARC
  5
7DAC
  8
1
 10
1880.1004286596949
 20
1402.9935522358369
 30
0.0
 40
1.0000999999999991
 50
180.0
 51
269.99650000000003
  0
ARC
  5
7DAD
  8
1
 10
1888.1003286596949
 20
1400.9935522358369
 30
0.0
 40
1.0000999999999991
 50
0.0
 51
89.996500000000054
  0
LINE
  5
7DAE
  8
1
 10
1880.1003286596949
 20
1401.9935522358369
 30
0.0
 11
1888.1003286596949
 21
1401.9935522358369
 31
0.0
  0
LINE
  5
7DAF
  8
1
 10
1879.1003286596949
 20
1451.993552235838
 30
0.0
 11
1874.1003286596949
 21
1451.993552235838
 31
0.0
  0
LINE
  5
7DB0
  8
1
 10
1879.1003286596949
 20
1475.9935522358369
 30
0.0
 11
1889.1003286596949
 21
1475.9935522358369
 31
0.0
  0
LINE
  5
7DB1
  8
1
 10
2312.1003286596952
 20
1466.6935522358369
 30
0.0
 11
2312.1003286596952
 21
1471.393552235837
 31
0.0
  0
LINE
  5
7DB2
  8
1
 10
2312.1003286596952
 20
1472.6935522358369
 30
0.0
 11
2312.1003286596952
 21
1466.6935522358369
 31
0.0
  0
LINE
  5
7DB3
  8
1
 10
1284.8776701058259
 20
1814.4935522358369
 30
0.0
 11
1257.432464135316
 21
1569.166444871028
 31
0.0
  0
ARC
  5
7DB9
  8
1
 10
1291.8776701058271
 20
1807.4935522358369
 30
0.0
 40
4.0
 50
90.0
 51
180.0
  0
LINE
  5
7DBA
  8
1
 10
1284.8776701058259
 20
1789.4935522358369
 30
0.0
 11
1284.8776701058259
 21
1814.4935522358369
 31
0.0
  0
LINE
  5
7DBB
  8
1
 10
1281.3073167573129
 20
1789.493552235838
 30
0.0
 11
1280.3073167573129
 21
1789.493552235838
 31
0.0
  0
LINE
  5
7DBC
  8
1
 10
1287.8776701058259
 20
1807.4935522358369
 30
0.0
 11
1287.8776701058259
 21
1791.4935522358369
 31
0.0
  0
ARC
  5
7DBD
  8
1
 10
1285.8776701058259
 20
1791.4935522358369
 30
0.0
 40
2.0
 50
270.0
 51
0.0
  0
LINE
  5
7DBE
  8
1
 10
1285.8776701058259
 20
1789.4935522358369
 30
0.0
 11
1284.8776701058259
 21
1789.4935522358369
 31
0.0
  0
LINE
  5
7DBF
  8
1
 10
1284.8776701058259
 20
1814.4935522358369
 30
0.0
 11
1309.8776701058271
 21
1814.4935522358369
 31
0.0
  0
LINE
  5
7DC0
  8
1
 10
1307.8776701058271
 20
1811.4935522358369
 30
0.0
 11
1291.8776701058271
 21
1811.4935522358369
 31
0.0
  0
LINE
  5
7DC1
  8
1
 10
1309.8776701058271
 20
1814.4935522358369
 30
0.0
 11
1309.8776701058271
 21
1813.4935522358369
 31
0.0
  0
ARC
  5
7DC2
  8
1
 10
1307.8776701058271
 20
1813.4935522358369
 30
0.0
 40
2.0
 50
270.0
 51
0.0
  0
LINE
  5
7DC3
  8
1
 10
1331.2777305455061
 20
2353.9562521328698
 30
0.0
 11
1496.477730545505
 21
2353.9562521328698
 31
0.0
  0
LINE
  5
7DC4
  8
1
 10
1401.877730545506
 20
2353.9562521328698
 30
0.0
 11
1425.877730545506
 21
2353.9562521328698
 31
0.0
  0
LINE
  5
7DC5
  8
1
 10
2151.1003286596952
 20
1540.493552235838
 30
0.0
 11
1889.1003286596949
 21
1540.493552235838
 31
0.0
  0
LINE
  5
7DC8
  8
1
 10
1794.1003286596949
 20
1669.4935522358369
 30
0.0
 11
1886.100328659694
 21
1669.4935522358369
 31
0.0
  0
LINE
  5
7DC9
  8
1
 10
1874.1003286596949
 20
1632.993552235838
 30
0.0
 11
1824.1003286596949
 21
1632.993552235838
 31
0.0
  0
LINE
  5
7DCA
  8
1
 10
1874.1003286596949
 20
1522.093552235837
 30
0.0
 11
1824.100328659694
 21
1522.093552235837
 31
0.0
  0
LINE
  5
7DDD
  8
1
 10
2309.1003286596929
 20
1512.6935522358369
 30
0.0
 11
2151.1003286596952
 21
1512.6935522358369
 31
0.0
  0
LINE
  5
7DDE
  8
1
 10
2309.1003286596929
 20
1515.893552235837
 30
0.0
 11
2151.1003286596952
 21
1515.893552235837
 31
0.0
  0
LINE
  5
7DF0
  8
1
 10
2309.1003286596929
 20
1515.893552235837
 30
0.0
 11
2309.100328659692
 21
1512.6935522358369
 31
0.0
  0
DIMENSION
  5
7DFA
  8
3
  2
*D13
 10
1553.8777305455069
 20
3272.745730846153
 30
0.0
 11
1333.877730545506
 21
3310.245730846153
 31
0.0
 70
     0
 13
1113.8777305455051
 23
3176.9562521328712
 33
0.0
 14
1553.8777305455069
 24
2776.9562521328712
 34
0.0
1001
ACAD
1000
DSTYLE
1002
{
1070
   287
1070
     3
1070
    40
1040
15.0
1070
   143
1040
0.039
1070
   172
1070
     1
1070
   271
1070
     0
1070
   279
1070
     0
1070
   288
1070
     1
1002
}
  0
LINE
  5
7DFB
  8
1
 10
833.87773054550553
 20
2415.9562521328712
 30
0.0
 11
1563.877730545506
 21
2415.9562521328712
 31
0.0
  0
LINE
  5
7DFC
  8
1
 10
1093.8777305455051
 20
2436.9562521328698
 30
0.0
 11
1312.877730545506
 21
2436.9562521328698
 31
0.0
  0
LINE
  5
7DFD
  8
1
 10
1286.4889002205491
 20
2891.9562521328698
 30
0.0
 11
956.48890022054945
 21
3131.9562521328712
 31
0.0
  0
LINE
  5
7DFE
  8
1
 10
1286.4889002205491
 20
3131.9562521328712
 30
0.0
 11
956.48890022054945
 21
2891.9562521328712
 31
0.0
  0
LINE
  5
7DFF
  8
1
 10
1286.4889002205491
 20
2891.9562521328698
 30
0.0
 11
956.48890022054945
 21
2891.9562521328712
 31
0.0
  0
LINE
  5
7E00
  8
1
 10
1286.4889002205491
 20
3131.9562521328712
 30
0.0
 11
956.48890022054945
 21
3131.9562521328712
 31
0.0
  0
LINE
  5
7E01
  8
1
 10
1311.4889002205491
 20
2866.9562521328698
 30
0.0
 11
931.48890022054945
 21
2866.9562521328712
 31
0.0
  0
LINE
  5
7E02
  8
1
 10
1311.4889002205491
 20
3156.9562521328712
 30
0.0
 11
931.48890022054945
 21
3156.9562521328712
 31
0.0
  0
LINE
  5
7E03
  8
2
 10
1365.888842817428
 20
3011.9562521328698
 30
0.0
 11
684.27861051928937
 21
3011.9562521328698
 31
0.0
  0
LINE
  5
7E04
  8
1
 10
1113.8777305455051
 20
2776.9562521328712
 30
0.0
 11
1553.8777305455051
 21
2776.9562521328712
 31
0.0
  0
LINE
  5
7E05
  8
1
 10
1113.8777305455051
 20
2736.9562521328698
 30
0.0
 11
1553.8777305455051
 21
2736.9562521328698
 31
0.0
  0
DIMENSION
  5
7E06
  8
3
  2
*D14
 10
616.44724853670914
 20
3176.9562521328712
 30
0.0
 11
578.94724853670857
 21
2786.9562521328698
 31
0.0
 70
     0
 13
753.87773054550644
 23
2396.9562521328698
 33
0.0
 14
753.87773054550553
 24
3176.9562521328712
 34
0.0
 50
90.0
1001
ACAD
1000
DSTYLE
1002
{
1070
   287
1070
     3
1070
    40
1040
15.0
1070
   143
1040
0.039
1070
   172
1070
     1
1070
   271
1070
     0
1070
   279
1070
     0
1070
   288
1070
     1
1002
}
  0
LINE
  5
7E09
  8
1
 10
753.87773054550587
 20
2893.9562521328698
 30
0.0
 11
753.87773054550644
 21
2396.9562521328698
 31
0.0
  0
LINE
  5
7E0A
  8
1
 10
793.87773054550496
 20
2893.9562521328721
 30
0.0
 11
793.87773054550496
 21
2838.9562521328698
 31
0.0
  0
LINE
  5
7E0B
  8
1
 10
1113.8777305455039
 20
2436.9562521328698
 30
0.0
 11
1113.8777305455051
 21
2866.9562521328712
 31
0.0
  0
LINE
  5
7E0C
  8
1
 10
1073.8777305455039
 20
2838.9562521328698
 30
0.0
 11
1073.8777305455039
 21
2866.9562521328712
 31
0.0
  0
LINE
  5
7E11
  8
1
 10
773.87773054550598
 20
2838.9562521328698
 30
0.0
 11
916.37773054550564
 21
2838.9562521328698
 31
0.0
  0
LINE
  5
7E12
  8
1
 10
773.87773054550553
 20
2428.9562521328698
 30
0.0
 11
1093.8777305455051
 21
2428.9562521328698
 31
0.0
  0
LINE
  5
7E15
  8
1
 10
773.87773054550553
 20
2428.9562521328698
 30
0.0
 11
773.87773054550553
 21
2838.9562521328698
 31
0.0
  0
LINE
  5
7E16
  8
1
 10
753.87773054550553
 20
2396.9562521328698
 30
0.0
 11
833.87773054550553
 21
2396.9562521328698
 31
0.0
  0
LINE
  5
7E17
  8
1
 10
753.87773054550644
 20
2436.9562521328698
 30
0.0
 11
773.87773054550553
 21
2436.9562521328698
 31
0.0
  0
POINT
  5
7E18
  8
1
 10
753.87773054550644
 20
2396.9562521328698
 30
0.0
  0
LINE
  5
7E1D
  8
1
 10
1093.8777305455051
 20
2428.9562521328698
 30
0.0
 11
1093.8777305455051
 21
2838.9562521328698
 31
0.0
  0
LINE
  5
7E22
  8
1
 10
997.3777305455053
 20
2403.9562521328712
 30
0.0
 11
870.3777305455053
 21
2403.9562521328698
 31
0.0
  0
LINE
  5
7E23
  8
1
 10
916.37773054550564
 20
2893.9562521328712
 30
0.0
 11
916.37773054550541
 21
2403.9562521328698
 31
0.0
  0
LINE
  5
7E25
  8
1
 10
951.37773054550541
 20
2866.9562521328698
 30
0.0
 11
951.37773054550564
 21
2403.9562521328698
 31
0.0
  0
DIMENSION
  5
7E2F
  8
3
  2
*D15
 10
1113.8777305455051
 20
3272.745730846153
 30
0.0
 11
933.87773054550553
 21
3310.245730846153
 31
0.0
 70
     0
 13
753.87773054550553
 23
3176.9562521328712
 33
0.0
 14
1113.8777305455051
 24
3176.9562521328712
 34
0.0
1001
ACAD
1000
DSTYLE
1002
{
1070
   287
1070
     3
1070
    40
1040
15.0
1070
   143
1040
0.039
1070
   172
1070
     1
1070
   271
1070
     0
1070
   279
1070
     0
1070
   288
1070
     1
1002
}
  0
LINE
  5
7E30
  8
1
 10
931.48890022054945
 20
2893.9562521328698
 30
0.0
 11
705.21882631767585
 21
2893.9562521328698
 31
0.0
  0
LINE
  5
7E31
  8
1
 10
931.48890022054945
 20
3129.9562521328698
 30
0.0
 11
705.21882631767585
 21
3129.9562521328698
 31
0.0
  0
LINE
  5
7E32
  8
1
 10
1073.877730545503
 20
3171.9562521328698
 30
0.0
 11
793.87773054550553
 21
3171.9562521328698
 31
0.0
  0
LINE
  5
7E33
  8
1
 10
931.48890022054945
 20
3131.9562521328712
 30
0.0
 11
793.8777305455053
 21
3131.9562521328712
 31
0.0
  0
LINE
  5
7E34
  8
1
 10
705.21882631767585
 20
2893.9562521328721
 30
0.0
 11
705.21882631767585
 21
3129.9562521328698
 31
0.0
  0
LINE
  5
7E35
  8
1
 10
793.87773054550553
 20
3176.9562521328712
 30
0.0
 11
753.87773054550553
 21
3176.9562521328712
 31
0.0
  0
LINE
  5
7E36
  8
1
 10
753.87773054550553
 20
3176.9562521328712
 30
0.0
 11
753.87773054550553
 21
3129.9562521328698
 31
0.0
  0
POINT
  5
7E37
  8
1
 10
753.87773054550553
 20
3176.9562521328712
 30
0.0
  0
POINT
  5
7E38
  8
1
 10
753.87773054550553
 20
3176.9562521328712
 30
0.0
  0
LINE
  5
7E39
  8
1
 10
793.8777305455053
 20
3176.9562521328712
 30
0.0
 11
793.8777305455053
 21
3129.9562521328698
 31
0.0
  0
LINE
  5
7E3A
  8
1
 10
956.48890022054945
 20
2891.9562521328712
 30
0.0
 11
956.48890022054945
 21
3131.9562521328712
 31
0.0
  0
LINE
  5
7E3B
  8
1
 10
931.48890022054945
 20
2866.9562521328712
 30
0.0
 11
931.48890022054945
 21
3156.9562521328712
 31
0.0
  0
LINE
  5
7E3C
  8
1
 10
1113.8777305455051
 20
3176.9562521328712
 30
0.0
 11
1073.877730545503
 21
3176.9562521328712
 31
0.0
  0
LINE
  5
7E3D
  8
1
 10
1073.8777305455039
 20
3156.9562521328712
 30
0.0
 11
1073.877730545503
 21
3176.9562521328689
 31
0.0
  0
LINE
  5
7E3E
  8
1
 10
1113.8777305455051
 20
3156.9562521328712
 30
0.0
 11
1113.8777305455051
 21
3176.9562521328712
 31
0.0
  0
POINT
  5
7E3F
  8
1
 10
1113.8777305455051
 20
3176.9562521328712
 30
0.0
  0
LINE
  5
7E40
  8
1
 10
1312.877730545506
 20
2418.9562521328698
 30
0.0
 11
1514.877730545506
 21
2418.9562521328698
 31
0.0
  0
LINE
  5
7E41
  8
1
 10
1312.877730545506
 20
2680.9562521328712
 30
0.0
 11
1514.877730545506
 21
2680.9562521328712
 31
0.0
  0
LINE
  5
7E42
  8
1
 10
1312.877730545506
 20
2680.9562521328712
 30
0.0
 11
1312.877730545506
 21
2418.9562521328698
 31
0.0
  0
LINE
  5
7E44
  8
1
 10
1331.2777305455061
 20
2403.9562521328712
 30
0.0
 11
1496.477730545505
 21
2403.9562521328712
 31
0.0
  0
LINE
  5
7E45
  8
1
 10
1450.377730545506
 20
2408.9562521328698
 30
0.0
 11
1377.3777305455051
 21
2408.9562521328698
 31
0.0
  0
LINE
  5
7E46
  8
1
 10
1377.3777305455051
 20
2408.9562521328698
 30
0.0
 11
1377.3777305455051
 21
2418.9562521328698
 31
0.0
  0
LINE
  5
7E47
  8
1
 10
1426.377730545506
 20
2408.9562521328698
 30
0.0
 11
1426.377730545506
 21
2403.9562521328712
 31
0.0
  0
LINE
  5
7E48
  8
1
 10
1401.3777305455051
 20
2408.9562521328698
 30
0.0
 11
1401.3777305455051
 21
2403.9562521328712
 31
0.0
  0
LINE
  5
7E49
  8
1
 10
1401.3777305455051
 20
2403.9562521328712
 30
0.0
 11
1426.377730545506
 21
2403.9562521328712
 31
0.0
  0
ARC
  5
7E4A
  8
1
 10
1450.377730545506
 20
2409.956352132871
 30
0.0
 40
1.0000999999999991
 50
270.0
 51
359.99650000000003
  0
ARC
  5
7E4B
  8
1
 10
1452.377730545506
 20
2417.9562521328712
 30
0.0
 40
1.0000999999999991
 50
90.0
 51
179.9965
  0
LINE
  5
7E4C
  8
1
 10
1451.3777305455051
 20
2409.9562521328698
 30
0.0
 11
1451.3777305455051
 21
2417.9562521328712
 31
0.0
  0
DIMENSION
  5
7E4D
  8
3
  2
*D16
 10
1687.0240091509579
 20
2776.9562521328712
 30
0.0
 11
1649.524009150957
 21
2586.9562521328698
 31
0.0
 70
     0
 13
1553.8777305455051
 23
2396.9562521328698
 33
0.0
 14
1553.8777305455069
 24
2776.9562521328712
 34
0.0
 50
90.0
1001
ACAD
1000
DSTYLE
1002
{
1070
   287
1070
     3
1070
    40
1040
15.0
1070
   143
1040
0.039
1070
   172
1070
     1
1070
   271
1070
     0
1070
   279
1070
     0
1070
   288
1070
     1
1002
}
  0
LINE
  5
7E4E
  8
1
 10
1514.877730545506
 20
2680.9562521328712
 30
0.0
 11
1514.877730545506
 21
2418.9562521328698
 31
0.0
  0
LINE
  5
7E4F
  8
1
 10
1514.877730545506
 20
2436.9562521328698
 30
0.0
 11
1553.8777305455051
 21
2436.9562521328698
 31
0.0
  0
LINE
  5
7E50
  8
1
 10
1553.877730545506
 20
2415.9562521328712
 30
0.0
 11
1553.877730545506
 21
2436.9562521328698
 31
0.0
  0
LINE
  5
7E51
  8
1
 10
1553.8777305455069
 20
2736.9562521328698
 30
0.0
 11
1553.8777305455069
 21
2776.9562521328712
 31
0.0
  0
POINT
  5
7E52
  8
1
 10
1553.8777305455069
 20
2776.9562521328712
 30
0.0
  0
LINE
  5
7E53
  8
1
 10
1286.4889002205491
 20
2891.9562521328698
 30
0.0
 11
1286.4889002205491
 21
3131.9562521328712
 31
0.0
  0
LINE
  5
7E54
  8
1
 10
1311.4889002205491
 20
2866.9562521328698
 30
0.0
 11
1311.4889002205491
 21
3156.9562521328712
 31
0.0
  0
DIMENSION
  5
7E55
  8
3
  2
*D17
 10
2755.2803002021819
 20
1411.9935522358369
 30
0.0
 11
2717.7803002021819
 21
1569.4935522358369
 31
0.0
 70
     0
 13
2628.1003286596938
 23
1726.9935522358369
 33
0.0
 14
2628.1003286596938
 24
1411.9935522358369
 34
0.0
 50
90.0
1001
ACAD
1000
DSTYLE
1002
{
1070
   287
1070
     3
1070
     3
1000
φ<>
1070
    40
1040
15.0
1070
   143
1040
0.039
1070
   172
1070
     1
1070
   271
1070
     0
1070
   279
1070
     0
1070
   288
1070
     1
1002
}
  0
LINE
  5
7E58
  8
1
 10
2600.1003286596952
 20
1819.4935522358369
 30
0.0
 11
2600.1003286596938
 21
1303.493552235836
 31
0.0
  0
LINE
  5
7E59
  8
1
 10
2364.1003286596952
 20
1819.4935522358369
 30
0.0
 11
2364.1003286596952
 21
1303.493552235836
 31
0.0
  0
LINE
  5
7E5A
  8
1
 10
2606.1003286596938
 20
1733.9935522358369
 30
0.0
 11
2606.1003286596938
 21
1404.9935522358369
 31
0.0
  0
LINE
  5
7E5B
  8
1
 10
2603.1003286596938
 20
1386.9935522358369
 30
0.0
 11
2603.1003286596938
 21
1745.5010229248139
 31
0.0
  0
LINE
  5
7E5C
  8
1
 10
2628.1003286596938
 20
1411.9935522358369
 30
0.0
 11
2628.1003286596938
 21
1727.9935790000629
 31
0.0
  0
LINE
  5
7E5D
  8
2
 10
2482.1003286596938
 20
1956.7198703781521
 30
0.0
 11
2482.1003286596938
 21
1955.6201234394489
 31
0.0
  0
DIMENSION
  5
7E5E
  8
3
  2
*D18
 10
2647.1003286596938
 20
941.76293656680923
 30
0.0
 11
2564.6003286596938
 21
976.66575482665746
 31
0.0
 12
-192.1704109707789
 22
-59.0
 32
0.0
 70
   128
 13
2482.1003286596938
 23
1027.2210513705729
 33
0.0
 14
2647.1003286596938
 24
1044.493552235838
 34
0.0
1001
ACAD
1000
DSTYLE
1002
{
1070
   288
1070
     1
1070
   172
1070
     1
1070
    40
1040
15.0
1070
   271
1070
     0
1070
   143
1040
0.039
1002
}
  0
LINE
  5
7E5F
  8
1
 10
2647.1003286596938
 20
1289.4935522358369
 30
0.0
 11
2647.1003286596938
 21
1214.4935522358369
 31
0.0
  0
LINE
  5
7E60
  8
1
 10
2647.1003286596938
 20
1119.4935522358369
 30
0.0
 11
2647.1003286596938
 21
1044.4935522358369
 31
0.0
  0
LINE
  5
7E61
  8
1
 10
2362.1003286596938
 20
1303.4935522358351
 30
0.0
 11
2600.1003286596938
 21
1303.4935522358351
 31
0.0
  0
ARC
  5
7E63
  8
1
 10
2604.1003286596938
 20
1388.9935522358369
 30
0.0
 40
2.0
 50
270.0
 51
0.0
  0
POLYLINE
  5
7E64
  8
1
 66
     1
 10
0.0
 20
0.0
 30
0.0
  0
VERTEX
  5
84FF
  8
1
 10
2602.1003286596952
 20
1304.4935522358369
 30
0.0
  0
VERTEX
  5
8500
  8
1
 10
2602.1003286596952
 20
1329.4935522358369
 30
0.0
  0
VERTEX
  5
8501
  8
1
 10
2604.1003286596938
 20
1329.4935522358369
 30
0.0
 42
-0.4142135623730951
  0
VERTEX
  5
8502
  8
1
 10
2607.1003286596938
 20
1326.4935522358369
 30
0.0
  0
VERTEX
  5
8503
  8
1
 10
2607.1003286596938
 20
1304.4935522358369
 30
0.0
 42
0.4142135623730951
  0
SEQEND
  5
8504
  8
1
  0
POLYLINE
  5
7E6B
  8
1
 66
     1
 10
0.0
 20
0.0
 30
0.0
  0
VERTEX
  5
8505
  8
1
 10
2607.1003286596938
 20
1304.4935522358369
 30
0.0
  0
VERTEX
  5
8506
  8
1
 10
2607.1003286596938
 20
1298.9935522358369
 30
0.0
 42
0.4142135623730951
  0
VERTEX
  5
8507
  8
1
 10
2611.6003286596938
 20
1294.4935522358369
 30
0.0
  0
VERTEX
  5
8508
  8
1
 10
2639.1003286596952
 20
1294.4935522358369
 30
0.0
 42
-0.4142135623730951
  0
VERTEX
  5
8509
  8
1
 10
2642.1003286596938
 20
1291.4935522358369
 30
0.0
  0
VERTEX
  5
850A
  8
1
 10
2642.1003286596938
 20
1289.4935522358369
 30
0.0
  0
VERTEX
  5
850B
  8
1
 10
2602.1003286596952
 20
1289.4935522358369
 30
0.0
  0
SEQEND
  5
850C
  8
1
  0
POLYLINE
  5
7E74
  8
1
 66
     1
 10
0.0
 20
0.0
 30
0.0
  0
VERTEX
  5
850D
  8
1
 10
2602.1003286596952
 20
1289.4935522358369
 30
0.0
  0
VERTEX
  5
850E
  8
1
 10
2602.1003286596952
 20
1304.4935522358369
 30
0.0
  0
SEQEND
  5
850F
  8
1
  0
LINE
  5
7E79
  8
1
 10
2604.1003286596938
 20
1386.9935522358369
 30
0.0
 11
2603.1003286596938
 21
1386.9935522358369
 31
0.0
  0
LINE
  5
7E7A
  8
1
 10
2626.1003286596938
 20
1408.9935522358369
 30
0.0
 11
2610.1003286596952
 21
1408.9935522358369
 31
0.0
  0
LINE
  5
7E7B
  8
1
 10
2606.1003286596938
 20
1404.9935522358369
 30
0.0
 11
2606.1003286596938
 21
1388.9935522358369
 31
0.0
  0
ARC
  5
7E7C
  8
1
 10
2610.1003286596952
 20
1404.9935522358369
 30
0.0
 40
4.0
 50
90.0
 51
180.0
  0
ARC
  5
7E7E
  8
1
 10
2626.1003286596938
 20
1410.9935522358369
 30
0.0
 40
2.0
 50
270.0
 51
0.0
  0
LINE
  5
7E7F
  8
1
 10
2628.1003286596938
 20
1411.9935522358369
 30
0.0
 11
2628.1003286596938
 21
1410.9935522358369
 31
0.0
  0
DIMENSION
  5
7E80
  8
3
  2
*D19
 10
2482.1003286596938
 20
1995.6214280467209
 30
0.0
 11
2542.6003286596952
 21
2036.5041340866619
 31
0.0
 12
-192.1704109707789
 22
0.0
 32
0.0
 70
   128
 13
2603.1003286596938
 23
1751.9935522358369
 33
0.0
 14
2482.1003286596938
 24
1956.7198703781521
 34
0.0
1001
ACAD
1000
DSTYLE
1002
{
1070
   288
1070
     1
1070
   172
1070
     1
1070
    40
1040
15.0
1070
   271
1070
     0
1070
   143
1040
0.039
1002
}
  0
LINE
  5
7E81
  8
1
 10
2603.1003286596938
 20
1751.9935522358369
 30
0.0
 11
2603.1003286596938
 21
1726.9935522358369
 31
0.0
  0
LINE
  5
7E82
  8
1
 10
2606.1003286596938
 20
1733.9935522358369
 30
0.0
 11
2606.1003286596938
 21
1749.9935522358369
 31
0.0
  0
LINE
  5
7E83
  8
2
 10
2639.890617058858
 20
1569.4935522358369
 30
0.0
 11
2568.2977107691459
 21
1569.4935522358369
 31
0.0
  0
LINE
  5
7E84
  8
1
 10
2626.1003286596938
 20
1729.9935522358369
 30
0.0
 11
2610.1003286596952
 21
1729.9935522358369
 31
0.0
  0
ARC
  5
7E85
  8
1
 10
2610.1003286596952
 20
1733.9935522358369
 30
0.0
 40
4.0
 50
180.0
 51
270.0
  0
ARC
  5
7E87
  8
1
 10
2626.1003286596938
 20
1727.9935522358369
 30
0.0
 40
2.0
 50
0.0
 51
90.0
  0
LINE
  5
7E88
  8
1
 10
2628.1003286596938
 20
1726.9935522358369
 30
0.0
 11
2628.1003286596938
 21
1727.9935522358369
 31
0.0
  0
DIMENSION
  5
7E89
  8
3
  2
*D20
 10
2600.1003286596952
 20
1894.0971296887201
 30
0.0
 11
2465.8860429454089
 21
1894.0971296887201
 31
0.0
 70
   128
 13
2364.1003286596952
 23
1819.4935522358369
 33
0.0
 14
2600.1003286596952
 24
1816.4935522358369
 34
0.0
1001
ACAD
1000
DSTYLE
1002
{
1070
   287
1070
     3
1070
    40
1040
15.0
1070
   143
1040
0.039
1070
   172
1070
     1
1070
   271
1070
     0
1070
   279
1070
     0
1070
   288
1070
     1
1002
}
  0
LINE
  5
7E8A
  8
1
 10
2364.1003286596952
 20
1816.4935522358369
 30
0.0
 11
2600.1003286596952
 21
1816.4935522358369
 31
0.0
  0
LINE
  5
7E8B
  8
1
 10
2364.1003286596938
 20
1794.4935522358369
 30
0.0
 11
2600.1003286596961
 21
1794.4935522358369
 31
0.0
  0
LINE
  5
7E8C
  8
1
 10
2364.1003286596952
 20
1819.4935522358369
 30
0.0
 11
2600.1003286596961
 21
1819.4935522358369
 31
0.0
  0
POLYLINE
  5
7E8D
  8
1
 66
     1
 10
0.0
 20
0.0
 30
0.0
 70
     1
  0
VERTEX
  5
8519
  8
1
 10
2364.1003286596952
 20
1819.4935522358369
 30
0.0
  0
VERTEX
  5
851A
  8
1
 10
2339.1003286596938
 20
1819.4935522358369
 30
0.0
  0
VERTEX
  5
851B
  8
1
 10
2339.1003286596938
 20
1818.4935522358369
 30
0.0
 42
0.4142135623730951
  0
VERTEX
  5
851C
  8
1
 10
2341.1003286596938
 20
1816.4935522358369
 30
0.0
  0
VERTEX
  5
851D
  8
1
 10
2357.1003286596938
 20
1816.4935522358369
 30
0.0
 42
-0.4142135623730951
  0
VERTEX
  5
851E
  8
1
 10
2361.1003286596938
 20
1812.4935522358369
 30
0.0
  0
VERTEX
  5
851F
  8
1
 10
2361.1003286596938
 20
1796.4935522358369
 30
0.0
 42
0.4142135623730951
  0
VERTEX
  5
8520
  8
1
 10
2363.1003286596938
 20
1794.4935522358369
 30
0.0
  0
VERTEX
  5
8521
  8
1
 10
2364.1003286596952
 20
1794.4935522358369
 30
0.0
  0
SEQEND
  5
8522
  8
1
  0
POLYLINE
  5
7E98
  8
1
 66
     1
 10
0.0
 20
0.0
 30
0.0
 70
     1
  0
VERTEX
  5
8523
  8
1
 10
2600.1003286596952
 20
1819.4935522358369
 30
0.0
  0
VERTEX
  5
8524
  8
1
 10
2625.1003286596952
 20
1819.4935522358369
 30
0.0
  0
VERTEX
  5
8525
  8
1
 10
2625.1003286596952
 20
1818.4935522358369
 30
0.0
 42
-0.4142135623730951
  0
VERTEX
  5
8526
  8
1
 10
2623.1003286596952
 20
1816.4935522358369
 30
0.0
  0
VERTEX
  5
8527
  8
1
 10
2607.1003286596952
 20
1816.4935522358369
 30
0.0
 42
0.4142135623730951
  0
VERTEX
  5
8528
  8
1
 10
2603.1003286596952
 20
1812.4935522358369
 30
0.0
  0
VERTEX
  5
8529
  8
1
 10
2603.1003286596952
 20
1796.4935522358369
 30
0.0
 42
-0.4142135623730951
  0
VERTEX
  5
852A
  8
1
 10
2601.1003286596952
 20
1794.4935522358369
 30
0.0
  0
VERTEX
  5
852B
  8
1
 10
2600.1003286596952
 20
1794.4935522358369
 30
0.0
  0
SEQEND
  5
852C
  8
1
  0
LINE
  5
7EA3
  8
1
 10
2604.1003286596938
 20
1751.9935522358369
 30
0.0
 11
2603.1003286596938
 21
1751.9935522358369
 31
0.0
  0
ARC
  5
7EA4
  8
1
 10
2604.1003286596938
 20
1749.9935522358369
 30
0.0
 40
2.0
 50
0.0
 51
90.0
  0
LINE
  5
80BE
  8
2
 10
2482.1003286596938
 20
1902.2785921925531
 30
0.0
 11
2482.1003286596938
 21
1027.2210513705729
 31
0.0
  0
LINE
  5
80BF
  8
4
 10
2775.0
 20
750.0
 30
0.0
 11
2775.0
 21
450.0
 31
0.0
  0
LINE
  5
80C0
  8
4
 10
1725.0
 20
750.0
 30
0.0
 11
1725.0
 21
450.0
 31
0.0
  0
LINE
  5
80C1
  8
4
 10
975.0
 20
750.0
 30
0.0
 11
975.0
 21
450.0
 31
0.0
  0
LINE
  5
80C4
  8
4
 10
975.0
 20
450.0
 30
0.0
 11
2775.0
 21
450.0
 31
0.0
  0
LINE
  5
80C5
  8
4
 10
975.0
 20
600.0
 30
0.0
 11
2775.0
 21
600.0
 31
0.0
  0
TEXT
  5
80C6
  8
4
 10
1032.753121270352
 20
647.31453879991932
 30
0.0
 40
75.0
  1
機器名称
  0
TEXT
  5
80C7
  8
4
 10
1029.3871590371959
 20
482.46773509801642
 30
0.0
 40
75.0
  1
機器型番
  0
TEXT
  5
80C8
  8
4
 10
1732.189592551566
 20
632.47051402253226
 30
0.0
 40
67.5
  1
ミツヤリミットロードファン
  0
TEXT
  5
80C9
  8
4
 10
1779.9817433782209
 20
475.739376419915
 30
0.0
 40
75.0
  1
LL#2-1
  0
TEXT
  5
80CB
  8
4
 10
1170.6581104976051
 20
3575.1432619987731
 30
0.0
 40
80.999999999999986
  1
床置防振ベット
  0
TEXT
  5
80CC
  8
4
 10
448.04632992673942
 20
3800.8214642989469
 30
0.0
 40
108.0
  1
遠心式片吸込片持リミットロードファン
  0
LINE
  5
80CD
  8
4
 10
375.0
 20
3704.1131313972069
 30
0.0
 11
2775.0
 21
3704.1131313972069
 31
0.0
  0
LINE
  5
80CE
  8
4
 10
375.0
 20
4004.1131313972069
 30
0.0
 11
2775.0
 21
4004.1131313972069
 31
0.0
  0
LINE
  5
80CF
  8
4
 10
975.0
 20
750.0
 30
0.0
 11
2775.0
 21
750.0
 31
0.0
  0
LINE
  5
80D0
  8
4
 10
375.0
 20
4004.1131313972069
 30
0.0
 11
375.0
 21
3704.1131313972069
 31
0.0
  0
TEXT
  5
80D1
  8
4
 10
516.86986213355146
 20
3573.4792163195152
 30
0.0
 40
80.999999999999986
  1
左回転上向
  0
TEXT
  5
80D2
  8
4
 10
2203.4543388739339
 20
4059.0916222429628
 30
0.0
 40
84.000000000000014
  1
No.
  0
TEXT
  5
80D3
  8
4
 10
1966.944093900019
 20
3575.1432619987731
 30
0.0
 40
80.999999999999986
  1
縮尺：1/15
  0
LINE
  5
80D4
  8
4
 10
2775.0
 20
4004.1131313972069
 30
0.0
 11
2775.0
 21
3704.1131313972069
 31
0.0
  0
LINE
  5
80D5
  8
4
 10
3150.0
 20
4425.0
 30
0.0
 11
3150.0
 21
4425.0
 31
0.0
  0
LINE
  5
80D6
  8
4
 10
2160.9261335397969
 20
4021.895374688102
 30
0.0
 11
2160.9261335397969
 21
4179.9783923246277
 31
0.0
  0
LINE
  5
80D7
  8
4
 10
2160.9261335397969
 20
4179.9783923246277
 30
0.0
 11
2775.0
 21
4179.9783923246277
 31
0.0
  0
LINE
  5
80D8
  8
4
 10
2775.0
 20
4179.9783923246277
 30
0.0
 11
2775.0
 21
4021.895374688102
 31
0.0
  0
LINE
  5
80D9
  8
4
 10
2775.0
 20
4021.895374688102
 30
0.0
 11
2160.9261335397969
 21
4021.895374688102
 31
0.0
  0
LINE
  5
80DA
  8
4
 10
0.0
 20
0.0
 30
0.0
 11
0.0
 21
4425.0
 31
0.0
  0
LINE
  5
80DB
  8
4
 10
0.0
 20
4425.0
 30
0.0
 11
3150.0
 21
4425.0
 31
0.0
  0
LINE
  5
80DC
  8
4
 10
3150.0
 20
4425.0
 30
0.0
 11
3150.0
 21
0.0
 31
0.0
  0
LINE
  5
80DD
  8
4
 10
3150.0
 20
0.0
 30
0.0
 11
0.0
 21
0.0
 31
0.0
  0
DIMENSION
  5
81E9
  8
3
  2
*D22
 10
1553.8777305455051
 20
2072.7689594417038
 30
0.0
 11
1159.164591592943
 21
2072.7689594417038
 31
0.0
 70
   128
 13
707.91882631767544
 23
1550.7285996511459
 33
0.0
 14
1553.8777305455051
 24
1289.4935522358369
 34
0.0
1001
ACAD
1000
DSTYLE
1002
{
1070
   287
1070
     3
1070
    40
1040
15.0
1070
   143
1040
0.039
1070
   172
1070
     1
1070
   271
1070
     0
1070
   279
1070
     0
1070
   288
1070
     1
1002
}
  0
LINE
  5
83C1
  8
1
 10
1886.1003286596949
 20
1324.509814026072
 30
0.0
 11
1886.1003286596949
 21
1289.4935522358369
 31
0.0
  0
LINE
  5
83CA
  8
1
 10
951.37773054550564
 20
2838.9562521328698
 30
0.0
 11
1093.877730545506
 21
2838.9562521328698
 31
0.0
  0
DIMENSION
  5
8407
  8
3
  2
*D23
 10
575.28853562848371
 20
1119.4935522358369
 30
0.0
 11
503.50282134276938
 21
1166.9935522358369
 31
0.0
 70
     0
  1
(<>)
 13
753.87773054550553
 23
1214.4935522358369
 33
0.0
 14
753.87773054550587
 24
1119.4935522358369
 34
0.0
 50
90.0
1001
ACAD
1000
DSTYLE
1002
{
1070
   288
1070
     1
1070
   172
1070
     1
1070
    40
1040
15.0
1070
   271
1070
     0
1070
     7
1000
_NONE
1070
     6
1000
_NONE
1070
   143
1040
0.039
1002
}
  0
ENDSEC
  0
EOF
