  0
SECTION
  2
HEADER
  9
$ACADVER
  1
AC1009
  9
$INSBASE
 10
0.0
 20
0.0
 30
0.0
  9
$EXTMIN
 10
0.0
 20
0.0
 30
0.0
  9
$EXTMAX
 10
3150.0
 20
4425.0
 30
0.0
  9
$LIMMIN
 10
0.0
 20
0.0
  9
$LIMMAX
 10
297.0
 20
210.0
  9
$ORTHOMODE
 70
     0
  9
$REGENMODE
 70
     1
  9
$FILLMODE
 70
     0
  9
$QTEXTMODE
 70
     0
  9
$MIRRTEXT
 70
     1
  9
$DRAGMODE
 70
     2
  9
$LTSCALE
 40
100.0
  9
$OSMODE
 70
    37
  9
$ATTMODE
 70
     1
  9
$TEXTSIZE
 40
180.0
  9
$TRACEWID
 40
0.05
  9
$TEXTSTYLE
  7
STANDARD
  9
$CLAYER
  8
3
  9
$CELTYPE
  6
BYLAYER
  9
$CECOLOR
 62
   256
  9
$DIMSCALE
 40
15.0
  9
$DIMASZ
 40
2.0
  9
$DIMEXO
 40
0.5
  9
$DIMDLI
 40
10.0
  9
$DIMRND
 40
0.0
  9
$DIMDLE
 40
0.0
  9
$DIMEXE
 40
1.0
  9
$DIMTP
 40
1.0
  9
$DIMTM
 40
1.0
  9
$DIMTXT
 40
3.0
  9
$DIMCEN
 40
0.0
  9
$DIMTSZ
 40
0.0
  9
$DIMTOL
 70
     0
  9
$DIMLIM
 70
     0
  9
$DIMTIH
 70
     0
  9
$DIMTOH
 70
     0
  9
$DIMSE1
 70
     0
  9
$DIMSE2
 70
     0
  9
$DIMTAD
 70
     1
  9
$DIMZIN
 70
     8
  9
$DIMBLK
  1

  9
$DIMASO
 70
     1
  9
$DIMSHO
 70
     1
  9
$DIMPOST
  1

  9
$DIMAPOST
  1

  9
$DIMALT
 70
     0
  9
$DIMALTD
 70
     2
  9
$DIMALTF
 40
0.039
  9
$DIMLFAC
 40
1.0
  9
$DIMTOFL
 70
     1
  9
$DIMTVP
 40
0.0
  9
$DIMTIX
 70
     0
  9
$DIMSOXD
 70
     0
  9
$DIMSAH
 70
     1
  9
$DIMBLK1
  1
OPEN
  9
$DIMBLK2
  1
OPEN
  9
$DIMSTYLE
  2
IGA
  9
$DIMCLRD
 70
     0
  9
$DIMCLRE
 70
     0
  9
$DIMCLRT
 70
     0
  9
$DIMTFAC
 40
10.0
  9
$DIMGAP
 40
1.0
  9
$LUNITS
 70
     2
  9
$LUPREC
 70
     3
  9
$SKETCHINC
 40
0.1
  9
$FILLETRAD
 40
50.0
  9
$AUNITS
 70
     0
  9
$AUPREC
 70
     0
  9
$MENU
  1
acad
  9
$ELEVATION
 40
0.0
  9
$PELEVATION
 40
0.0
  9
$THICKNESS
 40
0.0
  9
$LIMCHECK
 70
     0
  9
$BLIPMODE
 70
     0
  9
$CHAMFERA
 40
0.5
  9
$CHAMFERB
 40
0.5
  9
$SKPOLY
 70
     0
  9
$TDCREATE
 40
2451019.5564371529
  9
$TDUPDATE
 40
2454953.638339479
  9
$TDINDWG
 40
0.0506180208
  9
$TDUSRTIMER
 40
0.0506180208
  9
$USRTIMER
 70
     1
  9
$ANGBASE
 50
0.0
  9
$ANGDIR
 70
     0
  9
$PDMODE
 70
     0
  9
$PDSIZE
 40
0.0
  9
$PLINEWID
 40
0.0
  9
$COORDS
 70
     1
  9
$SPLFRAME
 70
     0
  9
$SPLINETYPE
 70
     6
  9
$SPLINESEGS
 70
     8
  9
$ATTDIA
 70
     0
  9
$ATTREQ
 70
     1
  9
$HANDLING
 70
 10241
  9
$HANDSEED
  5
852A
  9
$SURFTAB1
 70
     6
  9
$SURFTAB2
 70
     6
  9
$SURFTYPE
 70
     6
  9
$SURFU
 70
     6
  9
$SURFV
 70
     6
  9
$UCSNAME
  2

  9
$UCSORG
 10
0.0
 20
0.0
 30
0.0
  9
$UCSXDIR
 10
1.0
 20
0.0
 30
0.0
  9
$UCSYDIR
 10
0.0
 20
1.0
 30
0.0
  9
$PUCSNAME
  2

  9
$PUCSORG
 10
0.0
 20
0.0
 30
0.0
  9
$PUCSXDIR
 10
1.0
 20
0.0
 30
0.0
  9
$PUCSYDIR
 10
0.0
 20
1.0
 30
0.0
  9
$USERI1
 70
     0
  9
$USERI2
 70
     0
  9
$USERI3
 70
     0
  9
$USERI4
 70
     0
  9
$USERI5
 70
     0
  9
$USERR1
 40
0.0
  9
$USERR2
 40
0.0
  9
$USERR3
 40
0.0
  9
$USERR4
 40
0.0
  9
$USERR5
 40
0.0
  9
$WORLDVIEW
 70
     1
  9
$SHADEDGE
 70
     3
  9
$SHADEDIF
 70
    70
  9
$TILEMODE
 70
     1
  9
$MAXACTVP
 70
    16
  9
$PLIMCHECK
 70
     0
  9
$PEXTMIN
 10
1.0000000000000000E+020
 20
1.0000000000000000E+020
 30
1.0000000000000000E+020
  9
$PEXTMAX
 10
-1.0000000000000000E+020
 20
-1.0000000000000000E+020
 30
-1.0000000000000000E+020
  9
$PLIMMIN
 10
0.0
 20
0.0
  9
$PLIMMAX
 10
12.0
 20
9.0
  9
$UNITMODE
 70
     0
  9
$VISRETAIN
 70
     0
  9
$PLINEGEN
 70
     0
  9
$PSLTSCALE
 70
     1
  0
ENDSEC
  0
SECTION
  2
TABLES
  0
TABLE
  2
VPORT
 70
     2
  0
VPORT
  2
*ACTIVE
 70
     0
 10
0.0
 20
0.0
 11
1.0
 21
1.0
 12
2998.2964121445279
 22
535.91290024983573
 13
0.0
 23
0.0
 14
10.0
 24
10.0
 15
10.0
 25
10.0
 16
0.0
 26
0.0
 36
1.0
 17
0.0
 27
0.0
 37
0.0
 40
1295.4198011603639
 41
3.1666666666666661
 42
50.0
 43
0.0
 44
0.0
 50
0.0
 51
0.0
 71
     0
 72
   100
 73
     1
 74
     0
 75
     0
 76
     0
 77
     0
 78
     0
  0
ENDTAB
  0
TABLE
  2
LTYPE
 70
     2
  0
LTYPE
  2
CONTINUOUS
 70
     0
  3
Solid line
 72
    65
 73
     0
 40
0.0
  0
LTYPE
  2
CENTER
 70
     0
  3
____ _ ____ _ ____ _ ____ _ ____ _ ____ _ ____ 
 72
    65
 73
     4
 40
2.0
 49
1.25
 49
-0.25
 49
0.25
 49
-0.25
  0
ENDTAB
  0
TABLE
  2
LAYER
 70
     6
  0
LAYER
  2
0
 70
     0
 62
     7
  6
CONTINUOUS
  0
LAYER
  2
3
 70
     0
 62
     2
  6
CONTINUOUS
  0
LAYER
  2
2
 70
     0
 62
     3
  6
CENTER
  0
LAYER
  2
1
 70
     0
 62
     4
  6
CONTINUOUS
  0
LAYER
  2
4
 70
     0
 62
     7
  6
CONTINUOUS
  0
LAYER
  2
DEFPOINTS
 70
     0
 62
     7
  6
CONTINUOUS
  0
ENDTAB
  0
TABLE
  2
STYLE
 70
     1
  0
STYLE
  2
STANDARD
 70
     0
 40
0.0
 41
1.0
 50
0.0
 71
     0
 42
180.0
  3
simplex.shx
  4
extfont.shx
  0
ENDTAB
  0
TABLE
  2
VIEW
 70
     0
  0
ENDTAB
  0
TABLE
  2
UCS
 70
     0
  0
ENDTAB
  0
TABLE
  2
APPID
 70
     1
  0
APPID
  2
ACAD
 70
     0
  0
ENDTAB
  0
TABLE
  2
DIMSTYLE
 70
     1
  0
DIMSTYLE
  2
IGA
 70
     0
  3

  4

  5

  6
OPEN
  7
OPEN
 40
2.0
 41
2.0
 42
0.5
 43
10.0
 44
1.0
 45
0.0
 46
0.0
 47
1.0
 48
1.0
140
3.0
141
0.0
142
0.0
143
0.03937
144
1.0
145
0.0
146
10.0
147
1.0
 71
     0
 72
     0
 73
     0
 74
     0
 75
     0
 76
     0
 77
     1
 78
     8
170
     0
171
     2
172
     0
173
     1
174
     0
175
     0
176
     0
177
     0
178
     0
  0
ENDTAB
  0
ENDSEC
  0
SECTION
  2
BLOCKS
  0
BLOCK
  8
0
  2
$MODEL_SPACE
 70
     0
 10
0.0
 20
0.0
 30
0.0
  3
$MODEL_SPACE
  1

  0
ENDBLK
  5
1B
  8
0
  0
BLOCK
 67
     1
  8
0
  2
$PAPER_SPACE
 70
     0
 10
0.0
 20
0.0
 30
0.0
  3
$PAPER_SPACE
  1

  0
ENDBLK
  5
18
 67
     1
  8
0
  0
BLOCK
  8
0
  2
_OPEN
 70
     0
 10
0.0
 20
0.0
 30
0.0
  3
_OPEN
  1

  0
LINE
  5
7A12
  8
0
  6
BYBLOCK
 62
     0
 10
-1.0
 20
0.1666666666666666
 30
0.0
 11
0.0
 21
0.0
 31
0.0
  0
LINE
  5
7A13
  8
0
  6
BYBLOCK
 62
     0
 10
0.0
 20
0.0
 30
0.0
 11
-1.0
 21
-0.1666666666666666
 31
0.0
  0
LINE
  5
7A14
  8
0
  6
BYBLOCK
 62
     0
 10
0.0
 20
0.0
 30
0.0
 11
-1.0
 21
0.0
 31
0.0
  0
ENDBLK
  5
7A16
  8
0
  0
BLOCK
  8
0
  2
*D1
 70
     1
 10
0.0
 20
0.0
 30
0.0
  3
*D1
  1

  0
LINE
  5
8441
  8
3
 62
     0
 10
2586.9313990545788
 20
2035.4414135886859
 30
0.0
 11
2586.9313990545788
 21
2085.5473020230638
 31
0.0
  0
LINE
  5
8442
  8
3
 62
     0
 10
1898.9313990545791
 20
1586.3681393497741
 30
0.0
 11
1898.9313990545791
 21
2085.5473020230638
 31
0.0
  0
LINE
  5
8443
  8
3
 62
     0
 10
2556.9313990545802
 20
2070.5473020230638
 30
0.0
 11
1928.9313990545791
 21
2070.5473020230638
 31
0.0
  0
INSERT
  5
8444
  8
3
 62
     0
  2
_OPEN
 10
2586.9313990545788
 20
2070.5473020230638
 30
0.0
 41
30.0
 42
30.0
 43
30.0
  0
INSERT
  5
8445
  8
3
 62
     0
  2
_OPEN
 10
1898.9313990545791
 20
2070.5473020230638
 30
0.0
 41
30.0
 42
30.0
 43
30.0
 50
180.0
  0
TEXT
  8
3
  40
45
  5
8517
  62
0
  72
0
  71
0
 10
2152.93
 20
2065.90
 30
0.000000
  1
MAX
  0
TEXT
  8
3
  40
45
  5
8518
  62
0
  72
0
  71
0
 10
2152.93
 20
2007.40
 30
0.000000
  1
760
  0
POINT
  5
8447
  8
DEFPOINTS
 62
     0
 10
2586.9313990545788
 20
2027.9414135886859
 30
0.0
  0
POINT
  5
8448
  8
DEFPOINTS
 62
     0
 10
1898.9313990545791
 20
1578.8681393497741
 30
0.0
  0
POINT
  5
8449
  8
DEFPOINTS
 62
     0
 10
1898.9313990545791
 20
2070.5473020230638
 30
0.0
  0
ENDBLK
  5
8307
  8
0
  0
BLOCK
  8
0
  2
*D2
 70
     1
 10
0.0
 20
0.0
 30
0.0
  3
*D2
  1

  0
LINE
  5
844A
  8
3
 62
     0
 10
1971.9313990545791
 20
986.36813934977374
 30
0.0
 11
1971.9313990545791
 21
884.11770233628647
 31
0.0
  0
LINE
  5
844B
  8
3
 62
     0
 10
2586.9313990545788
 20
960.86631007896301
 30
0.0
 11
2586.9313990545788
 21
884.11770233628647
 31
0.0
  0
LINE
  5
844C
  8
3
 62
     0
 10
2001.9313990545791
 20
899.11770233628647
 30
0.0
 11
2556.9313990545802
 21
899.11770233628647
 31
0.0
  0
INSERT
  5
844D
  8
3
 62
     0
  2
_OPEN
 10
1971.9313990545791
 20
899.11770233628647
 30
0.0
 41
30.0
 42
30.0
 43
30.0
 50
180.0
  0
INSERT
  5
844E
  8
3
 62
     0
  2
_OPEN
 10
2586.9313990545788
 20
899.11770233628647
 30
0.0
 41
30.0
 42
30.0
 43
30.0
  0
TEXT
  8
3
  40
45
  5
8519
  62
0
  72
0
  71
0
 10
2189.43
 20
856.968
 30
0.000000
  1
615
  0
POINT
  5
8450
  8
DEFPOINTS
 62
     0
 10
1971.9313990545791
 20
993.86813934977363
 30
0.0
  0
POINT
  5
8451
  8
DEFPOINTS
 62
     0
 10
2586.9313990545788
 20
968.36631007896312
 30
0.0
  0
POINT
  5
8452
  8
DEFPOINTS
 62
     0
 10
2586.9313990545788
 20
899.11770233628647
 30
0.0
  0
ENDBLK
  5
82FC
  8
0
  0
BLOCK
  8
0
  2
*D3
 70
     1
 10
0.0
 20
0.0
 30
0.0
  3
*D3
  1

  0
LINE
  5
8453
  8
3
 62
     0
 10
719.33089100599216
 20
2377.3811320810282
 30
0.0
 11
719.33089100599216
 21
2201.5699912738228
 31
0.0
  0
LINE
  5
8454
  8
3
 62
     0
 10
1519.330891005992
 20
2396.3811320810282
 30
0.0
 11
1519.330891005992
 21
2201.5699912738228
 31
0.0
  0
LINE
  5
8455
  8
3
 62
     0
 10
749.33089100599227
 20
2216.5699912738228
 30
0.0
 11
1489.330891005992
 21
2216.5699912738228
 31
0.0
  0
INSERT
  5
8456
  8
3
 62
     0
  2
_OPEN
 10
719.33089100599216
 20
2216.5699912738228
 30
0.0
 41
30.0
 42
30.0
 43
30.0
 50
180.0
  0
INSERT
  5
8457
  8
3
 62
     0
  2
_OPEN
 10
1519.330891005992
 20
2216.5699912738228
 30
0.0
 41
30.0
 42
30.0
 43
30.0
  0
TEXT
  8
3
  40
45
  5
851A
  62
0
  72
0
  71
0
 10
1029.33
 20
2174.42
 30
0.000000
  1
800
  0
POINT
  5
8459
  8
DEFPOINTS
 62
     0
 10
719.33089100599216
 20
2384.8811320810269
 30
0.0
  0
POINT
  5
845A
  8
DEFPOINTS
 62
     0
 10
1519.330891005992
 20
2403.8811320810282
 30
0.0
  0
POINT
  5
845B
  8
DEFPOINTS
 62
     0
 10
1519.330891005992
 20
2216.5699912738228
 30
0.0
  0
ENDBLK
  5
82F1
  8
0
  0
BLOCK
  8
0
  2
*D4
 70
     1
 10
0.0
 20
0.0
 30
0.0
  3
*D4
  1

  0
LINE
  5
845C
  8
3
 62
     0
 10
1526.8308910059909
 20
2384.8811320810269
 30
0.0
 11
1667.4771696114431
 21
2384.8811320810269
 31
0.0
  0
LINE
  5
845D
  8
3
 62
     0
 10
1526.830891005993
 20
2764.8811320810282
 30
0.0
 11
1667.477169611444
 21
2764.8811320810282
 31
0.0
  0
LINE
  5
845E
  8
3
 62
     0
 10
1652.477169611444
 20
2414.8811320810282
 30
0.0
 11
1652.477169611444
 21
2734.8811320810282
 31
0.0
  0
INSERT
  5
845F
  8
3
 62
     0
  2
_OPEN
 10
1652.477169611444
 20
2384.8811320810269
 30
0.0
 41
30.0
 42
30.0
 43
30.0
 50
270.0
  0
INSERT
  5
8460
  8
3
 62
     0
  2
_OPEN
 10
1652.477169611444
 20
2764.8811320810282
 30
0.0
 41
30.0
 42
30.0
 43
30.0
 50
90.0
  0
TEXT
  8
3
  40
45
  5
851B
  62
0
  72
0
  71
0
 10
1524.98
 20
2495.23
 30
0.000000
  1
380
  0
POINT
  5
8462
  8
DEFPOINTS
 62
     0
 10
1519.3308910059909
 20
2384.8811320810269
 30
0.0
  0
POINT
  5
8463
  8
DEFPOINTS
 62
     0
 10
1519.330891005993
 20
2764.8811320810282
 30
0.0
  0
POINT
  5
8464
  8
DEFPOINTS
 62
     0
 10
1652.477169611444
 20
2764.8811320810282
 30
0.0
  0
ENDBLK
  5
82E6
  8
0
  0
BLOCK
  8
0
  2
*D5
 70
     1
 10
0.0
 20
0.0
 30
0.0
  3
*D5
  1

  0
LINE
  5
8465
  8
3
 62
     0
 10
711.83089100599227
 20
2384.8811320810269
 30
0.0
 11
566.90040899719475
 21
2384.8811320810269
 31
0.0
  0
LINE
  5
8466
  8
3
 62
     0
 10
711.83089100599125
 20
3164.8811320810282
 30
0.0
 11
566.90040899719497
 21
3164.8811320810282
 31
0.0
  0
LINE
  5
8467
  8
3
 62
     0
 10
581.90040899719475
 20
2414.8811320810282
 30
0.0
 11
581.90040899719486
 21
3134.8811320810282
 31
0.0
  0
INSERT
  5
8468
  8
3
 62
     0
  2
_OPEN
 10
581.90040899719475
 20
2384.8811320810269
 30
0.0
 41
30.0
 42
30.0
 43
30.0
 50
270.0
  0
INSERT
  5
8469
  8
3
 62
     0
  2
_OPEN
 10
581.90040899719486
 20
3164.8811320810282
 30
0.0
 41
30.0
 42
30.0
 43
30.0
 50
90.0
  0
TEXT
  8
3
  40
45
  5
851C
  62
0
  72
0
  71
0
 10
454.400
 20
2695.23
 30
0.000000
  1
780
  0
POINT
  5
846B
  8
DEFPOINTS
 62
     0
 10
719.33089100599216
 20
2384.8811320810269
 30
0.0
  0
POINT
  5
846C
  8
DEFPOINTS
 62
     0
 10
719.33089100599125
 20
3164.8811320810282
 30
0.0
  0
POINT
  5
846D
  8
DEFPOINTS
 62
     0
 10
581.90040899719486
 20
3164.8811320810282
 30
0.0
  0
ENDBLK
  5
82DB
  8
0
  0
BLOCK
  8
0
  2
*D6
 70
     1
 10
0.0
 20
0.0
 30
0.0
  3
*D6
  1

  0
LINE
  5
846E
  8
3
 62
     0
 10
1519.3308910059909
 20
986.36813934977465
 30
0.0
 11
1519.3308910059909
 21
882.55389407289056
 31
0.0
  0
LINE
  5
846F
  8
3
 62
     0
 10
899.33089100599136
 20
960.86631007896301
 30
0.0
 11
899.33089100599136
 21
882.55389407289056
 31
0.0
  0
LINE
  5
8470
  8
3
 62
     0
 10
1489.3308910059909
 20
897.55389407289056
 30
0.0
 11
929.33089100599125
 21
897.55389407289056
 31
0.0
  0
INSERT
  5
8471
  8
3
 62
     0
  2
_OPEN
 10
1519.3308910059909
 20
897.55389407289056
 30
0.0
 41
30.0
 42
30.0
 43
30.0
  0
INSERT
  5
8472
  8
3
 62
     0
  2
_OPEN
 10
899.33089100599136
 20
897.55389407289056
 30
0.0
 41
30.0
 42
30.0
 43
30.0
 50
180.0
  0
TEXT
  8
3
  40
45
  5
851D
  62
0
  72
0
  71
0
 10
1119.33
 20
855.404
 30
0.000000
  1
620
  0
POINT
  5
8474
  8
DEFPOINTS
 62
     0
 10
1519.3308910059909
 20
993.86813934977454
 30
0.0
  0
POINT
  5
8475
  8
DEFPOINTS
 62
     0
 10
899.33089100599136
 20
968.36631007896312
 30
0.0
  0
POINT
  5
8476
  8
DEFPOINTS
 62
     0
 10
899.33089100599136
 20
897.55389407289056
 30
0.0
  0
ENDBLK
  5
82D0
  8
0
  0
BLOCK
  8
0
  2
*D7
 70
     1
 10
0.0
 20
0.0
 30
0.0
  3
*D7
  1

  0
LINE
  5
8477
  8
3
 62
     0
 10
899.33089100599136
 20
1870.4525264663971
 30
0.0
 11
899.33089100599136
 21
1977.1211654150691
 31
0.0
  0
LINE
  5
8478
  8
3
 62
     0
 10
1172.8957718866729
 20
1510.3681393497741
 30
0.0
 11
1172.8957718866729
 21
1977.1211654150691
 31
0.0
  0
LINE
  5
8479
  8
3
 62
     0
 10
929.33089100599125
 20
1962.1211654150679
 30
0.0
 11
1142.8957718866729
 21
1962.1211654150679
 31
0.0
  0
INSERT
  5
847A
  8
3
 62
     0
  2
_OPEN
 10
899.33089100599136
 20
1962.1211654150679
 30
0.0
 41
30.0
 42
30.0
 43
30.0
 50
180.0
  0
INSERT
  5
847B
  8
3
 62
     0
  2
_OPEN
 10
1172.8957718866729
 20
1962.1211654150679
 30
0.0
 41
30.0
 42
30.0
 43
30.0
  0
TEXT
  8
3
  40
45
  5
851E
  62
0
  72
0
  71
0
 10
946.113
 20
1919.97
 30
0.000000
  1
274
  0
POINT
  5
847D
  8
DEFPOINTS
 62
     0
 10
899.33089100599136
 20
1862.9525264663971
 30
0.0
  0
POINT
  5
847E
  8
DEFPOINTS
 62
     0
 10
1172.8957718866729
 20
1502.8681393497741
 30
0.0
  0
POINT
  5
847F
  8
DEFPOINTS
 62
     0
 10
1172.8957718866729
 20
1962.1211654150679
 30
0.0
  0
ENDBLK
  5
82C5
  8
0
  0
BLOCK
  8
0
  2
*D8
 70
     1
 10
0.0
 20
0.0
 30
0.0
  3
*D8
  1

  0
LINE
  5
8480
  8
3
 62
     0
 10
635.37076465550581
 20
1478.8681393497741
 30
0.0
 11
426.72652396959347
 21
1478.8681393497741
 31
0.0
  0
LINE
  5
8481
  8
3
 62
     0
 10
711.83089100599125
 20
1163.8681393497741
 30
0.0
 11
426.72652396959347
 21
1163.8681393497741
 31
0.0
  0
LINE
  5
8482
  8
3
 62
     0
 10
441.72652396959347
 20
1448.8681393497741
 30
0.0
 11
441.72652396959342
 21
1193.8681393497741
 31
0.0
  0
INSERT
  5
8483
  8
3
 62
     0
  2
_OPEN
 10
441.72652396959347
 20
1478.8681393497741
 30
0.0
 41
30.0
 42
30.0
 43
30.0
 50
90.0
  0
INSERT
  5
8484
  8
3
 62
     0
  2
_OPEN
 10
441.72652396959342
 20
1163.8681393497741
 30
0.0
 41
30.0
 42
30.0
 43
30.0
 50
270.0
  0
TEXT
  8
3
  40
45
  5
851F
  62
0
  72
0
  71
0
 10
314.227
 20
1241.72
 30
0.000000
  1
315
  0
POINT
  5
8486
  8
DEFPOINTS
 62
     0
 10
642.87076465550581
 20
1478.8681393497741
 30
0.0
  0
POINT
  5
8487
  8
DEFPOINTS
 62
     0
 10
719.33089100599125
 20
1163.8681393497741
 30
0.0
  0
POINT
  5
8488
  8
DEFPOINTS
 62
     0
 10
441.72652396959342
 20
1163.8681393497741
 30
0.0
  0
ENDBLK
  5
82BA
  8
0
  0
BLOCK
  8
0
  2
*D9
 70
     1
 10
0.0
 20
0.0
 30
0.0
  3
*D9
  1

  0
LINE
  5
8489
  8
3
 62
     0
 10
711.8308910059917
 20
1068.8681393497741
 30
0.0
 11
426.72652396959347
 21
1068.8681393497741
 31
0.0
  0
LINE
  5
848A
  8
3
 62
     0
 10
711.8308910059917
 20
993.86813934977408
 30
0.0
 11
426.72652396959347
 21
993.86813934977408
 31
0.0
  0
LINE
  5
848B
  8
3
 62
     0
 10
441.72652396959342
 20
1098.8681393497741
 30
0.0
 11
441.72652396959342
 21
1128.8681393497741
 31
0.0
  0
LINE
  5
848C
  8
3
 62
     0
 10
441.72652396959342
 20
963.86813934977408
 30
0.0
 11
441.72652396959342
 21
831.01099649263131
 31
0.0
  0
LINE
  5
848D
  8
3
 62
     0
 10
441.72652396959342
 20
1068.8681393497741
 30
0.0
 11
441.72652396959342
 21
993.86813934977408
 31
0.0
  0
INSERT
  5
848E
  8
3
 62
     0
  2
_DOT
 10
441.72652396959342
 20
1068.8681393497741
 30
0.0
 41
30.0
 42
30.0
 43
30.0
 50
270.0
  0
INSERT
  5
848F
  8
3
 62
     0
  2
_OPEN
 10
441.72652396959342
 20
993.86813934977408
 30
0.0
 41
30.0
 42
30.0
 43
30.0
 50
90.0
  0
TEXT
  8
3
  40
45
  5
8520
  62
0
  72
0
  71
0
 10
314.227
 20
802.790
 30
0.000000
  1
75
  0
POINT
  5
8491
  8
DEFPOINTS
 62
     0
 10
719.33089100599182
 20
1068.8681393497741
 30
0.0
  0
POINT
  5
8492
  8
DEFPOINTS
 62
     0
 10
719.33089100599182
 20
993.86813934977408
 30
0.0
  0
POINT
  5
8493
  8
DEFPOINTS
 62
     0
 10
441.72652396959342
 20
993.86813934977408
 30
0.0
  0
ENDBLK
  5
83E3
  8
0
  0
BLOCK
  8
0
  2
*D10
 70
     1
 10
0.0
 20
0.0
 30
0.0
  3
*D10
  1

  0
LINE
  5
8344
  8
0
  6
BYBLOCK
 62
     0
 10
899.33089100599136
 20
1019.866310078963
 30
0.0
 11
899.33089100599136
 21
941.55389407289056
 31
0.0
  0
LINE
  5
8345
  8
0
  6
BYBLOCK
 62
     0
 10
719.33089100599182
 20
1045.3681393497741
 30
0.0
 11
719.33089100599182
 21
941.55389407289056
 31
0.0
  0
LINE
  5
8346
  8
0
  6
BYBLOCK
 62
     0
 10
869.33089100599125
 20
956.55389407289056
 30
0.0
 11
749.3308910059917
 21
956.55389407289056
 31
0.0
  0
TEXT
  5
8347
  8
3
 62
     0
 10
755.75946243456303
 20
970.51655884996205
 30
0.0
 40
45.0
  1
180
  0
INSERT
  5
8348
  8
0
  6
BYBLOCK
 62
     0
  2
_OPEN
 10
899.33089100599136
 20
956.55389407289056
 30
0.0
 41
30.0
 42
30.0
 43
30.0
  0
INSERT
  5
8349
  8
0
  6
BYBLOCK
 62
     0
  2
_OPEN
 10
719.33089100599182
 20
956.55389407289056
 30
0.0
 41
30.0
 42
30.0
 43
30.0
 50
180.0
  0
POINT
  5
834A
  8
DEFPOINTS
  6
BYBLOCK
 62
     0
 10
899.33089100599136
 20
1027.3663100789629
 30
0.0
  0
POINT
  5
834B
  8
DEFPOINTS
  6
BYBLOCK
 62
     0
 10
719.33089100599182
 20
1052.8681393497741
 30
0.0
  0
POINT
  5
834C
  8
DEFPOINTS
  6
BYBLOCK
 62
     0
 10
719.33089100599182
 20
956.55389407289056
 30
0.0
  0
ENDBLK
  5
834D
  8
0
  0
BLOCK
  8
0
  2
*D11
 70
     1
 10
0.0
 20
0.0
 30
0.0
  3
*D11
  1

  0
LINE
  5
849E
  8
3
 62
     0
 10
654.33089100599125
 20
1863.9793090248179
 30
0.0
 11
654.33089100599125
 21
1977.1211654150691
 31
0.0
  0
LINE
  5
849F
  8
3
 62
     0
 10
899.33089100599136
 20
1870.4525264663971
 30
0.0
 11
899.33089100599136
 21
1977.1211654150691
 31
0.0
  0
LINE
  5
84A0
  8
3
 62
     0
 10
684.33089100599136
 20
1962.1211654150679
 30
0.0
 11
869.33089100599125
 21
1962.1211654150679
 31
0.0
  0
INSERT
  5
84A1
  8
3
 62
     0
  2
_OPEN
 10
654.33089100599125
 20
1962.1211654150679
 30
0.0
 41
30.0
 42
30.0
 43
30.0
 50
180.0
  0
INSERT
  5
84A2
  8
3
 62
     0
  2
_OPEN
 10
899.33089100599136
 20
1962.1211654150679
 30
0.0
 41
30.0
 42
30.0
 43
30.0
  0
TEXT
  8
3
  40
45
  5
8521
  62
0
  72
0
  71
0
 10
686.831
 20
1919.97
 30
0.000000
  1
245
  0
POINT
  5
84A4
  8
DEFPOINTS
 62
     0
 10
654.33089100599125
 20
1856.4793090248179
 30
0.0
  0
POINT
  5
84A5
  8
DEFPOINTS
 62
     0
 10
899.33089100599136
 20
1862.9525264663971
 30
0.0
  0
POINT
  5
84A6
  8
DEFPOINTS
 62
     0
 10
899.33089100599136
 20
1962.1211654150679
 30
0.0
  0
ENDBLK
  5
827D
  8
0
  0
BLOCK
  8
0
  2
*D12
 70
     1
 10
0.0
 20
0.0
 30
0.0
  3
*D12
  1

  0
LINE
  5
84A7
  8
3
 62
     0
 10
646.83089100599136
 20
1829.8681393497741
 30
0.0
 11
426.72652396959347
 21
1829.8681393497741
 31
0.0
  0
LINE
  5
84A8
  8
3
 62
     0
 10
635.37076465550581
 20
1478.8681393497741
 30
0.0
 11
426.72652396959347
 21
1478.8681393497741
 31
0.0
  0
LINE
  5
84A9
  8
3
 62
     0
 10
441.72652396959347
 20
1799.8681393497741
 30
0.0
 11
441.72652396959342
 21
1508.8681393497741
 31
0.0
  0
INSERT
  5
84AA
  8
3
 62
     0
  2
_OPEN
 10
441.72652396959347
 20
1829.8681393497741
 30
0.0
 41
30.0
 42
30.0
 43
30.0
 50
90.0
  0
INSERT
  5
84AB
  8
3
 62
     0
  2
_OPEN
 10
441.72652396959342
 20
1478.8681393497741
 30
0.0
 41
30.0
 42
30.0
 43
30.0
 50
270.0
  0
TEXT
  8
3
  40
45
  5
8522
  62
0
  72
0
  71
0
 10
314.227
 20
1574.72
 30
0.000000
  1
351
  0
POINT
  5
84AD
  8
DEFPOINTS
 62
     0
 10
654.33089100599125
 20
1829.8681393497741
 30
0.0
  0
POINT
  5
84AE
  8
DEFPOINTS
 62
     0
 10
642.87076465550581
 20
1478.8681393497741
 30
0.0
  0
POINT
  5
84AF
  8
DEFPOINTS
 62
     0
 10
441.72652396959342
 20
1478.8681393497741
 30
0.0
  0
ENDBLK
  5
8272
  8
0
  0
BLOCK
  8
0
  2
*D13
 70
     1
 10
0.0
 20
0.0
 30
0.0
  3
*D13
  1

  0
LINE
  5
84B0
  8
3
 62
     0
 10
646.83089100599136
 20
1829.8681393497741
 30
0.0
 11
527.23605410188065
 21
1829.8681393497741
 31
0.0
  0
LINE
  5
84B1
  8
3
 62
     0
 10
646.83089100599136
 20
1504.8681393497741
 30
0.0
 11
527.23605410188065
 21
1504.8681393497741
 31
0.0
  0
LINE
  5
84B2
  8
3
 62
     0
 10
542.23605410188065
 20
1799.8681393497741
 30
0.0
 11
542.23605410188065
 21
1534.8681393497741
 31
0.0
  0
INSERT
  5
84B3
  8
3
 62
     0
  2
_OPEN
 10
542.23605410188065
 20
1829.8681393497741
 30
0.0
 41
30.0
 42
30.0
 43
30.0
 50
90.0
  0
INSERT
  5
84B4
  8
3
 62
     0
  2
_OPEN
 10
542.23605410188065
 20
1504.8681393497741
 30
0.0
 41
30.0
 42
30.0
 43
30.0
 50
270.0
  0
TEXT
  8
3
  40
45
  5
8523
  62
0
  72
0
  71
0
 10
414.736
 20
1587.72
 30
0.000000
  1
325
  0
POINT
  5
84B6
  8
DEFPOINTS
 62
     0
 10
654.33089100599125
 20
1829.8681393497741
 30
0.0
  0
POINT
  5
84B7
  8
DEFPOINTS
 62
     0
 10
654.33089100599125
 20
1504.8681393497741
 30
0.0
  0
POINT
  5
84B8
  8
DEFPOINTS
 62
     0
 10
542.23605410188065
 20
1504.8681393497741
 30
0.0
  0
ENDBLK
  5
8267
  8
0
  0
BLOCK
  8
0
  2
*D14
 70
     1
 10
0.0
 20
0.0
 30
0.0
  3
*D14
  1

  0
LINE
  5
84B9
  8
3
 62
     0
 10
719.33089100599125
 20
3172.3811320810282
 30
0.0
 11
719.33089100599125
 21
3275.670610794311
 31
0.0
  0
LINE
  5
84BA
  8
3
 62
     0
 10
1079.3308910059909
 20
3172.3811320810282
 30
0.0
 11
1079.3308910059909
 21
3275.670610794311
 31
0.0
  0
LINE
  5
84BB
  8
3
 62
     0
 10
749.33089100599125
 20
3260.670610794311
 30
0.0
 11
1049.3308910059909
 21
3260.670610794311
 31
0.0
  0
INSERT
  5
84BC
  8
3
 62
     0
  2
_OPEN
 10
719.33089100599125
 20
3260.670610794311
 30
0.0
 41
30.0
 42
30.0
 43
30.0
 50
180.0
  0
INSERT
  5
84BD
  8
3
 62
     0
  2
_OPEN
 10
1079.3308910059909
 20
3260.670610794311
 30
0.0
 41
30.0
 42
30.0
 43
30.0
  0
TEXT
  8
3
  40
45
  5
8524
  62
0
  72
0
  71
0
 10
809.331
 20
3218.52
 30
0.000000
  1
360
  0
POINT
  5
84BF
  8
DEFPOINTS
 62
     0
 10
719.33089100599125
 20
3164.8811320810282
 30
0.0
  0
POINT
  5
84C0
  8
DEFPOINTS
 62
     0
 10
1079.3308910059909
 20
3164.8811320810282
 30
0.0
  0
POINT
  5
84C1
  8
DEFPOINTS
 62
     0
 10
1079.3308910059909
 20
3260.670610794311
 30
0.0
  0
ENDBLK
  5
825C
  8
0
  0
BLOCK
  8
0
  2
*D15
 70
     1
 10
0.0
 20
0.0
 30
0.0
  3
*D15
  1

  0
LINE
  5
84C2
  8
3
 62
     0
 10
1079.3308910059909
 20
3172.3811320810282
 30
0.0
 11
1079.3308910059909
 21
3275.670610794311
 31
0.0
  0
LINE
  5
84C3
  8
3
 62
     0
 10
1519.330891005993
 20
2772.3811320810282
 30
0.0
 11
1519.330891005993
 21
3275.670610794311
 31
0.0
  0
LINE
  5
84C4
  8
3
 62
     0
 10
1109.3308910059909
 20
3260.670610794311
 30
0.0
 11
1489.330891005993
 21
3260.670610794311
 31
0.0
  0
INSERT
  5
84C5
  8
3
 62
     0
  2
_OPEN
 10
1079.3308910059909
 20
3260.670610794311
 30
0.0
 41
30.0
 42
30.0
 43
30.0
 50
180.0
  0
INSERT
  5
84C6
  8
3
 62
     0
  2
_OPEN
 10
1519.330891005993
 20
3260.670610794311
 30
0.0
 41
30.0
 42
30.0
 43
30.0
  0
TEXT
  8
3
  40
45
  5
8525
  62
0
  72
0
  71
0
 10
1209.33
 20
3218.52
 30
0.000000
  1
440
  0
POINT
  5
84C8
  8
DEFPOINTS
 62
     0
 10
1079.3308910059909
 20
3164.8811320810282
 30
0.0
  0
POINT
  5
84C9
  8
DEFPOINTS
 62
     0
 10
1519.330891005993
 20
2764.8811320810282
 30
0.0
  0
POINT
  5
84CA
  8
DEFPOINTS
 62
     0
 10
1519.330891005993
 20
3260.670610794311
 30
0.0
  0
ENDBLK
  5
8251
  8
0
  0
BLOCK
  8
0
  2
*D16
 70
     1
 10
0.0
 20
0.0
 30
0.0
  3
*D16
  1

  0
LINE
  5
84CB
  8
3
 62
     0
 10
2740.4313990545802
 20
1636.3681393497741
 30
0.0
 11
2875.111370597067
 21
1636.3681393497741
 31
0.0
  0
LINE
  5
84CC
  8
3
 62
     0
 10
2740.4313990545802
 20
1321.3681393497741
 30
0.0
 11
2875.111370597067
 21
1321.3681393497741
 31
0.0
  0
LINE
  5
84CD
  8
3
 62
     0
 10
2860.111370597067
 20
1606.3681393497741
 30
0.0
 11
2860.111370597067
 21
1351.3681393497741
 31
0.0
  0
INSERT
  5
84CE
  8
3
 62
     0
  2
_OPEN
 10
2860.111370597067
 20
1636.3681393497741
 30
0.0
 41
30.0
 42
30.0
 43
30.0
 50
90.0
  0
INSERT
  5
84CF
  8
3
 62
     0
  2
_OPEN
 10
2860.111370597067
 20
1321.3681393497741
 30
0.0
 41
30.0
 42
30.0
 43
30.0
 50
270.0
  0
TEXT
  8
3
  40
45
  5
8526
  62
0
  72
0
  71
0
 10
2732.61
 20
1399.22
 30
0.000000
  1
φ315
  0
POINT
  5
84D1
  8
DEFPOINTS
 62
     0
 10
2732.9313990545802
 20
1636.3681393497741
 30
0.0
  0
POINT
  5
84D2
  8
DEFPOINTS
 62
     0
 10
2732.9313990545802
 20
1321.3681393497741
 30
0.0
  0
POINT
  5
84D3
  8
DEFPOINTS
 62
     0
 10
2860.111370597067
 20
1321.3681393497741
 30
0.0
  0
ENDBLK
  5
8363
  8
0
  0
BLOCK
  8
0
  2
*D17
 70
     1
 10
0.0
 20
0.0
 30
0.0
  3
*D17
  1

  0
LINE
  5
834F
  8
0
  6
BYBLOCK
 62
     0
 10
2586.9313990545788
 20
1019.866310078963
 30
0.0
 11
2586.9313990545788
 21
943.11770233628647
 31
0.0
  0
LINE
  5
8350
  8
0
  6
BYBLOCK
 62
     0
 10
2751.9313990545788
 20
1045.3681393497741
 30
0.0
 11
2751.9313990545788
 21
943.11770233628647
 31
0.0
  0
LINE
  5
8351
  8
0
  6
BYBLOCK
 62
     0
 10
2616.9313990545802
 20
958.11770233628647
 30
0.0
 11
2721.9313990545788
 21
958.11770233628647
 31
0.0
  0
TEXT
  5
8352
  8
3
 62
     0
 10
2615.8599704831508
 20
972.75445138709608
 30
0.0
 40
45.0
  1
165
  0
INSERT
  5
8353
  8
0
  6
BYBLOCK
 62
     0
  2
_OPEN
 10
2586.9313990545788
 20
958.11770233628647
 30
0.0
 41
30.0
 42
30.0
 43
30.0
 50
180.0
  0
INSERT
  5
8354
  8
0
  6
BYBLOCK
 62
     0
  2
_OPEN
 10
2751.9313990545788
 20
958.11770233628647
 30
0.0
 41
30.0
 42
30.0
 43
30.0
  0
POINT
  5
8355
  8
DEFPOINTS
  6
BYBLOCK
 62
     0
 10
2586.9313990545788
 20
1027.3663100789629
 30
0.0
  0
POINT
  5
8356
  8
DEFPOINTS
  6
BYBLOCK
 62
     0
 10
2751.9313990545788
 20
1052.8681393497741
 30
0.0
  0
POINT
  5
8357
  8
DEFPOINTS
  6
BYBLOCK
 62
     0
 10
2751.9313990545788
 20
958.11770233628647
 30
0.0
  0
ENDBLK
  5
8358
  8
0
  0
BLOCK
  8
0
  2
*D18
 70
     1
 10
0.0
 20
0.0
 30
0.0
  3
*D18
  1

  0
LINE
  5
8365
  8
0
  6
BYBLOCK
 62
     0
 10
2586.9313990545788
 20
2035.4414135886859
 30
0.0
 11
2586.9313990545788
 21
2085.5540317476748
 31
0.0
  0
LINE
  5
8366
  8
0
  6
BYBLOCK
 62
     0
 10
2707.9313990545788
 20
1483.9793090248179
 30
0.0
 11
2707.9313990545788
 21
2085.5540317476748
 31
0.0
  0
LINE
  5
8367
  8
0
  6
BYBLOCK
 62
     0
 10
2616.9313990545802
 20
2070.5540317476748
 30
0.0
 11
2677.9313990545802
 21
2070.5540317476748
 31
0.0
  0
TEXT
  5
8368
  8
3
 62
     0
 10
2603.5028276260082
 20
2088.8477734896328
 30
0.0
 40
45.0
  1
121
  0
INSERT
  5
8369
  8
0
  6
BYBLOCK
 62
     0
  2
_OPEN
 10
2586.9313990545788
 20
2070.5540317476748
 30
0.0
 41
30.0
 42
30.0
 43
30.0
 50
180.0
  0
INSERT
  5
836A
  8
0
  6
BYBLOCK
 62
     0
  2
_OPEN
 10
2707.9313990545788
 20
2070.5540317476748
 30
0.0
 41
30.0
 42
30.0
 43
30.0
  0
POINT
  5
836B
  8
DEFPOINTS
  6
BYBLOCK
 62
     0
 10
2586.9313990545788
 20
2027.9414135886859
 30
0.0
  0
POINT
  5
836C
  8
DEFPOINTS
  6
BYBLOCK
 62
     0
 10
2707.9313990545788
 20
1476.4793090248179
 30
0.0
  0
POINT
  5
836D
  8
DEFPOINTS
  6
BYBLOCK
 62
     0
 10
2707.9313990545788
 20
2070.5540317476748
 30
0.0
  0
ENDBLK
  5
836E
  8
0
  0
BLOCK
  8
0
  2
*D19
 70
     1
 10
0.0
 20
0.0
 30
0.0
  3
*D19
  1

  0
LINE
  5
84F9
  8
3
 62
     0
 10
2468.9313990545802
 20
1838.9793090248179
 30
0.0
 11
2468.9313990545802
 21
1977.0312831391341
 31
0.0
  0
LINE
  5
84FA
  8
3
 62
     0
 10
2704.9313990545788
 20
1838.9793090248179
 30
0.0
 11
2704.9313990545788
 21
1977.0312831391341
 31
0.0
  0
LINE
  5
84FB
  8
3
 62
     0
 10
2498.9313990545802
 20
1962.0312831391341
 30
0.0
 11
2674.9313990545788
 21
1962.0312831391341
 31
0.0
  0
INSERT
  5
84FC
  8
3
 62
     0
  2
_OPEN
 10
2468.9313990545802
 20
1962.0312831391341
 30
0.0
 41
30.0
 42
30.0
 43
30.0
 50
180.0
  0
INSERT
  5
84FD
  8
3
 62
     0
  2
_OPEN
 10
2704.9313990545788
 20
1962.0312831391341
 30
0.0
 41
30.0
 42
30.0
 43
30.0
  0
TEXT
  8
3
  40
45
  5
8527
  62
0
  72
0
  71
0
 10
2496.93
 20
1919.88
 30
0.000000
  1
236
  0
POINT
  5
84FF
  8
DEFPOINTS
 62
     0
 10
2468.9313990545802
 20
1831.4793090248179
 30
0.0
  0
POINT
  5
8500
  8
DEFPOINTS
 62
     0
 10
2704.9313990545788
 20
1831.4793090248179
 30
0.0
  0
POINT
  5
8501
  8
DEFPOINTS
 62
     0
 10
2704.9313990545788
 20
1962.0312831391341
 30
0.0
  0
ENDBLK
  5
8221
  8
0
  0
BLOCK
  8
0
  2
_DOT
 70
     0
 10
0.0
 20
0.0
 30
0.0
  3
_DOT
  1

  0
LINE
  5
812A
  8
0
  6
BYBLOCK
 62
     0
 10
0.0
 20
0.0
 30
0.0
 11
-1.0
 21
-0.0000000000000284
 31
0.0
  0
POLYLINE
  5
812B
  8
0
  6
BYBLOCK
 62
     0
 66
     1
 10
0.0
 20
0.0
 30
0.0
 70
     1
 40
0.1666666666666666
 41
0.1666666666666666
  0
VERTEX
  5
8502
  8
0
  6
BYBLOCK
 62
     0
 10
-0.0833333333333286
 20
-0.0000000000000284
 30
0.0
 42
1.0
  0
VERTEX
  5
8503
  8
0
  6
BYBLOCK
 62
     0
 10
0.0833333333333286
 20
-0.0000000000000284
 30
0.0
 42
1.0
  0
SEQEND
  5
8504
  8
0
  6
BYBLOCK
 62
     0
  0
ENDBLK
  5
811C
  8
0
  0
BLOCK
  8
0
  2
*D21
 70
     1
 10
0.0
 20
0.0
 30
0.0
  3
*D21
  1

  0
LINE
  5
8505
  8
3
 62
     0
 10
654.33089100599125
 20
1863.9793090248179
 30
0.0
 11
654.33089100599125
 21
2068.7382031069028
 31
0.0
  0
LINE
  5
8506
  8
3
 62
     0
 10
1519.3308910059909
 20
1246.3681393497741
 30
0.0
 11
1519.3308910059909
 21
2068.7382031069028
 31
0.0
  0
LINE
  5
8507
  8
3
 62
     0
 10
684.33089100599136
 20
2053.7382031069019
 30
0.0
 11
1489.3308910059909
 21
2053.7382031069019
 31
0.0
  0
INSERT
  5
8508
  8
3
 62
     0
  2
_OPEN
 10
654.33089100599125
 20
2053.7382031069019
 30
0.0
 41
30.0
 42
30.0
 43
30.0
 50
180.0
  0
INSERT
  5
8509
  8
3
 62
     0
  2
_OPEN
 10
1519.3308910059909
 20
2053.7382031069019
 30
0.0
 41
30.0
 42
30.0
 43
30.0
  0
TEXT
  8
3
  40
45
  5
8528
  62
0
  72
0
  71
0
 10
1041.97
 20
2011.59
 30
0.000000
  1
865
  0
POINT
  5
850B
  8
DEFPOINTS
 62
     0
 10
654.33089100599125
 20
1856.4793090248179
 30
0.0
  0
POINT
  5
850C
  8
DEFPOINTS
 62
     0
 10
1519.3308910059909
 20
1238.8681393497741
 30
0.0
  0
POINT
  5
850D
  8
DEFPOINTS
 62
     0
 10
1519.3308910059909
 20
2053.7382031069019
 30
0.0
  0
ENDBLK
  5
8216
  8
0
  0
BLOCK
  8
0
  2
*D22
 70
     1
 10
0.0
 20
0.0
 30
0.0
  3
*D22
  1

  0
LINE
  5
850E
  8
3
 62
     0
 10
647.83089100599125
 20
1854.8681393497741
 30
0.0
 11
302.99258470685368
 21
1854.8681393497741
 31
0.0
  0
LINE
  5
850F
  8
3
 62
     0
 10
711.8308910059917
 20
993.86813934977408
 30
0.0
 11
302.99258470685351
 21
993.86813934977408
 31
0.0
  0
LINE
  5
8510
  8
3
 62
     0
 10
317.99258470685368
 20
1824.8681393497741
 30
0.0
 11
317.99258470685351
 21
1023.868139349774
 31
0.0
  0
INSERT
  5
8511
  8
3
 62
     0
  2
_OPEN
 10
317.99258470685368
 20
1854.8681393497741
 30
0.0
 41
30.0
 42
30.0
 43
30.0
 50
90.0
  0
INSERT
  5
8512
  8
3
 62
     0
  2
_OPEN
 10
317.99258470685351
 20
993.86813934977408
 30
0.0
 41
30.0
 42
30.0
 43
30.0
 50
270.0
  0
TEXT
  8
3
  40
45
  5
8529
  62
0
  72
0
  71
0
 10
190.493
 20
1384.45
 30
0.000000
  1
861
  0
POINT
  5
8514
  8
DEFPOINTS
 62
     0
 10
655.33089100599136
 20
1854.8681393497741
 30
0.0
  0
POINT
  5
8515
  8
DEFPOINTS
 62
     0
 10
719.33089100599182
 20
993.86813934977408
 30
0.0
  0
POINT
  5
8516
  8
DEFPOINTS
 62
     0
 10
317.99258470685351
 20
993.86813934977408
 30
0.0
  0
ENDBLK
  5
83D6
  8
0
  0
BLOCK
  8
0
  2
*D23
 70
     1
 10
0.0
 20
0.0
 30
0.0
  3
*D23
  1

  0
LINE
  5
8410
  8
0
  6
BYBLOCK
 62
     0
 10
711.8308910059917
 20
1068.8681393497741
 30
0.0
 11
426.72652396959347
 21
1068.8681393497741
 31
0.0
  0
LINE
  5
8411
  8
0
  6
BYBLOCK
 62
     0
 10
441.72652396959342
 20
1163.8681393497741
 30
0.0
 11
441.72652396959342
 21
1068.8681393497741
 31
0.0
  0
TEXT
  5
8412
  8
3
 62
     0
 10
397.99696948241763
 20
1051.010996492631
 30
0.0
 40
45.0
  1
(95)
 50
90.0
  0
POINT
  5
8413
  8
DEFPOINTS
  6
BYBLOCK
 62
     0
 10
719.33089100599125
 20
1163.8681393497741
 30
0.0
  0
POINT
  5
8414
  8
DEFPOINTS
  6
BYBLOCK
 62
     0
 10
719.33089100599182
 20
1068.8681393497741
 30
0.0
  0
POINT
  5
8415
  8
DEFPOINTS
  6
BYBLOCK
 62
     0
 10
441.72652396959342
 20
1068.8681393497741
 30
0.0
  0
ENDBLK
  5
8416
  8
0
  0
ENDSEC
  0
SECTION
  2
ENTITIES
  0
DIMENSION
  5
7CC2
  8
3
  2
*D1
 10
1898.9313990545791
 20
2070.5473020230638
 30
0.0
 11
2242.9313990545788
 21
2145.5473020230638
 31
0.0
 70
     0
  1
MAX\P760
 13
2586.9313990545788
 23
2027.9414135886859
 33
0.0
 14
1898.9313990545791
 24
1578.8681393497741
 34
0.0
1001
ACAD
1000
DSTYLE
1002
{
1070
   287
1070
     3
1070
    40
1040
15.0
1070
   143
1040
0.039
1070
   172
1070
     1
1070
   271
1070
     0
1070
   279
1070
     0
1070
   288
1070
     1
1002
}
  0
DIMENSION
  5
7CC3
  8
3
  2
*D2
 10
2586.9313990545788
 20
899.11770233628647
 30
0.0
 11
2279.4313990545788
 21
936.61770233628647
 31
0.0
 70
     0
 13
1971.9313990545791
 23
993.86813934977363
 33
0.0
 14
2586.9313990545788
 24
968.36631007896312
 34
0.0
1001
ACAD
1000
DSTYLE
1002
{
1070
   287
1070
     3
1070
    40
1040
15.0
1070
   143
1040
0.039
1070
   172
1070
     1
1070
   271
1070
     0
1070
   279
1070
     0
1070
   288
1070
     1
1002
}
  0
LINE
  5
7CC4
  8
1
 10
1971.9313990545791
 20
1238.8681393497729
 30
0.0
 11
2751.9313990545788
 21
1238.8681393497729
 31
0.0
  0
LINE
  5
7CCD
  8
1
 10
2751.9313990545788
 20
993.86813934977408
 30
0.0
 11
1971.9313990545791
 21
993.86813934977363
 31
0.0
  0
LINE
  5
7CCE
  8
1
 10
2751.9313990545788
 20
1068.8681393497729
 30
0.0
 11
1971.9313990545791
 21
1068.8681393497729
 31
0.0
  0
LINE
  5
7CCF
  8
2
 10
2769.0366216959151
 20
1478.8681393497741
 30
0.0
 11
1877.1457686497031
 21
1478.8681393497741
 31
0.0
  0
LINE
  5
7CD0
  8
1
 10
2413.9313990545779
 20
1422.0681393497739
 30
0.0
 11
2255.9313990545788
 21
1422.0681393497739
 31
0.0
  0
LINE
  5
7CD8
  8
1
 10
2413.9313990545779
 20
1425.2681393497739
 30
0.0
 11
2255.9313990545802
 21
1425.2681393497739
 31
0.0
  0
LINE
  5
7CD9
  8
1
 10
2751.9313990545788
 20
1163.8681393497741
 30
0.0
 11
1971.9313990545791
 21
1163.8681393497729
 31
0.0
  0
LINE
  5
7CDA
  8
2
 10
899.33089100599136
 20
3152.0625120896989
 30
0.0
 11
899.33089100599136
 21
2302.7148288051212
 31
0.0
  0
LINE
  5
7CDB
  8
2
 10
1379.330891005992
 20
2672.8181320810281
 30
0.0
 11
1379.330891005992
 21
2336.8465320810278
 31
0.0
  0
DIMENSION
  5
7CDC
  8
3
  2
*D3
 10
1519.330891005992
 20
2216.5699912738228
 30
0.0
 11
1119.330891005992
 21
2254.0699912738228
 31
0.0
 70
     0
 13
719.33089100599216
 23
2384.8811320810269
 33
0.0
 14
1519.330891005992
 24
2403.8811320810282
 34
0.0
1001
ACAD
1000
DSTYLE
1002
{
1070
   287
1070
     3
1070
    40
1040
15.0
1070
   143
1040
0.039
1070
   172
1070
     1
1070
   271
1070
     0
1070
   279
1070
     0
1070
   288
1070
     1
1002
}
  0
LINE
  5
7CDD
  8
1
 10
1529.3308910059909
 20
2311.8811320810282
 30
0.0
 11
1529.3308910059909
 21
2403.8811320810282
 31
0.0
  0
LINE
  5
7CDE
  8
1
 10
799.33089100599125
 20
2311.8811320810282
 30
0.0
 11
799.33089100599125
 21
2403.8811320810282
 31
0.0
  0
DIMENSION
  5
7CDF
  8
3
  2
*D4
 10
1652.477169611444
 20
2764.8811320810282
 30
0.0
 11
1614.9771696114431
 21
2574.8811320810282
 31
0.0
 70
     0
 13
1519.3308910059909
 23
2384.8811320810269
 33
0.0
 14
1519.330891005993
 24
2764.8811320810282
 34
0.0
 50
90.0
1001
ACAD
1000
DSTYLE
1002
{
1070
   287
1070
     3
1070
    40
1040
15.0
1070
   143
1040
0.039
1070
   172
1070
     1
1070
   271
1070
     0
1070
   279
1070
     0
1070
   288
1070
     1
1002
}
  0
LINE
  5
7CE0
  8
1
 10
1391.830891005992
 20
2396.8811320810282
 30
0.0
 11
1391.830891005992
 21
2391.8811320810282
 31
0.0
  0
LINE
  5
7CE1
  8
1
 10
1366.8308910059909
 20
2396.8811320810282
 30
0.0
 11
1366.8308910059909
 21
2391.8811320810282
 31
0.0
  0
LINE
  5
7CE2
  8
1
 10
916.83089100599125
 20
2881.8811320810291
 30
0.0
 11
916.83089100599125
 21
2391.8811320810282
 31
0.0
  0
LINE
  5
7CE3
  8
1
 10
881.83089100599148
 20
2881.8811320810282
 30
0.0
 11
881.83089100599125
 21
2391.8811320810282
 31
0.0
  0
DIMENSION
  5
7CE4
  8
3
  2
*D5
 10
581.90040899719486
 20
3164.8811320810282
 30
0.0
 11
544.4004089971944
 21
2774.8811320810282
 31
0.0
 70
     0
 13
719.33089100599216
 23
2384.8811320810269
 33
0.0
 14
719.33089100599125
 24
3164.8811320810282
 34
0.0
 50
90.0
1001
ACAD
1000
DSTYLE
1002
{
1070
   287
1070
     3
1070
    40
1040
15.0
1070
   143
1040
0.039
1070
   172
1070
     1
1070
   271
1070
     0
1070
   279
1070
     0
1070
   288
1070
     1
1002
}
  0
LINE
  5
7CE5
  8
1
 10
719.33089100599182
 20
2881.8811320810282
 30
0.0
 11
719.33089100599216
 21
2384.8811320810282
 31
0.0
  0
LINE
  5
7CE6
  8
1
 10
908.58330363609184
 20
1541.6904511547559
 30
0.0
 11
1391.3663127893981
 21
1470.5866110834979
 31
0.0
  0
LINE
  5
7CE7
  8
1
 10
1391.7345690471029
 20
1538.3544222357041
 30
0.0
 11
907.60000970006604
 21
1578.525661273728
 31
0.0
  0
LINE
  5
7CE9
  8
1
 10
1519.3308910059909
 20
993.86813934977454
 30
0.0
 11
719.33089100599125
 21
993.86813934977408
 31
0.0
  0
LINE
  5
7CEA
  8
1
 10
1519.3308910059909
 20
1068.8681393497741
 30
0.0
 11
719.33089100599125
 21
1068.8681393497741
 31
0.0
  0
LINE
  5
7CEB
  8
1
 10
1529.3308910059909
 20
1238.8681393497741
 30
0.0
 11
719.33089100599125
 21
1238.8681393497741
 31
0.0
  0
LINE
  5
7CEC
  8
1
 10
1519.3308910059909
 20
1163.8681393497741
 30
0.0
 11
719.33089100599125
 21
1163.8681393497741
 31
0.0
  0
LINE
  5
7CED
  8
1
 10
699.33089100599045
 20
1422.0681393497739
 30
0.0
 11
1099.3308910059909
 21
1422.0681393497739
 31
0.0
  0
LINE
  5
7CEE
  8
2
 10
1254.1917441143339
 20
1478.8681393497741
 30
0.0
 11
642.87076465550581
 21
1478.8681393497741
 31
0.0
  0
LINE
  5
7CEF
  8
1
 10
739.33089100599125
 20
1425.2681393497739
 30
0.0
 11
1059.3308910059909
 21
1425.2681393497739
 31
0.0
  0
ARC
  5
7CF0
  8
1
 10
918.09584359068231
 20
1508.061467389866
 30
0.0
 40
252.15223226792139
 50
262.5396572270958
 51
358.84594406436281
  0
LINE
  5
7CF1
  8
1
 10
885.1965664262051
 20
1416.961186035358
 30
0.0
 11
1360.945139662836
 21
1308.340354408502
 31
0.0
  0
LINE
  5
7CF2
  8
1
 10
1336.738533719596
 20
1245.0422338223341
 30
0.0
 11
870.93598614839436
 21
1382.98420233148
 31
0.0
  0
DIMENSION
  5
7CF3
  8
3
  2
*D6
 10
899.33089100599136
 20
897.55389407289056
 30
0.0
 11
1209.3308910059909
 21
935.05389407289056
 31
0.0
 70
     0
 13
1519.3308910059909
 23
993.86813934977454
 33
0.0
 14
899.33089100599136
 24
968.36631007896312
 34
0.0
1001
ACAD
1000
DSTYLE
1002
{
1070
   287
1070
     3
1070
    40
1040
15.0
1070
   143
1040
0.039
1070
   172
1070
     1
1070
   271
1070
     0
1070
   279
1070
     0
1070
   288
1070
     1
1002
}
  0
DIMENSION
  5
7CF4
  8
3
  2
*D7
 10
1172.8957718866729
 20
1962.1211654150679
 30
0.0
 11
1036.113331446332
 21
1999.6211654150679
 31
0.0
 70
     0
 13
899.33089100599136
 23
1862.9525264663971
 33
0.0
 14
1172.8957718866729
 24
1502.8681393497741
 34
0.0
1001
ACAD
1000
DSTYLE
1002
{
1070
   287
1070
     3
1070
    40
1040
15.0
1070
   143
1040
0.039
1070
   172
1070
     1
1070
   271
1070
     0
1070
   279
1070
     0
1070
   288
1070
     1
1002
}
  0
ARC
  5
7CF6
  8
1
 10
875.3308910059917
 20
1502.8681393497741
 30
0.0
 40
297.56488088068153
 50
359.99999999999972
 51
85.389792504131975
  0
LINE
  5
7CF7
  8
1
 10
799.33089100599125
 20
2311.8811320810282
 30
0.0
 11
1529.3308910059909
 21
2311.8811320810282
 31
0.0
  0
ARC
  5
7CF8
  8
1
 10
912.33383508121688
 20
1454.792430287566
 30
0.0
 40
201.58952384937541
 50
178.43602223557491
 51
262.20219715607021
  0
LINE
  5
7CF9
  8
2
 10
899.33089100599136
 20
1573.0074545422499
 30
0.0
 11
899.33089100599136
 21
968.36631007896312
 31
0.0
  0
DIMENSION
  5
7CFA
  8
3
  2
*D8
 10
441.72652396959342
 20
1163.8681393497741
 30
0.0
 11
404.22652396959319
 21
1321.3681393497741
 31
0.0
 70
     0
 13
642.87076465550581
 23
1478.8681393497741
 33
0.0
 14
719.33089100599125
 24
1163.8681393497741
 34
0.0
 50
270.0
1001
ACAD
1000
DSTYLE
1002
{
1070
   287
1070
     3
1070
    40
1040
15.0
1070
   143
1040
0.039
1070
   172
1070
     1
1070
   271
1070
     0
1070
   279
1070
     0
1070
   288
1070
     1
1002
}
  0
CIRCLE
  5
7CFD
  8
1
 10
899.33089100599136
 20
1478.8681393497741
 30
0.0
 40
63.5
  0
ARC
  5
7CFE
  8
1
 10
899.33089100599136
 20
1478.8681393497741
 30
0.0
 40
100.0
 50
85.256727858981463
 51
253.50396158870819
  0
DIMENSION
  5
7D00
  8
3
  2
*D9
 10
441.72652396959342
 20
993.86813934977408
 30
0.0
 11
404.22652396959319
 21
882.43956792120275
 31
0.0
 70
     0
 13
719.33089100599182
 23
1068.8681393497741
 33
0.0
 14
719.33089100599182
 24
993.86813934977408
 34
0.0
 50
270.0
1001
ACAD
1000
DSTYLE
1002
{
1070
   287
1070
     3
1070
    40
1040
15.0
1070
   143
1040
0.039
1070
   172
1070
     1
1070
   271
1070
     0
1070
   279
1070
     0
1070
   288
1070
     1
1070
     6
1000
DOT
1002
}
  0
DIMENSION
  5
7D01
  8
3
  2
*D10
 10
719.33089100599182
 20
897.55389407289056
 30
0.0
 11
809.33089100599148
 21
934.01655884996205
 31
0.0
 12
0.0
 22
-59.0
 32
0.0
 70
   128
 13
899.33089100599136
 23
968.36631007896312
 33
0.0
 14
719.33089100599182
 24
993.86813934977408
 34
0.0
1001
ACAD
1000
DSTYLE
1002
{
1070
   288
1070
     1
1070
   172
1070
     1
1070
    40
1040
15.0
1070
   271
1070
     0
1070
   143
1040
0.039
1002
}
  0
LINE
  5
7D03
  8
1
 10
719.33089100599125
 20
1278.8681393497741
 30
0.0
 11
719.33089100599125
 21
1163.8681393497741
 31
0.0
  0
LINE
  5
7D04
  8
1
 10
719.33089100599182
 20
1068.8681393497741
 30
0.0
 11
719.33089100599182
 21
993.86813934977454
 31
0.0
  0
LINE
  5
7D05
  8
1
 10
815.83089100599125
 20
1431.2681393497739
 30
0.0
 11
869.83089100599136
 21
1431.2681393497739
 31
0.0
  0
CIRCLE
  5
7D06
  8
1
 10
899.33089100599136
 20
1338.8681393497741
 30
0.0
 40
65.0
  0
LINE
  5
7D07
  8
2
 10
969.33089100599125
 20
1338.8681393497741
 30
0.0
 11
829.33089100599125
 21
1338.8681393497741
 31
0.0
  0
POLYLINE
  5
7D08
  8
1
 66
     1
 10
0.0
 20
0.0
 30
0.0
 70
     1
  0
VERTEX
  5
8494
  8
1
 10
999.33089100599136
 20
1425.2681393497739
 30
0.0
  0
VERTEX
  5
8495
  8
1
 10
799.33089100599125
 20
1425.2681393497739
 30
0.0
  0
VERTEX
  5
8496
  8
1
 10
799.33089100599125
 20
1431.2681393497739
 30
0.0
  0
VERTEX
  5
8497
  8
1
 10
999.33089100599136
 20
1431.2681393497739
 30
0.0
  0
SEQEND
  5
8498
  8
1
  0
POLYLINE
  5
7D0E
  8
1
 66
     1
 10
0.0
 20
0.0
 30
0.0
 70
     1
  0
VERTEX
  5
8499
  8
1
 10
999.33089100599136
 20
1425.2681393497739
 30
0.0
  0
VERTEX
  5
849A
  8
1
 10
799.33089100599125
 20
1425.2681393497739
 30
0.0
  0
VERTEX
  5
849B
  8
1
 10
799.33089100599125
 20
1431.2681393497739
 30
0.0
  0
VERTEX
  5
849C
  8
1
 10
999.33089100599136
 20
1431.2681393497739
 30
0.0
  0
SEQEND
  5
849D
  8
1
  0
LINE
  5
7D14
  8
1
 10
749.33089100599045
 20
1422.0681393497739
 30
0.0
 11
749.33089100599125
 21
1238.8681393497741
 31
0.0
  0
LINE
  5
7D16
  8
1
 10
749.33089100599125
 20
1243.8681393497741
 30
0.0
 11
719.33089100599125
 21
1243.8681393497741
 31
0.0
  0
LINE
  5
7D17
  8
1
 10
749.33089100599091
 20
1278.8681393497741
 30
0.0
 11
719.33089100599125
 21
1278.8681393497741
 31
0.0
  0
LINE
  5
7D18
  8
1
 10
699.33089100599045
 20
1422.0681393497739
 30
0.0
 11
699.33089100599045
 21
1377.5681393497739
 31
0.0
  0
LINE
  5
7D19
  8
1
 10
749.33089100599045
 20
1382.0681393497739
 30
0.0
 11
699.33089100599045
 21
1382.0681393497739
 31
0.0
  0
LINE
  5
7D1A
  8
1
 10
749.33089100599045
 20
1377.5681393497739
 30
0.0
 11
699.33089100599045
 21
1377.5681393497739
 31
0.0
  0
LINE
  5
7D1B
  8
1
 10
739.33089100599125
 20
1425.2681393497739
 30
0.0
 11
739.33089100599125
 21
1422.0681393497739
 31
0.0
  0
LINE
  5
7D1C
  8
1
 10
982.83089100599125
 20
1431.2681393497739
 30
0.0
 11
928.83089100599136
 21
1431.2681393497739
 31
0.0
  0
DIMENSION
  5
7D1D
  8
3
  2
*D11
 10
899.33089100599136
 20
1962.1211654150679
 30
0.0
 11
776.83089100599125
 21
1999.6211654150679
 31
0.0
 70
     0
 13
654.33089100599125
 23
1856.4793090248179
 33
0.0
 14
899.33089100599136
 24
1862.9525264663971
 34
0.0
1001
ACAD
1000
DSTYLE
1002
{
1070
   287
1070
     3
1070
    40
1040
15.0
1070
   143
1040
0.039
1070
   172
1070
     1
1070
   271
1070
     0
1070
   279
1070
     0
1070
   288
1070
     1
1002
}
  0
LINE
  5
7D1E
  8
1
 10
679.33089100599125
 20
1829.8681393497741
 30
0.0
 11
654.33089100599125
 21
1829.8681393497741
 31
0.0
  0
LINE
  5
7D1F
  8
1
 10
661.33089100599125
 20
1832.8681393497741
 30
0.0
 11
677.33089100599125
 21
1832.8681393497741
 31
0.0
  0
LINE
  5
7D24
  8
1
 10
654.33089100599125
 20
1829.6752360751141
 30
0.0
 11
899.48924523897801
 21
1798.4381144327911
 31
0.0
  0
LINE
  5
7D25
  8
1
 10
661.33089100599125
 20
1501.8681393497741
 30
0.0
 11
677.33089100599125
 21
1501.8681393497741
 31
0.0
  0
LINE
  5
7D26
  8
1
 10
654.33089100599125
 20
1504.8681393497741
 30
0.0
 11
716.74764378106715
 21
1504.8681393497741
 31
0.0
  0
LINE
  5
7D28
  8
1
 10
654.33089100599125
 20
1504.8681393497741
 30
0.0
 11
654.33089100599125
 21
1829.8681393497741
 31
0.0
  0
LINE
  5
7D29
  8
1
 10
657.33089100599125
 20
1504.8681393497741
 30
0.0
 11
657.33089100599136
 21
1829.8681393497741
 31
0.0
  0
DIMENSION
  5
7D2A
  8
3
  2
*D12
 10
441.72652396959342
 20
1478.8681393497741
 30
0.0
 11
404.22652396959319
 21
1654.3681393497741
 31
0.0
 70
     0
 13
654.33089100599125
 23
1829.8681393497741
 33
0.0
 14
642.87076465550581
 24
1478.8681393497741
 34
0.0
 50
270.0
1001
ACAD
1000
DSTYLE
1002
{
1070
   287
1070
     3
1070
    40
1040
15.0
1070
   143
1040
0.039
1070
   172
1070
     1
1070
   271
1070
     0
1070
   279
1070
     0
1070
   288
1070
     1
1002
}
  0
DIMENSION
  5
7D2B
  8
3
  2
*D13
 10
542.23605410188065
 20
1504.8681393497741
 30
0.0
 11
504.73605410188043
 21
1667.3681393497741
 31
0.0
 70
     0
 13
654.33089100599125
 23
1829.8681393497741
 33
0.0
 14
654.33089100599125
 24
1504.8681393497741
 34
0.0
 50
270.0
1001
ACAD
1000
DSTYLE
1002
{
1070
   287
1070
     3
1070
    40
1040
15.0
1070
   143
1040
0.039
1070
   172
1070
     1
1070
   271
1070
     0
1070
   279
1070
     0
1070
   288
1070
     1
1002
}
  0
LINE
  5
7D2C
  8
1
 10
654.33089100599125
 20
1504.8681393497741
 30
0.0
 11
654.33089100599125
 21
1479.8681393497741
 31
0.0
  0
LINE
  5
7D2D
  8
1
 10
657.33089100599125
 20
1481.8681393497741
 30
0.0
 11
657.33089100599125
 21
1497.8681393497741
 31
0.0
  0
ARC
  5
7D2E
  8
1
 10
655.33089100599136
 20
1481.8681393497741
 30
0.0
 40
2.0
 50
270.0
 51
0.0
  0
LINE
  5
7D2F
  8
1
 10
654.33089100599125
 20
1479.8681393497741
 30
0.0
 11
655.33089100599136
 21
1479.8681393497741
 31
0.0
  0
ARC
  5
7D30
  8
1
 10
661.33089100599125
 20
1497.8681393497741
 30
0.0
 40
4.0
 50
90.0
 51
180.0
  0
LINE
  5
7D31
  8
1
 10
654.33089100599125
 20
1829.8681393497741
 30
0.0
 11
654.33089100599125
 21
1854.8681393497741
 31
0.0
  0
LINE
  5
7D32
  8
1
 10
657.33089100599125
 20
1852.8681393497741
 30
0.0
 11
657.33089100599125
 21
1836.8681393497741
 31
0.0
  0
ARC
  5
7D33
  8
1
 10
661.33089100599125
 20
1836.8681393497741
 30
0.0
 40
4.0
 50
180.0
 51
270.0
  0
LINE
  5
7D34
  8
1
 10
654.33089100599125
 20
1829.8681393497741
 30
0.0
 11
661.96120268028972
 21
1829.8681393497741
 31
0.0
  0
LINE
  5
7D35
  8
1
 10
654.33089100599125
 20
1854.8681393497741
 30
0.0
 11
655.33089100599136
 21
1854.8681393497741
 31
0.0
  0
ARC
  5
7D36
  8
1
 10
655.33089100599136
 20
1852.8681393497741
 30
0.0
 40
2.0
 50
0.0
 51
90.0
  0
LINE
  5
7D37
  8
2
 10
899.33089100599136
 20
1862.9525264663971
 30
0.0
 11
899.33089100599136
 21
1591.947381520439
 31
0.0
  0
LINE
  5
7D38
  8
1
 10
679.33089100599125
 20
1829.8681393497741
 30
0.0
 11
679.33089100599125
 21
1504.8681393497741
 31
0.0
  0
LINE
  5
7D39
  8
1
 10
679.33089100599125
 20
1503.8681393497741
 30
0.0
 11
679.33089100599125
 21
1504.8681393497741
 31
0.0
  0
ARC
  5
7D3B
  8
1
 10
677.33089100599125
 20
1503.8681393497741
 30
0.0
 40
2.0
 50
270.0
 51
0.0
  0
ARC
  5
7D3E
  8
1
 10
880.83089100599125
 20
1460.3681393497741
 30
0.0
 40
170.010476206249
 50
164.82615823122191
 51
180.0000000000004
  0
LINE
  5
7D3F
  8
1
 10
899.33089100599136
 20
1578.8681393497741
 30
0.0
 11
899.33089100599136
 21
1578.8681393497741
 31
0.0
  0
LINE
  5
7D41
  8
1
 10
679.33089100599045
 20
1826.29778600126
 30
0.0
 11
679.33089100599045
 21
1825.29778600126
 31
0.0
  0
LINE
  5
7D42
  8
1
 10
679.33089100599125
 20
1830.8681393497741
 30
0.0
 11
679.33089100599125
 21
1829.8681393497741
 31
0.0
  0
ARC
  5
7D43
  8
1
 10
677.33089100599125
 20
1830.8681393497741
 30
0.0
 40
2.0
 50
0.0
 51
90.0
  0
LINE
  5
7D44
  8
1
 10
719.33089100599125
 20
2384.8811320810269
 30
0.0
 11
799.33089100599125
 21
2384.8811320810269
 31
0.0
  0
POINT
  5
7D45
  8
1
 10
719.33089100599216
 20
2384.8811320810269
 30
0.0
  0
LINE
  5
7D46
  8
1
 10
962.83089100599136
 20
2341.8811320810291
 30
0.0
 11
835.83089100599136
 21
2341.8811320810269
 31
0.0
  0
LINE
  5
7D47
  8
1
 10
962.83089100599136
 20
2391.8811320810282
 30
0.0
 11
835.83089100599136
 21
2391.8811320810282
 31
0.0
  0
LINE
  5
7D48
  8
1
 10
835.83089100599136
 20
2391.8811320810282
 30
0.0
 11
835.83089100599136
 21
2341.8811320810269
 31
0.0
  0
LINE
  5
7D49
  8
1
 10
962.83089100599136
 20
2391.8811320810282
 30
0.0
 11
962.83089100599136
 21
2341.8811320810282
 31
0.0
  0
LINE
  5
7D4A
  8
1
 10
2255.9313990545802
 20
1485.8681393497741
 30
0.0
 11
2255.9313990545788
 21
1298.8681393497741
 31
0.0
  0
LINE
  5
7D4B
  8
2
 10
1379.330891005992
 20
1292.884039349774
 30
0.0
 11
1379.330891005992
 21
1497.3292393497741
 31
0.0
  0
ARC
  5
7D4C
  8
1
 10
1379.330891005992
 20
1388.8681393497741
 30
0.0
 40
100.8
 50
0.0
 51
239.69929999999999
  0
ARC
  5
7D4D
  8
1
 10
1379.330891005992
 20
1388.8681393497741
 30
0.0
 40
100.8
 50
0.0
 51
239.69929999999999
  0
CIRCLE
  5
7D50
  8
1
 10
1379.330891005992
 20
1388.8681393497741
 30
0.0
 40
82.599999999999994
  0
ARC
  5
7D52
  8
1
 10
1379.330891005992
 20
1388.8681393497741
 30
0.0
 40
150.0
 50
253.50396158870819
 51
85.256727858981506
  0
LINE
  5
7D54
  8
1
 10
1990.9313990545791
 20
1578.8681393497741
 30
0.0
 11
1990.9313990545791
 21
1543.350633431317
 31
0.0
  0
LINE
  5
7D55
  8
1
 10
1898.9313990545791
 20
1578.8681393497741
 30
0.0
 11
1898.9313990545791
 21
1238.8681393497741
 31
0.0
  0
LINE
  5
7D56
  8
1
 10
1978.9313990545791
 20
1542.3681393497741
 30
0.0
 11
1978.9313990545791
 21
1415.3681393497741
 31
0.0
  0
LINE
  5
7D57
  8
1
 10
1993.9313990545791
 20
1485.8681393497741
 30
0.0
 11
1993.9313990545791
 21
1298.8681393497741
 31
0.0
  0
LINE
  5
7D58
  8
1
 10
1928.9313990545791
 20
1542.3681393497741
 30
0.0
 11
1928.9313990545791
 21
1415.3681393497741
 31
0.0
  0
LINE
  5
7D5B
  8
1
 10
1480.234762474679
 20
1298.8681393497741
 30
0.0
 11
1278.427019537304
 21
1298.8681393497741
 31
0.0
  0
LINE
  5
7D5E
  8
1
 10
1328.4067910059921
 20
1301.8681393497741
 30
0.0
 11
1430.3618910059911
 21
1301.8681393497741
 31
0.0
  0
LINE
  5
7D5F
  8
1
 10
1328.4067910059921
 20
1301.8681393497741
 30
0.0
 11
1430.3618910059911
 21
1301.8681393497741
 31
0.0
  0
LINE
  5
7D60
  8
2
 10
1274.865691005991
 20
1388.8681393497741
 30
0.0
 11
1485.433691005991
 21
1388.8681393497741
 31
0.0
  0
LINE
  5
7D61
  8
1
 10
1529.3308910059909
 20
1268.8681393497741
 30
0.0
 11
1229.3308910059909
 21
1268.8681393497741
 31
0.0
  0
LINE
  5
7D62
  8
1
 10
1049.3308910059909
 20
1422.0681393497739
 30
0.0
 11
1049.3308910059909
 21
1238.8681393497741
 31
0.0
  0
LINE
  5
7D63
  8
1
 10
1079.3308910059909
 20
1278.8681393497741
 30
0.0
 11
1079.3308910059909
 21
1238.8681393497741
 31
0.0
  0
LINE
  5
7D64
  8
1
 10
1079.3308910059909
 20
1243.8681393497741
 30
0.0
 11
1049.3308910059909
 21
1243.8681393497741
 31
0.0
  0
LINE
  5
7D65
  8
1
 10
1079.3308910059909
 20
1278.8681393497741
 30
0.0
 11
1049.3308910059909
 21
1278.8681393497741
 31
0.0
  0
LINE
  5
7D66
  8
1
 10
1136.5138591642101
 20
1382.068139349775
 30
0.0
 11
1049.3308910059909
 21
1382.0681393497739
 31
0.0
  0
LINE
  5
7D67
  8
1
 10
1133.855523732077
 20
1377.5681393497739
 30
0.0
 11
1049.3308910059909
 21
1377.5681393497739
 31
0.0
  0
LINE
  5
7D68
  8
1
 10
1059.3308910059909
 20
1425.2681393497739
 30
0.0
 11
1059.3308910059909
 21
1422.0681393497739
 31
0.0
  0
LINE
  5
7D69
  8
1
 10
1099.3308910059909
 20
1422.0681393497739
 30
0.0
 11
1099.3308910059909
 21
1382.0681393497739
 31
0.0
  0
LINE
  5
7D6A
  8
1
 10
1229.3308910059909
 20
1238.8681393497741
 30
0.0
 11
1229.3308910059909
 21
1268.8681393497741
 31
0.0
  0
LINE
  5
7D6B
  8
1
 10
1266.8308910059909
 20
1268.8681393497741
 30
0.0
 11
1278.427019537304
 21
1298.8681393497741
 31
0.0
  0
LINE
  5
7D6C
  8
1
 10
1291.3308910059909
 20
1298.8681393497741
 30
0.0
 11
1331.330891005992
 21
1298.8681393497741
 31
0.0
  0
LINE
  5
7D6D
  8
1
 10
1291.3308910059909
 20
1298.8681393497741
 30
0.0
 11
1291.3308910059909
 21
1306.8681393497741
 31
0.0
  0
LINE
  5
7D6E
  8
1
 10
1297.1843910059911
 20
1330.450839349774
 30
0.0
 11
1291.3308910059909
 21
1306.8681393497741
 31
0.0
  0
LINE
  5
7D6F
  8
1
 10
1309.3308910059909
 20
1294.501639349774
 30
0.0
 11
1309.3308910059909
 21
1311.4050393497739
 31
0.0
  0
LINE
  5
7D70
  8
1
 10
1331.330891005992
 20
1301.8409393497741
 30
0.0
 11
1331.330891005992
 21
1298.8681393497741
 31
0.0
  0
LINE
  5
7D71
  8
1
 10
1519.3308910059909
 20
1238.8681393497741
 30
0.0
 11
1519.3308910059909
 21
1163.8681393497741
 31
0.0
  0
LINE
  5
7D72
  8
1
 10
1519.3308910059909
 20
1068.8681393497741
 30
0.0
 11
1519.3308910059909
 21
993.86813934977454
 31
0.0
  0
ARC
  5
7D74
  8
1
 10
1379.330891005992
 20
1388.8681393497741
 30
0.0
 40
100.8
 50
300.3932999999999
 51
0.0
  0
ARC
  5
7D76
  8
1
 10
1379.330891005992
 20
1388.8681393497741
 30
0.0
 40
100.8
 50
300.3932999999999
 51
0.0
  0
LINE
  5
7D77
  8
1
 10
1467.3308910059909
 20
1298.8681393497741
 30
0.0
 11
1427.330891005992
 21
1298.8681393497741
 31
0.0
  0
LINE
  5
7D78
  8
1
 10
1427.330891005992
 20
1301.7991393497739
 30
0.0
 11
1427.330891005992
 21
1298.8681393497741
 31
0.0
  0
LINE
  5
7D79
  8
1
 10
1491.8308910059909
 20
1268.8681393497741
 30
0.0
 11
1480.234762474679
 21
1298.8681393497741
 31
0.0
  0
LINE
  5
7D7A
  8
1
 10
1449.3308910059909
 20
1294.501639349774
 30
0.0
 11
1449.3308910059909
 21
1311.4050393497739
 31
0.0
  0
LINE
  5
7D7B
  8
1
 10
1461.4774910059909
 20
1330.450839349774
 30
0.0
 11
1467.3308910059909
 21
1306.8681393497741
 31
0.0
  0
LINE
  5
7D7C
  8
1
 10
1467.3308910059909
 20
1298.8681393497741
 30
0.0
 11
1467.3308910059909
 21
1306.8681393497741
 31
0.0
  0
LINE
  5
7D7D
  8
1
 10
1529.3308910059909
 20
1238.8681393497741
 30
0.0
 11
1529.3308910059909
 21
1268.8681393497741
 31
0.0
  0
LINE
  5
7D7E
  8
1
 10
1993.9313990545791
 20
1298.8681393497741
 30
0.0
 11
2255.9313990545788
 21
1298.8681393497741
 31
0.0
  0
LINE
  5
7D7F
  8
1
 10
1898.9313990545791
 20
1238.8681393497741
 30
0.0
 11
2099.4700375200568
 21
1238.8681393497741
 31
0.0
  0
LINE
  5
7D80
  8
1
 10
1971.9313990545791
 20
1238.8681393497729
 30
0.0
 11
1971.9313990545791
 21
1163.8681393497729
 31
0.0
  0
LINE
  5
7D81
  8
1
 10
1971.9313990545791
 20
1068.8681393497729
 30
0.0
 11
1971.9313990545791
 21
993.86813934977363
 31
0.0
  0
LINE
  5
7D82
  8
1
 10
1978.93139905458
 20
1431.468139349774
 30
0.0
 11
1978.93139905458
 21
1266.2681393497751
 31
0.0
  0
LINE
  5
7D83
  8
1
 10
1928.9313990545791
 20
1431.468139349774
 30
0.0
 11
1928.9313990545791
 21
1266.2681393497751
 31
0.0
  0
LINE
  5
7D84
  8
1
 10
1978.93139905458
 20
1266.2681393497751
 30
0.0
 11
1928.9313990545791
 21
1266.2681393497739
 31
0.0
  0
LINE
  5
7D85
  8
1
 10
2010.7313990545799
 20
1298.8681393497741
 30
0.0
 11
2010.7313990545799
 21
1238.8681393497729
 31
0.0
  0
LINE
  5
7D86
  8
1
 10
2013.9313990545791
 20
1298.8681393497741
 30
0.0
 11
2013.9313990545791
 21
1238.8681393497729
 31
0.0
  0
LINE
  5
7D87
  8
1
 10
1978.93139905458
 20
1415.3681393497741
 30
0.0
 11
1928.93139905458
 21
1415.3681393497741
 31
0.0
  0
LINE
  5
7D88
  8
1
 10
1978.93139905458
 20
1431.468139349774
 30
0.0
 11
1928.9313990545791
 21
1431.468139349774
 31
0.0
  0
LINE
  5
7D89
  8
2
 10
2023.229364451628
 20
1388.8681393497741
 30
0.0
 11
1923.8967990545791
 21
1388.8681393497741
 31
0.0
  0
LINE
  5
7D8A
  8
1
 10
1928.9313990545791
 20
1360.8681393497741
 30
0.0
 11
1928.9313990545791
 21
1336.8681393497741
 31
0.0
  0
LINE
  5
7D8B
  8
1
 10
1983.9313990545791
 20
1352.3681393497741
 30
0.0
 11
1983.9313990545791
 21
1425.3681393497741
 31
0.0
  0
LINE
  5
7D8C
  8
1
 10
1978.9313990545791
 20
1401.3681393497741
 30
0.0
 11
1978.9313990545791
 21
1376.3681393497741
 31
0.0
  0
LINE
  5
7D8D
  8
1
 10
1983.9313990545791
 20
1376.3681393497741
 30
0.0
 11
1978.9313990545791
 21
1376.3681393497741
 31
0.0
  0
ARC
  5
7D8E
  8
1
 10
1984.9314990545799
 20
1352.3681393497741
 30
0.0
 40
1.0000999999999991
 50
180.0
 51
269.99650000000003
  0
ARC
  5
7D8F
  8
1
 10
1992.9313990545791
 20
1350.3681393497741
 30
0.0
 40
1.0000999999999991
 50
0.0
 51
89.996500000000054
  0
LINE
  5
7D90
  8
1
 10
1984.93139905458
 20
1351.3681393497741
 30
0.0
 11
1992.9313990545791
 21
1351.3681393497741
 31
0.0
  0
LINE
  5
7D91
  8
1
 10
1983.9313990545791
 20
1401.3681393497741
 30
0.0
 11
1978.9313990545791
 21
1401.3681393497741
 31
0.0
  0
LINE
  5
7D92
  8
1
 10
1983.9313990545791
 20
1425.3681393497741
 30
0.0
 11
1993.93139905458
 21
1425.3681393497741
 31
0.0
  0
LINE
  5
7D93
  8
1
 10
1296.7308910059919
 20
2341.8811320810282
 30
0.0
 11
1461.930891005991
 21
2341.8811320810282
 31
0.0
  0
LINE
  5
7D94
  8
1
 10
1296.7308910059919
 20
2391.8811320810282
 30
0.0
 11
1461.930891005991
 21
2391.8811320810282
 31
0.0
  0
LINE
  5
7D95
  8
1
 10
1296.7308910059919
 20
2391.8811320810282
 30
0.0
 11
1296.7308910059919
 21
2341.8811320810282
 31
0.0
  0
LINE
  5
7D96
  8
1
 10
1367.3308910059909
 20
2341.8811320810291
 30
0.0
 11
1391.3308910059909
 21
2341.8811320810291
 31
0.0
  0
LINE
  5
7D97
  8
1
 10
1366.8308910059909
 20
2391.8811320810282
 30
0.0
 11
1391.830891005992
 21
2391.8811320810282
 31
0.0
  0
LINE
  5
7D98
  8
1
 10
1461.930891005991
 20
2391.8811320810282
 30
0.0
 11
1461.930891005991
 21
2341.8811320810282
 31
0.0
  0
LINE
  5
7D99
  8
1
 10
1993.9313990545791
 20
1485.8681393497741
 30
0.0
 11
2255.9313990545802
 21
1485.8681393497741
 31
0.0
  0
LINE
  5
7D9B
  8
1
 10
1978.93139905458
 20
1542.3681393497741
 30
0.0
 11
1928.93139905458
 21
1542.3681393497741
 31
0.0
  0
LINE
  5
7D9E
  8
1
 10
1993.93139905458
 20
1461.3681393497741
 30
0.0
 11
1978.9313990545791
 21
1461.3681393497741
 31
0.0
  0
LINE
  5
7DA1
  8
1
 10
1898.93139905458
 20
1578.8681393497741
 30
0.0
 11
1990.9313990545791
 21
1578.8681393497741
 31
0.0
  0
LINE
  5
7DB9
  8
1
 10
739.33089100599125
 20
2416.8811320810269
 30
0.0
 11
1059.3308910059909
 21
2416.8811320810269
 31
0.0
  0
LINE
  5
7DBA
  8
1
 10
739.33089100599182
 20
2826.8811320810282
 30
0.0
 11
881.83089100599148
 21
2826.8811320810269
 31
0.0
  0
DIMENSION
  5
7DBB
  8
3
  2
*D14
 10
1079.3308910059909
 20
3260.670610794311
 30
0.0
 11
899.33089100599136
 21
3298.170610794311
 31
0.0
 70
     0
 13
719.33089100599125
 23
3164.8811320810282
 33
0.0
 14
1079.3308910059909
 24
3164.8811320810282
 34
0.0
1001
ACAD
1000
DSTYLE
1002
{
1070
   287
1070
     3
1070
    40
1040
15.0
1070
   143
1040
0.039
1070
   172
1070
     1
1070
   271
1070
     0
1070
   279
1070
     0
1070
   288
1070
     1
1002
}
  0
LINE
  5
7DBC
  8
1
 10
1039.3308910059891
 20
3159.8811320810282
 30
0.0
 11
759.33089100599136
 21
3159.8811320810282
 31
0.0
  0
LINE
  5
7DBD
  8
1
 10
1175.8957718866729
 20
2881.8811320810282
 30
0.0
 11
658.33089100599227
 21
2881.8811320810282
 31
0.0
  0
LINE
  5
7DBE
  8
1
 10
1175.8957718866729
 20
3117.8811320810282
 30
0.0
 11
658.33089100599227
 21
3117.8811320810282
 31
0.0
  0
LINE
  5
7DBF
  8
1
 10
1039.33089100599
 20
3119.8811320810282
 30
0.0
 11
759.33089100599136
 21
3119.8811320810282
 31
0.0
  0
LINE
  5
7DC0
  8
2
 10
1199.3621525533561
 20
2999.8811320810282
 30
0.0
 11
649.73177097977532
 21
2999.8811320810282
 31
0.0
  0
LINE
  5
7DC1
  8
1
 10
799.33089100599125
 20
2403.8811320810282
 30
0.0
 11
1529.3308910059909
 21
2403.8811320810282
 31
0.0
  0
LINE
  5
7DC3
  8
1
 10
759.33089100599091
 20
2881.8811320810291
 30
0.0
 11
759.33089100599091
 21
2826.8811320810282
 31
0.0
  0
LINE
  5
7DC4
  8
1
 10
655.33089100599216
 20
2854.8811320810269
 30
0.0
 11
655.33089100599216
 21
3144.8811320810282
 31
0.0
  0
LINE
  5
7DC5
  8
1
 10
658.33089100599227
 20
2854.8811320810269
 30
0.0
 11
658.33089100599227
 21
3144.8811320810282
 31
0.0
  0
LINE
  5
7DC7
  8
1
 10
658.33089100599227
 20
2854.8811320810269
 30
0.0
 11
655.33089100599216
 21
2854.8811320810269
 31
0.0
  0
LINE
  5
7DC9
  8
1
 10
739.33089100599125
 20
2416.8811320810269
 30
0.0
 11
739.33089100599125
 21
2826.8811320810282
 31
0.0
  0
LINE
  5
7DD0
  8
1
 10
719.33089100599216
 20
2424.8811320810282
 30
0.0
 11
739.33089100599125
 21
2424.8811320810269
 31
0.0
  0
LINE
  5
7DE2
  8
1
 10
658.33089100599227
 20
3144.8811320810282
 30
0.0
 11
655.33089100599216
 21
3144.8811320810282
 31
0.0
  0
LINE
  5
7DE3
  8
1
 10
759.33089100599136
 20
3164.8811320810282
 30
0.0
 11
719.33089100599125
 21
3164.8811320810282
 31
0.0
  0
LINE
  5
7DE4
  8
1
 10
719.33089100599125
 20
3164.8811320810282
 30
0.0
 11
719.33089100599125
 21
3117.8811320810282
 31
0.0
  0
POINT
  5
7DE5
  8
1
 10
719.33089100599125
 20
3164.8811320810282
 30
0.0
  0
POINT
  5
7DE6
  8
1
 10
719.33089100599125
 20
3164.8811320810282
 30
0.0
  0
LINE
  5
7DE7
  8
1
 10
759.33089100599136
 20
3164.8811320810282
 30
0.0
 11
759.33089100599136
 21
3117.8811320810282
 31
0.0
  0
DIMENSION
  5
7DE8
  8
3
  2
*D15
 10
1519.330891005993
 20
3260.670610794311
 30
0.0
 11
1299.330891005992
 21
3298.170610794311
 31
0.0
 70
     0
 13
1079.3308910059909
 23
3164.8811320810282
 33
0.0
 14
1519.330891005993
 24
2764.8811320810282
 34
0.0
1001
ACAD
1000
DSTYLE
1002
{
1070
   287
1070
     3
1070
    40
1040
15.0
1070
   143
1040
0.039
1070
   172
1070
     1
1070
   271
1070
     0
1070
   279
1070
     0
1070
   288
1070
     1
1002
}
  0
LINE
  5
7DE9
  8
1
 10
1039.33089100599
 20
2826.8811320810282
 30
0.0
 11
1039.33089100599
 21
2881.8811320810282
 31
0.0
  0
LINE
  5
7DEA
  8
1
 10
1079.33089100599
 20
2424.8811320810269
 30
0.0
 11
1079.3308910059909
 21
2881.8811320810282
 31
0.0
  0
LINE
  5
7DEB
  8
1
 10
1278.330891005992
 20
2668.8811320810291
 30
0.0
 11
1480.330891005992
 21
2668.8811320810291
 31
0.0
  0
LINE
  5
7DED
  8
1
 10
1278.330891005992
 20
2406.8811320810291
 30
0.0
 11
1480.330891005992
 21
2406.8811320810291
 31
0.0
  0
LINE
  5
7DEE
  8
1
 10
1415.830891005992
 20
2396.8811320810282
 30
0.0
 11
1342.8308910059909
 21
2396.8811320810282
 31
0.0
  0
LINE
  5
7DEF
  8
1
 10
1079.3308910059909
 20
2724.8811320810282
 30
0.0
 11
1519.3308910059909
 21
2724.8811320810282
 31
0.0
  0
LINE
  5
7DF0
  8
1
 10
1079.3308910059909
 20
2764.8811320810282
 30
0.0
 11
1519.3308910059909
 21
2764.8811320810282
 31
0.0
  0
LINE
  5
7DF1
  8
1
 10
1059.3308910059909
 20
2416.8811320810269
 30
0.0
 11
1059.3308910059909
 21
2826.8811320810282
 31
0.0
  0
LINE
  5
7DF2
  8
1
 10
1278.330891005992
 20
2668.8811320810291
 30
0.0
 11
1278.330891005992
 21
2406.8811320810291
 31
0.0
  0
LINE
  5
7DF3
  8
1
 10
1059.3308910059909
 20
2424.8811320810269
 30
0.0
 11
1278.330891005992
 21
2424.8811320810269
 31
0.0
  0
LINE
  5
7DF4
  8
1
 10
1342.8308910059909
 20
2396.8811320810282
 30
0.0
 11
1342.8308910059909
 21
2406.8811320810291
 31
0.0
  0
LINE
  5
7DF5
  8
1
 10
1480.330891005992
 20
2668.8811320810291
 30
0.0
 11
1480.330891005992
 21
2406.8811320810291
 31
0.0
  0
LINE
  5
7DF6
  8
1
 10
1416.8308910059909
 20
2397.8811320810282
 30
0.0
 11
1416.8308910059909
 21
2405.8811320810291
 31
0.0
  0
ARC
  5
7DF7
  8
1
 10
1415.830891005992
 20
2397.881232081028
 30
0.0
 40
1.0000999999999991
 50
270.0
 51
359.99650000000003
  0
ARC
  5
7DF8
  8
1
 10
1417.830891005992
 20
2405.8811320810291
 30
0.0
 40
1.0000999999999991
 50
90.0
 51
179.9965
  0
LINE
  5
7DF9
  8
1
 10
1519.330891005992
 20
2403.8811320810282
 30
0.0
 11
1519.330891005992
 21
2424.8811320810269
 31
0.0
  0
LINE
  5
7DFA
  8
1
 10
1480.330891005992
 20
2424.8811320810269
 30
0.0
 11
1519.3308910059909
 21
2424.8811320810269
 31
0.0
  0
LINE
  5
7DFB
  8
1
 10
1519.330891005993
 20
2724.8811320810282
 30
0.0
 11
1519.330891005993
 21
2764.8811320810282
 31
0.0
  0
POINT
  5
7DFC
  8
1
 10
1519.330891005993
 20
2764.8811320810282
 30
0.0
  0
LINE
  5
7DFD
  8
1
 10
1175.8957718866729
 20
2881.8811320810282
 30
0.0
 11
1175.8957718866729
 21
3117.8811320810282
 31
0.0
  0
LINE
  5
7DFE
  8
1
 10
1039.33089100599
 20
3117.8811320810282
 30
0.0
 11
1039.3308910059891
 21
3164.8811320810282
 31
0.0
  0
LINE
  5
7DFF
  8
1
 10
1079.3308910059909
 20
3117.8811320810282
 30
0.0
 11
1079.3308910059909
 21
3164.8811320810282
 31
0.0
  0
LINE
  5
7E00
  8
1
 10
1079.3308910059909
 20
3164.8811320810282
 30
0.0
 11
1039.3308910059891
 21
3164.8811320810282
 31
0.0
  0
POINT
  5
7E01
  8
1
 10
1079.3308910059909
 20
3164.8811320810282
 30
0.0
  0
DIMENSION
  5
7E03
  8
3
  2
*D16
 10
2860.111370597067
 20
1321.3681393497741
 30
0.0
 11
2822.611370597067
 21
1478.8681393497741
 31
0.0
 70
     0
 13
2732.9313990545802
 23
1636.3681393497741
 33
0.0
 14
2732.9313990545802
 24
1321.3681393497741
 34
0.0
 50
90.0
1001
ACAD
1000
DSTYLE
1002
{
1070
   287
1070
     3
1070
     3
1000
φ<>
1070
    40
1040
15.0
1070
   143
1040
0.039
1070
   172
1070
     1
1070
   271
1070
     0
1070
   279
1070
     0
1070
   288
1070
     1
1002
}
  0
LINE
  5
7E06
  8
1
 10
2704.9313990545802
 20
1501.4793090248179
 30
0.0
 11
2704.9313990545802
 21
1252.909235121944
 31
0.0
  0
LINE
  5
7E07
  8
1
 10
2468.9313990545802
 20
1501.4793090248179
 30
0.0
 11
2468.9313990545802
 21
1252.909235121944
 31
0.0
  0
LINE
  5
7E08
  8
1
 10
2710.9313990545802
 20
1476.4793090248179
 30
0.0
 11
2710.9313990545802
 21
1314.3681393497741
 31
0.0
  0
LINE
  5
7E09
  8
1
 10
2707.9313990545788
 20
1296.3681393497741
 30
0.0
 11
2707.9313990545788
 21
1476.4793090248179
 31
0.0
  0
LINE
  5
7E0A
  8
1
 10
2732.9313990545802
 20
1321.3681393497741
 30
0.0
 11
2732.9313990545802
 21
1637.3681661139999
 31
0.0
  0
LINE
  5
7E0B
  8
2
 10
2586.9313990545788
 20
1976.588498841425
 30
0.0
 11
2586.9313990545788
 21
968.36631007896312
 31
0.0
  0
DIMENSION
  5
7E0C
  8
3
  2
*D17
 10
2751.9313990545788
 20
899.11770233628647
 30
0.0
 11
2669.4313990545788
 21
936.25445138709608
 31
0.0
 12
0.0
 22
-59.0
 32
0.0
 70
   128
 13
2586.9313990545788
 23
968.36631007896312
 33
0.0
 14
2751.9313990545788
 24
993.86813934977408
 34
0.0
1001
ACAD
1000
DSTYLE
1002
{
1070
   288
1070
     1
1070
   172
1070
     1
1070
    40
1040
15.0
1070
   271
1070
     0
1070
   143
1040
0.039
1002
}
  0
POLYLINE
  5
7E0D
  8
1
 66
     1
 10
0.0
 20
0.0
 30
0.0
  0
VERTEX
  5
84D4
  8
1
 10
2711.9313990545788
 20
1253.909235121946
 30
0.0
  0
VERTEX
  5
84D5
  8
1
 10
2711.9313990545788
 20
1248.409235121946
 30
0.0
 42
0.4142135623730951
  0
VERTEX
  5
84D6
  8
1
 10
2716.4313990545788
 20
1243.909235121946
 30
0.0
  0
VERTEX
  5
84D7
  8
1
 10
2743.9313990545788
 20
1243.909235121946
 30
0.0
 42
-0.4142135623730951
  0
VERTEX
  5
84D8
  8
1
 10
2746.9313990545802
 20
1240.909235121946
 30
0.0
  0
VERTEX
  5
84D9
  8
1
 10
2746.9313990545802
 20
1238.909235121946
 30
0.0
  0
VERTEX
  5
84DA
  8
1
 10
2706.9313990545802
 20
1238.909235121946
 30
0.0
  0
SEQEND
  5
84DB
  8
1
  0
LINE
  5
7E16
  8
1
 10
2730.9313990545802
 20
1318.3681393497741
 30
0.0
 11
2714.9313990545802
 21
1318.3681393497741
 31
0.0
  0
LINE
  5
7E17
  8
1
 10
2466.9313990545802
 20
1252.909235121944
 30
0.0
 11
2704.9313990545788
 21
1252.909235121944
 31
0.0
  0
LINE
  5
7E18
  8
1
 10
2403.9313990545788
 20
1420.7681393497739
 30
0.0
 11
2403.9313990545788
 21
1238.8681393497729
 31
0.0
  0
POLYLINE
  5
7E19
  8
1
 66
     1
 10
0.0
 20
0.0
 30
0.0
 70
     1
  0
VERTEX
  5
84DC
  8
1
 10
2466.9313990545802
 20
1238.909235121946
 30
0.0
  0
VERTEX
  5
84DD
  8
1
 10
2466.9313990545802
 20
1278.909235121946
 30
0.0
  0
VERTEX
  5
84DE
  8
1
 10
2464.9313990545802
 20
1278.909235121946
 30
0.0
 42
0.4142135623730951
  0
VERTEX
  5
84DF
  8
1
 10
2461.9313990545788
 20
1275.909235121946
 30
0.0
  0
VERTEX
  5
84E0
  8
1
 10
2461.9313990545788
 20
1248.409235121946
 30
0.0
 42
-0.4142135623730951
  0
VERTEX
  5
84E1
  8
1
 10
2457.4313990545788
 20
1243.909235121946
 30
0.0
  0
VERTEX
  5
84E2
  8
1
 10
2429.9313990545788
 20
1243.909235121946
 30
0.0
 42
0.4142135623730951
  0
VERTEX
  5
84E3
  8
1
 10
2426.9313990545788
 20
1240.909235121946
 30
0.0
  0
VERTEX
  5
84E4
  8
1
 10
2426.9313990545788
 20
1238.909235121946
 30
0.0
  0
SEQEND
  5
84E5
  8
1
  0
LINE
  5
7E25
  8
1
 10
2416.9313990545788
 20
1382.0681393497739
 30
0.0
 11
2468.9313990545802
 21
1382.0681393497739
 31
0.0
  0
LINE
  5
7E26
  8
1
 10
2416.9313990545788
 20
1376.0681393497739
 30
0.0
 11
2468.9313990545802
 21
1376.0681393497739
 31
0.0
  0
POLYLINE
  5
7E27
  8
1
 66
     1
 10
0.0
 20
0.0
 30
0.0
 70
     1
  0
VERTEX
  5
84E6
  8
1
 10
2403.9313990545788
 20
1382.0681393497739
 30
0.0
  0
VERTEX
  5
84E7
  8
1
 10
2403.9313990545788
 20
1422.0681393497739
 30
0.0
  0
VERTEX
  5
84E8
  8
1
 10
2405.9313990545779
 20
1422.0681393497739
 30
0.0
 42
-0.4142135623730951
  0
VERTEX
  5
84E9
  8
1
 10
2408.9313990545788
 20
1419.068139349773
 30
0.0
  0
VERTEX
  5
84EA
  8
1
 10
2408.9313990545788
 20
1391.568139349773
 30
0.0
 42
0.4142135623730951
  0
VERTEX
  5
84EB
  8
1
 10
2413.4313990545779
 20
1387.068139349773
 30
0.0
  0
VERTEX
  5
84EC
  8
1
 10
2440.9313990545788
 20
1387.068139349773
 30
0.0
 42
-0.4142135623730951
  0
VERTEX
  5
84ED
  8
1
 10
2443.9313990545779
 20
1384.0681393497739
 30
0.0
  0
VERTEX
  5
84EE
  8
1
 10
2443.9313990545779
 20
1382.0681393497739
 30
0.0
  0
SEQEND
  5
84EF
  8
1
  0
LINE
  5
7E32
  8
1
 10
2403.9313990545788
 20
1420.7681393497739
 30
0.0
 11
2403.9313990545788
 21
1370.7681393497739
 31
0.0
  0
LINE
  5
7E33
  8
1
 10
2403.9313990545788
 20
1420.7681393497751
 30
0.0
 11
2403.9313990545788
 21
1380.7681393497751
 31
0.0
  0
LINE
  5
7E34
  8
1
 10
2416.9313990545788
 20
1376.0681393497739
 30
0.0
 11
2416.9313990545788
 21
1380.7681393497739
 31
0.0
  0
LINE
  5
7E35
  8
1
 10
2416.9313990545788
 20
1382.0681393497739
 30
0.0
 11
2416.9313990545788
 21
1376.0681393497739
 31
0.0
  0
LINE
  5
7E36
  8
1
 10
2413.9313990545779
 20
1425.2681393497739
 30
0.0
 11
2413.931399054577
 21
1422.0681393497739
 31
0.0
  0
POLYLINE
  5
7E37
  8
1
 66
     1
 10
0.0
 20
0.0
 30
0.0
  0
VERTEX
  5
84F0
  8
1
 10
2706.9313990545802
 20
1253.909235121946
 30
0.0
  0
VERTEX
  5
84F1
  8
1
 10
2706.9313990545802
 20
1278.909235121946
 30
0.0
  0
VERTEX
  5
84F2
  8
1
 10
2708.9313990545788
 20
1278.909235121946
 30
0.0
 42
-0.4142135623730951
  0
VERTEX
  5
84F3
  8
1
 10
2711.9313990545788
 20
1275.909235121946
 30
0.0
  0
VERTEX
  5
84F4
  8
1
 10
2711.9313990545788
 20
1253.909235121946
 30
0.0
 42
0.4142135623730951
  0
SEQEND
  5
84F5
  8
1
  0
POLYLINE
  5
7E3E
  8
1
 66
     1
 10
0.0
 20
0.0
 30
0.0
  0
VERTEX
  5
84F6
  8
1
 10
2706.9313990545802
 20
1238.909235121946
 30
0.0
  0
VERTEX
  5
84F7
  8
1
 10
2706.9313990545802
 20
1253.909235121946
 30
0.0
  0
SEQEND
  5
84F8
  8
1
  0
LINE
  5
7E43
  8
1
 10
2708.9313990545788
 20
1296.3681393497741
 30
0.0
 11
2707.9313990545788
 21
1296.3681393497741
 31
0.0
  0
ARC
  5
7E44
  8
1
 10
2708.9313990545788
 20
1298.3681393497741
 30
0.0
 40
2.0
 50
270.0
 51
0.0
  0
LINE
  5
7E45
  8
1
 10
2710.9313990545802
 20
1314.3681393497741
 30
0.0
 11
2710.9313990545802
 21
1298.3681393497741
 31
0.0
  0
ARC
  5
7E46
  8
1
 10
2714.9313990545802
 20
1314.3681393497741
 30
0.0
 40
4.0
 50
90.0
 51
180.0
  0
LINE
  5
7E47
  8
1
 10
2751.9313990545788
 20
1238.8681393497729
 30
0.0
 11
2751.9313990545788
 21
1163.8681393497729
 31
0.0
  0
LINE
  5
7E48
  8
1
 10
2751.9313990545788
 20
1068.8681393497729
 30
0.0
 11
2751.9313990545788
 21
993.86813934977363
 31
0.0
  0
ARC
  5
7E49
  8
1
 10
2730.9313990545802
 20
1320.3681393497741
 30
0.0
 40
2.0
 50
270.0
 51
0.0
  0
LINE
  5
7E4A
  8
1
 10
2732.9313990545802
 20
1321.3681393497741
 30
0.0
 11
2732.9313990545802
 21
1320.3681393497741
 31
0.0
  0
DIMENSION
  5
7E4B
  8
3
  2
*D18
 10
2707.9313990545788
 20
2070.5540317476748
 30
0.0
 11
2647.4313990545802
 21
2111.3477734896328
 31
0.0
 70
   128
 13
2586.9313990545788
 23
2027.9414135886859
 33
0.0
 14
2707.9313990545788
 24
1476.4793090248179
 34
0.0
1001
ACAD
1000
DSTYLE
1002
{
1070
   288
1070
     1
1070
   172
1070
     1
1070
    40
1040
15.0
1070
   271
1070
     0
1070
   143
1040
0.039
1002
}
  0
DIMENSION
  5
7E4C
  8
3
  2
*D19
 10
2704.9313990545788
 20
1962.0312831391341
 30
0.0
 11
2586.9313990545788
 21
1999.5312831391341
 31
0.0
 70
     0
 13
2468.9313990545802
 23
1831.4793090248179
 33
0.0
 14
2704.9313990545788
 24
1831.4793090248179
 34
0.0
1001
ACAD
1000
DSTYLE
1002
{
1070
   287
1070
     3
1070
    40
1040
15.0
1070
   143
1040
0.039
1070
   172
1070
     1
1070
   271
1070
     0
1070
   279
1070
     0
1070
   288
1070
     1
1002
}
  0
LINE
  5
7E4D
  8
1
 10
2704.9313990545811
 20
1476.4793090248179
 30
0.0
 11
2731.9313990545788
 21
1476.4793090248179
 31
0.0
  0
LINE
  5
7E4E
  8
1
 10
2441.9313990545788
 20
1856.4793090248179
 30
0.0
 11
2731.9313990545788
 21
1856.4793090248179
 31
0.0
  0
LINE
  5
7E4F
  8
1
 10
2468.9313990545802
 20
1831.4793090248179
 30
0.0
 11
2468.9313990545802
 21
1501.4793090248179
 31
0.0
  0
LINE
  5
7E50
  8
1
 10
2704.9313990545788
 20
1831.4793090248179
 30
0.0
 11
2704.9313990545788
 21
1501.4793090248179
 31
0.0
  0
LINE
  5
7E53
  8
1
 10
2441.9313990545788
 20
1856.4793090248179
 30
0.0
 11
2441.9313990545788
 21
1476.4793090248179
 31
0.0
  0
LINE
  5
7E54
  8
1
 10
2441.9313990545788
 20
1476.4793090248179
 30
0.0
 11
2468.9313990545802
 21
1476.4793090248179
 31
0.0
  0
LINE
  5
7E55
  8
1
 10
2468.9313990545802
 20
1461.3681393497741
 30
0.0
 11
2255.9313990545802
 21
1461.3681393497741
 31
0.0
  0
LINE
  5
7E57
  8
1
 10
2441.9313990545788
 20
1496.3681393497741
 30
0.0
 11
1978.9313990545791
 21
1496.3681393497741
 31
0.0
  0
LINE
  5
7E5A
  8
1
 10
2468.9313990545802
 20
1831.4793090248179
 30
0.0
 11
2704.9313990545788
 21
1831.4793090248179
 31
0.0
  0
LINE
  5
7E5B
  8
1
 10
2731.9313990545788
 20
1856.4793090248179
 30
0.0
 11
2731.9313990545788
 21
1476.4793090248179
 31
0.0
  0
LINE
  5
7E5C
  8
1
 10
2732.9313990545802
 20
1637.3681661139999
 30
0.0
 11
2731.9313990545788
 21
1637.3681661139999
 31
0.0
  0
LINE
  5
8097
  8
4
 10
2775.0
 20
750.0
 30
0.0
 11
2775.0
 21
450.0
 31
0.0
  0
LINE
  5
8098
  8
4
 10
1725.0
 20
750.0
 30
0.0
 11
1725.0
 21
450.0
 31
0.0
  0
LINE
  5
8099
  8
4
 10
975.0
 20
750.0
 30
0.0
 11
975.0
 21
450.0
 31
0.0
  0
LINE
  5
809C
  8
4
 10
975.0
 20
450.0
 30
0.0
 11
2775.0
 21
450.0
 31
0.0
  0
LINE
  5
809D
  8
4
 10
975.0
 20
600.0
 30
0.0
 11
2775.0
 21
600.0
 31
0.0
  0
TEXT
  5
809E
  8
4
 10
1032.753121270352
 20
647.31453879991932
 30
0.0
 40
75.0
  1
機器名称
  0
TEXT
  5
809F
  8
4
 10
1029.3871590371959
 20
482.46773509801642
 30
0.0
 40
75.0
  1
機器型番
  0
TEXT
  5
80A0
  8
4
 10
1732.189592551566
 20
633.28095353542062
 30
0.0
 40
67.5
  1
ミツヤリミットロードファン
  0
TEXT
  5
80A1
  8
4
 10
1779.9817433782209
 20
475.739376419915
 30
0.0
 40
75.0
  1
LL#2-1
  0
TEXT
  5
80A3
  8
4
 10
1178.7676984045499
 20
3575.1432619987731
 30
0.0
 40
80.999999999999986
  1
床置防振ベット
  0
TEXT
  5
80A4
  8
4
 10
474.25138999416959
 20
3800.8214642989469
 30
0.0
 40
108.0
  1
遠心式片吸込片持リミットロードファン
  0
LINE
  5
80A5
  8
4
 10
375.0
 20
3704.1131313972069
 30
0.0
 11
2775.0
 21
3704.1131313972069
 31
0.0
  0
LINE
  5
80A6
  8
4
 10
375.0
 20
4004.1131313972069
 30
0.0
 11
2775.0
 21
4004.1131313972069
 31
0.0
  0
LINE
  5
80A7
  8
4
 10
975.0
 20
750.0
 30
0.0
 11
2775.0
 21
750.0
 31
0.0
  0
LINE
  5
80A8
  8
4
 10
375.0
 20
4004.1131313972069
 30
0.0
 11
375.0
 21
3704.1131313972069
 31
0.0
  0
TEXT
  5
80A9
  8
4
 10
524.97945004049677
 20
3573.4792163195152
 30
0.0
 40
80.999999999999986
  1
左回転左横向
  0
TEXT
  5
80AA
  8
4
 10
2203.4543388739339
 20
4059.0916222429628
 30
0.0
 40
84.000000000000014
  1
No.
  0
TEXT
  5
80AB
  8
4
 10
1966.944093900019
 20
3575.1432619987731
 30
0.0
 40
80.999999999999986
  1
縮尺：1/15
  0
LINE
  5
80AC
  8
4
 10
2775.0
 20
4004.1131313972069
 30
0.0
 11
2775.0
 21
3704.1131313972069
 31
0.0
  0
LINE
  5
80AD
  8
4
 10
3150.0
 20
4425.0
 30
0.0
 11
3150.0
 21
4425.0
 31
0.0
  0
LINE
  5
80AE
  8
4
 10
2160.9261335397969
 20
4021.895374688102
 30
0.0
 11
2160.9261335397969
 21
4179.9783923246277
 31
0.0
  0
LINE
  5
80AF
  8
4
 10
2160.9261335397969
 20
4179.9783923246277
 30
0.0
 11
2775.0
 21
4179.9783923246277
 31
0.0
  0
LINE
  5
80B0
  8
4
 10
2775.0
 20
4179.9783923246277
 30
0.0
 11
2775.0
 21
4021.895374688102
 31
0.0
  0
LINE
  5
80B1
  8
4
 10
2775.0
 20
4021.895374688102
 30
0.0
 11
2160.9261335397969
 21
4021.895374688102
 31
0.0
  0
LINE
  5
80B2
  8
4
 10
0.0
 20
0.0
 30
0.0
 11
0.0
 21
4425.0
 31
0.0
  0
LINE
  5
80B3
  8
4
 10
0.0
 20
4425.0
 30
0.0
 11
3150.0
 21
4425.0
 31
0.0
  0
LINE
  5
80B4
  8
4
 10
3150.0
 20
4425.0
 30
0.0
 11
3150.0
 21
0.0
 31
0.0
  0
LINE
  5
80B5
  8
4
 10
3150.0
 20
0.0
 30
0.0
 11
0.0
 21
0.0
 31
0.0
  0
DIMENSION
  5
8207
  8
3
  2
*D21
 10
1519.3308910059909
 20
2053.7382031069019
 30
0.0
 11
1131.9688812218189
 21
2053.7382031069019
 31
0.0
 70
   128
 13
654.33089100599125
 23
1856.4793090248179
 33
0.0
 14
1519.3308910059909
 24
1238.8681393497741
 34
0.0
1001
ACAD
1000
DSTYLE
1002
{
1070
   287
1070
     3
1070
    40
1040
15.0
1070
   143
1040
0.039
1070
   172
1070
     1
1070
   271
1070
     0
1070
   279
1070
     0
1070
   288
1070
     1
1002
}
  0
LINE
  5
83A9
  8
1
 10
1990.9313990545791
 20
1261.3752052934101
 30
0.0
 11
1990.9313990545791
 21
1238.8681393497741
 31
0.0
  0
LINE
  5
83AE
  8
1
 10
916.83089100599125
 20
2826.8811320810282
 30
0.0
 11
1059.3308910059909
 21
2826.8811320810282
 31
0.0
  0
DIMENSION
  5
83C3
  8
3
  2
*D22
 10
317.99258470685351
 20
993.86813934977408
 30
0.0
 11
317.99258470685339
 21
1464.103142796409
 31
0.0
 70
   128
 13
655.33089100599136
 23
1854.8681393497741
 33
0.0
 14
719.33089100599182
 24
993.86813934977408
 34
0.0
 50
90.0
1001
ACAD
1000
DSTYLE
1002
{
1070
   287
1070
     3
1070
    40
1040
15.0
1070
   143
1040
0.039
1070
   172
1070
     1
1070
   271
1070
     0
1070
   279
1070
     0
1070
   288
1070
     1
1002
}
  0
DIMENSION
  5
83FE
  8
3
  2
*D23
 10
441.72652396959342
 20
1068.8681393497741
 30
0.0
 11
382.99696948241763
 21
1116.3681393497741
 31
0.0
 70
   128
  1
(<>)
 13
719.33089100599125
 23
1163.8681393497741
 33
0.0
 14
719.33089100599182
 24
1068.8681393497741
 34
0.0
 50
90.0
1001
ACAD
1000
DSTYLE
1002
{
1070
   288
1070
     1
1070
   172
1070
     1
1070
    75
1070
     1
1070
    40
1040
15.0
1070
   271
1070
     0
1070
     7
1000
_NONE
1070
     6
1000
_NONE
1070
   143
1040
0.039
1002
}
  0
ENDSEC
  0
EOF
