  0
SECTION
  2
HEADER
  9
$ACADVER
  1
AC1009
  9
$INSBASE
 10
0.0
 20
0.0
 30
0.0
  9
$EXTMIN
 10
0.0
 20
0.0
 30
0.0
  9
$EXTMAX
 10
3150.0
 20
4425.0
 30
0.0
  9
$LIMMIN
 10
0.0
 20
0.0
  9
$LIMMAX
 10
297.0
 20
210.0
  9
$ORTHOMODE
 70
     0
  9
$REGENMODE
 70
     1
  9
$FILLMODE
 70
     0
  9
$QTEXTMODE
 70
     0
  9
$MIRRTEXT
 70
     1
  9
$DRAGMODE
 70
     2
  9
$LTSCALE
 40
100.0
  9
$OSMODE
 70
    37
  9
$ATTMODE
 70
     1
  9
$TEXTSIZE
 40
180.0
  9
$TRACEWID
 40
0.05
  9
$TEXTSTYLE
  7
STANDARD
  9
$CLAYER
  8
4
  9
$CELTYPE
  6
BYLAYER
  9
$CECOLOR
 62
   256
  9
$DIMSCALE
 40
15.0
  9
$DIMASZ
 40
2.0
  9
$DIMEXO
 40
0.5
  9
$DIMDLI
 40
10.0
  9
$DIMRND
 40
0.0
  9
$DIMDLE
 40
0.0
  9
$DIMEXE
 40
1.0
  9
$DIMTP
 40
1.0
  9
$DIMTM
 40
1.0
  9
$DIMTXT
 40
3.0
  9
$DIMCEN
 40
0.0
  9
$DIMTSZ
 40
0.0
  9
$DIMTOL
 70
     0
  9
$DIMLIM
 70
     0
  9
$DIMTIH
 70
     0
  9
$DIMTOH
 70
     0
  9
$DIMSE1
 70
     0
  9
$DIMSE2
 70
     0
  9
$DIMTAD
 70
     1
  9
$DIMZIN
 70
     8
  9
$DIMBLK
  1

  9
$DIMASO
 70
     1
  9
$DIMSHO
 70
     1
  9
$DIMPOST
  1

  9
$DIMAPOST
  1

  9
$DIMALT
 70
     0
  9
$DIMALTD
 70
     2
  9
$DIMALTF
 40
0.039
  9
$DIMLFAC
 40
1.0
  9
$DIMTOFL
 70
     1
  9
$DIMTVP
 40
0.0
  9
$DIMTIX
 70
     0
  9
$DIMSOXD
 70
     0
  9
$DIMSAH
 70
     1
  9
$DIMBLK1
  1
OPEN
  9
$DIMBLK2
  1
OPEN
  9
$DIMSTYLE
  2
IGA
  9
$DIMCLRD
 70
     0
  9
$DIMCLRE
 70
     0
  9
$DIMCLRT
 70
     0
  9
$DIMTFAC
 40
10.0
  9
$DIMGAP
 40
1.0
  9
$LUNITS
 70
     2
  9
$LUPREC
 70
     3
  9
$SKETCHINC
 40
0.1
  9
$FILLETRAD
 40
50.0
  9
$AUNITS
 70
     0
  9
$AUPREC
 70
     0
  9
$MENU
  1
acad
  9
$ELEVATION
 40
0.0
  9
$PELEVATION
 40
0.0
  9
$THICKNESS
 40
0.0
  9
$LIMCHECK
 70
     0
  9
$BLIPMODE
 70
     0
  9
$CHAMFERA
 40
0.5
  9
$CHAMFERB
 40
0.5
  9
$SKPOLY
 70
     0
  9
$TDCREATE
 40
2451019.4849501159
  9
$TDUPDATE
 40
2454953.6381774419
  9
$TDINDWG
 40
0.0147674074
  9
$TDUSRTIMER
 40
0.0147674074
  9
$USRTIMER
 70
     1
  9
$ANGBASE
 50
0.0
  9
$ANGDIR
 70
     0
  9
$PDMODE
 70
     0
  9
$PDSIZE
 40
0.0
  9
$PLINEWID
 40
0.0
  9
$COORDS
 70
     1
  9
$SPLFRAME
 70
     0
  9
$SPLINETYPE
 70
     6
  9
$SPLINESEGS
 70
     8
  9
$ATTDIA
 70
     0
  9
$ATTREQ
 70
     1
  9
$HANDLING
 70
 10241
  9
$HANDSEED
  5
81E9
  9
$SURFTAB1
 70
     6
  9
$SURFTAB2
 70
     6
  9
$SURFTYPE
 70
     6
  9
$SURFU
 70
     6
  9
$SURFV
 70
     6
  9
$UCSNAME
  2

  9
$UCSORG
 10
0.0
 20
0.0
 30
0.0
  9
$UCSXDIR
 10
1.0
 20
0.0
 30
0.0
  9
$UCSYDIR
 10
0.0
 20
1.0
 30
0.0
  9
$PUCSNAME
  2

  9
$PUCSORG
 10
0.0
 20
0.0
 30
0.0
  9
$PUCSXDIR
 10
1.0
 20
0.0
 30
0.0
  9
$PUCSYDIR
 10
0.0
 20
1.0
 30
0.0
  9
$USERI1
 70
     0
  9
$USERI2
 70
     0
  9
$USERI3
 70
     0
  9
$USERI4
 70
     0
  9
$USERI5
 70
     0
  9
$USERR1
 40
0.0
  9
$USERR2
 40
0.0
  9
$USERR3
 40
0.0
  9
$USERR4
 40
0.0
  9
$USERR5
 40
0.0
  9
$WORLDVIEW
 70
     1
  9
$SHADEDGE
 70
     3
  9
$SHADEDIF
 70
    70
  9
$TILEMODE
 70
     1
  9
$MAXACTVP
 70
    16
  9
$PLIMCHECK
 70
     0
  9
$PEXTMIN
 10
1.0000000000000000E+020
 20
1.0000000000000000E+020
 30
1.0000000000000000E+020
  9
$PEXTMAX
 10
-1.0000000000000000E+020
 20
-1.0000000000000000E+020
 30
-1.0000000000000000E+020
  9
$PLIMMIN
 10
0.0
 20
0.0
  9
$PLIMMAX
 10
12.0
 20
9.0
  9
$UNITMODE
 70
     0
  9
$VISRETAIN
 70
     0
  9
$PLINEGEN
 70
     0
  9
$PSLTSCALE
 70
     1
  0
ENDSEC
  0
SECTION
  2
TABLES
  0
TABLE
  2
VPORT
 70
     2
  0
VPORT
  2
*ACTIVE
 70
     0
 10
0.0
 20
0.0
 11
1.0
 21
1.0
 12
2998.1938886353059
 22
526.74829522551954
 13
0.0
 23
0.0
 14
10.0
 24
10.0
 15
10.0
 25
10.0
 16
0.0
 26
0.0
 36
1.0
 17
0.0
 27
0.0
 37
0.0
 40
1355.0486860921769
 41
3.1666666666666661
 42
50.0
 43
0.0
 44
0.0
 50
0.0
 51
0.0
 71
     0
 72
   100
 73
     1
 74
     0
 75
     0
 76
     0
 77
     0
 78
     0
  0
ENDTAB
  0
TABLE
  2
LTYPE
 70
     2
  0
LTYPE
  2
CONTINUOUS
 70
     0
  3
Solid line
 72
    65
 73
     0
 40
0.0
  0
LTYPE
  2
CENTER
 70
     0
  3
____ _ ____ _ ____ _ ____ _ ____ _ ____ _ ____ 
 72
    65
 73
     4
 40
2.0
 49
1.25
 49
-0.25
 49
0.25
 49
-0.25
  0
ENDTAB
  0
TABLE
  2
LAYER
 70
     6
  0
LAYER
  2
0
 70
     0
 62
     7
  6
CONTINUOUS
  0
LAYER
  2
3
 70
     0
 62
     2
  6
CONTINUOUS
  0
LAYER
  2
2
 70
     0
 62
     3
  6
CENTER
  0
LAYER
  2
1
 70
     0
 62
     4
  6
CONTINUOUS
  0
LAYER
  2
4
 70
     0
 62
     7
  6
CONTINUOUS
  0
LAYER
  2
DEFPOINTS
 70
     0
 62
     7
  6
CONTINUOUS
  0
ENDTAB
  0
TABLE
  2
STYLE
 70
     1
  0
STYLE
  2
STANDARD
 70
     0
 40
0.0
 41
1.0
 50
0.0
 71
     0
 42
180.0
  3
simplex.shx
  4
extfont.shx
  0
ENDTAB
  0
TABLE
  2
VIEW
 70
     0
  0
ENDTAB
  0
TABLE
  2
UCS
 70
     0
  0
ENDTAB
  0
TABLE
  2
APPID
 70
     1
  0
APPID
  2
ACAD
 70
     0
  0
ENDTAB
  0
TABLE
  2
DIMSTYLE
 70
     2
  0
DIMSTYLE
  2
IGA
 70
     0
  3

  4

  5

  6
OPEN
  7
OPEN
 40
2.0
 41
2.0
 42
0.5
 43
10.0
 44
1.0
 45
0.0
 46
0.0
 47
1.0
 48
1.0
140
3.0
141
0.0
142
0.0
143
0.03937
144
1.0
145
0.0
146
10.0
147
1.0
 71
     0
 72
     0
 73
     0
 74
     0
 75
     0
 76
     0
 77
     1
 78
     8
170
     0
171
     2
172
     0
173
     1
174
     0
175
     0
176
     0
177
     0
178
     0
  0
DIMSTYLE
  2
DIA1
 70
     0
  3

  4

  5
ARROW
  6

  7

 40
1.0
 41
2.0
 42
1.0
 43
10.0
 44
1.0
 45
0.0
 46
0.0
 47
0.0
 48
0.0
140
2.5
141
0.0
142
0.0
143
25.399999999999999
144
1.0
145
0.0
146
1.0
147
0.09
 71
     0
 72
     0
 73
     0
 74
     0
 75
     0
 76
     0
 77
     1
 78
     8
170
     0
171
     2
172
     1
173
     0
174
     0
175
     0
176
     2
177
     2
178
     2
  0
ENDTAB
  0
ENDSEC
  0
SECTION
  2
BLOCKS
  0
BLOCK
  8
0
  2
$MODEL_SPACE
 70
     0
 10
0.0
 20
0.0
 30
0.0
  3
$MODEL_SPACE
  1

  0
ENDBLK
  5
1B
  8
0
  0
BLOCK
 67
     1
  8
0
  2
$PAPER_SPACE
 70
     0
 10
0.0
 20
0.0
 30
0.0
  3
$PAPER_SPACE
  1

  0
ENDBLK
  5
18
 67
     1
  8
0
  0
BLOCK
  8
0
  2
YA_N
 70
     0
 10
0.0
 20
0.0
 30
0.0
  3
YA_N
  1

  0
ENDBLK
  5
79FE
  8
0
  0
BLOCK
  8
0
  2
ARROW
 70
     0
 10
0.0
 20
0.0
 30
0.0
  3
ARROW
  1

  0
LINE
  5
7A00
  8
0
 10
-0.9999999999999991
 20
0.1666666667000003
 30
0.0
 11
0.0
 21
0.0
 31
0.0
  0
LINE
  5
7A01
  8
0
 10
-0.9999999999999991
 20
0.0
 30
0.0
 11
0.0
 21
0.0
 31
0.0
  0
LINE
  5
7A02
  8
0
 10
-0.9999999999999991
 20
-0.1666666667000003
 30
0.0
 11
0.0
 21
0.0
 31
0.0
  0
ENDBLK
  5
7A04
  8
0
  0
BLOCK
  8
0
  2
_OPEN
 70
     0
 10
0.0
 20
0.0
 30
0.0
  3
_OPEN
  1

  0
LINE
  5
7A12
  8
0
  6
BYBLOCK
 62
     0
 10
-1.0
 20
0.1666666666666666
 30
0.0
 11
0.0
 21
0.0
 31
0.0
  0
LINE
  5
7A13
  8
0
  6
BYBLOCK
 62
     0
 10
0.0
 20
0.0
 30
0.0
 11
-1.0
 21
-0.1666666666666666
 31
0.0
  0
LINE
  5
7A14
  8
0
  6
BYBLOCK
 62
     0
 10
0.0
 20
0.0
 30
0.0
 11
-1.0
 21
0.0
 31
0.0
  0
ENDBLK
  5
7A16
  8
0
  0
BLOCK
  8
0
  2
*D3
 70
     1
 10
0.0
 20
0.0
 30
0.0
  3
*D3
  1

  0
LINE
  5
80C4
  8
3
 62
     2
 10
2703.5877467388941
 20
1989.1780613346029
 30
0.0
 11
2703.5877467388941
 21
2155.9731539415639
 31
0.0
  0
LINE
  5
80C5
  8
3
 62
     2
 10
2015.5877467388941
 20
1672.575078662408
 30
0.0
 11
2015.5877467388941
 21
2155.9731539415639
 31
0.0
  0
LINE
  5
80C6
  8
3
 62
     2
 10
2673.5877467388941
 20
2140.9731539415639
 30
0.0
 11
2045.5877467388941
 21
2140.9731539415639
 31
0.0
  0
INSERT
  5
80C7
  8
3
 62
     2
  2
ARROW
 10
2703.5877467388941
 20
2140.9731539415639
 30
0.0
 41
30.0
 42
30.0
 43
30.0
  0
INSERT
  5
80C8
  8
3
 62
     2
  2
ARROW
 10
2015.5877467388941
 20
2140.9731539415639
 30
0.0
 41
30.0
 42
30.0
 43
30.0
 50
180.0
  0
TEXT
  8
3
  40
37.5
  5
81D3
  62
2
  72
0
  71
0
 10
2284.59
 20
2115.85
 30
0.000000
  1
688
  0
POINT
  5
80CA
  8
DEFPOINTS
 62
     0
 10
2703.5877467388941
 20
1974.178061334602
 30
0.0
  0
POINT
  5
80CB
  8
DEFPOINTS
 62
     0
 10
2015.5877467388941
 20
1657.575078662408
 30
0.0
  0
POINT
  5
80CC
  8
DEFPOINTS
 62
     0
 10
2015.5877467388941
 20
2140.9731539415639
 30
0.0
  0
ENDBLK
  5
7F93
  8
0
  0
BLOCK
  8
0
  2
*D4
 70
     1
 10
0.0
 20
0.0
 30
0.0
  3
*D4
  1

  0
LINE
  5
80CD
  8
3
 62
     2
 10
2088.5877467388941
 20
1116.575078662408
 30
0.0
 11
2088.5877467388941
 21
960.21353235295726
 31
0.0
  0
LINE
  5
80CE
  8
3
 62
     2
 10
2703.5877467388941
 20
1091.0732493915971
 30
0.0
 11
2703.5877467388941
 21
960.21353235295726
 31
0.0
  0
LINE
  5
80CF
  8
3
 62
     2
 10
2118.5877467388941
 20
975.21353235295726
 30
0.0
 11
2673.5877467388941
 21
975.21353235295726
 31
0.0
  0
INSERT
  5
80D0
  8
3
 62
     2
  2
ARROW
 10
2088.5877467388941
 20
975.21353235295726
 30
0.0
 41
30.0
 42
30.0
 43
30.0
 50
180.0
  0
INSERT
  5
80D1
  8
3
 62
     2
  2
ARROW
 10
2703.5877467388941
 20
975.21353235295726
 30
0.0
 41
30.0
 42
30.0
 43
30.0
  0
TEXT
  8
3
  40
37.5
  5
81D4
  62
2
  72
0
  71
0
 10
2321.09
 20
950.089
 30
0.000000
  1
615
  0
POINT
  5
80D3
  8
DEFPOINTS
 62
     0
 10
2088.5877467388941
 20
1131.575078662408
 30
0.0
  0
POINT
  5
80D4
  8
DEFPOINTS
 62
     0
 10
2703.5877467388941
 20
1106.0732493915971
 30
0.0
  0
POINT
  5
80D5
  8
DEFPOINTS
 62
     0
 10
2703.5877467388941
 20
975.21353235295726
 30
0.0
  0
ENDBLK
  5
7F9E
  8
0
  0
BLOCK
  8
0
  2
*D5
 70
     1
 10
0.0
 20
0.0
 30
0.0
  3
*D5
  1

  0
LINE
  5
80E0
  8
3
 62
     2
 10
1361.902951880732
 20
2448.5880713936622
 30
0.0
 11
1361.902951880732
 21
2280.2769305864572
 31
0.0
  0
LINE
  5
80E1
  8
3
 62
     2
 10
561.90295188073208
 20
2467.5880713936631
 30
0.0
 11
561.90295188073208
 21
2280.2769305864572
 31
0.0
  0
LINE
  5
80E2
  8
3
 62
     2
 10
1331.9029518807311
 20
2295.2769305864572
 30
0.0
 11
591.90295188073208
 21
2295.2769305864572
 31
0.0
  0
INSERT
  5
80E3
  8
3
 62
     2
  2
ARROW
 10
1361.902951880732
 20
2295.2769305864572
 30
0.0
 41
30.0
 42
30.0
 43
30.0
  0
INSERT
  5
80E4
  8
3
 62
     2
  2
ARROW
 10
561.90295188073208
 20
2295.2769305864572
 30
0.0
 41
30.0
 42
30.0
 43
30.0
 50
180.0
  0
TEXT
  8
3
  40
37.5
  5
81D5
  62
2
  72
0
  71
0
 10
886.903
 20
2270.15
 30
0.000000
  1
800
  0
POINT
  5
80E6
  8
DEFPOINTS
 62
     0
 10
1361.902951880732
 20
2463.5880713936622
 30
0.0
  0
POINT
  5
80E7
  8
DEFPOINTS
 62
     0
 10
561.90295188073208
 20
2482.5880713936622
 30
0.0
  0
POINT
  5
80E8
  8
DEFPOINTS
 62
     0
 10
561.90295188073208
 20
2295.2769305864572
 30
0.0
  0
ENDBLK
  5
7FA9
  8
0
  0
BLOCK
  8
0
  2
*D6
 70
     1
 10
0.0
 20
0.0
 30
0.0
  3
*D6
  1

  0
LINE
  5
80E9
  8
3
 62
     2
 10
1376.902951880732
 20
2463.5880713936622
 30
0.0
 11
1514.333433889529
 21
2463.5880713936622
 31
0.0
  0
LINE
  5
80EA
  8
3
 62
     2
 10
1376.902951880732
 20
3243.5880713936622
 30
0.0
 11
1514.333433889529
 21
3243.5880713936622
 31
0.0
  0
LINE
  5
80EB
  8
3
 62
     2
 10
1499.333433889529
 20
2493.5880713936622
 30
0.0
 11
1499.333433889529
 21
3213.5880713936631
 31
0.0
  0
INSERT
  5
80EC
  8
3
 62
     2
  2
ARROW
 10
1499.333433889529
 20
2463.5880713936622
 30
0.0
 41
30.0
 42
30.0
 43
30.0
 50
270.0
  0
INSERT
  5
80ED
  8
3
 62
     2
  2
ARROW
 10
1499.333433889529
 20
3243.5880713936622
 30
0.0
 41
30.0
 42
30.0
 43
30.0
 50
90.0
  0
TEXT
  8
3
  40
37.5
  5
81D6
  62
2
  72
0
  71
0
 10
1383.08
 20
2787.21
 30
0.000000
  1
780
  0
POINT
  5
80EF
  8
DEFPOINTS
 62
     0
 10
1361.902951880732
 20
2463.5880713936622
 30
0.0
  0
POINT
  5
80F0
  8
DEFPOINTS
 62
     0
 10
1361.9029518807331
 20
3243.5880713936622
 30
0.0
  0
POINT
  5
80F1
  8
DEFPOINTS
 62
     0
 10
1499.333433889529
 20
3243.5880713936622
 30
0.0
  0
ENDBLK
  5
7FB4
  8
0
  0
BLOCK
  8
0
  2
*D7
 70
     1
 10
0.0
 20
0.0
 30
0.0
  3
*D7
  1

  0
LINE
  5
80F2
  8
3
 62
     2
 10
546.90295188073276
 20
2463.5880713936622
 30
0.0
 11
413.75667327528021
 21
2463.5880713936622
 31
0.0
  0
LINE
  5
80F3
  8
3
 62
     2
 10
546.90295188073105
 20
2843.5880713936622
 30
0.0
 11
413.75667327528021
 21
2843.5880713936622
 31
0.0
  0
LINE
  5
80F4
  8
3
 62
     2
 10
428.75667327528021
 20
2493.5880713936622
 30
0.0
 11
428.75667327528021
 21
2813.5880713936622
 31
0.0
  0
INSERT
  5
80F5
  8
3
 62
     2
  2
ARROW
 10
428.75667327528021
 20
2463.5880713936622
 30
0.0
 41
30.0
 42
30.0
 43
30.0
 50
270.0
  0
INSERT
  5
80F6
  8
3
 62
     2
  2
ARROW
 10
428.75667327528021
 20
2843.5880713936622
 30
0.0
 41
30.0
 42
30.0
 43
30.0
 50
90.0
  0
TEXT
  8
3
  40
37.5
  5
81D7
  62
2
  72
0
  71
0
 10
312.507
 20
2587.21
 30
0.000000
  1
380
  0
POINT
  5
80F8
  8
DEFPOINTS
 62
     0
 10
561.90295188073276
 20
2463.5880713936622
 30
0.0
  0
POINT
  5
80F9
  8
DEFPOINTS
 62
     0
 10
561.90295188073105
 20
2843.5880713936622
 30
0.0
  0
POINT
  5
80FA
  8
DEFPOINTS
 62
     0
 10
428.75667327528021
 20
2843.5880713936622
 30
0.0
  0
ENDBLK
  5
7FBF
  8
0
  0
BLOCK
  8
0
  2
*D8
 70
     1
 10
0.0
 20
0.0
 30
0.0
  3
*D8
  1

  0
LINE
  5
80FB
  8
3
 62
     2
 10
1426.9029518807331
 20
1950.1862483374521
 30
0.0
 11
1426.9029518807331
 21
2157.3645837547451
 31
0.0
  0
LINE
  5
80FC
  8
3
 62
     2
 10
551.90295188073276
 20
1362.575078662408
 30
0.0
 11
551.90295188073276
 21
2157.3645837547451
 31
0.0
  0
LINE
  5
80FD
  8
3
 62
     2
 10
1396.902951880732
 20
2142.364583754746
 30
0.0
 11
581.90295188073287
 21
2142.364583754746
 31
0.0
  0
INSERT
  5
80FE
  8
3
 62
     2
  2
ARROW
 10
1426.9029518807331
 20
2142.364583754746
 30
0.0
 41
30.0
 42
30.0
 43
30.0
  0
INSERT
  5
80FF
  8
3
 62
     2
  2
ARROW
 10
551.90295188073276
 20
2142.364583754746
 30
0.0
 41
30.0
 42
30.0
 43
30.0
 50
180.0
  0
TEXT
  8
3
  40
37.5
  5
81D8
  62
2
  72
0
  71
0
 10
914.403
 20
2117.24
 30
0.000000
  1
875
  0
POINT
  5
8101
  8
DEFPOINTS
 62
     0
 10
1426.9029518807331
 20
1935.1862483374521
 30
0.0
  0
POINT
  5
8102
  8
DEFPOINTS
 62
     0
 10
551.90295188073276
 20
1347.575078662408
 30
0.0
  0
POINT
  5
8103
  8
DEFPOINTS
 62
     0
 10
551.90295188073276
 20
2142.364583754746
 30
0.0
  0
ENDBLK
  5
7FCA
  8
0
  0
BLOCK
  8
0
  2
*D9
 70
     1
 10
0.0
 20
0.0
 30
0.0
  3
*D9
  1

  0
LINE
  5
8104
  8
3
 62
     2
 10
1181.902951880732
 20
1091.0732493915971
 30
0.0
 11
1181.902951880732
 21
960.88761662669538
 31
0.0
  0
LINE
  5
8105
  8
3
 62
     2
 10
1361.902951880732
 20
1116.575078662408
 30
0.0
 11
1361.902951880732
 21
960.88761662669538
 31
0.0
  0
LINE
  5
8106
  8
3
 62
     2
 10
1211.902951880732
 20
975.88761662669538
 30
0.0
 11
1331.902951880732
 21
975.88761662669538
 31
0.0
  0
INSERT
  5
8107
  8
3
 62
     2
  2
ARROW
 10
1181.902951880732
 20
975.88761662669538
 30
0.0
 41
30.0
 42
30.0
 43
30.0
 50
180.0
  0
INSERT
  5
8108
  8
3
 62
     2
  2
ARROW
 10
1361.902951880732
 20
975.88761662669538
 30
0.0
 41
30.0
 42
30.0
 43
30.0
  0
TEXT
  8
3
  40
37.5
  5
81D9
  62
2
  72
0
  71
0
 10
1196.90
 20
950.763
 30
0.000000
  1
180
  0
POINT
  5
810A
  8
DEFPOINTS
 62
     0
 10
1181.902951880732
 20
1106.0732493915971
 30
0.0
  0
POINT
  5
810B
  8
DEFPOINTS
 62
     0
 10
1361.902951880732
 20
1131.575078662408
 30
0.0
  0
POINT
  5
810C
  8
DEFPOINTS
 62
     0
 10
1361.902951880732
 20
975.88761662669538
 30
0.0
  0
ENDBLK
  5
7FD7
  8
0
  0
BLOCK
  8
0
  2
*D10
 70
     1
 10
0.0
 20
0.0
 30
0.0
  3
*D10
  1

  0
LINE
  5
810D
  8
3
 62
     2
 10
561.90295188073242
 20
1116.575078662408
 30
0.0
 11
561.90295188073242
 21
960.88761662669538
 31
0.0
  0
LINE
  5
810E
  8
3
 62
     2
 10
1181.902951880732
 20
1091.0732493915971
 30
0.0
 11
1181.902951880732
 21
960.88761662669538
 31
0.0
  0
LINE
  5
810F
  8
3
 62
     2
 10
591.90295188073242
 20
975.88761662669538
 30
0.0
 11
1151.902951880732
 21
975.88761662669538
 31
0.0
  0
INSERT
  5
8110
  8
3
 62
     2
  2
ARROW
 10
561.90295188073242
 20
975.88761662669538
 30
0.0
 41
30.0
 42
30.0
 43
30.0
 50
180.0
  0
INSERT
  5
8111
  8
3
 62
     2
  2
ARROW
 10
1181.902951880732
 20
975.88761662669538
 30
0.0
 41
30.0
 42
30.0
 43
30.0
  0
TEXT
  8
3
  40
37.5
  5
81DA
  62
2
  72
0
  71
0
 10
796.903
 20
950.763
 30
0.000000
  1
620
  0
POINT
  5
8113
  8
DEFPOINTS
 62
     0
 10
561.90295188073242
 20
1131.575078662408
 30
0.0
  0
POINT
  5
8114
  8
DEFPOINTS
 62
     0
 10
1181.902951880732
 20
1106.0732493915971
 30
0.0
  0
POINT
  5
8115
  8
DEFPOINTS
 62
     0
 10
1181.902951880732
 20
975.88761662669538
 30
0.0
  0
ENDBLK
  5
7FE2
  8
0
  0
BLOCK
  8
0
  2
*D11
 70
     1
 10
0.0
 20
0.0
 30
0.0
  3
*D11
  1

  0
LINE
  5
8116
  8
3
 62
     2
 10
908.33807100005083
 20
1596.575078662408
 30
0.0
 11
908.33807100005083
 21
2055.8281047277028
 31
0.0
  0
LINE
  5
8117
  8
3
 62
     2
 10
1151.902951880732
 20
2040.828104727703
 30
0.0
 11
938.33807100005083
 21
2040.828104727703
 31
0.0
  0
INSERT
  5
8118
  8
3
 62
     2
  2
ARROW
 10
1181.902951880732
 20
2040.828104727703
 30
0.0
 41
30.0
 42
30.0
 43
30.0
  0
INSERT
  5
8119
  8
3
 62
     2
  2
ARROW
 10
908.33807100005083
 20
2040.828104727703
 30
0.0
 41
30.0
 42
30.0
 43
30.0
 50
180.0
  0
TEXT
  8
3
  40
37.5
  5
81DB
  62
2
  72
0
  71
0
 10
970.121
 20
2015.70
 30
0.000000
  1
274
  0
POINT
  5
811B
  8
DEFPOINTS
 62
     0
 10
1181.902951880732
 20
1941.6594657790311
 30
0.0
  0
POINT
  5
811C
  8
DEFPOINTS
 62
     0
 10
908.33807100005083
 20
1581.575078662408
 30
0.0
  0
POINT
  5
811D
  8
DEFPOINTS
 62
     0
 10
908.33807100005083
 20
2040.828104727703
 30
0.0
  0
ENDBLK
  5
7FEC
  8
0
  0
BLOCK
  8
0
  2
*D12
 70
     1
 10
0.0
 20
0.0
 30
0.0
  3
*D12
  1

  0
LINE
  5
8128
  8
3
 62
     2
 10
1376.902951880732
 20
1131.575078662408
 30
0.0
 11
1852.6387174466679
 21
1131.575078662408
 31
0.0
  0
LINE
  5
8129
  8
3
 62
     2
 10
1441.9029518807331
 20
1935.1862483374521
 30
0.0
 11
1852.638717446669
 21
1935.1862483374521
 31
0.0
  0
LINE
  5
812A
  8
3
 62
     2
 10
1837.638717446669
 20
1161.575078662408
 30
0.0
 11
1837.638717446669
 21
1905.1862483374521
 31
0.0
  0
INSERT
  5
812B
  8
3
 62
     2
  2
ARROW
 10
1837.638717446669
 20
1131.575078662408
 30
0.0
 41
30.0
 42
30.0
 43
30.0
 50
270.0
  0
INSERT
  5
812C
  8
3
 62
     2
  2
ARROW
 10
1837.638717446669
 20
1935.1862483374521
 30
0.0
 41
30.0
 42
30.0
 43
30.0
 50
90.0
  0
TEXT
  8
3
  40
37.5
  5
81DC
  62
2
  72
0
  71
0
 10
1721.39
 20
1467.01
 30
0.000000
  1
804
  0
POINT
  5
812E
  8
DEFPOINTS
 62
     0
 10
1361.902951880732
 20
1131.575078662408
 30
0.0
  0
POINT
  5
812F
  8
DEFPOINTS
 62
     0
 10
1426.9029518807331
 20
1935.1862483374521
 30
0.0
  0
POINT
  5
8130
  8
DEFPOINTS
 62
     0
 10
1837.638717446669
 20
1935.1862483374521
 30
0.0
  0
ENDBLK
  5
7FF7
  8
0
  0
BLOCK
  8
0
  2
*D13
 70
     1
 10
0.0
 20
0.0
 30
0.0
  3
*D13
  1

  0
LINE
  5
8131
  8
3
 62
     2
 10
1376.902951880732
 20
1242.575078662408
 30
0.0
 11
1654.5073189171301
 21
1242.575078662408
 31
0.0
  0
LINE
  5
8132
  8
3
 62
     2
 10
1639.5073189171301
 20
1527.575078662408
 30
0.0
 11
1639.5073189171301
 21
1272.575078662408
 31
0.0
  0
INSERT
  5
8133
  8
3
 62
     2
  2
ARROW
 10
1639.5073189171301
 20
1557.575078662408
 30
0.0
 41
30.0
 42
30.0
 43
30.0
 50
90.0
  0
INSERT
  5
8134
  8
3
 62
     2
  2
ARROW
 10
1639.5073189171301
 20
1242.575078662408
 30
0.0
 41
30.0
 42
30.0
 43
30.0
 50
270.0
  0
TEXT
  8
3
  40
37.5
  5
81DD
  62
2
  72
0
  71
0
 10
1523.26
 20
1333.70
 30
0.000000
  1
315
  0
POINT
  5
8136
  8
DEFPOINTS
 62
     0
 10
1438.363078231218
 20
1557.575078662408
 30
0.0
  0
POINT
  5
8137
  8
DEFPOINTS
 62
     0
 10
1361.9029518807331
 20
1242.575078662408
 30
0.0
  0
POINT
  5
8138
  8
DEFPOINTS
 62
     0
 10
1639.5073189171301
 20
1242.575078662408
 30
0.0
  0
ENDBLK
  5
8001
  8
0
  0
BLOCK
  8
0
  2
*D14
 70
     1
 10
0.0
 20
0.0
 30
0.0
  3
*D14
  1

  0
LINE
  5
8139
  8
3
 62
     2
 10
1376.902951880732
 20
1206.575078662408
 30
0.0
 11
1654.5073189171301
 21
1206.575078662408
 31
0.0
  0
LINE
  5
813A
  8
3
 62
     2
 10
1376.902951880732
 20
1131.575078662408
 30
0.0
 11
1654.5073189171301
 21
1131.575078662408
 31
0.0
  0
LINE
  5
813B
  8
3
 62
     2
 10
1639.5073189171301
 20
1236.575078662408
 30
0.0
 11
1639.5073189171301
 21
1266.575078662408
 31
0.0
  0
LINE
  5
813C
  8
3
 62
     2
 10
1639.5073189171301
 20
1101.575078662408
 30
0.0
 11
1639.5073189171301
 21
965.86079294812271
 31
0.0
  0
LINE
  5
813D
  8
3
 62
     2
 10
1639.5073189171301
 20
1206.575078662408
 30
0.0
 11
1639.5073189171301
 21
1131.575078662408
 31
0.0
  0
INSERT
  5
813E
  8
3
 62
     2
  2
YA_N
 10
1639.5073189171301
 20
1206.575078662408
 30
0.0
 41
30.0
 42
30.0
 43
30.0
 50
270.0
  0
INSERT
  5
813F
  8
3
 62
     2
  2
_OPEN
 10
1639.5073189171301
 20
1131.575078662408
 30
0.0
 41
30.0
 42
30.0
 43
30.0
 50
90.0
  0
TEXT
  8
3
  40
37.5
  5
81DE
  62
2
  72
0
  71
0
 10
1523.26
 20
952.343
 30
0.000000
  1
75
  0
POINT
  5
8141
  8
DEFPOINTS
 62
     0
 10
1361.902951880732
 20
1206.575078662408
 30
0.0
  0
POINT
  5
8142
  8
DEFPOINTS
 62
     0
 10
1361.902951880732
 20
1131.575078662408
 30
0.0
  0
POINT
  5
8143
  8
DEFPOINTS
 62
     0
 10
1639.5073189171301
 20
1131.575078662408
 30
0.0
  0
ENDBLK
  5
800E
  8
0
  0
BLOCK
  8
0
  2
*D15
 70
     1
 10
0.0
 20
0.0
 30
0.0
  3
*D15
  1

  0
LINE
  5
8144
  8
3
 62
     2
 10
1376.902951880732
 20
1206.575078662408
 30
0.0
 11
1654.5073189171301
 21
1206.575078662408
 31
0.0
  0
LINE
  5
8145
  8
3
 62
     2
 10
1639.5073189171301
 20
1272.575078662408
 30
0.0
 11
1639.5073189171301
 21
1302.575078662408
 31
0.0
  0
LINE
  5
8146
  8
3
 62
     2
 10
1639.5073189171301
 20
1176.575078662408
 30
0.0
 11
1639.5073189171301
 21
1146.575078662408
 31
0.0
  0
LINE
  5
8147
  8
3
 62
     2
 10
1639.5073189171301
 20
1224.575078662408
 30
0.0
 11
1767.9001760599881
 21
1254.219549367685
 31
0.0
  0
LINE
  5
8148
  8
3
 62
     2
 10
1767.9001760599881
 20
1254.219549367685
 30
0.0
 11
1767.9001760599881
 21
1408.148120796257
 31
0.0
  0
TEXT
  8
3
  40
37.5
  5
81DF
  62
2
  72
0
  71
0
 10
1641.83
 20
1264.81
 30
0.000000
  1
(36)
  0
LINE
  5
814A
  8
3
 62
     2
 10
1639.5073189171301
 20
1242.575078662408
 30
0.0
 11
1639.5073189171301
 21
1206.575078662408
 31
0.0
  0
LINE
  5
814B
  8
3
 62
     2
 10
1639.5073189171301
 20
1242.575078662408
 30
0.0
 11
1639.5073189171301
 21
1206.575078662408
 31
0.0
  0
INSERT
  5
814C
  8
3
 62
     2
  2
_OPEN
 10
1639.5073189171301
 20
1242.575078662408
 30
0.0
 41
30.0
 42
30.0
 43
30.0
 50
270.0
  0
INSERT
  5
814D
  8
3
 62
     2
  2
YA_N
 10
1639.5073189171301
 20
1206.575078662408
 30
0.0
 41
30.0
 42
30.0
 43
30.0
 50
90.0
  0
POINT
  5
814E
  8
DEFPOINTS
 62
     0
 10
1361.9029518807331
 20
1242.575078662408
 30
0.0
  0
POINT
  5
814F
  8
DEFPOINTS
 62
     0
 10
1361.902951880732
 20
1206.575078662408
 30
0.0
  0
POINT
  5
8150
  8
DEFPOINTS
 62
     0
 10
1639.5073189171301
 20
1206.575078662408
 30
0.0
  0
ENDBLK
  5
801C
  8
0
  0
BLOCK
  8
0
  2
*D16
 70
     1
 10
0.0
 20
0.0
 30
0.0
  3
*D16
  1

  0
LINE
  5
815B
  8
3
 62
     2
 10
1426.9029518807331
 20
1950.1862483374521
 30
0.0
 11
1426.9029518807331
 21
2055.8281047277028
 31
0.0
  0
LINE
  5
815C
  8
3
 62
     2
 10
1181.902951880732
 20
1956.6594657790311
 30
0.0
 11
1181.902951880732
 21
2055.8281047277028
 31
0.0
  0
LINE
  5
815D
  8
3
 62
     2
 10
1396.902951880732
 20
2040.828104727703
 30
0.0
 11
1211.902951880732
 21
2040.828104727703
 31
0.0
  0
INSERT
  5
815E
  8
3
 62
     2
  2
ARROW
 10
1426.9029518807331
 20
2040.828104727703
 30
0.0
 41
30.0
 42
30.0
 43
30.0
  0
INSERT
  5
815F
  8
3
 62
     2
  2
ARROW
 10
1181.902951880732
 20
2040.828104727703
 30
0.0
 41
30.0
 42
30.0
 43
30.0
 50
180.0
  0
TEXT
  8
3
  40
37.5
  5
81E0
  62
2
  72
0
  71
0
 10
1229.40
 20
2015.70
 30
0.000000
  1
245
  0
POINT
  5
8161
  8
DEFPOINTS
 62
     0
 10
1426.9029518807331
 20
1935.1862483374521
 30
0.0
  0
POINT
  5
8162
  8
DEFPOINTS
 62
     0
 10
1181.902951880732
 20
1941.6594657790311
 30
0.0
  0
POINT
  5
8163
  8
DEFPOINTS
 62
     0
 10
1181.902951880732
 20
2040.828104727703
 30
0.0
  0
ENDBLK
  5
8027
  8
0
  0
BLOCK
  8
0
  2
*D17
 70
     1
 10
0.0
 20
0.0
 30
0.0
  3
*D17
  1

  0
LINE
  5
8164
  8
3
 62
     2
 10
1441.9029518807331
 20
1908.575078662408
 30
0.0
 11
1654.5073189171301
 21
1908.575078662408
 31
0.0
  0
LINE
  5
8165
  8
3
 62
     2
 10
1453.363078231218
 20
1557.575078662408
 30
0.0
 11
1654.5073189171301
 21
1557.575078662408
 31
0.0
  0
LINE
  5
8166
  8
3
 62
     2
 10
1639.5073189171301
 20
1878.575078662408
 30
0.0
 11
1639.5073189171301
 21
1587.575078662408
 31
0.0
  0
INSERT
  5
8167
  8
3
 62
     2
  2
ARROW
 10
1639.5073189171301
 20
1908.575078662408
 30
0.0
 41
30.0
 42
30.0
 43
30.0
 50
90.0
  0
INSERT
  5
8168
  8
3
 62
     2
  2
ARROW
 10
1639.5073189171301
 20
1557.575078662408
 30
0.0
 41
30.0
 42
30.0
 43
30.0
 50
270.0
  0
TEXT
  8
3
  40
37.5
  5
81E1
  62
2
  72
0
  71
0
 10
1523.26
 20
1666.70
 30
0.000000
  1
351
  0
POINT
  5
816A
  8
DEFPOINTS
 62
     0
 10
1426.9029518807331
 20
1908.575078662408
 30
0.0
  0
POINT
  5
816B
  8
DEFPOINTS
 62
     0
 10
1438.363078231218
 20
1557.575078662408
 30
0.0
  0
POINT
  5
816C
  8
DEFPOINTS
 62
     0
 10
1639.5073189171301
 20
1557.575078662408
 30
0.0
  0
ENDBLK
  5
8032
  8
0
  0
BLOCK
  8
0
  2
*D18
 70
     1
 10
0.0
 20
0.0
 30
0.0
  3
*D18
  1

  0
LINE
  5
816D
  8
3
 62
     2
 10
1441.9029518807331
 20
1908.575078662408
 30
0.0
 11
1553.9977887848429
 21
1908.575078662408
 31
0.0
  0
LINE
  5
816E
  8
3
 62
     2
 10
1441.9029518807331
 20
1583.575078662408
 30
0.0
 11
1553.9977887848429
 21
1583.575078662408
 31
0.0
  0
LINE
  5
816F
  8
3
 62
     2
 10
1538.9977887848429
 20
1878.575078662408
 30
0.0
 11
1538.9977887848429
 21
1613.575078662408
 31
0.0
  0
INSERT
  5
8170
  8
3
 62
     2
  2
ARROW
 10
1538.9977887848429
 20
1908.575078662408
 30
0.0
 41
30.0
 42
30.0
 43
30.0
 50
90.0
  0
INSERT
  5
8171
  8
3
 62
     2
  2
ARROW
 10
1538.9977887848429
 20
1583.575078662408
 30
0.0
 41
30.0
 42
30.0
 43
30.0
 50
270.0
  0
TEXT
  8
3
  40
37.5
  5
81E2
  62
2
  72
0
  71
0
 10
1422.75
 20
1679.70
 30
0.000000
  1
325
  0
POINT
  5
8173
  8
DEFPOINTS
 62
     0
 10
1426.9029518807331
 20
1908.575078662408
 30
0.0
  0
POINT
  5
8174
  8
DEFPOINTS
 62
     0
 10
1426.9029518807331
 20
1583.575078662408
 30
0.0
  0
POINT
  5
8175
  8
DEFPOINTS
 62
     0
 10
1538.9977887848429
 20
1583.575078662408
 30
0.0
  0
ENDBLK
  5
803D
  8
0
  0
BLOCK
  8
0
  2
*D19
 70
     1
 10
0.0
 20
0.0
 30
0.0
  3
*D19
  1

  0
LINE
  5
8183
  8
3
 62
     2
 10
1361.9029518807331
 20
3258.5880713936622
 30
0.0
 11
1361.9029518807331
 21
3354.3775501069458
 31
0.0
  0
LINE
  5
8184
  8
3
 62
     2
 10
1001.902951880732
 20
3258.5880713936622
 30
0.0
 11
1001.902951880732
 21
3354.3775501069458
 31
0.0
  0
LINE
  5
8185
  8
3
 62
     2
 10
1331.902951880732
 20
3339.3775501069449
 30
0.0
 11
1031.902951880732
 21
3339.3775501069449
 31
0.0
  0
INSERT
  5
8186
  8
3
 62
     2
  2
ARROW
 10
1361.9029518807331
 20
3339.3775501069449
 30
0.0
 41
30.0
 42
30.0
 43
30.0
  0
INSERT
  5
8187
  8
3
 62
     2
  2
ARROW
 10
1001.902951880732
 20
3339.3775501069449
 30
0.0
 41
30.0
 42
30.0
 43
30.0
 50
180.0
  0
TEXT
  8
3
  40
37.5
  5
81E3
  62
2
  72
0
  71
0
 10
1106.90
 20
3314.25
 30
0.000000
  1
360
  0
POINT
  5
8189
  8
DEFPOINTS
 62
     0
 10
1361.9029518807331
 20
3243.5880713936622
 30
0.0
  0
POINT
  5
818A
  8
DEFPOINTS
 62
     0
 10
1001.902951880732
 20
3243.5880713936622
 30
0.0
  0
POINT
  5
818B
  8
DEFPOINTS
 62
     0
 10
1001.902951880732
 20
3339.3775501069449
 30
0.0
  0
ENDBLK
  5
8048
  8
0
  0
BLOCK
  8
0
  2
*D20
 70
     1
 10
0.0
 20
0.0
 30
0.0
  3
*D20
  1

  0
LINE
  5
818C
  8
3
 62
     2
 10
561.90295188073105
 20
2858.5880713936631
 30
0.0
 11
561.90295188073105
 21
3354.3775501069458
 31
0.0
  0
LINE
  5
818D
  8
3
 62
     2
 10
971.90295188073276
 20
3339.3775501069449
 30
0.0
 11
591.90295188073105
 21
3339.3775501069449
 31
0.0
  0
INSERT
  5
818E
  8
3
 62
     2
  2
ARROW
 10
1001.902951880732
 20
3339.3775501069449
 30
0.0
 41
30.0
 42
30.0
 43
30.0
  0
INSERT
  5
818F
  8
3
 62
     2
  2
ARROW
 10
561.90295188073105
 20
3339.3775501069449
 30
0.0
 41
30.0
 42
30.0
 43
30.0
 50
180.0
  0
TEXT
  8
3
  40
37.5
  5
81E4
  62
2
  72
0
  71
0
 10
706.903
 20
3314.25
 30
0.000000
  1
440
  0
POINT
  5
8191
  8
DEFPOINTS
 62
     0
 10
1001.902951880732
 20
3243.5880713936622
 30
0.0
  0
POINT
  5
8192
  8
DEFPOINTS
 62
     0
 10
561.90295188073105
 20
2843.5880713936622
 30
0.0
  0
POINT
  5
8193
  8
DEFPOINTS
 62
     0
 10
561.90295188073105
 20
3339.3775501069449
 30
0.0
  0
ENDBLK
  5
8052
  8
0
  0
BLOCK
  8
0
  2
*D21
 70
     1
 10
0.0
 20
0.0
 30
0.0
  3
*D21
  1

  0
LINE
  5
8194
  8
3
 62
     2
 10
2864.5877467388941
 20
1715.075078662408
 30
0.0
 11
2991.7677182813818
 21
1715.075078662408
 31
0.0
  0
LINE
  5
8195
  8
3
 62
     2
 10
2864.5877467388941
 20
1400.075078662408
 30
0.0
 11
2991.7677182813818
 21
1400.075078662408
 31
0.0
  0
LINE
  5
8196
  8
3
 62
     2
 10
2976.7677182813818
 20
1685.075078662408
 30
0.0
 11
2976.7677182813818
 21
1430.075078662408
 31
0.0
  0
INSERT
  5
8197
  8
3
 62
     2
  2
ARROW
 10
2976.7677182813818
 20
1715.075078662408
 30
0.0
 41
30.0
 42
30.0
 43
30.0
 50
90.0
  0
INSERT
  5
8198
  8
3
 62
     2
  2
ARROW
 10
2976.7677182813818
 20
1400.075078662408
 30
0.0
 41
30.0
 42
30.0
 43
30.0
 50
270.0
  0
TEXT
  8
3
  40
37.5
  5
81E5
  62
2
  72
0
  71
0
 10
2860.52
 20
1491.20
 30
0.000000
  1
φ315
  0
POINT
  5
819A
  8
DEFPOINTS
 62
     0
 10
2849.5877467388941
 20
1715.075078662408
 30
0.0
  0
POINT
  5
819B
  8
DEFPOINTS
 62
     0
 10
2849.5877467388941
 20
1400.075078662408
 30
0.0
  0
POINT
  5
819C
  8
DEFPOINTS
 62
     0
 10
2976.7677182813818
 20
1400.075078662408
 30
0.0
  0
ENDBLK
  5
805D
  8
0
  0
BLOCK
  8
0
  2
*D22
 70
     1
 10
0.0
 20
0.0
 30
0.0
  3
*D22
  1

  0
LINE
  5
819D
  8
3
 62
     2
 10
2703.5877467388941
 20
1091.0732493915971
 30
0.0
 11
2703.5877467388941
 21
960.21353235295726
 31
0.0
  0
LINE
  5
819E
  8
3
 62
     2
 10
2868.5877467388941
 20
1116.575078662408
 30
0.0
 11
2868.5877467388941
 21
960.21353235295726
 31
0.0
  0
LINE
  5
819F
  8
3
 62
     2
 10
2733.5877467388941
 20
975.21353235295726
 30
0.0
 11
2838.5877467388932
 21
975.21353235295726
 31
0.0
  0
INSERT
  5
81A0
  8
3
 62
     2
  2
ARROW
 10
2703.5877467388941
 20
975.21353235295726
 30
0.0
 41
30.0
 42
30.0
 43
30.0
 50
180.0
  0
INSERT
  5
81A1
  8
3
 62
     2
  2
ARROW
 10
2868.5877467388941
 20
975.21353235295726
 30
0.0
 41
30.0
 42
30.0
 43
30.0
  0
TEXT
  8
3
  40
37.5
  5
81E6
  62
2
  72
0
  71
0
 10
2711.09
 20
950.089
 30
0.000000
  1
165
  0
POINT
  5
81A3
  8
DEFPOINTS
 62
     0
 10
2703.5877467388941
 20
1106.0732493915971
 30
0.0
  0
POINT
  5
81A4
  8
DEFPOINTS
 62
     0
 10
2868.5877467388941
 20
1131.575078662408
 30
0.0
  0
POINT
  5
81A5
  8
DEFPOINTS
 62
     0
 10
2868.5877467388941
 20
975.21353235295726
 30
0.0
  0
ENDBLK
  5
806A
  8
0
  0
BLOCK
  8
0
  2
*D23
 70
     1
 10
0.0
 20
0.0
 30
0.0
  3
*D23
  1

  0
LINE
  5
81C1
  8
3
 62
     2
 10
2703.5877467388941
 20
1989.1780613346029
 30
0.0
 11
2703.5877467388941
 21
2155.9731539415639
 31
0.0
  0
LINE
  5
81C2
  8
3
 62
     2
 10
2824.5877467388941
 20
1570.1862483374521
 30
0.0
 11
2824.5877467388941
 21
2155.9731539415639
 31
0.0
  0
LINE
  5
81C3
  8
3
 62
     2
 10
2733.5877467388941
 20
2140.9731539415639
 30
0.0
 11
2794.5877467388941
 21
2140.9731539415639
 31
0.0
  0
INSERT
  5
81C4
  8
3
 62
     2
  2
ARROW
 10
2703.5877467388941
 20
2140.9731539415639
 30
0.0
 41
30.0
 42
30.0
 43
30.0
 50
180.0
  0
INSERT
  5
81C5
  8
3
 62
     2
  2
ARROW
 10
2824.5877467388941
 20
2140.9731539415639
 30
0.0
 41
30.0
 42
30.0
 43
30.0
  0
TEXT
  8
3
  40
37.5
  5
81E7
  62
2
  72
0
  71
0
 10
2689.09
 20
2115.85
 30
0.000000
  1
121
  0
POINT
  5
81C7
  8
DEFPOINTS
 62
     0
 10
2703.5877467388941
 20
1974.178061334602
 30
0.0
  0
POINT
  5
81C8
  8
DEFPOINTS
 62
     0
 10
2824.5877467388941
 20
1555.1862483374521
 30
0.0
  0
POINT
  5
81C9
  8
DEFPOINTS
 62
     0
 10
2824.5877467388941
 20
2140.9731539415639
 30
0.0
  0
ENDBLK
  5
8077
  8
0
  0
BLOCK
  8
0
  2
*D24
 70
     1
 10
0.0
 20
0.0
 30
0.0
  3
*D24
  1

  0
LINE
  5
81CA
  8
3
 62
     2
 10
2585.587746738895
 20
1925.1862483374521
 30
0.0
 11
2585.587746738895
 21
2055.7382224517678
 31
0.0
  0
LINE
  5
81CB
  8
3
 62
     2
 10
2821.5877467388941
 20
1925.1862483374521
 30
0.0
 11
2821.5877467388941
 21
2055.7382224517678
 31
0.0
  0
LINE
  5
81CC
  8
3
 62
     2
 10
2615.5877467388941
 20
2040.738222451768
 30
0.0
 11
2791.5877467388941
 21
2040.738222451768
 31
0.0
  0
INSERT
  5
81CD
  8
3
 62
     2
  2
ARROW
 10
2585.587746738895
 20
2040.738222451768
 30
0.0
 41
30.0
 42
30.0
 43
30.0
 50
180.0
  0
INSERT
  5
81CE
  8
3
 62
     2
  2
ARROW
 10
2821.5877467388941
 20
2040.738222451768
 30
0.0
 41
30.0
 42
30.0
 43
30.0
  0
TEXT
  8
3
  40
37.5
  5
81E8
  62
2
  72
0
  71
0
 10
2628.59
 20
2015.61
 30
0.000000
  1
236
  0
POINT
  5
81D0
  8
DEFPOINTS
 62
     0
 10
2585.587746738895
 20
1910.186248337453
 30
0.0
  0
POINT
  5
81D1
  8
DEFPOINTS
 62
     0
 10
2821.5877467388941
 20
1910.186248337453
 30
0.0
  0
POINT
  5
81D2
  8
DEFPOINTS
 62
     0
 10
2821.5877467388941
 20
2040.738222451768
 30
0.0
  0
ENDBLK
  5
8082
  8
0
  0
ENDSEC
  0
SECTION
  2
ENTITIES
  0
DIMENSION
  5
7CD0
  8
3
  2
*D3
 10
2015.5877467388941
 20
2140.9731539415639
 30
0.0
 11
2359.5877467388941
 21
2182.2231539415639
 31
0.0
 70
     0
 13
2703.5877467388941
 23
1974.178061334602
 33
0.0
 14
2015.5877467388941
 24
1657.575078662408
 34
0.0
1001
ACAD
1000
DSTYLE
1002
{
1070
   287
1070
     3
1070
    40
1040
15.0
1070
    43
1040
0.0
1070
   147
1040
1.5
1070
   173
1070
     1
1070
   271
1070
     0
1070
   272
1070
     4
1070
   279
1070
     0
1070
   284
1070
     0
1070
   285
1070
     0
1070
   286
1070
     0
1070
     6
1000
ARROW
1070
     7
1000
ARROW
1002
}
  0
DIMENSION
  5
7CD1
  8
3
  2
*D4
 10
2703.5877467388941
 20
975.21353235295726
 30
0.0
 11
2396.0877467388941
 21
1016.463532352957
 31
0.0
 70
     0
 13
2088.5877467388941
 23
1131.575078662408
 33
0.0
 14
2703.5877467388941
 24
1106.0732493915971
 34
0.0
1001
ACAD
1000
DSTYLE
1002
{
1070
   287
1070
     3
1070
    40
1040
15.0
1070
    43
1040
0.0
1070
   147
1040
1.5
1070
   173
1070
     1
1070
   271
1070
     0
1070
   272
1070
     4
1070
   279
1070
     0
1070
   284
1070
     0
1070
   285
1070
     0
1070
   286
1070
     0
1070
     6
1000
ARROW
1070
     7
1000
ARROW
1002
}
  0
LINE
  5
7CD2
  8
1
 10
2088.5877467388941
 20
1317.575078662408
 30
0.0
 11
2868.5877467388941
 21
1317.575078662408
 31
0.0
  0
LINE
  5
7CD8
  8
1
 10
2583.5877467388941
 20
1540.075078662408
 30
0.0
 11
2506.8707783198302
 21
1540.075078662408
 31
0.0
  0
LINE
  5
7CD9
  8
1
 10
2558.5877467388941
 20
1575.075078662408
 30
0.0
 11
2504.3877467388938
 21
1575.075078662408
 31
0.0
  0
POLYLINE
  5
7CDA
  8
1
 66
     1
 10
0.0
 20
0.0
 30
0.0
 70
     1
  0
VERTEX
  5
80D6
  8
1
 10
2520.5877467388932
 20
1460.7750786624081
 30
0.0
  0
VERTEX
  5
80D7
  8
1
 10
2520.5877467388932
 20
1500.7750786624081
 30
0.0
  0
VERTEX
  5
80D8
  8
1
 10
2522.5877467388932
 20
1500.7750786624081
 30
0.0
 42
-0.4142135623730951
  0
VERTEX
  5
80D9
  8
1
 10
2525.5877467388941
 20
1497.7750786624081
 30
0.0
  0
VERTEX
  5
80DA
  8
1
 10
2525.5877467388941
 20
1470.2750786624081
 30
0.0
 42
0.4142135623730951
  0
VERTEX
  5
80DB
  8
1
 10
2530.0877467388932
 20
1465.7750786624081
 30
0.0
  0
VERTEX
  5
80DC
  8
1
 10
2557.5877467388941
 20
1465.7750786624081
 30
0.0
 42
-0.4142135623730951
  0
VERTEX
  5
80DD
  8
1
 10
2560.5877467388932
 20
1462.7750786624081
 30
0.0
  0
VERTEX
  5
80DE
  8
1
 10
2560.5877467388932
 20
1460.7750786624081
 30
0.0
  0
SEQEND
  5
80DF
  8
1
  0
LINE
  5
7CE5
  8
1
 10
2868.5877467388941
 20
1131.575078662408
 30
0.0
 11
2088.5877467388941
 21
1131.575078662408
 31
0.0
  0
LINE
  5
7CE6
  8
1
 10
2868.5877467388941
 20
1206.575078662408
 30
0.0
 11
2088.5877467388941
 21
1206.575078662408
 31
0.0
  0
LINE
  5
7CE7
  8
2
 10
2885.6929693802299
 20
1557.575078662408
 30
0.0
 11
1993.8021163340179
 21
1557.575078662408
 31
0.0
  0
LINE
  5
7CE8
  8
1
 10
2868.5877467388941
 20
1242.575078662408
 30
0.0
 11
2088.5877467388941
 21
1242.575078662408
 31
0.0
  0
LINE
  5
7CE9
  8
1
 10
551.9029518807323
 20
2390.5880713936622
 30
0.0
 11
551.9029518807323
 21
2482.5880713936622
 31
0.0
  0
LINE
  5
7CEA
  8
1
 10
714.4029518807323
 20
2475.5880713936631
 30
0.0
 11
714.4029518807323
 21
2470.5880713936631
 31
0.0
  0
LINE
  5
7CEB
  8
1
 10
689.4029518807323
 20
2475.5880713936631
 30
0.0
 11
689.4029518807323
 21
2470.5880713936631
 31
0.0
  0
LINE
  5
7CEC
  8
1
 10
1164.4029518807331
 20
2519.0880713936631
 30
0.0
 11
1164.4029518807331
 21
2470.5880713936622
 31
0.0
  0
LINE
  5
7CED
  8
1
 10
1199.402951880732
 20
2519.0880713936631
 30
0.0
 11
1199.402951880732
 21
2470.5880713936622
 31
0.0
  0
LINE
  5
7CEE
  8
1
 10
1281.902951880732
 20
2390.5880713936622
 30
0.0
 11
1281.902951880732
 21
2482.5880713936622
 31
0.0
  0
DIMENSION
  5
7CEF
  8
3
  2
*D5
 10
561.90295188073208
 20
2295.2769305864572
 30
0.0
 11
961.90295188073208
 21
2336.5269305864572
 31
0.0
 70
     0
 13
1361.902951880732
 23
2463.5880713936622
 33
0.0
 14
561.90295188073208
 24
2482.5880713936622
 34
0.0
1001
ACAD
1000
DSTYLE
1002
{
1070
   287
1070
     3
1070
    40
1040
15.0
1070
    43
1040
0.0
1070
   147
1040
1.5
1070
   173
1070
     1
1070
   272
1070
     4
1070
   279
1070
     0
1070
   284
1070
     0
1070
   285
1070
     0
1070
   286
1070
     0
1070
     6
1000
ARROW
1070
     7
1000
ARROW
1002
}
  0
DIMENSION
  5
7CF0
  8
3
  2
*D6
 10
1499.333433889529
 20
3243.5880713936622
 30
0.0
 11
1458.0834338895279
 21
2853.5880713936631
 31
0.0
 70
     0
 13
1361.902951880732
 23
2463.5880713936622
 33
0.0
 14
1361.9029518807331
 24
3243.5880713936622
 34
0.0
 50
270.0
1001
ACAD
1000
DSTYLE
1002
{
1070
   287
1070
     3
1070
    40
1040
15.0
1070
    43
1040
0.0
1070
   147
1040
1.5
1070
   173
1070
     1
1070
   272
1070
     4
1070
   279
1070
     0
1070
   284
1070
     0
1070
   285
1070
     0
1070
   286
1070
     0
1070
     6
1000
ARROW
1070
     7
1000
ARROW
1002
}
  0
LINE
  5
7CF1
  8
1
 10
1361.902951880732
 20
2960.5880713936631
 30
0.0
 11
1361.902951880732
 21
2463.5880713936622
 31
0.0
  0
DIMENSION
  5
7CF2
  8
3
  2
*D7
 10
428.75667327528021
 20
2843.5880713936622
 30
0.0
 11
387.50667327527981
 21
2653.5880713936622
 31
0.0
 70
     0
 13
561.90295188073276
 23
2463.5880713936622
 33
0.0
 14
561.90295188073105
 24
2843.5880713936622
 34
0.0
 50
270.0
1001
ACAD
1000
DSTYLE
1002
{
1070
   287
1070
     3
1070
    40
1040
15.0
1070
    43
1040
0.0
1070
   147
1040
1.5
1070
   173
1070
     1
1070
   272
1070
     4
1070
   279
1070
     0
1070
   284
1070
     0
1070
   285
1070
     0
1070
   286
1070
     0
1070
     6
1000
ARROW
1070
     7
1000
ARROW
1002
}
  0
LINE
  5
7CF3
  8
2
 10
1181.902951880732
 20
3230.7694514023342
 30
0.0
 11
1181.9029518807331
 21
2381.4217681177561
 31
0.0
  0
LINE
  5
7CF4
  8
2
 10
701.9029518807323
 20
2751.525071393663
 30
0.0
 11
701.9029518807323
 21
2415.5534713936631
 31
0.0
  0
DIMENSION
  5
7CF5
  8
3
  2
*D8
 10
551.90295188073276
 20
2142.364583754746
 30
0.0
 11
989.40295188073287
 21
2183.6145837547451
 31
0.0
 70
     0
 13
1426.9029518807331
 23
1935.1862483374521
 33
0.0
 14
551.90295188073276
 24
1347.575078662408
 34
0.0
1001
ACAD
1000
DSTYLE
1002
{
1070
   287
1070
     3
1070
    40
1040
15.0
1070
    43
1040
0.0
1070
   147
1040
1.5
1070
   173
1070
     1
1070
   271
1070
     0
1070
   272
1070
     4
1070
   279
1070
     0
1070
   284
1070
     0
1070
   285
1070
     0
1070
   286
1070
     0
1070
     6
1000
ARROW
1070
     7
1000
ARROW
1002
}
  0
DIMENSION
  5
7CF6
  8
3
  2
*D9
 10
1361.902951880732
 20
975.88761662669538
 30
0.0
 11
1271.902951880732
 21
1017.137616626695
 31
0.0
 70
     0
 13
1181.902951880732
 23
1106.0732493915971
 33
0.0
 14
1361.902951880732
 24
1131.575078662408
 34
0.0
1001
ACAD
1000
DSTYLE
1002
{
1070
   287
1070
     3
1070
    40
1040
15.0
1070
    43
1040
0.0
1070
   147
1040
1.5
1070
   173
1070
     1
1070
   271
1070
     0
1070
   272
1070
     4
1070
   279
1070
     0
1070
   284
1070
     0
1070
   285
1070
     0
1070
   286
1070
     0
1070
     6
1000
ARROW
1070
     7
1000
ARROW
1002
}
  0
DIMENSION
  5
7CF7
  8
3
  2
*D10
 10
1181.902951880732
 20
975.88761662669538
 30
0.0
 11
871.90295188073264
 21
1017.137616626695
 31
0.0
 70
     0
 13
561.90295188073242
 23
1131.575078662408
 33
0.0
 14
1181.902951880732
 24
1106.0732493915971
 34
0.0
1001
ACAD
1000
DSTYLE
1002
{
1070
   287
1070
     3
1070
    40
1040
15.0
1070
    43
1040
0.0
1070
   147
1040
1.5
1070
   173
1070
     1
1070
   271
1070
     0
1070
   272
1070
     4
1070
   279
1070
     0
1070
   284
1070
     0
1070
   285
1070
     0
1070
   286
1070
     0
1070
     6
1000
ARROW
1070
     7
1000
ARROW
1002
}
  0
DIMENSION
  5
7CF8
  8
3
  2
*D11
 10
908.33807100005083
 20
2040.828104727703
 30
0.0
 11
1045.1205114403911
 21
2082.0781047277028
 31
0.0
 70
     0
 13
1181.902951880732
 23
1941.6594657790311
 33
0.0
 14
908.33807100005083
 24
1581.575078662408
 34
0.0
1001
ACAD
1000
DSTYLE
1002
{
1070
   287
1070
     4
1070
    40
1040
15.0
1070
    43
1040
0.0
1070
    75
1070
     1
1070
   147
1040
1.5
1070
   173
1070
     1
1070
   271
1070
     0
1070
   272
1070
     4
1070
   279
1070
     1
1070
   284
1070
     0
1070
   285
1070
     0
1070
   286
1070
     0
1070
     6
1000
ARROW
1070
     7
1000
ARROW
1002
}
  0
ARC
  5
7CF9
  8
1
 10
1163.1379992960419
 20
1586.7684067025
 30
0.0
 40
252.15223226792139
 50
181.15405593563719
 51
277.46034277290408
  0
ARC
  5
7CFA
  8
1
 10
1205.902951880732
 20
1581.575078662408
 30
0.0
 40
297.56488088068153
 50
94.610207495868039
 51
180.0000000000002
  0
LINE
  5
7CFB
  8
1
 10
744.4953091671274
 20
1323.749173134968
 30
0.0
 11
1210.2978567383291
 21
1461.6911416441151
 31
0.0
  0
ARC
  5
7CFC
  8
1
 10
1181.902951880732
 20
1557.575078662408
 30
0.0
 40
100.0
 50
286.49603841129169
 51
94.743272141018537
  0
LINE
  5
7CFD
  8
1
 10
1196.037276460519
 20
1495.6681253479919
 30
0.0
 11
720.28870322388752
 21
1387.0472937211371
 31
0.0
  0
ARC
  5
7CFE
  8
1
 10
1205.9029518807331
 20
1581.575078662408
 30
0.0
 40
308.96488088068128
 50
94.639506522689473
 51
180.0
  0
LINE
  5
7CFF
  8
1
 10
1118.4029518807331
 20
2470.5880713936631
 30
0.0
 11
1245.4029518807331
 21
2470.5880713936622
 31
0.0
  0
LINE
  5
7D00
  8
1
 10
1118.402951880732
 20
2420.5880713936631
 30
0.0
 11
1245.4029518807331
 21
2420.5880713936622
 31
0.0
  0
CIRCLE
  5
7D01
  8
1
 10
1181.902951880732
 20
1417.575078662408
 30
0.0
 40
65.0
  0
LINE
  5
7D02
  8
2
 10
1111.902951880732
 20
1417.575078662408
 30
0.0
 11
1251.902951880732
 21
1417.575078662408
 31
0.0
  0
LINE
  5
7D03
  8
1
 10
1341.9029518807331
 20
1503.9750786624079
 30
0.0
 11
1021.902951880732
 21
1503.9750786624079
 31
0.0
  0
POLYLINE
  5
7D04
  8
1
 66
     1
 10
0.0
 20
0.0
 30
0.0
 70
     1
  0
VERTEX
  5
811E
  8
1
 10
1081.902951880732
 20
1503.9750786624079
 30
0.0
  0
VERTEX
  5
811F
  8
1
 10
1281.902951880732
 20
1503.9750786624079
 30
0.0
  0
VERTEX
  5
8120
  8
1
 10
1281.902951880732
 20
1509.9750786624079
 30
0.0
  0
VERTEX
  5
8121
  8
1
 10
1081.902951880732
 20
1509.9750786624079
 30
0.0
  0
SEQEND
  5
8122
  8
1
  0
POLYLINE
  5
7D0A
  8
1
 66
     1
 10
0.0
 20
0.0
 30
0.0
 70
     1
  0
VERTEX
  5
8123
  8
1
 10
1081.902951880732
 20
1503.9750786624079
 30
0.0
  0
VERTEX
  5
8124
  8
1
 10
1281.902951880732
 20
1503.9750786624079
 30
0.0
  0
VERTEX
  5
8125
  8
1
 10
1281.902951880732
 20
1509.9750786624079
 30
0.0
  0
VERTEX
  5
8126
  8
1
 10
1081.902951880732
 20
1509.9750786624079
 30
0.0
  0
SEQEND
  5
8127
  8
1
  0
LINE
  5
7D10
  8
1
 10
1381.9029518807331
 20
1500.7750786624081
 30
0.0
 11
981.90295188073276
 21
1500.775078662409
 31
0.0
  0
CIRCLE
  5
7D11
  8
1
 10
1181.902951880732
 20
1557.575078662408
 30
0.0
 40
63.5
  0
LINE
  5
7D12
  8
2
 10
827.04209877238998
 20
1557.575078662408
 30
0.0
 11
1438.363078231218
 21
1557.575078662408
 31
0.0
  0
LINE
  5
7D13
  8
1
 10
561.90295188073242
 20
1242.575078662408
 30
0.0
 11
1361.9029518807331
 21
1242.575078662408
 31
0.0
  0
LINE
  5
7D14
  8
1
 10
551.90295188073264
 20
1317.575078662408
 30
0.0
 11
1361.9029518807331
 21
1317.575078662408
 31
0.0
  0
LINE
  5
7D15
  8
1
 10
561.90295188073242
 20
1206.575078662408
 30
0.0
 11
1361.9029518807331
 21
1206.575078662408
 31
0.0
  0
LINE
  5
7D16
  8
1
 10
561.90295188073242
 20
1131.575078662408
 30
0.0
 11
1361.9029518807331
 21
1131.575078662408
 31
0.0
  0
LINE
  5
7D17
  8
1
 10
1281.902951880732
 20
2390.5880713936622
 30
0.0
 11
551.9029518807323
 21
2390.5880713936622
 31
0.0
  0
ARC
  5
7D18
  8
1
 10
701.9029518807323
 20
1467.575078662408
 30
0.0
 40
150.0
 50
94.743272141018508
 51
286.49603841129169
  0
ARC
  5
7D19
  8
1
 10
1157.9029518807331
 20
1581.575078662408
 30
0.0
 40
260.96488088068128
 50
180.0
 51
239.1321627132975
  0
LINE
  5
7D1A
  8
2
 10
701.9029518807323
 20
1371.5909786624079
 30
0.0
 11
701.9029518807323
 21
1576.036178662408
 31
0.0
  0
CIRCLE
  5
7D1B
  8
1
 10
701.9029518807323
 20
1467.575078662408
 30
0.0
 40
82.599999999999994
  0
ARC
  5
7D1C
  8
1
 10
701.9029518807323
 20
1467.575078662408
 30
0.0
 40
97.0
 50
297.50360000000001
 51
180.0
  0
ARC
  5
7D1D
  8
1
 10
701.9029518807323
 20
1467.575078662408
 30
0.0
 40
97.0
 50
297.50360000000001
 51
180.0
  0
ARC
  5
7D1E
  8
1
 10
701.9029518807323
 20
1467.575078662408
 30
0.0
 40
100.8
 50
300.30070000000001
 51
180.0
  0
ARC
  5
7D1F
  8
1
 10
701.9029518807323
 20
1467.575078662408
 30
0.0
 40
100.8
 50
300.30070000000001
 51
180.0
  0
LINE
  5
7D20
  8
1
 10
551.90295188073264
 20
1347.575078662408
 30
0.0
 11
851.9029518807323
 21
1347.575078662408
 31
0.0
  0
LINE
  5
7D21
  8
1
 10
561.90295188073276
 20
1317.575078662408
 30
0.0
 11
561.90295188073242
 21
1242.575078662408
 31
0.0
  0
LINE
  5
7D22
  8
1
 10
561.90295188073242
 20
1206.575078662408
 30
0.0
 11
561.90295188073242
 21
1131.575078662408
 31
0.0
  0
LINE
  5
7D23
  8
1
 10
752.82705188073237
 20
1380.575078662408
 30
0.0
 11
650.87195188073247
 21
1380.575078662408
 31
0.0
  0
LINE
  5
7D24
  8
1
 10
752.82705188073237
 20
1380.575078662408
 30
0.0
 11
650.87195188073247
 21
1380.575078662408
 31
0.0
  0
LINE
  5
7D25
  8
1
 10
746.73345188073245
 20
1381.575078662408
 30
0.0
 11
656.77905188073225
 21
1381.575078662408
 31
0.0
  0
LINE
  5
7D26
  8
1
 10
746.73345188073245
 20
1381.575078662408
 30
0.0
 11
656.77905188073225
 21
1381.575078662408
 31
0.0
  0
LINE
  5
7D27
  8
1
 10
600.99908041204537
 20
1377.575078662408
 30
0.0
 11
802.80682334941935
 21
1377.575078662408
 31
0.0
  0
LINE
  5
7D28
  8
2
 10
806.3681518807324
 20
1467.575078662408
 30
0.0
 11
595.80015188073219
 21
1467.575078662408
 31
0.0
  0
ARC
  5
7D29
  8
1
 10
701.9029518807323
 20
1467.575078662408
 30
0.0
 40
100.8
 50
180.0
 51
239.6066999999999
  0
ARC
  5
7D2A
  8
1
 10
701.9029518807323
 20
1467.575078662408
 30
0.0
 40
97.0
 50
180.0
 51
242.3874999999999
  0
ARC
  5
7D2B
  8
1
 10
701.9029518807323
 20
1467.575078662408
 30
0.0
 40
100.8
 50
180.0
 51
239.6066999999999
  0
ARC
  5
7D2C
  8
1
 10
701.9029518807323
 20
1467.575078662408
 30
0.0
 40
97.0
 50
180.0
 51
242.3874999999999
  0
LINE
  5
7D2D
  8
1
 10
551.90295188073264
 20
1317.575078662408
 30
0.0
 11
551.90295188073276
 21
1347.575078662408
 31
0.0
  0
LINE
  5
7D2E
  8
1
 10
589.4029518807323
 20
1347.575078662408
 30
0.0
 11
600.99908041204537
 21
1377.575078662408
 31
0.0
  0
LINE
  5
7D2F
  8
1
 10
613.90295188073242
 20
1377.575078662408
 30
0.0
 11
653.90295188073242
 21
1377.575078662408
 31
0.0
  0
LINE
  5
7D30
  8
1
 10
619.75635188073227
 20
1409.157778662408
 30
0.0
 11
613.90295188073242
 21
1385.575078662408
 31
0.0
  0
LINE
  5
7D31
  8
1
 10
613.90295188073242
 20
1377.575078662408
 30
0.0
 11
613.90295188073242
 21
1385.575078662408
 31
0.0
  0
LINE
  5
7D32
  8
1
 10
631.90295188073242
 20
1373.2085786624079
 30
0.0
 11
631.90295188073242
 21
1390.1119786624081
 31
0.0
  0
LINE
  5
7D33
  8
1
 10
653.90295188073242
 20
1380.5060786624081
 30
0.0
 11
653.90295188073242
 21
1377.575078662408
 31
0.0
  0
LINE
  5
7D34
  8
1
 10
789.90295188073242
 20
1377.575078662408
 30
0.0
 11
749.90295188073242
 21
1377.575078662408
 31
0.0
  0
LINE
  5
7D35
  8
1
 10
749.90295188073242
 20
1380.547878662408
 30
0.0
 11
749.90295188073242
 21
1377.575078662408
 31
0.0
  0
LINE
  5
7D36
  8
1
 10
814.4029518807323
 20
1347.575078662408
 30
0.0
 11
802.80682334941935
 21
1377.575078662408
 31
0.0
  0
LINE
  5
7D37
  8
1
 10
789.90295188073242
 20
1377.575078662408
 30
0.0
 11
789.90295188073242
 21
1385.575078662408
 31
0.0
  0
LINE
  5
7D38
  8
1
 10
784.04945188073236
 20
1409.157778662408
 30
0.0
 11
789.90295188073242
 21
1385.575078662408
 31
0.0
  0
LINE
  5
7D39
  8
1
 10
771.90295188073242
 20
1373.2085786624079
 30
0.0
 11
771.90295188073242
 21
1390.1119786624081
 31
0.0
  0
LINE
  5
7D3A
  8
1
 10
1001.902951880732
 20
1357.575078662408
 30
0.0
 11
1031.902951880732
 21
1357.575078662408
 31
0.0
  0
LINE
  5
7D3B
  8
1
 10
1001.902951880732
 20
1322.575078662408
 30
0.0
 11
1031.902951880732
 21
1322.575078662408
 31
0.0
  0
LINE
  5
7D3C
  8
1
 10
926.58060308350059
 20
1460.775078662409
 30
0.0
 11
1031.902951880732
 21
1460.775078662409
 31
0.0
  0
LINE
  5
7D3D
  8
1
 10
928.98685578203504
 20
1456.2750786624081
 30
0.0
 11
1031.902951880732
 21
1456.2750786624081
 31
0.0
  0
LINE
  5
7D3E
  8
1
 10
851.9029518807323
 20
1317.575078662408
 30
0.0
 11
851.9029518807323
 21
1347.575078662408
 31
0.0
  0
LINE
  5
7D3F
  8
1
 10
1001.902951880732
 20
1357.575078662408
 30
0.0
 11
1001.902951880732
 21
1317.575078662408
 31
0.0
  0
LINE
  5
7D40
  8
1
 10
981.90295188073276
 20
1500.7750786624081
 30
0.0
 11
981.90295188073276
 21
1460.775078662409
 31
0.0
  0
LINE
  5
7D41
  8
1
 10
1031.902951880732
 20
1500.7750786624081
 30
0.0
 11
1031.902951880732
 21
1317.575078662408
 31
0.0
  0
LINE
  5
7D42
  8
1
 10
1021.902951880732
 20
1503.9750786624079
 30
0.0
 11
1021.902951880732
 21
1500.7750786624081
 31
0.0
  0
LINE
  5
7D43
  8
1
 10
1098.4029518807331
 20
1509.9750786624079
 30
0.0
 11
1152.402951880732
 21
1509.9750786624079
 31
0.0
  0
LINE
  5
7D44
  8
1
 10
689.49927383962029
 20
1617.0613615483389
 30
0.0
 11
1173.633833186658
 21
1657.232600586362
 31
0.0
  0
LINE
  5
7D45
  8
1
 10
1172.6505392506319
 20
1620.3973904673901
 30
0.0
 11
689.86753009732558
 21
1549.2935503961321
 31
0.0
  0
LINE
  5
7D46
  8
1
 10
784.50295188073233
 20
2470.5880713936631
 30
0.0
 11
619.30295188073285
 21
2470.5880713936631
 31
0.0
  0
LINE
  5
7D47
  8
1
 10
784.50295188073233
 20
2420.5880713936622
 30
0.0
 11
619.30295188073285
 21
2420.5880713936622
 31
0.0
  0
LINE
  5
7D48
  8
1
 10
619.30295188073285
 20
2470.5880713936631
 30
0.0
 11
619.30295188073273
 21
2420.5880713936622
 31
0.0
  0
LINE
  5
7D49
  8
1
 10
713.90295188073242
 20
2420.5880713936631
 30
0.0
 11
689.90295188073242
 21
2420.5880713936631
 31
0.0
  0
LINE
  5
7D4A
  8
1
 10
714.4029518807323
 20
2470.5880713936631
 30
0.0
 11
689.4029518807323
 21
2470.5880713936631
 31
0.0
  0
LINE
  5
7D4B
  8
1
 10
784.50295188073233
 20
2470.5880713936631
 30
0.0
 11
784.50295188073233
 21
2420.5880713936622
 31
0.0
  0
LINE
  5
7D4C
  8
1
 10
1118.402951880732
 20
2470.5880713936631
 30
0.0
 11
1118.402951880732
 21
2420.5880713936622
 31
0.0
  0
DIMENSION
  5
7D4D
  8
3
  2
*D12
 10
1837.638717446669
 20
1935.1862483374521
 30
0.0
 11
1796.3887174466679
 21
1533.3806634999301
 31
0.0
 70
     0
 13
1361.902951880732
 23
1131.575078662408
 33
0.0
 14
1426.9029518807331
 24
1935.1862483374521
 34
0.0
 50
90.0
1001
ACAD
1000
DSTYLE
1002
{
1070
   287
1070
     3
1070
    40
1040
15.0
1070
    43
1040
0.0
1070
   147
1040
1.5
1070
   173
1070
     1
1070
   271
1070
     0
1070
   272
1070
     4
1070
   279
1070
     0
1070
   284
1070
     0
1070
   285
1070
     0
1070
   286
1070
     0
1070
     6
1000
ARROW
1070
     7
1000
ARROW
1002
}
  0
DIMENSION
  5
7D4E
  8
3
  2
*D13
 10
1639.5073189171301
 20
1242.575078662408
 30
0.0
 11
1598.2573189171301
 21
1400.075078662408
 31
0.0
 70
     0
 13
1438.363078231218
 23
1557.575078662408
 33
0.0
 14
1361.9029518807331
 24
1242.575078662408
 34
0.0
 50
90.0
1001
ACAD
1000
DSTYLE
1002
{
1070
   287
1070
     4
1070
    40
1040
15.0
1070
    43
1040
0.0
1070
    75
1070
     1
1070
   147
1040
1.5
1070
   173
1070
     1
1070
   271
1070
     0
1070
   272
1070
     4
1070
   279
1070
     1
1070
   284
1070
     0
1070
   285
1070
     0
1070
   286
1070
     0
1070
     6
1000
ARROW
1070
     7
1000
ARROW
1002
}
  0
ARC
  5
7D4F
  8
1
 10
1163.402951880732
 20
1539.075078662408
 30
0.0
 40
218.11047620624919
 50
349.88647698484908
 51
359.99999999999989
  0
LINE
  5
7D50
  8
1
 10
2141.5877467388941
 20
1509.9750786624079
 30
0.0
 11
2141.5877467388941
 21
1528.9750786624079
 31
0.0
  0
LINE
  5
7D51
  8
1
 10
2189.5877467388941
 20
1509.9750786624079
 30
0.0
 11
2189.5877467388941
 21
1528.9750786624079
 31
0.0
  0
ARC
  5
7D52
  8
1
 10
1168.9000078055069
 20
1533.4993696002
 30
0.0
 40
201.58952384937541
 50
277.79780284392967
 51
1.5639777644250381
  0
LINE
  5
7D53
  8
2
 10
1181.902951880732
 20
1651.7143938548841
 30
0.0
 11
1181.902951880732
 21
1106.0732493915971
 31
0.0
  0
LINE
  5
7D54
  8
1
 10
2461.5877467388941
 20
1509.9750786624079
 30
0.0
 11
2461.5877467388941
 21
1528.9750786624079
 31
0.0
  0
LINE
  5
7D55
  8
1
 10
2509.5877467388941
 20
1509.9750786624079
 30
0.0
 11
2509.5877467388941
 21
1528.9750786624079
 31
0.0
  0
LINE
  5
7D56
  8
1
 10
2107.5877467388941
 20
1657.575078662408
 30
0.0
 11
2107.5877467388941
 21
1317.575078662408
 31
0.0
  0
LINE
  5
7D57
  8
1
 10
2015.5877467388941
 20
1657.575078662408
 30
0.0
 11
2015.5877467388941
 21
1317.575078662408
 31
0.0
  0
LINE
  5
7D58
  8
1
 10
2095.5877467388941
 20
1621.075078662408
 30
0.0
 11
2095.5877467388941
 21
1494.075078662408
 31
0.0
  0
LINE
  5
7D59
  8
1
 10
2110.5877467388941
 20
1528.575078662408
 30
0.0
 11
2110.5877467388941
 21
1326.575078662408
 31
0.0
  0
LINE
  5
7D5A
  8
1
 10
2045.5877467388941
 20
1621.075078662408
 30
0.0
 11
2045.5877467388941
 21
1494.075078662408
 31
0.0
  0
LINE
  5
7D5B
  8
2
 10
2165.5877467388941
 20
1623.840243510675
 30
0.0
 11
2165.5877467388941
 21
1464.7783660818261
 31
0.0
  0
LINE
  5
7D5C
  8
2
 10
2485.5877467388932
 20
1625.2166701138481
 30
0.0
 11
2485.5877467388932
 21
1454.0422385770739
 31
0.0
  0
DIMENSION
  5
7D5D
  8
3
  2
*D14
 10
1639.5073189171301
 20
1131.575078662408
 30
0.0
 11
1598.2573189171301
 21
1018.717935805265
 31
0.0
 70
     0
 13
1361.902951880732
 23
1206.575078662408
 33
0.0
 14
1361.902951880732
 24
1131.575078662408
 34
0.0
 50
90.0
1001
ACAD
1000
DSTYLE
1002
{
1070
   287
1070
     3
1070
    40
1040
15.0
1070
    43
1040
0.0
1070
   147
1040
1.5
1070
   173
1070
     1
1070
   271
1070
     0
1070
   272
1070
     4
1070
   279
1070
     0
1070
   284
1070
     0
1070
   285
1070
     0
1070
   286
1070
     0
1070
     6
1000
YA_N
1070
     7
1000
OPEN
1002
}
  0
DIMENSION
  5
7D5E
  8
3
  2
*D15
 10
1639.5073189171301
 20
1206.575078662408
 30
0.0
 11
1767.9001760599881
 21
1276.7195493676861
 31
0.0
 70
   128
  1
(36)
 13
1361.9029518807331
 23
1242.575078662408
 33
0.0
 14
1361.902951880732
 24
1206.575078662408
 34
0.0
 50
90.0
1001
ACAD
1000
DSTYLE
1002
{
1070
   287
1070
     4
1070
    40
1040
15.0
1070
    43
1040
0.0
1070
    75
1070
     1
1070
   147
1040
1.5
1070
   173
1070
     1
1070
   271
1070
     0
1070
   272
1070
     4
1070
   279
1070
     1
1070
   284
1070
     0
1070
   285
1070
     0
1070
   286
1070
     0
1070
     6
1000
OPEN
1070
     7
1000
YA_N
1002
}
  0
LINE
  5
7D5F
  8
1
 10
1361.9029518807331
 20
1357.575078662408
 30
0.0
 11
1361.9029518807331
 21
1242.575078662408
 31
0.0
  0
LINE
  5
7D60
  8
1
 10
1361.902951880732
 20
1206.575078662408
 30
0.0
 11
1361.902951880732
 21
1131.575078662408
 31
0.0
  0
ARC
  5
7D61
  8
1
 10
1163.402951880732
 20
1539.075078662408
 30
0.0
 40
218.11047620624919
 50
320.58291564581879
 51
337.68959758343522
  0
LINE
  5
7D62
  8
1
 10
1331.9029518807331
 20
1456.2750786624081
 30
0.0
 11
1381.9029518807331
 21
1456.2750786624081
 31
0.0
  0
LINE
  5
7D63
  8
1
 10
1331.9029518807331
 20
1460.7750786624081
 30
0.0
 11
1381.9029518807331
 21
1460.7750786624081
 31
0.0
  0
LINE
  5
7D64
  8
1
 10
1331.9029518807331
 20
1357.575078662408
 30
0.0
 11
1361.9029518807331
 21
1357.575078662408
 31
0.0
  0
LINE
  5
7D65
  8
1
 10
1331.902951880732
 20
1322.575078662408
 30
0.0
 11
1361.9029518807331
 21
1322.575078662408
 31
0.0
  0
LINE
  5
7D66
  8
1
 10
1331.9029518807331
 20
1500.7750786624081
 30
0.0
 11
1331.902951880732
 21
1317.575078662408
 31
0.0
  0
LINE
  5
7D67
  8
1
 10
1265.4029518807331
 20
1509.9750786624079
 30
0.0
 11
1211.402951880732
 21
1509.9750786624079
 31
0.0
  0
LINE
  5
7D68
  8
1
 10
1341.9029518807331
 20
1503.9750786624079
 30
0.0
 11
1341.9029518807331
 21
1500.7750786624081
 31
0.0
  0
LINE
  5
7D69
  8
1
 10
1381.9029518807331
 20
1500.7750786624081
 30
0.0
 11
1381.9029518807331
 21
1456.2750786624081
 31
0.0
  0
CIRCLE
  5
7D6A
  8
1
 10
1639.5073189171301
 20
1206.575078662408
 30
0.0
 40
3.0
  0
LINE
  5
7D6B
  8
1
 10
2015.5877467388941
 20
1317.575078662408
 30
0.0
 11
2216.1263852043712
 21
1317.575078662408
 31
0.0
  0
POLYLINE
  5
7D6C
  8
1
 66
     1
 10
0.0
 20
0.0
 30
0.0
 70
     1
  0
VERTEX
  5
8151
  8
1
 10
2198.0877467388941
 20
1503.9750786624079
 30
0.0
  0
VERTEX
  5
8152
  8
1
 10
2133.0877467388941
 20
1503.9750786624079
 30
0.0
  0
VERTEX
  5
8153
  8
1
 10
2133.0877467388941
 20
1509.9750786624079
 30
0.0
  0
VERTEX
  5
8154
  8
1
 10
2198.0877467388941
 20
1509.9750786624079
 30
0.0
  0
SEQEND
  5
8155
  8
1
  0
LINE
  5
7D72
  8
1
 10
2530.5877467388932
 20
1500.7750786624081
 30
0.0
 11
2120.5877467388941
 21
1500.7750786624081
 31
0.0
  0
LINE
  5
7D73
  8
1
 10
2530.5877467388932
 20
1503.9750786624079
 30
0.0
 11
2120.5877467388941
 21
1503.9750786624079
 31
0.0
  0
LINE
  5
7D74
  8
1
 10
2088.5877467388941
 20
1317.575078662408
 30
0.0
 11
2088.5877467388941
 21
1242.575078662408
 31
0.0
  0
LINE
  5
7D75
  8
1
 10
2088.5877467388941
 20
1206.575078662408
 30
0.0
 11
2088.5877467388941
 21
1131.575078662408
 31
0.0
  0
LINE
  5
7D76
  8
1
 10
2095.587746738895
 20
1510.1750786624079
 30
0.0
 11
2095.587746738895
 21
1344.975078662409
 31
0.0
  0
LINE
  5
7D77
  8
1
 10
2045.5877467388941
 20
1510.1750786624079
 30
0.0
 11
2045.5877467388941
 21
1344.975078662409
 31
0.0
  0
LINE
  5
7D78
  8
1
 10
2100.5877467388941
 20
1391.075078662408
 30
0.0
 11
2100.5877467388941
 21
1464.075078662408
 31
0.0
  0
LINE
  5
7D79
  8
1
 10
2127.3877467388929
 20
1500.7750786624081
 30
0.0
 11
2127.3877467388938
 21
1317.575078662408
 31
0.0
  0
LINE
  5
7D7A
  8
1
 10
2130.5877467388941
 20
1500.7750786624081
 30
0.0
 11
2130.5877467388941
 21
1317.575078662408
 31
0.0
  0
LINE
  5
7D7B
  8
1
 10
2101.5877467388941
 20
1390.075078662408
 30
0.0
 11
2109.5877467388941
 21
1390.075078662408
 31
0.0
  0
LINE
  5
7D7C
  8
1
 10
2095.587746738895
 20
1344.975078662409
 30
0.0
 11
2045.5877467388941
 21
1344.9750786624079
 31
0.0
  0
ARC
  5
7D7D
  8
1
 10
2101.5878467388939
 20
1391.075078662408
 30
0.0
 40
1.0000999999999991
 50
180.0
 51
269.99650000000003
  0
LINE
  5
7D7E
  8
1
 10
2110.5877467388941
 20
1326.575078662408
 30
0.0
 11
2127.3877467388938
 21
1326.575078662408
 31
0.0
  0
ARC
  5
7D7F
  8
1
 10
2109.5877467388941
 20
1389.075078662408
 30
0.0
 40
1.0000999999999991
 50
0.0
 51
89.996500000000054
  0
LINE
  5
7D80
  8
1
 10
2100.5877467388941
 20
1464.075078662408
 30
0.0
 11
2110.5877467388941
 21
1464.075078662408
 31
0.0
  0
LINE
  5
7D81
  8
2
 10
2139.8857121359429
 20
1427.575078662408
 30
0.0
 11
2040.5531467388951
 21
1427.575078662408
 31
0.0
  0
LINE
  5
7D82
  8
1
 10
2045.5877467388941
 20
1439.575078662408
 30
0.0
 11
2045.5877467388941
 21
1415.575078662408
 31
0.0
  0
LINE
  5
7D83
  8
1
 10
2100.5877467388941
 20
1415.075078662408
 30
0.0
 11
2095.5877467388941
 21
1415.075078662408
 31
0.0
  0
LINE
  5
7D84
  8
1
 10
2100.5877467388941
 20
1440.075078662408
 30
0.0
 11
2095.5877467388941
 21
1440.075078662408
 31
0.0
  0
LINE
  5
7D85
  8
1
 10
2095.5877467388941
 20
1440.075078662408
 30
0.0
 11
2095.5877467388941
 21
1415.075078662408
 31
0.0
  0
LINE
  5
7D86
  8
1
 10
2095.587746738895
 20
1494.075078662408
 30
0.0
 11
2045.587746738895
 21
1494.075078662408
 31
0.0
  0
LINE
  5
7D87
  8
1
 10
2095.587746738895
 20
1510.1750786624079
 30
0.0
 11
2045.5877467388941
 21
1510.1750786624079
 31
0.0
  0
LINE
  5
7D88
  8
1
 10
2189.5877467388941
 20
1509.9750786624079
 30
0.0
 11
2141.5877467388941
 21
1509.9750786624079
 31
0.0
  0
LINE
  5
7D89
  8
1
 10
2189.5877467388941
 20
1509.9750786624079
 30
0.0
 11
2141.5877467388941
 21
1509.9750786624079
 31
0.0
  0
LINE
  5
7D8A
  8
1
 10
2120.5877467388941
 20
1500.7750786624081
 30
0.0
 11
2120.5877467388941
 21
1503.9750786624079
 31
0.0
  0
LINE
  5
7D8B
  8
1
 10
2520.5877467388932
 20
1499.4750786624079
 30
0.0
 11
2520.5877467388932
 21
1317.575078662408
 31
0.0
  0
LINE
  5
7D8C
  8
1
 10
2520.5877467388932
 20
1499.4750786624079
 30
0.0
 11
2520.5877467388932
 21
1449.4750786624079
 31
0.0
  0
LINE
  5
7D8D
  8
1
 10
2520.5877467388932
 20
1499.475078662409
 30
0.0
 11
2520.5877467388932
 21
1459.475078662409
 31
0.0
  0
LINE
  5
7D8E
  8
1
 10
2461.5877467388941
 20
1509.9750786624079
 30
0.0
 11
2509.5877467388941
 21
1509.9750786624079
 31
0.0
  0
LINE
  5
7D8F
  8
1
 10
2461.5877467388941
 20
1509.9750786624079
 30
0.0
 11
2509.5877467388941
 21
1509.9750786624079
 31
0.0
  0
POLYLINE
  5
7D90
  8
1
 66
     1
 10
0.0
 20
0.0
 30
0.0
 70
     1
  0
VERTEX
  5
8156
  8
1
 10
2453.0877467388932
 20
1503.9750786624079
 30
0.0
  0
VERTEX
  5
8157
  8
1
 10
2518.0877467388941
 20
1503.9750786624079
 30
0.0
  0
VERTEX
  5
8158
  8
1
 10
2518.0877467388941
 20
1509.9750786624079
 30
0.0
  0
VERTEX
  5
8159
  8
1
 10
2453.0877467388932
 20
1509.9750786624079
 30
0.0
  0
SEQEND
  5
815A
  8
1
  0
LINE
  5
7D96
  8
1
 10
2530.5877467388932
 20
1503.9750786624079
 30
0.0
 11
2530.5877467388918
 21
1500.7750786624081
 31
0.0
  0
DIMENSION
  5
7D97
  8
3
  2
*D16
 10
1181.902951880732
 20
2040.828104727703
 30
0.0
 11
1304.402951880732
 21
2082.0781047277028
 31
0.0
 70
     0
 13
1426.9029518807331
 23
1935.1862483374521
 33
0.0
 14
1181.902951880732
 24
1941.6594657790311
 34
0.0
1001
ACAD
1000
DSTYLE
1002
{
1070
   287
1070
     3
1070
    40
1040
15.0
1070
    43
1040
0.0
1070
   147
1040
1.5
1070
   173
1070
     1
1070
   271
1070
     0
1070
   272
1070
     4
1070
   279
1070
     0
1070
   284
1070
     0
1070
   285
1070
     0
1070
   286
1070
     0
1070
     6
1000
ARROW
1070
     7
1000
ARROW
1002
}
  0
DIMENSION
  5
7D98
  8
3
  2
*D17
 10
1639.5073189171301
 20
1557.575078662408
 30
0.0
 11
1598.2573189171301
 21
1733.075078662408
 31
0.0
 70
     0
 13
1426.9029518807331
 23
1908.575078662408
 33
0.0
 14
1438.363078231218
 24
1557.575078662408
 34
0.0
 50
90.0
1001
ACAD
1000
DSTYLE
1002
{
1070
   287
1070
     3
1070
    40
1040
15.0
1070
    43
1040
0.0
1070
   147
1040
1.5
1070
   173
1070
     1
1070
   271
1070
     0
1070
   272
1070
     4
1070
   279
1070
     0
1070
   284
1070
     0
1070
   285
1070
     0
1070
   286
1070
     0
1070
     6
1000
ARROW
1070
     7
1000
ARROW
1002
}
  0
DIMENSION
  5
7D99
  8
3
  2
*D18
 10
1538.9977887848429
 20
1583.575078662408
 30
0.0
 11
1497.7477887848429
 21
1746.075078662408
 31
0.0
 70
     0
 13
1426.9029518807331
 23
1908.575078662408
 33
0.0
 14
1426.9029518807331
 24
1583.575078662408
 34
0.0
 50
90.0
1001
ACAD
1000
DSTYLE
1002
{
1070
   287
1070
     3
1070
    40
1040
15.0
1070
    43
1040
0.0
1070
   147
1040
1.5
1070
   173
1070
     1
1070
   271
1070
     0
1070
   272
1070
     4
1070
   279
1070
     0
1070
   284
1070
     0
1070
   285
1070
     0
1070
   286
1070
     0
1070
     6
1000
ARROW
1070
     7
1000
ARROW
1002
}
  0
LINE
  5
7D9A
  8
2
 10
1181.902951880732
 20
1941.6594657790311
 30
0.0
 11
1181.902951880732
 21
1670.6543208330729
 31
0.0
  0
LINE
  5
7D9B
  8
1
 10
1401.9029518807331
 20
1915.6857054579659
 30
0.0
 11
1401.9029518807331
 21
1579.1862483374521
 31
0.0
  0
LINE
  5
7D9C
  8
1
 10
1423.902951880732
 20
1555.1862483374521
 30
0.0
 11
1423.902951880732
 21
1935.1862483374521
 31
0.0
  0
LINE
  5
7D9D
  8
1
 10
1426.9029518807331
 20
1555.1862483374521
 30
0.0
 11
1426.9029518807331
 21
1935.1862483374521
 31
0.0
  0
LINE
  5
7D9E
  8
1
 10
1181.902951880732
 20
1657.575078662408
 30
0.0
 11
1181.902951880732
 21
1657.575078662408
 31
0.0
  0
LINE
  5
7D9F
  8
1
 10
1401.9029518807331
 20
1573.575078662408
 30
0.0
 11
1378.1970873061009
 21
1573.575078662408
 31
0.0
  0
LINE
  5
7DA0
  8
1
 10
1368.1245707768139
 20
1580.1862483374521
 30
0.0
 11
1426.9029518807331
 21
1580.1862483374521
 31
0.0
  0
LINE
  5
7DA1
  8
1
 10
1426.9029518807331
 20
1583.575078662408
 30
0.0
 11
1367.282125510606
 21
1583.575078662408
 31
0.0
  0
ARC
  5
7DA2
  8
1
 10
1200.402951880734
 20
1539.0750786624069
 30
0.0
 40
181.11047620624669
 50
0.0000000000002158
 51
10.98146693575638
  0
ARC
  5
7DA3
  8
1
 10
1200.402951880732
 20
1539.075078662408
 30
0.0
 40
170.010476206249
 50
359.9999999999996
 51
14.93106042372524
  0
LINE
  5
7DA4
  8
1
 10
1423.902951880732
 20
1557.1862483374521
 30
0.0
 11
1423.902951880732
 21
1573.1862483374521
 31
0.0
  0
LINE
  5
7DA5
  8
1
 10
1426.9029518807331
 20
1580.1862483374521
 30
0.0
 11
1426.9029518807331
 21
1555.1862483374521
 31
0.0
  0
ARC
  5
7DA6
  8
1
 10
1425.9029518807331
 20
1557.1862483374521
 30
0.0
 40
2.0
 50
180.0
 51
270.0
  0
LINE
  5
7DA7
  8
1
 10
1426.9029518807331
 20
1555.1862483374521
 30
0.0
 11
1425.9029518807331
 21
1555.1862483374521
 31
0.0
  0
ARC
  5
7DA8
  8
1
 10
1419.902951880732
 20
1573.1862483374521
 30
0.0
 40
4.0
 50
0.0
 51
90.0
  0
ARC
  5
7DA9
  8
1
 10
1403.902951880732
 20
1579.1862483374521
 30
0.0
 40
2.0
 50
180.0
 51
270.0
  0
LINE
  5
7DAA
  8
1
 10
1401.9029518807331
 20
1579.1862483374521
 30
0.0
 11
1401.9029518807331
 21
1580.1862483374521
 31
0.0
  0
LINE
  5
7DAB
  8
1
 10
1401.9029518807331
 20
1573.575078662408
 30
0.0
 11
1401.9029518807331
 21
1580.1862483374521
 31
0.0
  0
LINE
  5
7DAC
  8
1
 10
1419.902951880732
 20
1577.1862483374521
 30
0.0
 11
1403.902951880732
 21
1577.1862483374521
 31
0.0
  0
LINE
  5
7DAD
  8
1
 10
1401.9029518807331
 20
1915.6857054579659
 30
0.0
 11
1180.911955780479
 21
1889.527587552222
 31
0.0
  0
POLYLINE
  5
7DAE
  8
1
 66
     1
 10
0.0
 20
0.0
 30
0.0
  0
VERTEX
  5
8176
  8
1
 10
1426.9029518807331
 20
1910.186248337453
 30
0.0
  0
VERTEX
  5
8177
  8
1
 10
1282.133607579492
 20
1893.050285134449
 30
0.0
 42
0.3908380251735333
  0
SEQEND
  5
8178
  8
1
  0
LINE
  5
7DB2
  8
1
 10
1426.9029518807331
 20
1910.186248337453
 30
0.0
 11
1181.7445976477461
 21
1881.167504367017
 31
0.0
  0
LINE
  5
7DB3
  8
1
 10
1426.9029518807331
 20
1908.575078662408
 30
0.0
 11
1419.2726402064341
 21
1908.575078662408
 31
0.0
  0
ARC
  5
7DB4
  8
1
 10
1425.902951880732
 20
1933.1862483374521
 30
0.0
 40
2.0
 50
90.0
 51
180.0
  0
LINE
  5
7DB5
  8
1
 10
1426.902951880732
 20
1935.1862483374521
 30
0.0
 11
1425.902951880732
 21
1935.1862483374521
 31
0.0
  0
ARC
  5
7DB6
  8
1
 10
1419.902951880732
 20
1917.1862483374521
 30
0.0
 40
4.0
 50
270.0
 51
0.0
  0
LINE
  5
7DB7
  8
1
 10
1426.902951880732
 20
1910.186248337453
 30
0.0
 11
1426.902951880732
 21
1935.1862483374521
 31
0.0
  0
LINE
  5
7DB8
  8
1
 10
1423.902951880732
 20
1933.1862483374521
 30
0.0
 11
1423.902951880732
 21
1917.1862483374521
 31
0.0
  0
LINE
  5
7DB9
  8
1
 10
1401.902951880732
 20
1911.1862483374521
 30
0.0
 11
1401.902951880732
 21
1910.186248337453
 31
0.0
  0
ARC
  5
7DBA
  8
1
 10
1403.9029518807311
 20
1911.1862483374521
 30
0.0
 40
2.0
 50
90.0
 51
180.0
  0
LINE
  5
7DBB
  8
1
 10
1401.9029518807331
 20
1906.615894988938
 30
0.0
 11
1401.9029518807331
 21
1905.6158949889391
 31
0.0
  0
LINE
  5
7DBC
  8
1
 10
1401.902951880732
 20
1910.186248337453
 30
0.0
 11
1426.902951880732
 21
1910.186248337453
 31
0.0
  0
LINE
  5
7DBD
  8
1
 10
1419.902951880732
 20
1913.186248337453
 30
0.0
 11
1403.9029518807311
 21
1913.186248337453
 31
0.0
  0
LINE
  5
7DBE
  8
1
 10
1361.9029518807331
 20
2463.5880713936622
 30
0.0
 11
1281.902951880732
 21
2463.5880713936622
 31
0.0
  0
LINE
  5
7DBF
  8
1
 10
1245.4029518807331
 20
2470.5880713936622
 30
0.0
 11
1245.4029518807331
 21
2420.5880713936622
 31
0.0
  0
POINT
  5
7DC0
  8
1
 10
1361.902951880732
 20
2463.5880713936622
 30
0.0
  0
LINE
  5
7DC1
  8
1
 10
2197.8877467388938
 20
1584.9862233717779
 30
0.0
 11
2180.8669561801098
 21
1584.9862233717779
 31
0.0
  0
LINE
  5
7DC2
  8
1
 10
2197.8877467388938
 20
1530.1639339530379
 30
0.0
 11
2189.2723836697069
 21
1530.1639339530379
 31
0.0
  0
LINE
  5
7DC3
  8
1
 10
2015.587746738895
 20
1657.575078662408
 30
0.0
 11
2107.5877467388941
 21
1657.575078662408
 31
0.0
  0
LINE
  5
7DC4
  8
1
 10
2145.0799049587181
 20
1540.075078662408
 30
0.0
 11
2107.5877467388941
 21
1540.075078662408
 31
0.0
  0
LINE
  5
7DC5
  8
1
 10
2146.7877467388939
 20
1575.075078662408
 30
0.0
 11
2107.5877467388941
 21
1575.075078662408
 31
0.0
  0
LINE
  5
7DC6
  8
1
 10
2095.587746738895
 20
1621.0750786624089
 30
0.0
 11
2045.587746738895
 21
1621.075078662408
 31
0.0
  0
ARC
  5
7DC7
  8
1
 10
2445.5751799379618
 20
1597.5161354528391
 30
0.0
 40
265.0046083029427
 50
179.34767661318941
 51
194.9894391436155
  0
ARC
  5
7DC8
  8
1
 10
1885.6003135398271
 20
1597.5161354528391
 30
0.0
 40
265.0046083029427
 50
345.01056085638442
 51
0.6523233868105212
  0
LINE
  5
7DC9
  8
1
 10
2189.5877467388941
 20
1528.9750786624079
 30
0.0
 11
2141.5877467388941
 21
1528.9750786624079
 31
0.0
  0
LINE
  5
7DCA
  8
1
 10
2110.5877467388941
 20
1528.575078662408
 30
0.0
 11
2141.5877467388941
 21
1528.575078662408
 31
0.0
  0
LINE
  5
7DCB
  8
1
 10
2150.3085372976789
 20
1584.9862233717779
 30
0.0
 11
2146.7877467388939
 21
1584.9862233717779
 31
0.0
  0
LINE
  5
7DCC
  8
1
 10
2146.7877467388939
 20
1552.6990944898439
 30
0.0
 11
2146.7877467388939
 21
1584.9862233717779
 31
0.0
  0
ARC
  5
7DCD
  8
1
 10
2163.3914544240329
 20
1579.1401404903941
 30
0.0
 40
24.931864229136519
 50
84.94616189605199
 51
120.9004470316801
  0
POLYLINE
  5
7DCE
  8
1
 66
     1
 10
0.0
 20
0.0
 30
0.0
 70
     1
  0
VERTEX
  5
8179
  8
1
 10
2171.9396718763242
 20
1612.336502142919
 30
0.0
  0
VERTEX
  5
817A
  8
1
 10
2167.2946871033969
 20
1612.336502142919
 30
0.0
  0
VERTEX
  5
817B
  8
1
 10
2167.2946871033969
 20
1603.9750786624079
 30
0.0
  0
VERTEX
  5
817C
  8
1
 10
2171.9396718763242
 20
1603.9750786624079
 30
0.0
  0
SEQEND
  5
817D
  8
1
  0
ARC
  5
7DD4
  8
1
 10
2167.7840390537549
 20
1579.1401404903941
 30
0.0
 40
24.931864229136519
 50
59.099552968319841
 51
95.053838103948024
  0
LINE
  5
7DD5
  8
1
 10
2453.287746738893
 20
1540.075078662408
 30
0.0
 11
2197.8877467388938
 21
1540.075078662408
 31
0.0
  0
LINE
  5
7DD6
  8
1
 10
2453.287746738893
 20
1575.075078662408
 30
0.0
 11
2197.8877467388938
 21
1575.075078662408
 31
0.0
  0
LINE
  5
7DD7
  8
1
 10
2197.8877467388938
 20
1530.1639339530379
 30
0.0
 11
2197.8877467388938
 21
1584.9862233717779
 31
0.0
  0
ARC
  5
7DD8
  8
1
 10
2205.6003135398259
 20
1597.5161354528391
 30
0.0
 40
265.0046083029427
 50
345.01056085638442
 51
0.6523233868105212
  0
ARC
  5
7DD9
  8
1
 10
2765.5751799379609
 20
1597.5161354528391
 30
0.0
 40
265.0046083029427
 50
179.34767661318941
 51
194.9894391436155
  0
LINE
  5
7DDA
  8
1
 10
2461.5877467388941
 20
1528.9750786624079
 30
0.0
 11
2509.5877467388941
 21
1528.9750786624079
 31
0.0
  0
LINE
  5
7DDB
  8
1
 10
2453.287746738893
 20
1530.1639339530379
 30
0.0
 11
2453.287746738893
 21
1584.9862233717779
 31
0.0
  0
LINE
  5
7DDC
  8
1
 10
2453.287746738893
 20
1584.9862233717779
 30
0.0
 11
2470.308537297678
 21
1584.9862233717779
 31
0.0
  0
LINE
  5
7DDD
  8
1
 10
2453.287746738893
 20
1530.1639339530379
 30
0.0
 11
2461.90310980808
 21
1530.1639339530379
 31
0.0
  0
LINE
  5
7DDE
  8
1
 10
2504.3877467388938
 20
1552.6990944898439
 30
0.0
 11
2504.3877467388938
 21
1584.9862233717779
 31
0.0
  0
LINE
  5
7DDF
  8
1
 10
2500.8669561801089
 20
1584.9862233717779
 30
0.0
 11
2504.3877467388938
 21
1584.9862233717779
 31
0.0
  0
ARC
  5
7DE0
  8
1
 10
2487.7840390537549
 20
1579.1401404903941
 30
0.0
 40
24.931864229136519
 50
59.099552968319841
 51
95.053838103948024
  0
ARC
  5
7DE1
  8
1
 10
2483.391454424032
 20
1579.1401404903941
 30
0.0
 40
24.931864229136519
 50
84.94616189605199
 51
120.9004470316801
  0
POLYLINE
  5
7DE2
  8
1
 66
     1
 10
0.0
 20
0.0
 30
0.0
 70
     1
  0
VERTEX
  5
817E
  8
1
 10
2479.2358216014641
 20
1612.336502142919
 30
0.0
  0
VERTEX
  5
817F
  8
1
 10
2483.88080637439
 20
1612.336502142919
 30
0.0
  0
VERTEX
  5
8180
  8
1
 10
2483.88080637439
 20
1603.9750786624079
 30
0.0
  0
VERTEX
  5
8181
  8
1
 10
2479.2358216014641
 20
1603.9750786624079
 30
0.0
  0
SEQEND
  5
8182
  8
1
  0
DIMENSION
  5
7DE8
  8
3
  2
*D19
 10
1001.902951880732
 20
3339.3775501069449
 30
0.0
 11
1181.902951880732
 21
3380.6275501069449
 31
0.0
 70
     0
 13
1361.9029518807331
 23
3243.5880713936622
 33
0.0
 14
1001.902951880732
 24
3243.5880713936622
 34
0.0
1001
ACAD
1000
DSTYLE
1002
{
1070
   287
1070
     3
1070
    40
1040
15.0
1070
    43
1040
0.0
1070
   147
1040
1.5
1070
   173
1070
     1
1070
   272
1070
     4
1070
   279
1070
     0
1070
   284
1070
     0
1070
   285
1070
     0
1070
   286
1070
     0
1070
     6
1000
ARROW
1070
     7
1000
ARROW
1002
}
  0
LINE
  5
7DE9
  8
1
 10
1041.902951880734
 20
3238.5880713936631
 30
0.0
 11
1321.9029518807331
 21
3238.5880713936631
 31
0.0
  0
LINE
  5
7DEA
  8
1
 10
1098.402951880732
 20
2839.0880713936622
 30
0.0
 11
1265.4029518807331
 21
2839.0880713936631
 31
0.0
  0
LINE
  5
7DEB
  8
1
 10
1098.402951880732
 20
2882.0880713936622
 30
0.0
 11
1265.4029518807331
 21
2882.0880713936622
 31
0.0
  0
LINE
  5
7DEC
  8
1
 10
1341.902951880732
 20
2905.5880713936622
 30
0.0
 11
1021.902951880732
 21
2905.5880713936622
 31
0.0
  0
LINE
  5
7DED
  8
2
 10
1078.0342731920571
 20
2860.5880713936622
 30
0.0
 11
1288.0884134185001
 21
2860.5880713936622
 31
0.0
  0
LINE
  5
7DEE
  8
1
 10
905.33807100005083
 20
2960.5880713936631
 30
0.0
 11
1422.9029518807311
 21
2960.5880713936631
 31
0.0
  0
LINE
  5
7DEF
  8
1
 10
905.33807100005083
 20
3196.5880713936631
 30
0.0
 11
1422.9029518807311
 21
3196.5880713936622
 31
0.0
  0
LINE
  5
7DF0
  8
1
 10
1041.902951880734
 20
3198.5880713936622
 30
0.0
 11
1321.9029518807331
 21
3198.5880713936622
 31
0.0
  0
LINE
  5
7DF1
  8
2
 10
881.87169033336795
 20
3078.5880713936622
 30
0.0
 11
1431.502071906948
 21
3078.5880713936622
 31
0.0
  0
LINE
  5
7DF2
  8
1
 10
1098.402951880732
 20
2519.0880713936631
 30
0.0
 11
1265.4029518807331
 21
2519.0880713936631
 31
0.0
  0
LINE
  5
7DF3
  8
1
 10
1098.402951880732
 20
2562.0880713936631
 30
0.0
 11
1265.4029518807331
 21
2562.0880713936631
 31
0.0
  0
LINE
  5
7DF4
  8
1
 10
1341.9029518807331
 20
2495.5880713936622
 30
0.0
 11
1021.902951880732
 21
2495.5880713936622
 31
0.0
  0
LINE
  5
7DF5
  8
2
 10
1078.0342731920571
 20
2540.5880713936622
 30
0.0
 11
1288.0884134185001
 21
2540.5880713936622
 31
0.0
  0
LINE
  5
7DF6
  8
1
 10
1281.902951880732
 20
2482.5880713936622
 30
0.0
 11
551.9029518807323
 21
2482.5880713936622
 31
0.0
  0
LINE
  5
7DF7
  8
1
 10
1041.9029518807331
 20
2905.5880713936622
 30
0.0
 11
1041.902951880734
 21
2960.5880713936631
 31
0.0
  0
LINE
  5
7DF8
  8
1
 10
1164.4029518807331
 20
2960.5880713936631
 30
0.0
 11
1164.402951880732
 21
2882.0880713936622
 31
0.0
  0
DIMENSION
  5
7DF9
  8
3
  2
*D20
 10
561.90295188073105
 20
3339.3775501069449
 30
0.0
 11
781.90295188073196
 21
3380.6275501069449
 31
0.0
 70
     0
 13
1001.902951880732
 23
3243.5880713936622
 33
0.0
 14
561.90295188073105
 24
2843.5880713936622
 34
0.0
1001
ACAD
1000
DSTYLE
1002
{
1070
   287
1070
     4
1070
    40
1040
15.0
1070
    43
1040
0.0
1070
    75
1070
     1
1070
   147
1040
1.5
1070
   173
1070
     1
1070
   272
1070
     4
1070
   279
1070
     1
1070
   284
1070
     0
1070
   285
1070
     0
1070
   286
1070
     0
1070
     6
1000
ARROW
1070
     7
1000
ARROW
1002
}
  0
LINE
  5
7DFA
  8
1
 10
1001.902951880733
 20
2503.5880713936622
 30
0.0
 11
1001.902951880733
 21
2960.5880713936631
 31
0.0
  0
LINE
  5
7DFB
  8
1
 10
1001.902951880732
 20
2803.5880713936622
 30
0.0
 11
561.90295188073276
 21
2803.5880713936622
 31
0.0
  0
LINE
  5
7DFC
  8
1
 10
1001.902951880732
 20
2843.5880713936622
 30
0.0
 11
561.90295188073276
 21
2843.5880713936622
 31
0.0
  0
LINE
  5
7DFD
  8
1
 10
1021.902951880732
 20
2503.5880713936622
 30
0.0
 11
802.9029518807323
 21
2503.5880713936622
 31
0.0
  0
LINE
  5
7DFE
  8
1
 10
802.9029518807323
 20
2747.5880713936631
 30
0.0
 11
802.9029518807323
 21
2485.5880713936631
 31
0.0
  0
LINE
  5
7DFF
  8
1
 10
600.90295188073242
 20
2747.5880713936631
 30
0.0
 11
600.90295188073242
 21
2485.5880713936631
 31
0.0
  0
LINE
  5
7E00
  8
1
 10
665.40295188073242
 20
2475.5880713936631
 30
0.0
 11
738.40295188073242
 21
2475.5880713936631
 31
0.0
  0
LINE
  5
7E01
  8
2
 10
784.50295188073233
 20
2526.5880713936622
 30
0.0
 11
619.30295188073285
 21
2526.5880713936622
 31
0.0
  0
LINE
  5
7E02
  8
1
 10
802.9029518807323
 20
2485.5880713936631
 30
0.0
 11
600.90295188073242
 21
2485.5880713936631
 31
0.0
  0
LINE
  5
7E03
  8
1
 10
600.90295188073219
 20
2503.5880713936622
 30
0.0
 11
561.90295188073276
 21
2503.5880713936622
 31
0.0
  0
LINE
  5
7E04
  8
1
 10
561.90295188073208
 20
2482.5880713936622
 30
0.0
 11
561.90295188073196
 21
2503.5880713936622
 31
0.0
  0
ARC
  5
7E05
  8
1
 10
665.40295188073242
 20
2476.5881713936628
 30
0.0
 40
1.0000999999999991
 50
180.00349999999989
 51
270.0
  0
ARC
  5
7E06
  8
1
 10
663.40295188073242
 20
2484.5880713936631
 30
0.0
 40
1.0000999999999991
 50
0.0034999999999464
 51
90.0
  0
LINE
  5
7E07
  8
1
 10
664.4029518807323
 20
2476.5880713936631
 30
0.0
 11
664.4029518807323
 21
2484.5880713936631
 31
0.0
  0
LINE
  5
7E08
  8
1
 10
738.40295188073242
 20
2475.5880713936631
 30
0.0
 11
738.40295188073242
 21
2485.5880713936631
 31
0.0
  0
LINE
  5
7E09
  8
1
 10
802.9029518807323
 20
2747.5880713936631
 30
0.0
 11
600.90295188073242
 21
2747.5880713936631
 31
0.0
  0
LINE
  5
7E0A
  8
1
 10
561.90295188073105
 20
2803.5880713936622
 30
0.0
 11
561.90295188073105
 21
2843.5880713936622
 31
0.0
  0
POINT
  5
7E0B
  8
1
 10
561.90295188073105
 20
2843.5880713936622
 30
0.0
  0
LINE
  5
7E0C
  8
1
 10
1164.402951880732
 20
2839.0880713936631
 30
0.0
 11
1164.4029518807331
 21
2562.0880713936631
 31
0.0
  0
LINE
  5
7E0D
  8
1
 10
1021.902951880732
 20
2495.5880713936622
 30
0.0
 11
1021.902951880732
 21
2905.5880713936622
 31
0.0
  0
LINE
  5
7E0E
  8
1
 10
1081.902951880732
 20
2508.0880713936631
 30
0.0
 11
1164.4029518807331
 21
2508.0880713936631
 31
0.0
  0
LINE
  5
7E0F
  8
1
 10
1081.902951880732
 20
2573.0880713936631
 30
0.0
 11
1164.4029518807331
 21
2573.0880713936631
 31
0.0
  0
LINE
  5
7E10
  8
1
 10
1081.902951880732
 20
2573.0880713936631
 30
0.0
 11
1081.902951880732
 21
2508.0880713936631
 31
0.0
  0
LINE
  5
7E11
  8
1
 10
1098.402951880732
 20
2562.0880713936631
 30
0.0
 11
1098.402951880732
 21
2519.0880713936631
 31
0.0
  0
LINE
  5
7E12
  8
1
 10
1081.902951880732
 20
2893.0880713936631
 30
0.0
 11
1081.902951880732
 21
2828.0880713936631
 31
0.0
  0
LINE
  5
7E13
  8
1
 10
1081.902951880732
 20
2828.0880713936631
 30
0.0
 11
1164.4029518807331
 21
2828.0880713936631
 31
0.0
  0
LINE
  5
7E14
  8
1
 10
1081.902951880732
 20
2893.0880713936631
 30
0.0
 11
1164.4029518807331
 21
2893.0880713936631
 31
0.0
  0
LINE
  5
7E15
  8
1
 10
1098.402951880732
 20
2882.0880713936622
 30
0.0
 11
1098.402951880732
 21
2839.0880713936622
 31
0.0
  0
LINE
  5
7E16
  8
1
 10
905.33807100005083
 20
2960.5880713936631
 30
0.0
 11
905.33807100005083
 21
3196.5880713936631
 31
0.0
  0
LINE
  5
7E17
  8
1
 10
1001.902951880732
 20
3243.5880713936622
 30
0.0
 11
1041.902951880734
 21
3243.5880713936622
 31
0.0
  0
LINE
  5
7E18
  8
1
 10
1001.902951880732
 20
3196.5880713936631
 30
0.0
 11
1001.902951880732
 21
3243.5880713936622
 31
0.0
  0
POINT
  5
7E19
  8
1
 10
1001.902951880732
 20
3243.5880713936622
 30
0.0
  0
LINE
  5
7E1A
  8
1
 10
1041.902951880734
 20
3196.5880713936631
 30
0.0
 11
1041.902951880734
 21
3243.5880713936622
 31
0.0
  0
LINE
  5
7E1B
  8
1
 10
1422.902951880732
 20
2933.5880713936622
 30
0.0
 11
1422.902951880732
 21
3223.5880713936622
 31
0.0
  0
LINE
  5
7E1C
  8
1
 10
1425.902951880732
 20
2933.5880713936622
 30
0.0
 11
1425.902951880732
 21
3223.5880713936622
 31
0.0
  0
LINE
  5
7E1D
  8
1
 10
1199.402951880732
 20
2960.5880713936631
 30
0.0
 11
1199.402951880732
 21
2882.0880713936622
 31
0.0
  0
LINE
  5
7E1E
  8
1
 10
1321.9029518807331
 20
2960.5880713936631
 30
0.0
 11
1321.9029518807331
 21
2905.5880713936622
 31
0.0
  0
LINE
  5
7E1F
  8
1
 10
1341.9029518807331
 20
2495.5880713936622
 30
0.0
 11
1341.9029518807331
 21
2905.5880713936622
 31
0.0
  0
LINE
  5
7E20
  8
1
 10
1199.402951880732
 20
2839.0880713936631
 30
0.0
 11
1199.402951880732
 21
2562.0880713936631
 31
0.0
  0
LINE
  5
7E21
  8
1
 10
1361.902951880732
 20
2503.5880713936631
 30
0.0
 11
1341.9029518807331
 21
2503.5880713936622
 31
0.0
  0
LINE
  5
7E22
  8
1
 10
1199.402951880732
 20
2508.0880713936631
 30
0.0
 11
1281.902951880732
 21
2508.0880713936622
 31
0.0
  0
LINE
  5
7E23
  8
1
 10
1199.402951880732
 20
2573.0880713936631
 30
0.0
 11
1281.902951880732
 21
2573.0880713936631
 31
0.0
  0
LINE
  5
7E24
  8
1
 10
1265.4029518807331
 20
2562.0880713936631
 30
0.0
 11
1265.4029518807331
 21
2519.0880713936631
 31
0.0
  0
LINE
  5
7E25
  8
1
 10
1281.902951880732
 20
2573.0880713936631
 30
0.0
 11
1281.902951880732
 21
2508.0880713936631
 31
0.0
  0
LINE
  5
7E26
  8
1
 10
1281.902951880732
 20
2893.0880713936631
 30
0.0
 11
1281.902951880732
 21
2828.0880713936631
 31
0.0
  0
LINE
  5
7E27
  8
1
 10
1199.402951880732
 20
2828.0880713936631
 30
0.0
 11
1281.902951880732
 21
2828.0880713936622
 31
0.0
  0
LINE
  5
7E28
  8
1
 10
1199.402951880732
 20
2893.0880713936631
 30
0.0
 11
1281.902951880732
 21
2893.0880713936631
 31
0.0
  0
LINE
  5
7E29
  8
1
 10
1265.4029518807331
 20
2882.0880713936622
 30
0.0
 11
1265.4029518807331
 21
2839.0880713936622
 31
0.0
  0
LINE
  5
7E2A
  8
1
 10
1422.9029518807311
 20
2933.5880713936622
 30
0.0
 11
1425.902951880732
 21
2933.5880713936622
 31
0.0
  0
LINE
  5
7E2B
  8
1
 10
1321.9029518807331
 20
3243.5880713936622
 30
0.0
 11
1361.9029518807331
 21
3243.5880713936622
 31
0.0
  0
LINE
  5
7E2C
  8
1
 10
1321.9029518807331
 20
3243.5880713936622
 30
0.0
 11
1321.9029518807331
 21
3196.5880713936631
 31
0.0
  0
LINE
  5
7E2D
  8
1
 10
1361.9029518807331
 20
3243.5880713936622
 30
0.0
 11
1361.9029518807331
 21
3196.5880713936631
 31
0.0
  0
LINE
  5
7E2E
  8
1
 10
1422.9029518807311
 20
3223.5880713936622
 30
0.0
 11
1425.902951880732
 21
3223.5880713936622
 31
0.0
  0
POINT
  5
7E2F
  8
1
 10
1361.9029518807331
 20
3243.5880713936622
 30
0.0
  0
POINT
  5
7E30
  8
1
 10
1361.9029518807331
 20
3243.5880713936622
 30
0.0
  0
DIMENSION
  5
7E31
  8
3
  2
*D21
 10
2976.7677182813818
 20
1400.075078662408
 30
0.0
 11
2935.5177182813809
 21
1557.575078662408
 31
0.0
 70
     0
 13
2849.5877467388941
 23
1715.075078662408
 33
0.0
 14
2849.5877467388941
 24
1400.075078662408
 34
0.0
 50
90.0
1001
ACAD
1000
DSTYLE
1002
{
1070
   287
1070
     3
1070
     3
1000
φ<>
1070
    40
1040
15.0
1070
    43
1040
0.0
1070
   147
1040
1.5
1070
   173
1070
     1
1070
   271
1070
     4
1070
   272
1070
     4
1070
   279
1070
     0
1070
   284
1070
     0
1070
   285
1070
     0
1070
   286
1070
     0
1070
     6
1000
ARROW
1070
     7
1000
ARROW
1002
}
  0
LINE
  5
7E32
  8
1
 10
2823.5877467388941
 20
1555.1862483374521
 30
0.0
 11
2823.5877467388941
 21
1321.6161744345779
 31
0.0
  0
LINE
  5
7E33
  8
1
 10
2583.587746738895
 20
1555.1862483374521
 30
0.0
 11
2583.5877467388941
 21
1321.6161744345779
 31
0.0
  0
LINE
  5
7E34
  8
1
 10
2821.587746738895
 20
1555.1862483374521
 30
0.0
 11
2821.5877467388941
 21
1321.6161744345779
 31
0.0
  0
LINE
  5
7E35
  8
1
 10
2585.587746738895
 20
1555.1862483374521
 30
0.0
 11
2585.587746738895
 21
1321.6161744345779
 31
0.0
  0
LINE
  5
7E36
  8
1
 10
2827.5877467388941
 20
1555.1862483374521
 30
0.0
 11
2827.5877467388941
 21
1393.075078662408
 31
0.0
  0
LINE
  5
7E37
  8
1
 10
2824.5877467388941
 20
1375.075078662408
 30
0.0
 11
2824.5877467388941
 21
1555.1862483374521
 31
0.0
  0
LINE
  5
7E38
  8
1
 10
2849.5877467388941
 20
1400.075078662408
 30
0.0
 11
2849.5877467388941
 21
1716.0751054266341
 31
0.0
  0
LINE
  5
7E39
  8
2
 10
2703.5877467388941
 20
1974.178061334602
 30
0.0
 11
2703.5877467388941
 21
1106.0732493915971
 31
0.0
  0
DIMENSION
  5
7E3A
  8
3
  2
*D22
 10
2868.5877467388941
 20
975.21353235295726
 30
0.0
 11
2786.0877467388941
 21
1016.463532352957
 31
0.0
 70
     0
 13
2703.5877467388941
 23
1106.0732493915971
 33
0.0
 14
2868.5877467388941
 24
1131.575078662408
 34
0.0
1001
ACAD
1000
DSTYLE
1002
{
1070
   287
1070
     3
1070
    40
1040
15.0
1070
    43
1040
0.0
1070
   147
1040
1.5
1070
   173
1070
     1
1070
   271
1070
     0
1070
   272
1070
     4
1070
   279
1070
     0
1070
   284
1070
     0
1070
   285
1070
     0
1070
   286
1070
     0
1070
     6
1000
ARROW
1070
     7
1000
ARROW
1002
}
  0
LINE
  5
7E3B
  8
1
 10
2868.5877467388941
 20
1317.575078662408
 30
0.0
 11
2868.5877467388941
 21
1242.575078662408
 31
0.0
  0
LINE
  5
7E3C
  8
1
 10
2868.5877467388941
 20
1206.575078662408
 30
0.0
 11
2868.5877467388941
 21
1131.575078662408
 31
0.0
  0
LINE
  5
7E3D
  8
1
 10
2583.5877467388941
 20
1331.6161744345779
 30
0.0
 11
2821.5877467388941
 21
1331.6161744345779
 31
0.0
  0
POLYLINE
  5
7E3E
  8
1
 66
     1
 10
0.0
 20
0.0
 30
0.0
 70
     1
  0
VERTEX
  5
81A6
  8
1
 10
2583.5877467388941
 20
1317.61617443458
 30
0.0
  0
VERTEX
  5
81A7
  8
1
 10
2583.5877467388941
 20
1357.61617443458
 30
0.0
  0
VERTEX
  5
81A8
  8
1
 10
2581.587746738895
 20
1357.61617443458
 30
0.0
 42
0.4142135623730951
  0
VERTEX
  5
81A9
  8
1
 10
2578.5877467388941
 20
1354.61617443458
 30
0.0
  0
VERTEX
  5
81AA
  8
1
 10
2578.5877467388941
 20
1327.11617443458
 30
0.0
 42
-0.4142135623730951
  0
VERTEX
  5
81AB
  8
1
 10
2574.0877467388941
 20
1322.61617443458
 30
0.0
  0
VERTEX
  5
81AC
  8
1
 10
2546.5877467388941
 20
1322.61617443458
 30
0.0
 42
0.4142135623730951
  0
VERTEX
  5
81AD
  8
1
 10
2543.5877467388941
 20
1319.61617443458
 30
0.0
  0
VERTEX
  5
81AE
  8
1
 10
2543.5877467388941
 20
1317.61617443458
 30
0.0
  0
SEQEND
  5
81AF
  8
1
  0
LINE
  5
7E49
  8
1
 10
2583.5877467388941
 20
1321.6161744345779
 30
0.0
 11
2585.587746738895
 21
1321.6161744345779
 31
0.0
  0
LINE
  5
7E4A
  8
1
 10
2533.5877467388941
 20
1460.7750786624081
 30
0.0
 11
2583.587746738895
 21
1460.7750786624081
 31
0.0
  0
LINE
  5
7E4B
  8
1
 10
2533.5877467388941
 20
1454.7750786624081
 30
0.0
 11
2583.587746738895
 21
1454.7750786624081
 31
0.0
  0
LINE
  5
7E4C
  8
1
 10
2533.5877467388941
 20
1454.7750786624081
 30
0.0
 11
2533.5877467388941
 21
1459.4750786624079
 31
0.0
  0
LINE
  5
7E4D
  8
1
 10
2533.5877467388941
 20
1460.7750786624081
 30
0.0
 11
2533.5877467388941
 21
1454.7750786624081
 31
0.0
  0
POLYLINE
  5
7E4E
  8
1
 66
     1
 10
0.0
 20
0.0
 30
0.0
  0
VERTEX
  5
81B0
  8
1
 10
2823.5877467388941
 20
1332.61617443458
 30
0.0
  0
VERTEX
  5
81B1
  8
1
 10
2823.5877467388941
 20
1357.61617443458
 30
0.0
  0
VERTEX
  5
81B2
  8
1
 10
2825.5877467388941
 20
1357.61617443458
 30
0.0
 42
-0.4142135623730951
  0
VERTEX
  5
81B3
  8
1
 10
2828.5877467388941
 20
1354.61617443458
 30
0.0
  0
VERTEX
  5
81B4
  8
1
 10
2828.5877467388941
 20
1332.61617443458
 30
0.0
 42
0.4142135623730951
  0
SEQEND
  5
81B5
  8
1
  0
POLYLINE
  5
7E55
  8
1
 66
     1
 10
0.0
 20
0.0
 30
0.0
  0
VERTEX
  5
81B6
  8
1
 10
2828.5877467388941
 20
1332.61617443458
 30
0.0
  0
VERTEX
  5
81B7
  8
1
 10
2828.5877467388941
 20
1327.11617443458
 30
0.0
 42
0.4142135623730951
  0
VERTEX
  5
81B8
  8
1
 10
2833.0877467388941
 20
1322.61617443458
 30
0.0
  0
VERTEX
  5
81B9
  8
1
 10
2860.587746738895
 20
1322.61617443458
 30
0.0
 42
-0.4142135623730951
  0
VERTEX
  5
81BA
  8
1
 10
2863.587746738895
 20
1319.61617443458
 30
0.0
  0
VERTEX
  5
81BB
  8
1
 10
2863.587746738895
 20
1317.61617443458
 30
0.0
  0
VERTEX
  5
81BC
  8
1
 10
2823.5877467388941
 20
1317.61617443458
 30
0.0
  0
SEQEND
  5
81BD
  8
1
  0
POLYLINE
  5
7E5E
  8
1
 66
     1
 10
0.0
 20
0.0
 30
0.0
  0
VERTEX
  5
81BE
  8
1
 10
2823.5877467388941
 20
1317.61617443458
 30
0.0
  0
VERTEX
  5
81BF
  8
1
 10
2823.5877467388941
 20
1332.61617443458
 30
0.0
  0
SEQEND
  5
81C0
  8
1
  0
LINE
  5
7E62
  8
1
 10
2821.5877467388941
 20
1321.6161744345779
 30
0.0
 11
2823.587746738895
 21
1321.6161744345779
 31
0.0
  0
ARC
  5
7E63
  8
1
 10
2825.5877467388941
 20
1377.075078662408
 30
0.0
 40
2.0
 50
270.0
 51
0.0
  0
ARC
  5
7E64
  8
1
 10
2831.587746738895
 20
1393.075078662408
 30
0.0
 40
4.0
 50
90.0
 51
180.0
  0
LINE
  5
7E65
  8
1
 10
2825.5877467388941
 20
1375.075078662408
 30
0.0
 11
2824.5877467388941
 21
1375.075078662408
 31
0.0
  0
LINE
  5
7E66
  8
1
 10
2827.5877467388941
 20
1393.075078662408
 30
0.0
 11
2827.5877467388941
 21
1377.075078662408
 31
0.0
  0
LINE
  5
7E67
  8
1
 10
2847.587746738895
 20
1397.075078662408
 30
0.0
 11
2831.587746738895
 21
1397.075078662408
 31
0.0
  0
ARC
  5
7E68
  8
1
 10
2847.587746738895
 20
1399.075078662408
 30
0.0
 40
2.0
 50
270.0
 51
0.0
  0
LINE
  5
7E69
  8
1
 10
2849.5877467388941
 20
1400.075078662408
 30
0.0
 11
2849.5877467388941
 21
1399.075078662408
 31
0.0
  0
DIMENSION
  5
7E6A
  8
3
  2
*D23
 10
2824.5877467388941
 20
2140.9731539415639
 30
0.0
 11
2764.0877467388941
 21
2182.2231539415639
 31
0.0
 70
     0
 13
2703.5877467388941
 23
1974.178061334602
 33
0.0
 14
2824.5877467388941
 24
1555.1862483374521
 34
0.0
1001
ACAD
1000
DSTYLE
1002
{
1070
   287
1070
     3
1070
    40
1040
15.0
1070
    43
1040
0.0
1070
   147
1040
1.5
1070
   173
1070
     1
1070
   271
1070
     0
1070
   272
1070
     4
1070
   279
1070
     0
1070
   284
1070
     0
1070
   285
1070
     0
1070
   286
1070
     0
1070
     6
1000
ARROW
1070
     7
1000
ARROW
1002
}
  0
DIMENSION
  5
7E6B
  8
3
  2
*D24
 10
2821.5877467388941
 20
2040.738222451768
 30
0.0
 11
2703.5877467388941
 21
2081.9882224517678
 31
0.0
 70
     0
 13
2585.587746738895
 23
1910.186248337453
 33
0.0
 14
2821.5877467388941
 24
1910.186248337453
 34
0.0
1001
ACAD
1000
DSTYLE
1002
{
1070
   287
1070
     3
1070
    40
1040
15.0
1070
    43
1040
0.0
1070
   147
1040
1.5
1070
   173
1070
     1
1070
   271
1070
     0
1070
   272
1070
     4
1070
   279
1070
     0
1070
   284
1070
     0
1070
   285
1070
     0
1070
   286
1070
     0
1070
     6
1000
ARROW
1070
     7
1000
ARROW
1002
}
  0
LINE
  5
7E6C
  8
1
 10
2585.587746738895
 20
1910.186248337453
 30
0.0
 11
2821.5877467388941
 21
1580.1862483374521
 31
0.0
  0
LINE
  5
7E6D
  8
1
 10
2823.5877467388941
 20
1910.186248337453
 30
0.0
 11
2585.587746738895
 21
1580.1862483374521
 31
0.0
  0
LINE
  5
7E6E
  8
1
 10
2585.587746738895
 20
1910.186248337453
 30
0.0
 11
2585.587746738895
 21
1580.1862483374521
 31
0.0
  0
LINE
  5
7E6F
  8
1
 10
2821.5877467388941
 20
1910.186248337453
 30
0.0
 11
2821.5877467388941
 21
1580.1862483374521
 31
0.0
  0
LINE
  5
7E70
  8
1
 10
2583.5877467388941
 20
1910.186248337453
 30
0.0
 11
2583.5877467388941
 21
1580.1862483374521
 31
0.0
  0
LINE
  5
7E71
  8
1
 10
2823.5877467388941
 20
1910.186248337453
 30
0.0
 11
2823.5877467388941
 21
1580.1862483374521
 31
0.0
  0
LINE
  5
7E72
  8
1
 10
2848.5877467388941
 20
1935.1862483374521
 30
0.0
 11
2848.5877467388941
 21
1555.1862483374521
 31
0.0
  0
LINE
  5
7E73
  8
1
 10
2558.5877467388941
 20
1935.1862483374521
 30
0.0
 11
2558.5877467388941
 21
1555.1862483374521
 31
0.0
  0
LINE
  5
7E74
  8
1
 10
2583.5877467388941
 20
1580.1862483374521
 30
0.0
 11
2823.5877467388941
 21
1580.1862483374521
 31
0.0
  0
LINE
  5
7E75
  8
1
 10
2558.5877467388941
 20
1555.1862483374521
 30
0.0
 11
2848.5877467388941
 21
1555.1862483374521
 31
0.0
  0
LINE
  5
7E76
  8
1
 10
2849.5877467388941
 20
1716.0751054266341
 30
0.0
 11
2848.5877467388941
 21
1716.0751054266341
 31
0.0
  0
LINE
  5
7E77
  8
1
 10
2583.5877467388941
 20
1910.186248337453
 30
0.0
 11
2823.5877467388941
 21
1910.186248337453
 31
0.0
  0
LINE
  5
7E78
  8
1
 10
2558.5877467388941
 20
1935.1862483374521
 30
0.0
 11
2848.5877467388941
 21
1935.1862483374521
 31
0.0
  0
LINE
  5
8083
  8
4
 10
2775.0
 20
750.0
 30
0.0
 11
2775.0
 21
450.0
 31
0.0
  0
LINE
  5
8084
  8
4
 10
1725.0
 20
750.0
 30
0.0
 11
1725.0
 21
450.0
 31
0.0
  0
LINE
  5
8085
  8
4
 10
975.0
 20
750.0
 30
0.0
 11
975.0
 21
450.0
 31
0.0
  0
LINE
  5
8088
  8
4
 10
975.0
 20
450.0
 30
0.0
 11
2775.0
 21
450.0
 31
0.0
  0
LINE
  5
8089
  8
4
 10
975.0
 20
600.0
 30
0.0
 11
2775.0
 21
600.0
 31
0.0
  0
TEXT
  5
808A
  8
4
 10
1032.753121270352
 20
647.31453879991932
 30
0.0
 40
75.0
  1
機器名称
  0
TEXT
  5
808B
  8
4
 10
1029.3871590371959
 20
482.46773509801642
 30
0.0
 40
75.0
  1
機器型番
  0
TEXT
  5
808C
  8
4
 10
1733.8115101329511
 20
634.0913930483091
 30
0.0
 40
67.5
  1
ミツヤリミットロードファン
  0
TEXT
  5
808D
  8
4
 10
1779.9817433782209
 20
475.739376419915
 30
0.0
 40
75.0
  1
LL#2-1
  0
TEXT
  5
808F
  8
4
 10
1122.000583055938
 20
3575.1432619987731
 30
0.0
 40
80.999999999999986
  1
床置防振ベット
  0
TEXT
  5
8090
  8
4
 10
474.25138999416959
 20
3800.8214642989469
 30
0.0
 40
108.0
  1
遠心式片吸込片持リミットロードファン
  0
LINE
  5
8091
  8
4
 10
375.0
 20
3704.1131313972069
 30
0.0
 11
2775.0
 21
3704.1131313972069
 31
0.0
  0
LINE
  5
8092
  8
4
 10
375.0
 20
4004.1131313972069
 30
0.0
 11
2775.0
 21
4004.1131313972069
 31
0.0
  0
LINE
  5
8093
  8
4
 10
975.0
 20
750.0
 30
0.0
 11
2775.0
 21
750.0
 31
0.0
  0
LINE
  5
8094
  8
4
 10
375.0
 20
4004.1131313972069
 30
0.0
 11
375.0
 21
3704.1131313972069
 31
0.0
  0
TEXT
  5
8095
  8
4
 10
468.21233469188508
 20
3573.4792163195152
 30
0.0
 40
80.999999999999986
  1
右回転右横向
  0
TEXT
  5
8096
  8
4
 10
2203.4543388739339
 20
4059.0916222429628
 30
0.0
 40
84.000000000000014
  1
No.
  0
TEXT
  5
8097
  8
4
 10
1966.944093900019
 20
3575.1432619987731
 30
0.0
 40
80.999999999999986
  1
縮尺：1/15
  0
LINE
  5
8098
  8
4
 10
2775.0
 20
4004.1131313972069
 30
0.0
 11
2775.0
 21
3704.1131313972069
 31
0.0
  0
LINE
  5
8099
  8
4
 10
3150.0
 20
4425.0
 30
0.0
 11
3150.0
 21
4425.0
 31
0.0
  0
LINE
  5
809A
  8
4
 10
2160.9261335397969
 20
4021.895374688102
 30
0.0
 11
2160.9261335397969
 21
4179.9783923246277
 31
0.0
  0
LINE
  5
809B
  8
4
 10
2160.9261335397969
 20
4179.9783923246277
 30
0.0
 11
2775.0
 21
4179.9783923246277
 31
0.0
  0
LINE
  5
809C
  8
4
 10
2775.0
 20
4179.9783923246277
 30
0.0
 11
2775.0
 21
4021.895374688102
 31
0.0
  0
LINE
  5
809D
  8
4
 10
2775.0
 20
4021.895374688102
 30
0.0
 11
2160.9261335397969
 21
4021.895374688102
 31
0.0
  0
LINE
  5
809E
  8
4
 10
0.0
 20
0.0
 30
0.0
 11
0.0
 21
4425.0
 31
0.0
  0
LINE
  5
809F
  8
4
 10
0.0
 20
4425.0
 30
0.0
 11
3150.0
 21
4425.0
 31
0.0
  0
LINE
  5
80A0
  8
4
 10
3150.0
 20
4425.0
 30
0.0
 11
3150.0
 21
0.0
 31
0.0
  0
LINE
  5
80A1
  8
4
 10
3150.0
 20
0.0
 30
0.0
 11
0.0
 21
0.0
 31
0.0
  0
ENDSEC
  0
EOF
