  0
SECTION
  2
HEADER
  9
$ACADVER
  1
AC1009
  9
$INSBASE
 10
0.0
 20
0.0
 30
0.0
  9
$EXTMIN
 10
0.0
 20
0.0
 30
0.0
  9
$EXTMAX
 10
3150.0
 20
4425.0
 30
0.0
  9
$LIMMIN
 10
0.0
 20
0.0
  9
$LIMMAX
 10
297.0
 20
210.0
  9
$ORTHOMODE
 70
     0
  9
$REGENMODE
 70
     1
  9
$FILLMODE
 70
     0
  9
$QTEXTMODE
 70
     0
  9
$MIRRTEXT
 70
     1
  9
$DRAGMODE
 70
     2
  9
$LTSCALE
 40
100.0
  9
$OSMODE
 70
    37
  9
$ATTMODE
 70
     1
  9
$TEXTSIZE
 40
180.0
  9
$TRACEWID
 40
0.05
  9
$TEXTSTYLE
  7
STANDARD
  9
$CLAYER
  8
4
  9
$CELTYPE
  6
BYLAYER
  9
$CECOLOR
 62
   256
  9
$DIMSCALE
 40
1.0
  9
$DIMASZ
 40
2.0
  9
$DIMEXO
 40
0.5
  9
$DIMDLI
 40
10.0
  9
$DIMRND
 40
0.0
  9
$DIMDLE
 40
0.0
  9
$DIMEXE
 40
1.0
  9
$DIMTP
 40
1.0
  9
$DIMTM
 40
1.0
  9
$DIMTXT
 40
3.0
  9
$DIMCEN
 40
0.0
  9
$DIMTSZ
 40
0.0
  9
$DIMTOL
 70
     0
  9
$DIMLIM
 70
     0
  9
$DIMTIH
 70
     0
  9
$DIMTOH
 70
     0
  9
$DIMSE1
 70
     0
  9
$DIMSE2
 70
     0
  9
$DIMTAD
 70
     1
  9
$DIMZIN
 70
     8
  9
$DIMBLK
  1

  9
$DIMASO
 70
     1
  9
$DIMSHO
 70
     1
  9
$DIMPOST
  1

  9
$DIMAPOST
  1

  9
$DIMALT
 70
     0
  9
$DIMALTD
 70
     2
  9
$DIMALTF
 40
0.039
  9
$DIMLFAC
 40
1.0
  9
$DIMTOFL
 70
     1
  9
$DIMTVP
 40
0.0
  9
$DIMTIX
 70
     0
  9
$DIMSOXD
 70
     0
  9
$DIMSAH
 70
     1
  9
$DIMBLK1
  1
OPEN
  9
$DIMBLK2
  1
OPEN
  9
$DIMSTYLE
  2
IGA
  9
$DIMCLRD
 70
     0
  9
$DIMCLRE
 70
     0
  9
$DIMCLRT
 70
     0
  9
$DIMTFAC
 40
10.0
  9
$DIMGAP
 40
1.0
  9
$LUNITS
 70
     2
  9
$LUPREC
 70
     3
  9
$SKETCHINC
 40
0.1
  9
$FILLETRAD
 40
50.0
  9
$AUNITS
 70
     0
  9
$AUPREC
 70
     0
  9
$MENU
  1
acad
  9
$ELEVATION
 40
0.0
  9
$PELEVATION
 40
0.0
  9
$THICKNESS
 40
0.0
  9
$LIMCHECK
 70
     0
  9
$BLIPMODE
 70
     0
  9
$CHAMFERA
 40
0.5
  9
$CHAMFERB
 40
0.5
  9
$SKPOLY
 70
     0
  9
$TDCREATE
 40
2451019.5994862262
  9
$TDUPDATE
 40
2454953.6381192128
  9
$TDINDWG
 40
0.0051817593
  9
$TDUSRTIMER
 40
0.0051817593
  9
$USRTIMER
 70
     1
  9
$ANGBASE
 50
0.0
  9
$ANGDIR
 70
     0
  9
$PDMODE
 70
     0
  9
$PDSIZE
 40
0.0
  9
$PLINEWID
 40
0.0
  9
$COORDS
 70
     1
  9
$SPLFRAME
 70
     0
  9
$SPLINETYPE
 70
     6
  9
$SPLINESEGS
 70
     8
  9
$ATTDIA
 70
     0
  9
$ATTREQ
 70
     1
  9
$HANDLING
 70
 10241
  9
$HANDSEED
  5
8224
  9
$SURFTAB1
 70
     6
  9
$SURFTAB2
 70
     6
  9
$SURFTYPE
 70
     6
  9
$SURFU
 70
     6
  9
$SURFV
 70
     6
  9
$UCSNAME
  2

  9
$UCSORG
 10
0.0
 20
0.0
 30
0.0
  9
$UCSXDIR
 10
1.0
 20
0.0
 30
0.0
  9
$UCSYDIR
 10
0.0
 20
1.0
 30
0.0
  9
$PUCSNAME
  2

  9
$PUCSORG
 10
0.0
 20
0.0
 30
0.0
  9
$PUCSXDIR
 10
1.0
 20
0.0
 30
0.0
  9
$PUCSYDIR
 10
0.0
 20
1.0
 30
0.0
  9
$USERI1
 70
     0
  9
$USERI2
 70
     0
  9
$USERI3
 70
     0
  9
$USERI4
 70
     0
  9
$USERI5
 70
     0
  9
$USERR1
 40
0.0
  9
$USERR2
 40
0.0
  9
$USERR3
 40
0.0
  9
$USERR4
 40
0.0
  9
$USERR5
 40
0.0
  9
$WORLDVIEW
 70
     1
  9
$SHADEDGE
 70
     3
  9
$SHADEDIF
 70
    70
  9
$TILEMODE
 70
     1
  9
$MAXACTVP
 70
    16
  9
$PLIMCHECK
 70
     0
  9
$PEXTMIN
 10
1.0000000000000000E+020
 20
1.0000000000000000E+020
 30
1.0000000000000000E+020
  9
$PEXTMAX
 10
-1.0000000000000000E+020
 20
-1.0000000000000000E+020
 30
-1.0000000000000000E+020
  9
$PLIMMIN
 10
0.0
 20
0.0
  9
$PLIMMAX
 10
12.0
 20
9.0
  9
$UNITMODE
 70
     0
  9
$VISRETAIN
 70
     0
  9
$PLINEGEN
 70
     0
  9
$PSLTSCALE
 70
     1
  0
ENDSEC
  0
SECTION
  2
TABLES
  0
TABLE
  2
VPORT
 70
     2
  0
VPORT
  2
*ACTIVE
 70
     0
 10
0.0
 20
0.0
 11
1.0
 21
1.0
 12
2881.357403632639
 22
521.62188986008732
 13
0.0
 23
0.0
 14
10.0
 24
10.0
 15
10.0
 25
10.0
 16
0.0
 26
0.0
 36
1.0
 17
0.0
 27
0.0
 37
0.0
 40
1248.6537506736231
 41
3.1666666666666661
 42
50.0
 43
0.0
 44
0.0
 50
0.0
 51
0.0
 71
     0
 72
   100
 73
     1
 74
     0
 75
     0
 76
     0
 77
     0
 78
     0
  0
ENDTAB
  0
TABLE
  2
LTYPE
 70
     2
  0
LTYPE
  2
CONTINUOUS
 70
     0
  3
Solid line
 72
    65
 73
     0
 40
0.0
  0
LTYPE
  2
CENTER
 70
     0
  3
____ _ ____ _ ____ _ ____ _ ____ _ ____ _ ____ 
 72
    65
 73
     4
 40
2.0
 49
1.25
 49
-0.25
 49
0.25
 49
-0.25
  0
ENDTAB
  0
TABLE
  2
LAYER
 70
     6
  0
LAYER
  2
0
 70
     0
 62
     7
  6
CONTINUOUS
  0
LAYER
  2
3
 70
     0
 62
     2
  6
CONTINUOUS
  0
LAYER
  2
2
 70
     0
 62
     3
  6
CENTER
  0
LAYER
  2
1
 70
     0
 62
     4
  6
CONTINUOUS
  0
LAYER
  2
4
 70
     0
 62
     7
  6
CONTINUOUS
  0
LAYER
  2
DEFPOINTS
 70
     0
 62
     7
  6
CONTINUOUS
  0
ENDTAB
  0
TABLE
  2
STYLE
 70
     1
  0
STYLE
  2
STANDARD
 70
     0
 40
0.0
 41
1.0
 50
0.0
 71
     0
 42
180.0
  3
simplex.shx
  4
extfont.shx
  0
ENDTAB
  0
TABLE
  2
VIEW
 70
     0
  0
ENDTAB
  0
TABLE
  2
UCS
 70
     0
  0
ENDTAB
  0
TABLE
  2
APPID
 70
     1
  0
APPID
  2
ACAD
 70
     0
  0
ENDTAB
  0
TABLE
  2
DIMSTYLE
 70
     2
  0
DIMSTYLE
  2
IGA
 70
     0
  3

  4

  5

  6
OPEN
  7
OPEN
 40
2.0
 41
2.0
 42
0.5
 43
10.0
 44
1.0
 45
0.0
 46
0.0
 47
1.0
 48
1.0
140
3.0
141
0.0
142
0.0
143
0.03937
144
1.0
145
0.0
146
10.0
147
1.0
 71
     0
 72
     0
 73
     0
 74
     0
 75
     0
 76
     0
 77
     1
 78
     8
170
     0
171
     2
172
     0
173
     1
174
     0
175
     0
176
     0
177
     0
178
     0
  0
DIMSTYLE
  2
DIA1
 70
     0
  3

  4

  5
ARROW
  6

  7

 40
1.0
 41
2.0
 42
1.0
 43
10.0
 44
1.0
 45
0.0
 46
0.0
 47
0.0
 48
0.0
140
2.5
141
0.0
142
0.0
143
25.399999999999999
144
1.0
145
0.0
146
1.0
147
0.09
 71
     0
 72
     0
 73
     0
 74
     0
 75
     0
 76
     0
 77
     1
 78
     8
170
     0
171
     2
172
     1
173
     0
174
     0
175
     0
176
     2
177
     2
178
     2
  0
ENDTAB
  0
ENDSEC
  0
SECTION
  2
BLOCKS
  0
BLOCK
  8
0
  2
$MODEL_SPACE
 70
     0
 10
0.0
 20
0.0
 30
0.0
  3
$MODEL_SPACE
  1

  0
ENDBLK
  5
1B
  8
0
  0
BLOCK
 67
     1
  8
0
  2
$PAPER_SPACE
 70
     0
 10
0.0
 20
0.0
 30
0.0
  3
$PAPER_SPACE
  1

  0
ENDBLK
  5
18
 67
     1
  8
0
  0
BLOCK
  8
0
  2
YA_N
 70
     0
 10
0.0
 20
0.0
 30
0.0
  3
YA_N
  1

  0
ENDBLK
  5
79FE
  8
0
  0
BLOCK
  8
0
  2
ARROW
 70
     0
 10
0.0
 20
0.0
 30
0.0
  3
ARROW
  1

  0
LINE
  5
7A00
  8
0
 10
-0.9999999999999991
 20
0.1666666667000003
 30
0.0
 11
0.0
 21
0.0
 31
0.0
  0
LINE
  5
7A01
  8
0
 10
-0.9999999999999991
 20
0.0
 30
0.0
 11
0.0
 21
0.0
 31
0.0
  0
LINE
  5
7A02
  8
0
 10
-0.9999999999999991
 20
-0.1666666667000003
 30
0.0
 11
0.0
 21
0.0
 31
0.0
  0
ENDBLK
  5
7A04
  8
0
  0
BLOCK
  8
0
  2
_OPEN
 70
     0
 10
0.0
 20
0.0
 30
0.0
  3
_OPEN
  1

  0
LINE
  5
7A12
  8
0
  6
BYBLOCK
 62
     0
 10
-1.0
 20
0.1666666666666666
 30
0.0
 11
0.0
 21
0.0
 31
0.0
  0
LINE
  5
7A13
  8
0
  6
BYBLOCK
 62
     0
 10
0.0
 20
0.0
 30
0.0
 11
-1.0
 21
-0.1666666666666666
 31
0.0
  0
LINE
  5
7A14
  8
0
  6
BYBLOCK
 62
     0
 10
0.0
 20
0.0
 30
0.0
 11
-1.0
 21
0.0
 31
0.0
  0
ENDBLK
  5
7A16
  8
0
  0
BLOCK
  8
0
  2
*D3
 70
     1
 10
0.0
 20
0.0
 30
0.0
  3
*D3
  1

  0
LINE
  5
8107
  8
3
 62
     2
 10
1929.547384631858
 20
1762.843618340665
 30
0.0
 11
1929.547384631858
 21
2109.757979753686
 31
0.0
  0
LINE
  5
8108
  8
3
 62
     2
 10
2617.5473846318582
 20
2070.5839332377368
 30
0.0
 11
2617.5473846318582
 21
2109.757979753686
 31
0.0
  0
LINE
  5
8109
  8
3
 62
     2
 10
1959.547384631858
 20
2094.757979753686
 30
0.0
 11
2587.5473846318582
 21
2094.757979753686
 31
0.0
  0
INSERT
  5
810A
  8
3
 62
     2
  2
ARROW
 10
1929.547384631858
 20
2094.757979753686
 30
0.0
 41
30.0
 42
30.0
 43
30.0
 50
180.0
  0
INSERT
  5
810B
  8
3
 62
     2
  2
ARROW
 10
2617.5473846318582
 20
2094.757979753686
 30
0.0
 41
30.0
 42
30.0
 43
30.0
  0
TEXT
  8
3
  40
37.5
  5
820C
  62
2
  72
0
  71
0
 10
2198.55
 20
2069.63
 30
0.000000
  1
688
  0
POINT
  5
810D
  8
DEFPOINTS
 62
     0
 10
1929.547384631858
 20
1747.8436183406641
 30
0.0
  0
POINT
  5
810E
  8
DEFPOINTS
 62
     0
 10
2617.5473846318582
 20
2055.5839332377368
 30
0.0
  0
POINT
  5
810F
  8
DEFPOINTS
 62
     0
 10
2617.5473846318582
 20
2094.757979753686
 30
0.0
  0
ENDBLK
  5
80BA
  8
0
  0
BLOCK
  8
0
  2
*D4
 70
     1
 10
0.0
 20
0.0
 30
0.0
  3
*D4
  1

  0
LINE
  5
8110
  8
3
 62
     2
 10
2002.547384631858
 20
1071.8436183406641
 30
0.0
 11
2002.547384631858
 21
833.62815715389468
 31
0.0
  0
LINE
  5
8111
  8
3
 62
     2
 10
2782.5473846318569
 20
1071.843618340665
 30
0.0
 11
2782.5473846318569
 21
833.62815715389468
 31
0.0
  0
LINE
  5
8112
  8
3
 62
     2
 10
2032.547384631858
 20
848.62815715389468
 30
0.0
 11
2752.5473846318569
 21
848.62815715389468
 31
0.0
  0
INSERT
  5
8113
  8
3
 62
     2
  2
ARROW
 10
2002.547384631858
 20
848.62815715389468
 30
0.0
 41
30.0
 42
30.0
 43
30.0
 50
180.0
  0
INSERT
  5
8114
  8
3
 62
     2
  2
ARROW
 10
2782.5473846318569
 20
848.62815715389468
 30
0.0
 41
30.0
 42
30.0
 43
30.0
  0
TEXT
  8
3
  40
37.5
  5
820D
  62
2
  72
0
  71
0
 10
2317.55
 20
823.503
 30
0.000000
  1
780
  0
POINT
  5
8116
  8
DEFPOINTS
 62
     0
 10
2002.547384631858
 20
1086.8436183406641
 30
0.0
  0
POINT
  5
8117
  8
DEFPOINTS
 62
     0
 10
2782.5473846318569
 20
1086.843618340665
 30
0.0
  0
POINT
  5
8118
  8
DEFPOINTS
 62
     0
 10
2782.5473846318569
 20
848.62815715389468
 30
0.0
  0
ENDBLK
  5
7FB6
  8
0
  0
BLOCK
  8
0
  2
*D5
 70
     1
 10
0.0
 20
0.0
 30
0.0
  3
*D5
  1

  0
LINE
  5
8119
  8
3
 62
     2
 10
2002.547384631858
 20
1071.8436183406641
 30
0.0
 11
2002.547384631858
 21
932.61772152455887
 31
0.0
  0
LINE
  5
811A
  8
3
 62
     2
 10
2617.5473846318582
 20
1036.715084731761
 30
0.0
 11
2617.5473846318582
 21
932.61772152455887
 31
0.0
  0
LINE
  5
811B
  8
3
 62
     2
 10
2032.547384631858
 20
947.61772152455876
 30
0.0
 11
2587.5473846318582
 21
947.61772152455876
 31
0.0
  0
INSERT
  5
811C
  8
3
 62
     2
  2
ARROW
 10
2002.547384631858
 20
947.61772152455876
 30
0.0
 41
30.0
 42
30.0
 43
30.0
 50
180.0
  0
INSERT
  5
811D
  8
3
 62
     2
  2
ARROW
 10
2617.5473846318582
 20
947.61772152455876
 30
0.0
 41
30.0
 42
30.0
 43
30.0
  0
TEXT
  8
3
  40
37.5
  5
820E
  62
2
  72
0
  71
0
 10
2235.05
 20
922.493
 30
0.000000
  1
615
  0
POINT
  5
811F
  8
DEFPOINTS
 62
     0
 10
2002.547384631858
 20
1086.8436183406641
 30
0.0
  0
POINT
  5
8120
  8
DEFPOINTS
 62
     0
 10
2617.5473846318582
 20
1051.715084731761
 30
0.0
  0
POINT
  5
8121
  8
DEFPOINTS
 62
     0
 10
2617.5473846318582
 20
947.61772152455876
 30
0.0
  0
ENDBLK
  5
7FC1
  8
0
  0
BLOCK
  8
0
  2
*D6
 70
     1
 10
0.0
 20
0.0
 30
0.0
  3
*D6
  1

  0
LINE
  5
8122
  8
3
 62
     2
 10
1089.800244404071
 20
2538.856611071918
 30
0.0
 11
1089.800244404071
 21
2370.545470264713
 31
0.0
  0
LINE
  5
8123
  8
3
 62
     2
 10
289.80024440407118
 20
2557.8566110719189
 30
0.0
 11
289.80024440407118
 21
2370.545470264713
 31
0.0
  0
LINE
  5
8124
  8
3
 62
     2
 10
1059.800244404071
 20
2385.5454702647139
 30
0.0
 11
319.80024440407118
 21
2385.5454702647139
 31
0.0
  0
INSERT
  5
8125
  8
3
 62
     2
  2
ARROW
 10
1089.800244404071
 20
2385.5454702647139
 30
0.0
 41
30.0
 42
30.0
 43
30.0
  0
INSERT
  5
8126
  8
3
 62
     2
  2
ARROW
 10
289.80024440407118
 20
2385.5454702647139
 30
0.0
 41
30.0
 42
30.0
 43
30.0
 50
180.0
  0
TEXT
  8
3
  40
37.5
  5
820F
  62
2
  72
0
  71
0
 10
614.800
 20
2360.42
 30
0.000000
  1
800
  0
POINT
  5
8128
  8
DEFPOINTS
 62
     0
 10
1089.800244404071
 20
2553.856611071918
 30
0.0
  0
POINT
  5
8129
  8
DEFPOINTS
 62
     0
 10
289.80024440407118
 20
2572.8566110719189
 30
0.0
  0
POINT
  5
812A
  8
DEFPOINTS
 62
     0
 10
289.80024440407118
 20
2385.5454702647139
 30
0.0
  0
ENDBLK
  5
7FCC
  8
0
  0
BLOCK
  8
0
  2
*D7
 70
     1
 10
0.0
 20
0.0
 30
0.0
  3
*D7
  1

  0
LINE
  5
812B
  8
3
 62
     2
 10
906.0352918193812
 20
1873.8025225684939
 30
0.0
 11
1330.308942058906
 21
1873.8025225684939
 31
0.0
  0
LINE
  5
812C
  8
3
 62
     2
 10
1315.3089420589049
 20
1677.8436183406641
 30
0.0
 11
1315.3089420589049
 21
1843.8025225684939
 31
0.0
  0
INSERT
  5
812D
  8
3
 62
     2
  2
ARROW
 10
1315.3089420589049
 20
1647.8436183406641
 30
0.0
 41
30.0
 42
30.0
 43
30.0
 50
270.0
  0
INSERT
  5
812E
  8
3
 62
     2
  2
ARROW
 10
1315.3089420589049
 20
1873.8025225684939
 30
0.0
 41
30.0
 42
30.0
 43
30.0
 50
90.0
  0
TEXT
  8
3
  40
37.5
  5
8210
  62
2
  72
0
  71
0
 10
1199.06
 20
1694.45
 30
0.000000
  1
226
  0
POINT
  5
8130
  8
DEFPOINTS
 62
     0
 10
1166.260370754557
 20
1647.8436183406641
 30
0.0
  0
POINT
  5
8131
  8
DEFPOINTS
 62
     0
 10
891.0352918193812
 20
1873.8025225684939
 30
0.0
  0
POINT
  5
8132
  8
DEFPOINTS
 62
     0
 10
1315.3089420589049
 20
1873.8025225684939
 30
0.0
  0
ENDBLK
  5
7FD6
  8
0
  0
BLOCK
  8
0
  2
*D8
 70
     1
 10
0.0
 20
0.0
 30
0.0
  3
*D8
  1

  0
LINE
  5
8133
  8
3
 62
     2
 10
1154.8002444040719
 20
1665.23244866562
 30
0.0
 11
1154.8002444040719
 21
2004.5577929790161
 31
0.0
  0
LINE
  5
8134
  8
3
 62
     2
 10
909.80024440407215
 20
1923.446899021535
 30
0.0
 11
909.80024440407215
 21
2004.5577929790161
 31
0.0
  0
LINE
  5
8135
  8
3
 62
     2
 10
1124.8002444040719
 20
1989.5577929790161
 30
0.0
 11
939.80024440407215
 21
1989.5577929790161
 31
0.0
  0
INSERT
  5
8136
  8
3
 62
     2
  2
ARROW
 10
1154.8002444040719
 20
1989.5577929790161
 30
0.0
 41
30.0
 42
30.0
 43
30.0
  0
INSERT
  5
8137
  8
3
 62
     2
  2
ARROW
 10
909.80024440407215
 20
1989.5577929790161
 30
0.0
 41
30.0
 42
30.0
 43
30.0
 50
180.0
  0
TEXT
  8
3
  40
37.5
  5
8211
  62
2
  72
0
  71
0
 10
957.300
 20
1964.43
 30
0.000000
  1
245
  0
POINT
  5
8139
  8
DEFPOINTS
 62
     0
 10
1154.8002444040719
 20
1650.23244866562
 30
0.0
  0
POINT
  5
813A
  8
DEFPOINTS
 62
     0
 10
909.80024440407215
 20
1908.446899021535
 30
0.0
  0
POINT
  5
813B
  8
DEFPOINTS
 62
     0
 10
909.80024440407215
 20
1989.5577929790161
 30
0.0
  0
ENDBLK
  5
7FE1
  8
0
  0
BLOCK
  8
0
  2
*D9
 70
     1
 10
0.0
 20
0.0
 30
0.0
  3
*D9
  1

  0
LINE
  5
813C
  8
3
 62
     2
 10
1089.800244404071
 20
1071.8436183406641
 30
0.0
 11
1089.800244404071
 21
931.76856450580999
 31
0.0
  0
LINE
  5
813D
  8
3
 62
     2
 10
909.80024440407215
 20
1039.3606658439051
 30
0.0
 11
909.80024440407215
 21
931.76856450580999
 31
0.0
  0
LINE
  5
813E
  8
3
 62
     2
 10
1059.800244404071
 20
946.76856450580999
 30
0.0
 11
939.80024440407215
 21
946.76856450580999
 31
0.0
  0
INSERT
  5
813F
  8
3
 62
     2
  2
ARROW
 10
1089.800244404071
 20
946.76856450580999
 30
0.0
 41
30.0
 42
30.0
 43
30.0
  0
INSERT
  5
8140
  8
3
 62
     2
  2
ARROW
 10
909.80024440407215
 20
946.76856450580999
 30
0.0
 41
30.0
 42
30.0
 43
30.0
 50
180.0
  0
TEXT
  8
3
  40
37.5
  5
8212
  62
2
  72
0
  71
0
 10
924.800
 20
921.644
 30
0.000000
  1
180
  0
POINT
  5
8142
  8
DEFPOINTS
 62
     0
 10
1089.800244404071
 20
1086.8436183406641
 30
0.0
  0
POINT
  5
8143
  8
DEFPOINTS
 62
     0
 10
909.80024440407215
 20
1054.3606658439051
 30
0.0
  0
POINT
  5
8144
  8
DEFPOINTS
 62
     0
 10
909.80024440407215
 20
946.76856450580999
 30
0.0
  0
ENDBLK
  5
7FEE
  8
0
  0
BLOCK
  8
0
  2
*D10
 70
     1
 10
0.0
 20
0.0
 30
0.0
  3
*D10
  1

  0
LINE
  5
8145
  8
3
 62
     2
 10
1104.800244404071
 20
1086.8436183406641
 30
0.0
 11
1612.441681666452
 21
1086.8436183406641
 31
0.0
  0
LINE
  5
8146
  8
3
 62
     2
 10
906.0352918193812
 20
1873.8025225684939
 30
0.0
 11
1612.441681666452
 21
1873.8025225684939
 31
0.0
  0
LINE
  5
8147
  8
3
 62
     2
 10
1597.441681666452
 20
1116.8436183406641
 30
0.0
 11
1597.441681666452
 21
1843.8025225684939
 31
0.0
  0
INSERT
  5
8148
  8
3
 62
     2
  2
ARROW
 10
1597.441681666452
 20
1086.8436183406641
 30
0.0
 41
30.0
 42
30.0
 43
30.0
 50
270.0
  0
INSERT
  5
8149
  8
3
 62
     2
  2
ARROW
 10
1597.441681666452
 20
1873.8025225684939
 30
0.0
 41
30.0
 42
30.0
 43
30.0
 50
90.0
  0
TEXT
  8
3
  40
37.5
  5
8213
  62
2
  72
0
  71
0
 10
1481.19
 20
1413.95
 30
0.000000
  1
787
  0
POINT
  5
814B
  8
DEFPOINTS
 62
     0
 10
1089.800244404071
 20
1086.8436183406641
 30
0.0
  0
POINT
  5
814C
  8
DEFPOINTS
 62
     0
 10
891.0352918193812
 20
1873.8025225684939
 30
0.0
  0
POINT
  5
814D
  8
DEFPOINTS
 62
     0
 10
1597.441681666452
 20
1873.8025225684939
 30
0.0
  0
ENDBLK
  5
7FF9
  8
0
  0
BLOCK
  8
0
  2
*D11
 70
     1
 10
0.0
 20
0.0
 30
0.0
  3
*D11
  1

  0
LINE
  5
814E
  8
3
 62
     2
 10
1089.800244404071
 20
1071.8436183406641
 30
0.0
 11
1089.800244404071
 21
836.77037152405956
 31
0.0
  0
LINE
  5
814F
  8
3
 62
     2
 10
289.80024440407118
 20
1071.8436183406641
 30
0.0
 11
289.80024440407118
 21
836.77037152405956
 31
0.0
  0
LINE
  5
8150
  8
3
 62
     2
 10
1059.800244404071
 20
851.77037152405956
 30
0.0
 11
319.80024440407118
 21
851.77037152405956
 31
0.0
  0
INSERT
  5
8151
  8
3
 62
     2
  2
ARROW
 10
1089.800244404071
 20
851.77037152405956
 30
0.0
 41
30.0
 42
30.0
 43
30.0
  0
INSERT
  5
8152
  8
3
 62
     2
  2
ARROW
 10
289.80024440407118
 20
851.77037152405956
 30
0.0
 41
30.0
 42
30.0
 43
30.0
 50
180.0
  0
TEXT
  8
3
  40
37.5
  5
8214
  62
2
  72
0
  71
0
 10
614.800
 20
826.645
 30
0.000000
  1
800
  0
POINT
  5
8154
  8
DEFPOINTS
 62
     0
 10
1089.800244404071
 20
1086.8436183406641
 30
0.0
  0
POINT
  5
8155
  8
DEFPOINTS
 62
     0
 10
289.80024440407118
 20
1086.8436183406641
 30
0.0
  0
POINT
  5
8156
  8
DEFPOINTS
 62
     0
 10
289.80024440407118
 20
851.77037152405956
 30
0.0
  0
ENDBLK
  5
8004
  8
0
  0
BLOCK
  8
0
  2
*D12
 70
     1
 10
0.0
 20
0.0
 30
0.0
  3
*D12
  1

  0
LINE
  5
8161
  8
3
 62
     2
 10
289.80024440407118
 20
1071.8436183406641
 30
0.0
 11
289.80024440407118
 21
931.76856450580999
 31
0.0
  0
LINE
  5
8162
  8
3
 62
     2
 10
879.80024440407203
 20
946.76856450580999
 30
0.0
 11
319.80024440407118
 21
946.76856450580999
 31
0.0
  0
INSERT
  5
8163
  8
3
 62
     2
  2
ARROW
 10
909.80024440407215
 20
946.76856450580999
 30
0.0
 41
30.0
 42
30.0
 43
30.0
  0
INSERT
  5
8164
  8
3
 62
     2
  2
ARROW
 10
289.80024440407118
 20
946.76856450580999
 30
0.0
 41
30.0
 42
30.0
 43
30.0
 50
180.0
  0
TEXT
  8
3
  40
37.5
  5
8215
  62
2
  72
0
  71
0
 10
524.800
 20
921.644
 30
0.000000
  1
620
  0
POINT
  5
8166
  8
DEFPOINTS
 62
     0
 10
909.80024440407215
 20
1054.3606658439051
 30
0.0
  0
POINT
  5
8167
  8
DEFPOINTS
 62
     0
 10
289.80024440407118
 20
1086.8436183406641
 30
0.0
  0
POINT
  5
8168
  8
DEFPOINTS
 62
     0
 10
289.80024440407118
 20
946.76856450580999
 30
0.0
  0
ENDBLK
  5
800E
  8
0
  0
BLOCK
  8
0
  2
*D13
 70
     1
 10
0.0
 20
0.0
 30
0.0
  3
*D13
  1

  0
LINE
  5
8169
  8
3
 62
     2
 10
636.23536352338976
 20
1638.8436183406641
 30
0.0
 11
636.23536352338976
 21
2004.5577929790161
 31
0.0
  0
LINE
  5
816A
  8
3
 62
     2
 10
879.80024440407203
 20
1989.5577929790161
 30
0.0
 11
666.23536352338976
 21
1989.5577929790161
 31
0.0
  0
INSERT
  5
816B
  8
3
 62
     2
  2
ARROW
 10
909.80024440407215
 20
1989.5577929790161
 30
0.0
 41
30.0
 42
30.0
 43
30.0
  0
INSERT
  5
816C
  8
3
 62
     2
  2
ARROW
 10
636.23536352338976
 20
1989.5577929790161
 30
0.0
 41
30.0
 42
30.0
 43
30.0
 50
180.0
  0
TEXT
  8
3
  40
37.5
  5
8216
  62
2
  72
0
  71
0
 10
698.018
 20
1964.43
 30
0.000000
  1
274
  0
POINT
  5
816E
  8
DEFPOINTS
 62
     0
 10
909.80024440407215
 20
1908.446899021535
 30
0.0
  0
POINT
  5
816F
  8
DEFPOINTS
 62
     0
 10
636.23536352338976
 20
1623.8436183406641
 30
0.0
  0
POINT
  5
8170
  8
DEFPOINTS
 62
     0
 10
636.23536352338976
 20
1989.5577929790161
 30
0.0
  0
ENDBLK
  5
8018
  8
0
  0
BLOCK
  8
0
  2
*D14
 70
     1
 10
0.0
 20
0.0
 30
0.0
  3
*D14
  1

  0
LINE
  5
8171
  8
3
 62
     2
 10
1169.8002444040719
 20
1296.8436183406641
 30
0.0
 11
1238.2757769424491
 21
1296.8436183406641
 31
0.0
  0
LINE
  5
8172
  8
3
 62
     2
 10
1169.8002444040719
 20
1621.843618340665
 30
0.0
 11
1238.2757769424491
 21
1621.843618340665
 31
0.0
  0
LINE
  5
8173
  8
3
 62
     2
 10
1223.2757769424491
 20
1326.8436183406641
 30
0.0
 11
1223.2757769424491
 21
1591.8436183406641
 31
0.0
  0
INSERT
  5
8174
  8
3
 62
     2
  2
ARROW
 10
1223.2757769424491
 20
1296.8436183406641
 30
0.0
 41
30.0
 42
30.0
 43
30.0
 50
270.0
  0
INSERT
  5
8175
  8
3
 62
     2
  2
ARROW
 10
1223.2757769424491
 20
1621.843618340665
 30
0.0
 41
30.0
 42
30.0
 43
30.0
 50
90.0
  0
TEXT
  8
3
  40
37.5
  5
8217
  62
2
  72
0
  71
0
 10
1107.03
 20
1392.97
 30
0.000000
  1
325
  0
POINT
  5
8177
  8
DEFPOINTS
 62
     0
 10
1154.8002444040719
 20
1296.8436183406641
 30
0.0
  0
POINT
  5
8178
  8
DEFPOINTS
 62
     0
 10
1154.8002444040719
 20
1621.843618340665
 30
0.0
  0
POINT
  5
8179
  8
DEFPOINTS
 62
     0
 10
1223.2757769424491
 20
1621.843618340665
 30
0.0
  0
ENDBLK
  5
8023
  8
0
  0
BLOCK
  8
0
  2
*D15
 70
     1
 10
0.0
 20
0.0
 30
0.0
  3
*D15
  1

  0
LINE
  5
817A
  8
3
 62
     2
 10
1169.8002444040719
 20
1296.8436183406641
 30
0.0
 11
1330.3089420589049
 21
1296.8436183406641
 31
0.0
  0
LINE
  5
817B
  8
3
 62
     2
 10
1181.260370754557
 20
1647.8436183406641
 30
0.0
 11
1330.308942058906
 21
1647.8436183406641
 31
0.0
  0
LINE
  5
817C
  8
3
 62
     2
 10
1315.3089420589049
 20
1326.8436183406641
 30
0.0
 11
1315.3089420589049
 21
1617.843618340665
 31
0.0
  0
INSERT
  5
817D
  8
3
 62
     2
  2
ARROW
 10
1315.3089420589049
 20
1296.8436183406641
 30
0.0
 41
30.0
 42
30.0
 43
30.0
 50
270.0
  0
INSERT
  5
817E
  8
3
 62
     2
  2
ARROW
 10
1315.3089420589049
 20
1647.8436183406641
 30
0.0
 41
30.0
 42
30.0
 43
30.0
 50
90.0
  0
TEXT
  8
3
  40
37.5
  5
8218
  62
2
  72
0
  71
0
 10
1199.06
 20
1405.97
 30
0.000000
  1
351
  0
POINT
  5
8180
  8
DEFPOINTS
 62
     0
 10
1154.8002444040719
 20
1296.8436183406641
 30
0.0
  0
POINT
  5
8181
  8
DEFPOINTS
 62
     0
 10
1166.260370754557
 20
1647.8436183406641
 30
0.0
  0
POINT
  5
8182
  8
DEFPOINTS
 62
     0
 10
1315.3089420589049
 20
1647.8436183406641
 30
0.0
  0
ENDBLK
  5
802E
  8
0
  0
BLOCK
  8
0
  2
*D16
 70
     1
 10
0.0
 20
0.0
 30
0.0
  3
*D16
  1

  0
LINE
  5
8183
  8
3
 62
     2
 10
1181.260370754557
 20
1647.8436183406641
 30
0.0
 11
1420.7897438227151
 21
1647.8436183406641
 31
0.0
  0
LINE
  5
8184
  8
3
 62
     2
 10
1104.8002444040719
 20
1197.8436183406641
 30
0.0
 11
1420.7897438227151
 21
1197.8436183406641
 31
0.0
  0
LINE
  5
8185
  8
3
 62
     2
 10
1405.7897438227151
 20
1617.843618340665
 30
0.0
 11
1405.7897438227151
 21
1227.8436183406641
 31
0.0
  0
INSERT
  5
8186
  8
3
 62
     2
  2
ARROW
 10
1405.7897438227151
 20
1647.8436183406641
 30
0.0
 41
30.0
 42
30.0
 43
30.0
 50
90.0
  0
INSERT
  5
8187
  8
3
 62
     2
  2
ARROW
 10
1405.7897438227151
 20
1197.8436183406641
 30
0.0
 41
30.0
 42
30.0
 43
30.0
 50
270.0
  0
TEXT
  8
3
  40
37.5
  5
8219
  62
2
  72
0
  71
0
 10
1289.54
 20
1356.47
 30
0.000000
  1
450
  0
POINT
  5
8189
  8
DEFPOINTS
 62
     0
 10
1166.260370754557
 20
1647.8436183406641
 30
0.0
  0
POINT
  5
818A
  8
DEFPOINTS
 62
     0
 10
1089.8002444040719
 20
1197.8436183406641
 30
0.0
  0
POINT
  5
818B
  8
DEFPOINTS
 62
     0
 10
1405.7897438227151
 20
1197.8436183406641
 30
0.0
  0
ENDBLK
  5
8039
  8
0
  0
BLOCK
  8
0
  2
*D17
 70
     1
 10
0.0
 20
0.0
 30
0.0
  3
*D17
  1

  0
LINE
  5
818C
  8
3
 62
     2
 10
1104.800244404071
 20
1161.8436183406641
 30
0.0
 11
1420.7897438227151
 21
1161.8436183406641
 31
0.0
  0
LINE
  5
818D
  8
3
 62
     2
 10
1104.800244404071
 20
1086.8436183406641
 30
0.0
 11
1420.7897438227151
 21
1086.8436183406641
 31
0.0
  0
LINE
  5
818E
  8
3
 62
     2
 10
1405.7897438227151
 20
1191.8436183406641
 30
0.0
 11
1405.7897438227151
 21
1221.8436183406641
 31
0.0
  0
LINE
  5
818F
  8
3
 62
     2
 10
1405.7897438227151
 20
1056.8436183406641
 30
0.0
 11
1405.7897438227151
 21
921.12933262637875
 31
0.0
  0
LINE
  5
8190
  8
3
 62
     2
 10
1405.7897438227151
 20
1161.8436183406641
 30
0.0
 11
1405.7897438227151
 21
1086.8436183406641
 31
0.0
  0
INSERT
  5
8191
  8
3
 62
     2
  2
YA_N
 10
1405.7897438227151
 20
1161.8436183406641
 30
0.0
 41
30.0
 42
30.0
 43
30.0
 50
270.0
  0
INSERT
  5
8192
  8
3
 62
     2
  2
_OPEN
 10
1405.7897438227151
 20
1086.8436183406641
 30
0.0
 41
30.0
 42
30.0
 43
30.0
 50
90.0
  0
TEXT
  8
3
  40
37.5
  5
821A
  62
2
  72
0
  71
0
 10
1289.54
 20
907.611
 30
0.000000
  1
75
  0
POINT
  5
8194
  8
DEFPOINTS
 62
     0
 10
1089.800244404071
 20
1161.8436183406641
 30
0.0
  0
POINT
  5
8195
  8
DEFPOINTS
 62
     0
 10
1089.800244404071
 20
1086.8436183406641
 30
0.0
  0
POINT
  5
8196
  8
DEFPOINTS
 62
     0
 10
1405.7897438227151
 20
1086.8436183406641
 30
0.0
  0
ENDBLK
  5
8046
  8
0
  0
BLOCK
  8
0
  2
*D18
 70
     1
 10
0.0
 20
0.0
 30
0.0
  3
*D18
  1

  0
LINE
  5
8197
  8
3
 62
     2
 10
1104.800244404071
 20
1161.8436183406641
 30
0.0
 11
1420.7897438227151
 21
1161.8436183406641
 31
0.0
  0
LINE
  5
8198
  8
3
 62
     2
 10
1405.7897438227151
 20
1227.8436183406641
 30
0.0
 11
1405.7897438227151
 21
1257.8436183406641
 31
0.0
  0
LINE
  5
8199
  8
3
 62
     2
 10
1405.7897438227151
 20
1131.8436183406641
 30
0.0
 11
1405.7897438227151
 21
1101.8436183406641
 31
0.0
  0
LINE
  5
819A
  8
3
 62
     2
 10
1405.7897438227151
 20
1179.8436183406641
 30
0.0
 11
1540.2540295370011
 21
1220.1829040549501
 31
0.0
  0
LINE
  5
819B
  8
3
 62
     2
 10
1540.2540295370011
 20
1220.1829040549501
 30
0.0
 11
1540.2540295370011
 21
1374.111475483521
 31
0.0
  0
TEXT
  8
3
  40
37.5
  5
821B
  62
2
  72
0
  71
0
 10
1414.18
 20
1230.77
 30
0.000000
  1
(36)
  0
LINE
  5
819D
  8
3
 62
     2
 10
1405.7897438227151
 20
1197.8436183406641
 30
0.0
 11
1405.7897438227151
 21
1161.8436183406641
 31
0.0
  0
LINE
  5
819E
  8
3
 62
     2
 10
1405.7897438227151
 20
1197.8436183406641
 30
0.0
 11
1405.7897438227151
 21
1161.8436183406641
 31
0.0
  0
INSERT
  5
819F
  8
3
 62
     2
  2
_OPEN
 10
1405.7897438227151
 20
1197.8436183406641
 30
0.0
 41
30.0
 42
30.0
 43
30.0
 50
270.0
  0
INSERT
  5
81A0
  8
3
 62
     2
  2
YA_N
 10
1405.7897438227151
 20
1161.8436183406641
 30
0.0
 41
30.0
 42
30.0
 43
30.0
 50
90.0
  0
POINT
  5
81A1
  8
DEFPOINTS
 62
     0
 10
1089.8002444040719
 20
1197.8436183406641
 30
0.0
  0
POINT
  5
81A2
  8
DEFPOINTS
 62
     0
 10
1089.800244404071
 20
1161.8436183406641
 30
0.0
  0
POINT
  5
81A3
  8
DEFPOINTS
 62
     0
 10
1405.7897438227151
 20
1161.8436183406641
 30
0.0
  0
ENDBLK
  5
8054
  8
0
  0
BLOCK
  8
0
  2
*D19
 70
     1
 10
0.0
 20
0.0
 30
0.0
  3
*D19
  1

  0
LINE
  5
81B1
  8
3
 62
     2
 10
1089.8002444040719
 20
3348.8566110719189
 30
0.0
 11
1089.8002444040719
 21
3444.6460897852021
 31
0.0
  0
LINE
  5
81B2
  8
3
 62
     2
 10
729.80024440407215
 20
3348.8566110719189
 30
0.0
 11
729.80024440407215
 21
3444.6460897852021
 31
0.0
  0
LINE
  5
81B3
  8
3
 62
     2
 10
1059.8002444040719
 20
3429.6460897852021
 30
0.0
 11
759.80024440407215
 21
3429.6460897852021
 31
0.0
  0
INSERT
  5
81B4
  8
3
 62
     2
  2
ARROW
 10
1089.8002444040719
 20
3429.6460897852021
 30
0.0
 41
30.0
 42
30.0
 43
30.0
  0
INSERT
  5
81B5
  8
3
 62
     2
  2
ARROW
 10
729.80024440407215
 20
3429.6460897852021
 30
0.0
 41
30.0
 42
30.0
 43
30.0
 50
180.0
  0
TEXT
  8
3
  40
37.5
  5
821C
  62
2
  72
0
  71
0
 10
834.800
 20
3404.52
 30
0.000000
  1
360
  0
POINT
  5
81B7
  8
DEFPOINTS
 62
     0
 10
1089.8002444040719
 20
3333.8566110719189
 30
0.0
  0
POINT
  5
81B8
  8
DEFPOINTS
 62
     0
 10
729.80024440407215
 20
3333.8566110719189
 30
0.0
  0
POINT
  5
81B9
  8
DEFPOINTS
 62
     0
 10
729.80024440407215
 20
3429.6460897852021
 30
0.0
  0
ENDBLK
  5
805F
  8
0
  0
BLOCK
  8
0
  2
*D20
 70
     1
 10
0.0
 20
0.0
 30
0.0
  3
*D20
  1

  0
LINE
  5
81BA
  8
3
 62
     2
 10
289.80024440407033
 20
2948.8566110719189
 30
0.0
 11
289.80024440407033
 21
3444.6460897852021
 31
0.0
  0
LINE
  5
81BB
  8
3
 62
     2
 10
699.80024440407215
 20
3429.6460897852021
 30
0.0
 11
319.80024440407033
 21
3429.6460897852021
 31
0.0
  0
INSERT
  5
81BC
  8
3
 62
     2
  2
ARROW
 10
729.80024440407215
 20
3429.6460897852021
 30
0.0
 41
30.0
 42
30.0
 43
30.0
  0
INSERT
  5
81BD
  8
3
 62
     2
  2
ARROW
 10
289.80024440407033
 20
3429.6460897852021
 30
0.0
 41
30.0
 42
30.0
 43
30.0
 50
180.0
  0
TEXT
  8
3
  40
37.5
  5
821D
  62
2
  72
0
  71
0
 10
434.800
 20
3404.52
 30
0.000000
  1
440
  0
POINT
  5
81BF
  8
DEFPOINTS
 62
     0
 10
729.80024440407215
 20
3333.8566110719189
 30
0.0
  0
POINT
  5
81C0
  8
DEFPOINTS
 62
     0
 10
289.80024440407033
 20
2933.856611071918
 30
0.0
  0
POINT
  5
81C1
  8
DEFPOINTS
 62
     0
 10
289.80024440407033
 20
3429.6460897852021
 30
0.0
  0
ENDBLK
  5
8069
  8
0
  0
BLOCK
  8
0
  2
*D21
 70
     1
 10
0.0
 20
0.0
 30
0.0
  3
*D21
  1

  0
LINE
  5
81C2
  8
3
 62
     2
 10
274.80024440407209
 20
2553.856611071918
 30
0.0
 11
141.6539657986194
 21
2553.856611071918
 31
0.0
  0
LINE
  5
81C3
  8
3
 62
     2
 10
274.80024440407033
 20
2933.856611071918
 30
0.0
 11
141.65396579861951
 21
2933.856611071918
 31
0.0
  0
LINE
  5
81C4
  8
3
 62
     2
 10
156.6539657986194
 20
2583.856611071918
 30
0.0
 11
156.65396579861951
 21
2903.8566110719189
 31
0.0
  0
INSERT
  5
81C5
  8
3
 62
     2
  2
ARROW
 10
156.6539657986194
 20
2553.856611071918
 30
0.0
 41
30.0
 42
30.0
 43
30.0
 50
270.0
  0
INSERT
  5
81C6
  8
3
 62
     2
  2
ARROW
 10
156.65396579861951
 20
2933.856611071918
 30
0.0
 41
30.0
 42
30.0
 43
30.0
 50
90.0
  0
TEXT
  8
3
  40
37.5
  5
821E
  62
2
  72
0
  71
0
 10
40.4040
 20
2677.48
 30
0.000000
  1
380
  0
POINT
  5
81C8
  8
DEFPOINTS
 62
     0
 10
289.80024440407209
 20
2553.856611071918
 30
0.0
  0
POINT
  5
81C9
  8
DEFPOINTS
 62
     0
 10
289.80024440407033
 20
2933.856611071918
 30
0.0
  0
POINT
  5
81CA
  8
DEFPOINTS
 62
     0
 10
156.65396579861951
 20
2933.856611071918
 30
0.0
  0
ENDBLK
  5
8074
  8
0
  0
BLOCK
  8
0
  2
*D22
 70
     1
 10
0.0
 20
0.0
 30
0.0
  3
*D22
  1

  0
LINE
  5
81CB
  8
3
 62
     2
 10
1104.800244404071
 20
2553.856611071918
 30
0.0
 11
1242.2307264128681
 21
2553.856611071918
 31
0.0
  0
LINE
  5
81CC
  8
3
 62
     2
 10
1104.8002444040719
 20
3333.8566110719189
 30
0.0
 11
1242.2307264128681
 21
3333.8566110719189
 31
0.0
  0
LINE
  5
81CD
  8
3
 62
     2
 10
1227.2307264128681
 20
2583.856611071918
 30
0.0
 11
1227.2307264128681
 21
3303.856611071918
 31
0.0
  0
INSERT
  5
81CE
  8
3
 62
     2
  2
ARROW
 10
1227.2307264128681
 20
2553.856611071918
 30
0.0
 41
30.0
 42
30.0
 43
30.0
 50
270.0
  0
INSERT
  5
81CF
  8
3
 62
     2
  2
ARROW
 10
1227.2307264128681
 20
3333.8566110719189
 30
0.0
 41
30.0
 42
30.0
 43
30.0
 50
90.0
  0
TEXT
  8
3
  40
37.5
  5
821F
  62
2
  72
0
  71
0
 10
1110.98
 20
2877.48
 30
0.000000
  1
780
  0
POINT
  5
81D1
  8
DEFPOINTS
 62
     0
 10
1089.800244404071
 20
2553.856611071918
 30
0.0
  0
POINT
  5
81D2
  8
DEFPOINTS
 62
     0
 10
1089.8002444040719
 20
3333.8566110719189
 30
0.0
  0
POINT
  5
81D3
  8
DEFPOINTS
 62
     0
 10
1227.2307264128681
 20
3333.8566110719189
 30
0.0
  0
ENDBLK
  5
807F
  8
0
  0
BLOCK
  8
0
  2
*D23
 70
     1
 10
0.0
 20
0.0
 30
0.0
  3
*D23
  1

  0
LINE
  5
81D4
  8
3
 62
     2
 10
2617.5473846318582
 20
1036.715084731761
 30
0.0
 11
2617.5473846318582
 21
932.61772152455887
 31
0.0
  0
LINE
  5
81D5
  8
3
 62
     2
 10
2782.5473846318569
 20
1071.843618340665
 30
0.0
 11
2782.5473846318569
 21
932.61772152455887
 31
0.0
  0
LINE
  5
81D6
  8
3
 62
     2
 10
2647.5473846318582
 20
947.61772152455876
 30
0.0
 11
2752.5473846318569
 21
947.61772152455876
 31
0.0
  0
INSERT
  5
81D7
  8
3
 62
     2
  2
ARROW
 10
2617.5473846318582
 20
947.61772152455876
 30
0.0
 41
30.0
 42
30.0
 43
30.0
 50
180.0
  0
INSERT
  5
81D8
  8
3
 62
     2
  2
ARROW
 10
2782.5473846318569
 20
947.61772152455876
 30
0.0
 41
30.0
 42
30.0
 43
30.0
  0
TEXT
  8
3
  40
37.5
  5
8220
  62
2
  72
0
  71
0
 10
2625.05
 20
922.493
 30
0.000000
  1
165
  0
POINT
  5
81DA
  8
DEFPOINTS
 62
     0
 10
2617.5473846318582
 20
1051.715084731761
 30
0.0
  0
POINT
  5
81DB
  8
DEFPOINTS
 62
     0
 10
2782.5473846318569
 20
1086.843618340665
 30
0.0
  0
POINT
  5
81DC
  8
DEFPOINTS
 62
     0
 10
2782.5473846318569
 20
947.61772152455876
 30
0.0
  0
ENDBLK
  5
808C
  8
0
  0
BLOCK
  8
0
  2
*D24
 70
     1
 10
0.0
 20
0.0
 30
0.0
  3
*D24
  1

  0
LINE
  5
81DD
  8
3
 62
     2
 10
2617.5473846318582
 20
2070.5839332377368
 30
0.0
 11
2617.5473846318582
 21
2109.757979753686
 31
0.0
  0
LINE
  5
81DE
  8
3
 62
     2
 10
2738.5473846318582
 20
1846.343645104891
 30
0.0
 11
2738.5473846318582
 21
2109.757979753686
 31
0.0
  0
LINE
  5
81DF
  8
3
 62
     2
 10
2647.5473846318582
 20
2094.757979753686
 30
0.0
 11
2708.5473846318582
 21
2094.757979753686
 31
0.0
  0
INSERT
  5
81E0
  8
3
 62
     2
  2
ARROW
 10
2617.5473846318582
 20
2094.757979753686
 30
0.0
 41
30.0
 42
30.0
 43
30.0
 50
180.0
  0
INSERT
  5
81E1
  8
3
 62
     2
  2
ARROW
 10
2738.5473846318582
 20
2094.757979753686
 30
0.0
 41
30.0
 42
30.0
 43
30.0
  0
TEXT
  8
3
  40
37.5
  5
8221
  62
2
  72
0
  71
0
 10
2603.05
 20
2069.63
 30
0.000000
  1
121
  0
POINT
  5
81E3
  8
DEFPOINTS
 62
     0
 10
2617.5473846318582
 20
2055.5839332377368
 30
0.0
  0
POINT
  5
81E4
  8
DEFPOINTS
 62
     0
 10
2738.5473846318582
 20
1831.3436451048899
 30
0.0
  0
POINT
  5
81E5
  8
DEFPOINTS
 62
     0
 10
2738.5473846318582
 20
2094.757979753686
 30
0.0
  0
ENDBLK
  5
80C7
  8
0
  0
BLOCK
  8
0
  2
*D25
 70
     1
 10
0.0
 20
0.0
 30
0.0
  3
*D25
  1

  0
LINE
  5
81E6
  8
3
 62
     2
 10
2499.5473846318582
 20
1899.808499221346
 30
0.0
 11
2499.5473846318582
 21
2006.2335090684419
 31
0.0
  0
LINE
  5
81E7
  8
3
 62
     2
 10
2735.5473846318582
 20
1899.808499221346
 30
0.0
 11
2735.5473846318582
 21
2006.2335090684419
 31
0.0
  0
LINE
  5
81E8
  8
3
 62
     2
 10
2529.5473846318582
 20
1991.2335090684419
 30
0.0
 11
2705.5473846318582
 21
1991.2335090684419
 31
0.0
  0
INSERT
  5
81E9
  8
3
 62
     2
  2
ARROW
 10
2499.5473846318582
 20
1991.2335090684419
 30
0.0
 41
30.0
 42
30.0
 43
30.0
 50
180.0
  0
INSERT
  5
81EA
  8
3
 62
     2
  2
ARROW
 10
2735.5473846318582
 20
1991.2335090684419
 30
0.0
 41
30.0
 42
30.0
 43
30.0
  0
TEXT
  8
3
  40
37.5
  5
8222
  62
2
  72
0
  71
0
 10
2542.55
 20
1966.11
 30
0.000000
  1
236
  0
POINT
  5
81EC
  8
DEFPOINTS
 62
     0
 10
2499.5473846318582
 20
1884.808499221346
 30
0.0
  0
POINT
  5
81ED
  8
DEFPOINTS
 62
     0
 10
2735.5473846318582
 20
1884.808499221346
 30
0.0
  0
POINT
  5
81EE
  8
DEFPOINTS
 62
     0
 10
2735.5473846318582
 20
1991.2335090684419
 30
0.0
  0
ENDBLK
  5
80A4
  8
0
  0
BLOCK
  8
0
  2
*D26
 70
     1
 10
0.0
 20
0.0
 30
0.0
  3
*D26
  1

  0
LINE
  5
8203
  8
3
 62
     2
 10
2778.5473846318582
 20
1805.3436183406641
 30
0.0
 11
2905.7273561743459
 21
1805.3436183406641
 31
0.0
  0
LINE
  5
8204
  8
3
 62
     2
 10
2778.5473846318582
 20
1490.3436183406641
 30
0.0
 11
2905.7273561743459
 21
1490.3436183406641
 31
0.0
  0
LINE
  5
8205
  8
3
 62
     2
 10
2890.7273561743459
 20
1775.343618340665
 30
0.0
 11
2890.7273561743459
 21
1520.3436183406641
 31
0.0
  0
INSERT
  5
8206
  8
3
 62
     2
  2
ARROW
 10
2890.7273561743459
 20
1805.3436183406641
 30
0.0
 41
30.0
 42
30.0
 43
30.0
 50
90.0
  0
INSERT
  5
8207
  8
3
 62
     2
  2
ARROW
 10
2890.7273561743459
 20
1490.3436183406641
 30
0.0
 41
30.0
 42
30.0
 43
30.0
 50
270.0
  0
TEXT
  8
3
  40
37.5
  5
8223
  62
2
  72
0
  71
0
 10
2774.48
 20
1581.47
 30
0.000000
  1
φ315
  0
POINT
  5
8209
  8
DEFPOINTS
 62
     0
 10
2763.5473846318582
 20
1805.3436183406641
 30
0.0
  0
POINT
  5
820A
  8
DEFPOINTS
 62
     0
 10
2763.5473846318582
 20
1490.3436183406641
 30
0.0
  0
POINT
  5
820B
  8
DEFPOINTS
 62
     0
 10
2890.7273561743459
 20
1490.3436183406641
 30
0.0
  0
ENDBLK
  5
80AF
  8
0
  0
ENDSEC
  0
SECTION
  2
ENTITIES
  0
DIMENSION
  5
7CDC
  8
3
  2
*D3
 10
2617.5473846318582
 20
2094.757979753686
 30
0.0
 11
2273.5473846318582
 21
2136.007979753686
 31
0.0
 70
     0
 13
1929.547384631858
 23
1747.8436183406641
 33
0.0
 14
2617.5473846318582
 24
2055.5839332377368
 34
0.0
1001
ACAD
1000
DSTYLE
1002
{
1070
   287
1070
     3
1070
    40
1040
15.0
1070
    43
1040
0.0
1070
   147
1040
1.5
1070
   173
1070
     1
1070
   271
1070
     0
1070
   272
1070
     4
1070
   279
1070
     0
1070
   284
1070
     0
1070
   285
1070
     0
1070
   286
1070
     0
1070
     6
1000
ARROW
1070
     7
1000
ARROW
1002
}
  0
DIMENSION
  5
7CDD
  8
3
  2
*D4
 10
2782.5473846318569
 20
848.62815715389468
 30
0.0
 11
2392.5473846318569
 21
889.87815715389468
 31
0.0
 70
     0
 13
2002.547384631858
 23
1086.8436183406641
 33
0.0
 14
2782.5473846318569
 24
1086.843618340665
 34
0.0
1001
ACAD
1000
DSTYLE
1002
{
1070
   287
1070
     3
1070
    40
1040
15.0
1070
    43
1040
0.0
1070
   147
1040
1.5
1070
   173
1070
     1
1070
   271
1070
     0
1070
   272
1070
     4
1070
   279
1070
     0
1070
   284
1070
     0
1070
   285
1070
     0
1070
   286
1070
     0
1070
     6
1000
ARROW
1070
     7
1000
ARROW
1002
}
  0
DIMENSION
  5
7CDE
  8
3
  2
*D5
 10
2617.5473846318582
 20
947.61772152455876
 30
0.0
 11
2310.0473846318582
 21
988.86772152455887
 31
0.0
 70
     0
 13
2002.547384631858
 23
1086.8436183406641
 33
0.0
 14
2617.5473846318582
 24
1051.715084731761
 34
0.0
1001
ACAD
1000
DSTYLE
1002
{
1070
   287
1070
     3
1070
    40
1040
15.0
1070
    43
1040
0.0
1070
   147
1040
1.5
1070
   173
1070
     1
1070
   271
1070
     0
1070
   272
1070
     4
1070
   279
1070
     0
1070
   284
1070
     0
1070
   285
1070
     0
1070
   286
1070
     0
1070
     6
1000
ARROW
1070
     7
1000
ARROW
1002
}
  0
LINE
  5
7CDF
  8
1
 10
2002.547384631858
 20
1272.8436183406641
 30
0.0
 11
2472.5473846318582
 21
1272.8436183406641
 31
0.0
  0
LINE
  5
7CE5
  8
1
 10
2367.2473846318571
 20
1630.3436183406641
 30
0.0
 11
2111.8473846318579
 21
1630.3436183406641
 31
0.0
  0
LINE
  5
7CE6
  8
1
 10
2367.2473846318571
 20
1665.3436183406641
 30
0.0
 11
2111.8473846318579
 21
1665.343618340665
 31
0.0
  0
LINE
  5
7CE7
  8
1
 10
2782.5473846318569
 20
1086.843618340665
 30
0.0
 11
2002.547384631858
 21
1086.8436183406641
 31
0.0
  0
LINE
  5
7CE8
  8
1
 10
2782.5473846318569
 20
1161.8436183406641
 30
0.0
 11
2002.547384631858
 21
1161.8436183406641
 31
0.0
  0
LINE
  5
7CE9
  8
2
 10
2799.6526072731931
 20
1647.8436183406641
 30
0.0
 11
1907.7617542269811
 21
1647.8436183406641
 31
0.0
  0
LINE
  5
7CEA
  8
1
 10
2444.5473846318569
 20
1591.0436183406639
 30
0.0
 11
2034.547384631858
 21
1591.0436183406639
 31
0.0
  0
LINE
  5
7CEB
  8
1
 10
2444.5473846318569
 20
1594.2436183406639
 30
0.0
 11
2034.547384631858
 21
1594.2436183406639
 31
0.0
  0
LINE
  5
7CEC
  8
1
 10
2782.5473846318569
 20
1197.843618340665
 30
0.0
 11
2002.547384631858
 21
1197.8436183406641
 31
0.0
  0
DIMENSION
  5
7CED
  8
3
  2
*D6
 10
289.80024440407118
 20
2385.5454702647139
 30
0.0
 11
689.80024440407124
 21
2426.7954702647139
 31
0.0
 70
     0
 13
1089.800244404071
 23
2553.856611071918
 33
0.0
 14
289.80024440407118
 24
2572.8566110719189
 34
0.0
1001
ACAD
1000
DSTYLE
1002
{
1070
   287
1070
     3
1070
    40
1040
15.0
1070
    43
1040
0.0
1070
   147
1040
1.5
1070
   173
1070
     1
1070
   272
1070
     4
1070
   279
1070
     0
1070
   284
1070
     0
1070
   285
1070
     0
1070
   286
1070
     0
1070
     6
1000
ARROW
1070
     7
1000
ARROW
1002
}
  0
LINE
  5
7CEE
  8
1
 10
993.30024440407215
 20
1600.2436183406639
 30
0.0
 11
939.30024440407215
 21
1600.2436183406639
 31
0.0
  0
LINE
  5
7CEF
  8
1
 10
839.80024440407215
 20
1507.8436183406641
 30
0.0
 11
979.80024440407203
 21
1507.8436183406641
 31
0.0
  0
CIRCLE
  5
7CF0
  8
1
 10
909.80024440407215
 20
1507.8436183406641
 30
0.0
 40
65.0
  0
CIRCLE
  5
7CF1
  8
1
 10
909.80024440407215
 20
1647.8436183406641
 30
0.0
 40
63.5
  0
ARC
  5
7CF2
  8
1
 10
909.80024440407215
 20
1647.8436183406641
 30
0.0
 40
100.0
 50
300.52693951049281
 51
109.70273026179621
  0
ARC
  5
7CF3
  8
1
 10
891.30024440407124
 20
1666.3436183406641
 30
0.0
 40
218.11047620624919
 50
0.0000000000000509
 51
82.626233638670399
  0
ARC
  5
7CF4
  8
1
 10
896.79730032884606
 20
1671.9193274028721
 30
0.0
 40
201.58952384937541
 50
358.43602223557491
 51
82.202197156070284
  0
DIMENSION
  5
7CF5
  8
3
  2
*D7
 10
1315.3089420589049
 20
1873.8025225684939
 30
0.0
 11
1274.0589420589049
 21
1760.8230704545799
 31
0.0
 70
     0
 13
1166.260370754557
 23
1647.8436183406641
 33
0.0
 14
891.0352918193812
 24
1873.8025225684939
 34
0.0
 50
270.0
1001
ACAD
1000
DSTYLE
1002
{
1070
   287
1070
     4
1070
    40
1040
15.0
1070
    43
1040
0.0
1070
    75
1070
     1
1070
   147
1040
1.5
1070
   173
1070
     1
1070
   271
1070
     0
1070
   272
1070
     4
1070
   279
1070
     1
1070
   284
1070
     0
1070
   285
1070
     0
1070
   286
1070
     0
1070
     6
1000
ARROW
1070
     7
1000
ARROW
1002
}
  0
DIMENSION
  5
7CF6
  8
3
  2
*D8
 10
909.80024440407215
 20
1989.5577929790161
 30
0.0
 11
1032.3002444040719
 21
2030.8077929790161
 31
0.0
 70
     0
 13
1154.8002444040719
 23
1650.23244866562
 33
0.0
 14
909.80024440407215
 24
1908.446899021535
 34
0.0
1001
ACAD
1000
DSTYLE
1002
{
1070
   287
1070
     3
1070
    40
1040
15.0
1070
    43
1040
0.0
1070
   147
1040
1.5
1070
   173
1070
     1
1070
   271
1070
     0
1070
   272
1070
     4
1070
   279
1070
     0
1070
   284
1070
     0
1070
   285
1070
     0
1070
   286
1070
     0
1070
     6
1000
ARROW
1070
     7
1000
ARROW
1002
}
  0
LINE
  5
7CF7
  8
1
 10
1154.8002444040719
 20
1295.23244866562
 30
0.0
 11
909.64189017108492
 21
1324.2511926360551
 31
0.0
  0
DIMENSION
  5
7CF8
  8
3
  2
*D9
 10
909.80024440407215
 20
946.76856450580999
 30
0.0
 11
999.80024440407158
 21
988.01856450580999
 31
0.0
 70
     0
 13
1089.800244404071
 23
1086.8436183406641
 33
0.0
 14
909.80024440407215
 24
1054.3606658439051
 34
0.0
1001
ACAD
1000
DSTYLE
1002
{
1070
   287
1070
     3
1070
    40
1040
15.0
1070
    43
1040
0.0
1070
   147
1040
1.5
1070
   173
1070
     1
1070
   271
1070
     0
1070
   272
1070
     4
1070
   279
1070
     0
1070
   284
1070
     0
1070
   285
1070
     0
1070
   286
1070
     0
1070
     6
1000
ARROW
1070
     7
1000
ARROW
1002
}
  0
DIMENSION
  5
7CF9
  8
3
  2
*D10
 10
1597.441681666452
 20
1873.8025225684939
 30
0.0
 11
1556.191681666452
 21
1480.3230704545799
 31
0.0
 70
     0
 13
1089.800244404071
 23
1086.8436183406641
 33
0.0
 14
891.0352918193812
 24
1873.8025225684939
 34
0.0
 50
270.0
1001
ACAD
1000
DSTYLE
1002
{
1070
   287
1070
     3
1070
    40
1040
15.0
1070
    43
1040
0.0
1070
   147
1040
1.5
1070
   173
1070
     1
1070
   271
1070
     0
1070
   272
1070
     4
1070
   279
1070
     0
1070
   284
1070
     0
1070
   285
1070
     0
1070
   286
1070
     0
1070
     6
1000
ARROW
1070
     7
1000
ARROW
1002
}
  0
LINE
  5
7CFA
  8
1
 10
1069.8002444040719
 20
1594.2436183406639
 30
0.0
 11
749.80024440407215
 21
1594.2436183406639
 31
0.0
  0
LINE
  5
7CFB
  8
2
 10
554.93939129572937
 20
1647.8436183406641
 30
0.0
 11
1166.260370754557
 21
1647.8436183406641
 31
0.0
  0
LINE
  5
7CFC
  8
1
 10
1109.8002444040731
 20
1591.0436183406639
 30
0.0
 11
709.80024440407215
 21
1591.043618340665
 31
0.0
  0
LINE
  5
7CFD
  8
1
 10
289.80024440407118
 20
1086.8436183406641
 30
0.0
 11
1089.8002444040719
 21
1086.8436183406641
 31
0.0
  0
LINE
  5
7CFE
  8
1
 10
289.80024440407118
 20
1161.8436183406641
 30
0.0
 11
1089.8002444040719
 21
1161.8436183406641
 31
0.0
  0
LINE
  5
7CFF
  8
1
 10
279.80024440407209
 20
1272.8436183406641
 30
0.0
 11
1089.8002444040719
 21
1272.8436183406641
 31
0.0
  0
LINE
  5
7D00
  8
1
 10
289.80024440407118
 20
1197.8436183406641
 30
0.0
 11
1089.8002444040719
 21
1197.8436183406641
 31
0.0
  0
LINE
  5
7D01
  8
1
 10
960.59458744039318
 20
1561.70457541872
 30
0.0
 11
505.99175895855302
 21
1293.6350539577479
 31
0.0
  0
DIMENSION
  5
7D02
  8
3
  2
*D11
 10
289.80024440407118
 20
851.77037152405956
 30
0.0
 11
689.80024440407124
 21
893.02037152405956
 31
0.0
 70
     0
 13
1089.800244404071
 23
1086.8436183406641
 33
0.0
 14
289.80024440407118
 24
1086.8436183406641
 34
0.0
1001
ACAD
1000
DSTYLE
1002
{
1070
   287
1070
     3
1070
    40
1040
15.0
1070
    43
1040
0.0
1070
   147
1040
1.5
1070
   173
1070
     1
1070
   271
1070
     0
1070
   272
1070
     4
1070
   279
1070
     0
1070
   284
1070
     0
1070
   285
1070
     0
1070
   286
1070
     0
1070
     6
1000
ARROW
1070
     7
1000
ARROW
1002
}
  0
POLYLINE
  5
7D03
  8
1
 66
     1
 10
0.0
 20
0.0
 30
0.0
 70
     1
  0
VERTEX
  5
8157
  8
1
 10
809.80024440407215
 20
1594.2436183406639
 30
0.0
  0
VERTEX
  5
8158
  8
1
 10
1009.800244404072
 20
1594.2436183406639
 30
0.0
  0
VERTEX
  5
8159
  8
1
 10
1009.800244404072
 20
1600.2436183406639
 30
0.0
  0
VERTEX
  5
815A
  8
1
 10
809.80024440407215
 20
1600.2436183406639
 30
0.0
  0
SEQEND
  5
815B
  8
1
  0
POLYLINE
  5
7D09
  8
1
 66
     1
 10
0.0
 20
0.0
 30
0.0
 70
     1
  0
VERTEX
  5
815C
  8
1
 10
809.80024440407215
 20
1594.2436183406639
 30
0.0
  0
VERTEX
  5
815D
  8
1
 10
1009.800244404072
 20
1594.2436183406639
 30
0.0
  0
VERTEX
  5
815E
  8
1
 10
1009.800244404072
 20
1600.2436183406639
 30
0.0
  0
VERTEX
  5
815F
  8
1
 10
809.80024440407215
 20
1600.2436183406639
 30
0.0
  0
SEQEND
  5
8160
  8
1
  0
ARC
  5
7D0F
  8
1
 10
933.80024440407215
 20
1623.8436183406641
 30
0.0
 40
308.96488088068128
 50
180.0
 51
235.72463522935649
  0
ARC
  5
7D10
  8
1
 10
429.80024440407118
 20
1422.8436183406641
 30
0.0
 40
100.8
 50
300.30070000000001
 51
180.0
  0
ARC
  5
7D11
  8
1
 10
429.80024440407118
 20
1422.8436183406641
 30
0.0
 40
100.8
 50
300.30070000000001
 51
180.0
  0
ARC
  5
7D12
  8
1
 10
429.80024440407118
 20
1422.8436183406641
 30
0.0
 40
97.0
 50
297.50360000000001
 51
180.0
  0
ARC
  5
7D13
  8
1
 10
429.80024440407118
 20
1422.8436183406641
 30
0.0
 40
97.0
 50
297.50360000000001
 51
180.0
  0
CIRCLE
  5
7D14
  8
1
 10
429.80024440407118
 20
1422.8436183406641
 30
0.0
 40
82.599999999999994
  0
ARC
  5
7D15
  8
1
 10
429.80024440407118
 20
1422.8436183406641
 30
0.0
 40
150.0
 50
109.70273026179621
 51
300.52693951049281
  0
LINE
  5
7D16
  8
1
 10
759.80024440407215
 20
1591.0436183406639
 30
0.0
 11
759.80024440407215
 21
1272.8436183406641
 31
0.0
  0
LINE
  5
7D17
  8
2
 10
429.80024440407118
 20
1326.859518340664
 30
0.0
 11
429.80024440407118
 21
1531.3047183406641
 31
0.0
  0
LINE
  5
7D18
  8
2
 10
909.80024440407215
 20
1741.9829335331401
 30
0.0
 11
909.80024440407215
 21
1054.3606658439051
 31
0.0
  0
ARC
  5
7D19
  8
1
 10
933.80024440407135
 20
1623.8436183406641
 30
0.0
 40
297.56488088068153
 50
179.9999999999998
 51
265.389792504132
  0
LINE
  5
7D1A
  8
1
 10
938.80588434760557
 20
1591.3553642388949
 30
0.0
 11
467.53041541723439
 21
1349.364409068126
 31
0.0
  0
DIMENSION
  5
7D1B
  8
3
  2
*D12
 10
289.80024440407118
 20
946.76856450580999
 30
0.0
 11
599.80024440407158
 21
988.01856450580999
 31
0.0
 70
     0
 13
909.80024440407215
 23
1054.3606658439051
 33
0.0
 14
289.80024440407118
 24
1086.8436183406641
 34
0.0
1001
ACAD
1000
DSTYLE
1002
{
1070
   287
1070
     4
1070
    40
1040
15.0
1070
    43
1040
0.0
1070
    75
1070
     1
1070
   147
1040
1.5
1070
   173
1070
     1
1070
   271
1070
     0
1070
   272
1070
     4
1070
   279
1070
     1
1070
   284
1070
     0
1070
   285
1070
     0
1070
   286
1070
     0
1070
     6
1000
ARROW
1070
     7
1000
ARROW
1002
}
  0
LINE
  5
7D1C
  8
1
 10
289.80024440407118
 20
1161.8436183406641
 30
0.0
 11
289.80024440407118
 21
1086.8436183406641
 31
0.0
  0
LINE
  5
7D1D
  8
1
 10
474.63074440407121
 20
1336.8436183406641
 30
0.0
 11
384.67634440407159
 21
1336.8436183406641
 31
0.0
  0
LINE
  5
7D1E
  8
1
 10
474.63074440407121
 20
1336.8436183406641
 30
0.0
 11
384.67634440407159
 21
1336.8436183406641
 31
0.0
  0
LINE
  5
7D1F
  8
1
 10
480.72434440407142
 20
1335.8436183406641
 30
0.0
 11
378.76924440407117
 21
1335.8436183406641
 31
0.0
  0
LINE
  5
7D20
  8
1
 10
480.72434440407142
 20
1335.8436183406641
 30
0.0
 11
378.76924440407117
 21
1335.8436183406641
 31
0.0
  0
LINE
  5
7D21
  8
1
 10
328.89637293538448
 20
1332.8436183406641
 30
0.0
 11
530.70411587275828
 21
1332.8436183406641
 31
0.0
  0
LINE
  5
7D22
  8
1
 10
279.80024440407209
 20
1302.8436183406641
 30
0.0
 11
579.80024440407124
 21
1302.8436183406641
 31
0.0
  0
LINE
  5
7D23
  8
2
 10
534.26544440407167
 20
1422.8436183406641
 30
0.0
 11
323.69744440407152
 21
1422.8436183406641
 31
0.0
  0
LINE
  5
7D24
  8
1
 10
317.30024440407118
 20
1302.8436183406641
 30
0.0
 11
328.89637293538448
 21
1332.8436183406641
 31
0.0
  0
LINE
  5
7D25
  8
1
 10
289.80024440407209
 20
1272.8436183406641
 30
0.0
 11
289.80024440407118
 21
1197.8436183406641
 31
0.0
  0
LINE
  5
7D26
  8
1
 10
279.80024440407209
 20
1272.8436183406641
 30
0.0
 11
279.80024440407209
 21
1302.8436183406641
 31
0.0
  0
ARC
  5
7D27
  8
1
 10
429.80024440407118
 20
1422.8436183406641
 30
0.0
 40
97.0
 50
180.0
 51
242.3874999999999
  0
ARC
  5
7D28
  8
1
 10
429.80024440407118
 20
1422.8436183406641
 30
0.0
 40
100.8
 50
180.0
 51
239.6066999999999
  0
ARC
  5
7D29
  8
1
 10
429.80024440407118
 20
1422.8436183406641
 30
0.0
 40
97.0
 50
180.0
 51
242.3874999999999
  0
ARC
  5
7D2A
  8
1
 10
429.80024440407118
 20
1422.8436183406641
 30
0.0
 40
100.8
 50
180.0
 51
239.6066999999999
  0
LINE
  5
7D2B
  8
1
 10
341.80024440407118
 20
1332.8436183406641
 30
0.0
 11
381.80024440407118
 21
1332.8436183406641
 31
0.0
  0
LINE
  5
7D2C
  8
1
 10
341.80024440407118
 20
1332.8436183406641
 30
0.0
 11
341.80024440407118
 21
1340.8436183406641
 31
0.0
  0
LINE
  5
7D2D
  8
1
 10
347.6536444040712
 20
1364.426318340664
 30
0.0
 11
341.80024440407118
 21
1340.8436183406641
 31
0.0
  0
LINE
  5
7D2E
  8
1
 10
359.80024440407118
 20
1328.477118340664
 30
0.0
 11
359.80024440407118
 21
1345.3805183406639
 31
0.0
  0
LINE
  5
7D2F
  8
1
 10
381.80024440407118
 20
1335.7746183406639
 30
0.0
 11
381.80024440407118
 21
1332.8436183406641
 31
0.0
  0
LINE
  5
7D30
  8
1
 10
542.30024440407124
 20
1302.8436183406641
 30
0.0
 11
530.70411587275828
 21
1332.8436183406641
 31
0.0
  0
LINE
  5
7D31
  8
1
 10
579.80024440407124
 20
1272.8436183406641
 30
0.0
 11
579.80024440407124
 21
1302.8436183406641
 31
0.0
  0
LINE
  5
7D32
  8
1
 10
517.80024440407124
 20
1332.8436183406641
 30
0.0
 11
477.80024440407118
 21
1332.8436183406641
 31
0.0
  0
LINE
  5
7D33
  8
1
 10
477.80024440407118
 20
1335.8164183406641
 30
0.0
 11
477.80024440407118
 21
1332.8436183406641
 31
0.0
  0
LINE
  5
7D34
  8
1
 10
499.80024440407118
 20
1328.477118340664
 30
0.0
 11
499.80024440407118
 21
1345.3805183406639
 31
0.0
  0
LINE
  5
7D35
  8
1
 10
517.80024440407124
 20
1332.8436183406641
 30
0.0
 11
517.80024440407124
 21
1340.8436183406641
 31
0.0
  0
LINE
  5
7D36
  8
1
 10
511.94674440407152
 20
1364.426318340664
 30
0.0
 11
517.80024440407124
 21
1340.8436183406641
 31
0.0
  0
LINE
  5
7D37
  8
1
 10
729.80024440407215
 20
1347.8436183406641
 30
0.0
 11
729.80024440407215
 21
1272.8436183406641
 31
0.0
  0
LINE
  5
7D38
  8
1
 10
729.80024440407215
 20
1277.8436183406641
 30
0.0
 11
759.80024440407215
 21
1277.8436183406641
 31
0.0
  0
LINE
  5
7D39
  8
1
 10
729.80024440407215
 20
1347.8436183406641
 30
0.0
 11
759.80024440407215
 21
1347.8436183406641
 31
0.0
  0
ARC
  5
7D3A
  8
1
 10
885.80024440407215
 20
1623.8436183406641
 30
0.0
 40
260.96488088068128
 50
82.626233638670399
 51
180.0
  0
DIMENSION
  5
7D3B
  8
3
  2
*D13
 10
636.23536352338976
 20
1989.5577929790161
 30
0.0
 11
773.0178039637309
 21
2030.8077929790161
 31
0.0
 70
     0
 13
909.80024440407215
 23
1908.446899021535
 33
0.0
 14
636.23536352338976
 24
1623.8436183406641
 34
0.0
1001
ACAD
1000
DSTYLE
1002
{
1070
   287
1070
     4
1070
    40
1040
15.0
1070
    43
1040
0.0
1070
    75
1070
     1
1070
   147
1040
1.5
1070
   173
1070
     1
1070
   271
1070
     0
1070
   272
1070
     4
1070
   279
1070
     1
1070
   284
1070
     0
1070
   285
1070
     0
1070
   286
1070
     0
1070
     6
1000
ARROW
1070
     7
1000
ARROW
1002
}
  0
LINE
  5
7D3C
  8
1
 10
884.93778033457147
 20
1706.2739861333871
 30
0.0
 11
397.45946437035849
 21
1498.849104634819
 31
0.0
  0
LINE
  5
7D3D
  8
1
 10
876.08623229916338
 20
1741.989066386707
 30
0.0
 11
379.22922624670809
 21
1564.061790409728
 31
0.0
  0
ARC
  5
7D3E
  8
1
 10
891.0352918193812
 20
1618.650290300573
 30
0.0
 40
255.15223226792139
 50
82.539657227095873
 51
178.8459440643627
  0
LINE
  5
7D3F
  8
1
 10
709.80024440407215
 20
1591.0436183406639
 30
0.0
 11
709.80024440407215
 21
1551.043618340665
 31
0.0
  0
LINE
  5
7D40
  8
1
 10
634.6614678845217
 20
1546.543618340665
 30
0.0
 11
759.80024440407215
 21
1546.543618340665
 31
0.0
  0
LINE
  5
7D41
  8
1
 10
633.53459932023361
 20
1551.043618340665
 30
0.0
 11
759.80024440407215
 21
1551.043618340665
 31
0.0
  0
LINE
  5
7D42
  8
1
 10
749.80024440407215
 20
1594.2436183406639
 30
0.0
 11
749.80024440407215
 21
1591.0436183406639
 31
0.0
  0
LINE
  5
7D43
  8
1
 10
826.30024440407203
 20
1600.2436183406639
 30
0.0
 11
880.30024440407215
 21
1600.2436183406639
 31
0.0
  0
LINE
  5
7D44
  8
2
 10
909.80024440407215
 20
1908.446899021535
 30
0.0
 11
909.80024440407215
 21
1760.922860511329
 31
0.0
  0
LINE
  5
7D45
  8
1
 10
909.80024440407215
 20
1747.8436183406641
 30
0.0
 11
909.80024440407215
 21
1747.8436183406641
 31
0.0
  0
LINE
  5
7D46
  8
1
 10
1154.8002444040719
 20
1650.23244866562
 30
0.0
 11
1154.8002444040719
 21
1270.23244866562
 31
0.0
  0
LINE
  5
7D47
  8
1
 10
1129.8002444040719
 20
1289.7329915451071
 30
0.0
 11
1129.8002444040719
 21
1626.23244866562
 31
0.0
  0
LINE
  5
7D48
  8
1
 10
1151.8002444040719
 20
1650.23244866562
 30
0.0
 11
1151.8002444040719
 21
1272.23244866562
 31
0.0
  0
DIMENSION
  5
7D49
  8
3
  2
*D14
 10
1223.2757769424491
 20
1621.843618340665
 30
0.0
 11
1182.0257769424491
 21
1459.343618340665
 31
0.0
 70
     0
 13
1154.8002444040719
 23
1296.8436183406641
 33
0.0
 14
1154.8002444040719
 24
1621.843618340665
 34
0.0
 50
270.0
1001
ACAD
1000
DSTYLE
1002
{
1070
   287
1070
     3
1070
    40
1040
15.0
1070
    43
1040
0.0
1070
   147
1040
1.5
1070
   173
1070
     1
1070
   271
1070
     0
1070
   272
1070
     4
1070
   279
1070
     0
1070
   284
1070
     0
1070
   285
1070
     0
1070
   286
1070
     0
1070
     6
1000
ARROW
1070
     7
1000
ARROW
1002
}
  0
DIMENSION
  5
7D4A
  8
3
  2
*D15
 10
1315.3089420589049
 20
1647.8436183406641
 30
0.0
 11
1274.0589420589049
 21
1472.343618340665
 31
0.0
 70
     0
 13
1154.8002444040719
 23
1296.8436183406641
 33
0.0
 14
1166.260370754557
 24
1647.8436183406641
 34
0.0
 50
270.0
1001
ACAD
1000
DSTYLE
1002
{
1070
   287
1070
     3
1070
    40
1040
15.0
1070
    43
1040
0.0
1070
   147
1040
1.5
1070
   173
1070
     1
1070
   271
1070
     0
1070
   272
1070
     4
1070
   279
1070
     0
1070
   284
1070
     0
1070
   285
1070
     0
1070
   286
1070
     0
1070
     6
1000
ARROW
1070
     7
1000
ARROW
1002
}
  0
DIMENSION
  5
7D4B
  8
3
  2
*D16
 10
1405.7897438227151
 20
1197.8436183406641
 30
0.0
 11
1364.5397438227151
 21
1422.843618340665
 31
0.0
 70
     0
 13
1166.260370754557
 23
1647.8436183406641
 33
0.0
 14
1089.8002444040719
 24
1197.8436183406641
 34
0.0
 50
270.0
1001
ACAD
1000
DSTYLE
1002
{
1070
   287
1070
     3
1070
    40
1040
15.0
1070
    43
1040
0.0
1070
   147
1040
1.5
1070
   173
1070
     1
1070
   271
1070
     0
1070
   272
1070
     4
1070
   279
1070
     0
1070
   284
1070
     0
1070
   285
1070
     0
1070
   286
1070
     0
1070
     6
1000
ARROW
1070
     7
1000
ARROW
1002
}
  0
LINE
  5
7D4C
  8
1
 10
1059.8002444040731
 20
1591.0436183406639
 30
0.0
 11
1059.800244404071
 21
1272.8436183406641
 31
0.0
  0
LINE
  5
7D4D
  8
1
 10
2286.5473846318582
 20
1519.8436183406641
 30
0.0
 11
2286.5473846318582
 21
1332.8436183406641
 31
0.0
  0
LINE
  5
7D4E
  8
1
 10
2021.547384631858
 20
1747.8436183406641
 30
0.0
 11
2021.547384631858
 21
1272.8436183406641
 31
0.0
  0
LINE
  5
7D4F
  8
1
 10
1929.547384631858
 20
1747.8436183406641
 30
0.0
 11
1929.547384631858
 21
1272.8436183406641
 31
0.0
  0
LINE
  5
7D50
  8
1
 10
2009.547384631858
 20
1600.4436183406649
 30
0.0
 11
2009.547384631858
 21
1321.2436183406639
 31
0.0
  0
LINE
  5
7D51
  8
1
 10
1959.547384631858
 20
1600.4436183406649
 30
0.0
 11
1959.547384631858
 21
1321.2436183406639
 31
0.0
  0
LINE
  5
7D52
  8
1
 10
2014.547384631858
 20
1386.3436183406641
 30
0.0
 11
2014.547384631858
 21
1459.3436183406641
 31
0.0
  0
LINE
  5
7D53
  8
1
 10
2024.547384631858
 20
1519.8436183406641
 30
0.0
 11
2024.547384631858
 21
1332.8436183406641
 31
0.0
  0
DIMENSION
  5
7D54
  8
3
  2
*D17
 10
1405.7897438227151
 20
1086.8436183406641
 30
0.0
 11
1364.5397438227151
 21
973.98647548352164
 31
0.0
 70
     0
 13
1089.800244404071
 23
1161.8436183406641
 33
0.0
 14
1089.800244404071
 24
1086.8436183406641
 34
0.0
 50
270.0
1001
ACAD
1000
DSTYLE
1002
{
1070
   287
1070
     3
1070
    40
1040
15.0
1070
    43
1040
0.0
1070
   147
1040
1.5
1070
   173
1070
     1
1070
   271
1070
     0
1070
   272
1070
     4
1070
   279
1070
     0
1070
   284
1070
     0
1070
   285
1070
     0
1070
   286
1070
     0
1070
     6
1000
YA_N
1070
     7
1000
OPEN
1002
}
  0
DIMENSION
  5
7D55
  8
3
  2
*D18
 10
1405.7897438227151
 20
1161.8436183406641
 30
0.0
 11
1489.182600965572
 21
1242.6829040549501
 31
0.0
 70
     0
  1
(36)
 13
1089.8002444040719
 23
1197.8436183406641
 33
0.0
 14
1089.800244404071
 24
1161.8436183406641
 34
0.0
 50
270.0
1001
ACAD
1000
DSTYLE
1002
{
1070
   287
1070
     4
1070
    40
1040
15.0
1070
    43
1040
0.0
1070
    75
1070
     1
1070
   147
1040
1.5
1070
   173
1070
     1
1070
   271
1070
     0
1070
   272
1070
     4
1070
   279
1070
     1
1070
   284
1070
     0
1070
   285
1070
     0
1070
   286
1070
     0
1070
     6
1000
OPEN
1070
     7
1000
YA_N
1002
}
  0
LINE
  5
7D56
  8
1
 10
1089.800244404071
 20
1161.8436183406641
 30
0.0
 11
1089.800244404071
 21
1086.8436183406641
 31
0.0
  0
LINE
  5
7D57
  8
1
 10
1129.8002444040719
 20
1289.7329915451071
 30
0.0
 11
1089.8002444040719
 21
1294.467685422658
 31
0.0
  0
POLYLINE
  5
7D58
  8
1
 66
     1
 10
0.0
 20
0.0
 30
0.0
  0
VERTEX
  5
81A4
  8
1
 10
1154.8002444040719
 20
1295.23244866562
 30
0.0
  0
VERTEX
  5
81A5
  8
1
 10
1010.030900102831
 20
1312.368411868624
 30
0.0
 42
-0.3908380251735333
  0
SEQEND
  5
81A6
  8
1
  0
LINE
  5
7D5C
  8
1
 10
1089.8002444040719
 20
1347.8436183406641
 30
0.0
 11
1089.8002444040719
 21
1197.8436183406641
 31
0.0
  0
LINE
  5
7D5D
  8
1
 10
1059.8002444040719
 20
1277.8436183406641
 30
0.0
 11
1089.8002444040719
 21
1277.8436183406641
 31
0.0
  0
LINE
  5
7D5E
  8
1
 10
1059.800244404071
 20
1347.8436183406641
 30
0.0
 11
1089.8002444040719
 21
1347.8436183406641
 31
0.0
  0
LINE
  5
7D5F
  8
1
 10
1129.8002444040719
 20
1298.8028020141339
 30
0.0
 11
1129.8002444040719
 21
1299.8028020141339
 31
0.0
  0
LINE
  5
7D60
  8
1
 10
1129.800244404071
 20
1294.23244866562
 30
0.0
 11
1129.800244404071
 21
1295.23244866562
 31
0.0
  0
LINE
  5
7D61
  8
1
 10
1147.800244404071
 20
1292.23244866562
 30
0.0
 11
1131.800244404071
 21
1292.23244866562
 31
0.0
  0
LINE
  5
7D62
  8
1
 10
1154.800244404071
 20
1295.23244866562
 30
0.0
 11
1154.800244404071
 21
1270.23244866562
 31
0.0
  0
LINE
  5
7D63
  8
1
 10
1151.800244404071
 20
1272.23244866562
 30
0.0
 11
1151.800244404071
 21
1288.23244866562
 31
0.0
  0
ARC
  5
7D64
  8
1
 10
1147.800244404071
 20
1288.23244866562
 30
0.0
 40
4.0
 50
0.0
 51
90.0
  0
LINE
  5
7D65
  8
1
 10
1154.8002444040719
 20
1296.8436183406641
 30
0.0
 11
1147.1699327297731
 21
1296.8436183406641
 31
0.0
  0
LINE
  5
7D66
  8
1
 10
1154.800244404071
 20
1270.23244866562
 30
0.0
 11
1153.800244404071
 21
1270.23244866562
 31
0.0
  0
ARC
  5
7D67
  8
1
 10
1153.800244404071
 20
1272.23244866562
 30
0.0
 40
2.0
 50
180.0
 51
270.0
  0
LINE
  5
7D68
  8
1
 10
1129.800244404071
 20
1295.23244866562
 30
0.0
 11
1154.800244404071
 21
1295.23244866562
 31
0.0
  0
ARC
  5
7D69
  8
1
 10
1131.800244404071
 20
1294.23244866562
 30
0.0
 40
2.0
 50
180.0
 51
270.0
  0
CIRCLE
  5
7D6A
  8
1
 10
1405.7897438227151
 20
1161.8436183406641
 30
0.0
 40
3.0
  0
LINE
  5
7D6B
  8
1
 10
2009.547384631858
 20
1321.2436183406639
 30
0.0
 11
1959.547384631858
 21
1321.2436183406639
 31
0.0
  0
LINE
  5
7D6C
  8
1
 10
1929.547384631858
 20
1272.8436183406641
 30
0.0
 11
2021.547384631858
 21
1272.8436183406641
 31
0.0
  0
LINE
  5
7D6D
  8
2
 10
2053.845350028907
 20
1422.8436183406641
 30
0.0
 11
1954.512784631858
 21
1422.8436183406641
 31
0.0
  0
LINE
  5
7D6E
  8
1
 10
2002.547384631858
 20
1161.8436183406641
 30
0.0
 11
2002.547384631858
 21
1086.8436183406641
 31
0.0
  0
LINE
  5
7D6F
  8
1
 10
2024.547384631858
 20
1332.8436183406641
 30
0.0
 11
2286.5473846318582
 21
1332.8436183406641
 31
0.0
  0
LINE
  5
7D70
  8
1
 10
2044.547384631858
 20
1332.8436183406641
 30
0.0
 11
2044.547384631858
 21
1272.8436183406641
 31
0.0
  0
LINE
  5
7D71
  8
1
 10
2041.347384631857
 20
1332.8436183406641
 30
0.0
 11
2041.347384631857
 21
1272.8436183406641
 31
0.0
  0
LINE
  5
7D72
  8
1
 10
2002.547384631858
 20
1272.8436183406641
 30
0.0
 11
2002.547384631858
 21
1197.8436183406641
 31
0.0
  0
LINE
  5
7D73
  8
1
 10
2014.547384631858
 20
1410.3436183406641
 30
0.0
 11
2009.547384631858
 21
1410.3436183406641
 31
0.0
  0
ARC
  5
7D74
  8
1
 10
2015.547484631858
 20
1386.3436183406641
 30
0.0
 40
1.0000999999999991
 50
180.0
 51
269.99650000000003
  0
ARC
  5
7D75
  8
1
 10
2023.547384631858
 20
1384.3436183406641
 30
0.0
 40
1.0000999999999991
 50
0.0
 51
89.996500000000054
  0
LINE
  5
7D76
  8
1
 10
2015.547384631858
 20
1385.3436183406641
 30
0.0
 11
2023.547384631858
 21
1385.3436183406641
 31
0.0
  0
LINE
  5
7D77
  8
1
 10
2014.547384631858
 20
1435.3436183406641
 30
0.0
 11
2009.547384631858
 21
1435.3436183406641
 31
0.0
  0
LINE
  5
7D78
  8
1
 10
2009.547384631858
 20
1435.3436183406641
 30
0.0
 11
2009.547384631858
 21
1410.3436183406641
 31
0.0
  0
LINE
  5
7D79
  8
1
 10
1129.8002444040719
 20
1631.8436183406641
 30
0.0
 11
1106.09437982944
 21
1631.8436183406641
 31
0.0
  0
LINE
  5
7D7A
  8
1
 10
1154.8002444040719
 20
1621.843618340665
 30
0.0
 11
1095.179418033945
 21
1621.843618340665
 31
0.0
  0
LINE
  5
7D7B
  8
1
 10
1096.021863300153
 20
1625.23244866562
 30
0.0
 11
1154.8002444040719
 21
1625.23244866562
 31
0.0
  0
LINE
  5
7D7C
  8
1
 10
1059.8002444040731
 20
1546.5436183406639
 30
0.0
 11
1129.8002444040719
 21
1546.5436183406639
 31
0.0
  0
LINE
  5
7D7D
  8
1
 10
1059.8002444040731
 20
1551.043618340665
 30
0.0
 11
1129.8002444040719
 21
1551.0436183406639
 31
0.0
  0
LINE
  5
7D7E
  8
1
 10
1109.8002444040731
 20
1591.0436183406639
 30
0.0
 11
1109.8002444040731
 21
1551.0436183406639
 31
0.0
  0
ARC
  5
7D7F
  8
1
 10
928.30024440407385
 20
1666.343618340665
 30
0.0
 40
181.11047620624669
 50
349.01853306424351
 51
359.99999999999972
  0
ARC
  5
7D80
  8
1
 10
928.30024440407215
 20
1666.3436183406641
 30
0.0
 40
170.010476206249
 50
345.06893957627472
 51
0.0000000000004071
  0
LINE
  5
7D81
  8
1
 10
1069.8002444040719
 20
1594.2436183406639
 30
0.0
 11
1069.8002444040719
 21
1591.0436183406639
 31
0.0
  0
LINE
  5
7D82
  8
1
 10
1154.8002444040719
 20
1625.23244866562
 30
0.0
 11
1154.8002444040719
 21
1650.23244866562
 31
0.0
  0
ARC
  5
7D83
  8
1
 10
1147.8002444040719
 20
1632.23244866562
 30
0.0
 40
4.0
 50
270.0
 51
0.0
  0
LINE
  5
7D84
  8
1
 10
1129.8002444040719
 20
1626.23244866562
 30
0.0
 11
1129.8002444040719
 21
1625.23244866562
 31
0.0
  0
LINE
  5
7D85
  8
1
 10
1129.8002444040719
 20
1631.8436183406641
 30
0.0
 11
1129.8002444040719
 21
1625.23244866562
 31
0.0
  0
LINE
  5
7D86
  8
1
 10
1147.8002444040719
 20
1628.23244866562
 30
0.0
 11
1131.8002444040719
 21
1628.23244866562
 31
0.0
  0
ARC
  5
7D87
  8
1
 10
1131.8002444040719
 20
1626.23244866562
 30
0.0
 40
2.0
 50
90.0
 51
180.0
  0
LINE
  5
7D88
  8
1
 10
1151.8002444040719
 20
1648.23244866562
 30
0.0
 11
1151.8002444040719
 21
1632.23244866562
 31
0.0
  0
ARC
  5
7D89
  8
1
 10
1153.8002444040719
 20
1648.23244866562
 30
0.0
 40
2.0
 50
90.0
 51
180.0
  0
LINE
  5
7D8A
  8
1
 10
1154.8002444040719
 20
1650.23244866562
 30
0.0
 11
1153.8002444040719
 21
1650.23244866562
 31
0.0
  0
LINE
  5
7D8B
  8
1
 10
2009.547384631858
 20
1524.443618340664
 30
0.0
 11
1959.547384631858
 21
1524.443618340664
 31
0.0
  0
LINE
  5
7D8C
  8
1
 10
1929.547384631858
 20
1747.8436183406641
 30
0.0
 11
2021.547384631858
 21
1747.8436183406641
 31
0.0
  0
LINE
  5
7D8D
  8
1
 10
2009.547384631858
 20
1584.3436183406641
 30
0.0
 11
1959.547384631858
 21
1584.3436183406641
 31
0.0
  0
LINE
  5
7D8E
  8
1
 10
2009.547384631858
 20
1711.343618340665
 30
0.0
 11
1959.547384631858
 21
1711.343618340665
 31
0.0
  0
LINE
  5
7D8F
  8
1
 10
1959.547384631858
 20
1711.3436183406641
 30
0.0
 11
1959.547384631858
 21
1584.3436183406641
 31
0.0
  0
LINE
  5
7D90
  8
1
 10
1959.547384631858
 20
1529.843618340665
 30
0.0
 11
1959.547384631858
 21
1505.843618340665
 31
0.0
  0
POLYLINE
  5
7D91
  8
1
 66
     1
 10
0.0
 20
0.0
 30
0.0
 70
     1
  0
VERTEX
  5
81A7
  8
1
 10
2085.8993097692869
 20
1702.6050418211751
 30
0.0
  0
VERTEX
  5
81A8
  8
1
 10
2081.254324996361
 20
1702.6050418211751
 30
0.0
  0
VERTEX
  5
81A9
  8
1
 10
2081.254324996361
 20
1694.2436183406651
 30
0.0
  0
VERTEX
  5
81AA
  8
1
 10
2085.8993097692869
 20
1694.2436183406651
 30
0.0
  0
SEQEND
  5
81AB
  8
1
  0
ARC
  5
7D97
  8
1
 10
2081.743676946719
 20
1669.4086801686501
 30
0.0
 40
24.931864229136519
 50
59.099552968319841
 51
95.053838103948024
  0
ARC
  5
7D98
  8
1
 10
2077.3510923169961
 20
1669.4086801686501
 30
0.0
 40
24.931864229136519
 50
84.94616189605199
 51
120.9004470316801
  0
LINE
  5
7D99
  8
1
 10
2009.547384631858
 20
1711.3436183406641
 30
0.0
 11
2009.547384631858
 21
1584.3436183406641
 31
0.0
  0
LINE
  5
7D9A
  8
2
 10
2079.5473846318582
 20
1714.1087831889311
 30
0.0
 11
2079.5473846318582
 21
1555.0469057600831
 31
0.0
  0
LINE
  5
7D9B
  8
1
 10
2024.547384631858
 20
1519.8436183406641
 30
0.0
 11
2286.5473846318582
 21
1519.8436183406641
 31
0.0
  0
LINE
  5
7D9C
  8
1
 10
2041.3473846318579
 20
1591.0436183406639
 30
0.0
 11
2041.3473846318579
 21
1519.8436183406641
 31
0.0
  0
LINE
  5
7D9D
  8
1
 10
2044.547384631858
 20
1591.0436183406639
 30
0.0
 11
2044.547384631858
 21
1519.8436183406641
 31
0.0
  0
LINE
  5
7D9E
  8
1
 10
2014.547384631858
 20
1459.3436183406641
 30
0.0
 11
2024.547384631858
 21
1459.3436183406641
 31
0.0
  0
POLYLINE
  5
7D9F
  8
1
 66
     1
 10
0.0
 20
0.0
 30
0.0
 70
     1
  0
VERTEX
  5
81AC
  8
1
 10
2112.0473846318582
 20
1594.2436183406639
 30
0.0
  0
VERTEX
  5
81AD
  8
1
 10
2047.047384631858
 20
1594.2436183406639
 30
0.0
  0
VERTEX
  5
81AE
  8
1
 10
2047.047384631858
 20
1600.2436183406639
 30
0.0
  0
VERTEX
  5
81AF
  8
1
 10
2112.0473846318582
 20
1600.2436183406639
 30
0.0
  0
SEQEND
  5
81B0
  8
1
  0
LINE
  5
7DA5
  8
1
 10
2103.5473846318582
 20
1600.2436183406639
 30
0.0
 11
2055.5473846318582
 21
1600.2436183406639
 31
0.0
  0
LINE
  5
7DA6
  8
1
 10
2103.5473846318582
 20
1619.2436183406639
 30
0.0
 11
2055.5473846318582
 21
1619.2436183406639
 31
0.0
  0
LINE
  5
7DA7
  8
1
 10
2103.5473846318582
 20
1600.2436183406639
 30
0.0
 11
2055.5473846318582
 21
1600.2436183406639
 31
0.0
  0
ARC
  5
7DA8
  8
1
 10
1799.559951432791
 20
1687.784675131096
 30
0.0
 40
265.0046083029427
 50
345.01056085638442
 51
0.6523233868105212
  0
LINE
  5
7DA9
  8
1
 10
2058.2643530509199
 20
1630.3436183406641
 30
0.0
 11
2021.547384631858
 21
1630.3436183406641
 31
0.0
  0
LINE
  5
7DAA
  8
1
 10
2034.547384631858
 20
1594.2436183406639
 30
0.0
 11
2034.547384631858
 21
1591.0436183406639
 31
0.0
  0
LINE
  5
7DAB
  8
1
 10
2055.5473846318582
 20
1600.2436183406639
 30
0.0
 11
2055.5473846318582
 21
1619.2436183406639
 31
0.0
  0
LINE
  5
7DAC
  8
1
 10
2060.747384631858
 20
1665.343618340665
 30
0.0
 11
2021.547384631858
 21
1665.343618340665
 31
0.0
  0
LINE
  5
7DAD
  8
1
 10
2064.268175190643
 20
1675.2547630500351
 30
0.0
 11
2060.747384631858
 21
1675.2547630500351
 31
0.0
  0
LINE
  5
7DAE
  8
1
 10
2060.747384631858
 20
1642.9676341680999
 30
0.0
 11
2060.747384631858
 21
1675.2547630500351
 31
0.0
  0
LINE
  5
7DAF
  8
1
 10
2111.8473846318579
 20
1620.432473631294
 30
0.0
 11
2111.8473846318579
 21
1675.2547630500351
 31
0.0
  0
ARC
  5
7DB0
  8
1
 10
2359.534817830925
 20
1687.784675131096
 30
0.0
 40
265.0046083029427
 50
179.34767661318941
 51
194.9894391436155
  0
LINE
  5
7DB1
  8
1
 10
2111.8473846318579
 20
1620.432473631294
 30
0.0
 11
2103.232021562671
 21
1620.432473631294
 31
0.0
  0
LINE
  5
7DB2
  8
1
 10
2103.5473846318582
 20
1600.2436183406639
 30
0.0
 11
2103.5473846318582
 21
1619.2436183406639
 31
0.0
  0
LINE
  5
7DB3
  8
1
 10
2111.8473846318579
 20
1675.2547630500351
 30
0.0
 11
2094.826594073073
 21
1675.2547630500351
 31
0.0
  0
LINE
  5
7DB4
  8
1
 10
927.30024440407169
 20
2983.356611071918
 30
0.0
 11
1009.800244404071
 21
2983.356611071918
 31
0.0
  0
LINE
  5
7DB5
  8
1
 10
927.30024440407169
 20
2918.3566110719189
 30
0.0
 11
1009.800244404071
 21
2918.356611071918
 31
0.0
  0
LINE
  5
7DB6
  8
1
 10
846.30024440407215
 20
2560.8566110719189
 30
0.0
 11
973.30024440407215
 21
2560.856611071918
 31
0.0
  0
LINE
  5
7DB7
  8
1
 10
846.30024440407215
 20
2510.8566110719189
 30
0.0
 11
973.30024440407215
 21
2510.856611071918
 31
0.0
  0
LINE
  5
7DB8
  8
1
 10
927.30024440407169
 20
2663.3566110719189
 30
0.0
 11
1009.800244404071
 21
2663.3566110719189
 31
0.0
  0
LINE
  5
7DB9
  8
1
 10
927.30024440407169
 20
2598.3566110719189
 30
0.0
 11
1009.800244404071
 21
2598.3566110719189
 31
0.0
  0
LINE
  5
7DBA
  8
1
 10
1009.800244404072
 20
2480.8566110719189
 30
0.0
 11
279.80024440407118
 21
2480.8566110719189
 31
0.0
  0
LINE
  5
7DBB
  8
1
 10
1009.800244404072
 20
2572.8566110719189
 30
0.0
 11
279.80024440407118
 21
2572.8566110719189
 31
0.0
  0
LINE
  5
7DBC
  8
2
 10
609.76898285670723
 20
3168.8566110719189
 30
0.0
 11
1159.399364430288
 21
3168.8566110719189
 31
0.0
  0
LINE
  5
7DBD
  8
1
 10
769.80024440407306
 20
3288.8566110719189
 30
0.0
 11
1049.8002444040719
 21
3288.8566110719189
 31
0.0
  0
LINE
  5
7DBE
  8
1
 10
633.23536352338976
 20
3286.8566110719189
 30
0.0
 11
1150.8002444040701
 21
3286.856611071918
 31
0.0
  0
LINE
  5
7DBF
  8
1
 10
633.23536352338976
 20
3050.8566110719189
 30
0.0
 11
1150.8002444040701
 21
3050.8566110719189
 31
0.0
  0
LINE
  5
7DC0
  8
1
 10
769.80024440407385
 20
3328.856611071918
 30
0.0
 11
1049.8002444040719
 21
3328.856611071918
 31
0.0
  0
DIMENSION
  5
7DC1
  8
3
  2
*D19
 10
729.80024440407215
 20
3429.6460897852021
 30
0.0
 11
909.80024440407215
 21
3470.8960897852021
 31
0.0
 70
     0
 13
1089.8002444040719
 23
3333.8566110719189
 33
0.0
 14
729.80024440407215
 24
3333.8566110719189
 34
0.0
1001
ACAD
1000
DSTYLE
1002
{
1070
   287
1070
     3
1070
    40
1040
15.0
1070
    43
1040
0.0
1070
   147
1040
1.5
1070
   173
1070
     1
1070
   272
1070
     4
1070
   279
1070
     0
1070
   284
1070
     0
1070
   285
1070
     0
1070
   286
1070
     0
1070
     6
1000
ARROW
1070
     7
1000
ARROW
1002
}
  0
LINE
  5
7DC2
  8
1
 10
1069.800244404071
 20
2995.856611071918
 30
0.0
 11
749.80024440407124
 21
2995.856611071918
 31
0.0
  0
LINE
  5
7DC3
  8
1
 10
1069.8002444040719
 20
2585.856611071918
 30
0.0
 11
749.80024440407215
 21
2585.856611071918
 31
0.0
  0
LINE
  5
7DC4
  8
2
 10
805.93156571539657
 20
2630.8566110719189
 30
0.0
 11
1015.985705941839
 21
2630.8566110719189
 31
0.0
  0
LINE
  5
7DC5
  8
1
 10
826.30024440407169
 20
2652.3566110719189
 30
0.0
 11
993.30024440407215
 21
2652.3566110719189
 31
0.0
  0
LINE
  5
7DC6
  8
1
 10
826.30024440407169
 20
2609.3566110719189
 30
0.0
 11
993.30024440407215
 21
2609.3566110719189
 31
0.0
  0
LINE
  5
7DC7
  8
2
 10
805.93156571539657
 20
2950.8566110719189
 30
0.0
 11
1015.985705941839
 21
2950.8566110719189
 31
0.0
  0
LINE
  5
7DC8
  8
1
 10
826.30024440407169
 20
2972.3566110719189
 30
0.0
 11
993.30024440407215
 21
2972.3566110719189
 31
0.0
  0
LINE
  5
7DC9
  8
1
 10
826.30024440407169
 20
2929.3566110719189
 30
0.0
 11
993.30024440407215
 21
2929.3566110719189
 31
0.0
  0
DIMENSION
  5
7DCA
  8
3
  2
*D20
 10
289.80024440407033
 20
3429.6460897852021
 30
0.0
 11
509.80024440407118
 21
3470.8960897852021
 31
0.0
 70
     0
 13
729.80024440407215
 23
3333.8566110719189
 33
0.0
 14
289.80024440407033
 24
2933.856611071918
 34
0.0
1001
ACAD
1000
DSTYLE
1002
{
1070
   287
1070
     4
1070
    40
1040
15.0
1070
    43
1040
0.0
1070
    75
1070
     1
1070
   147
1040
1.5
1070
   173
1070
     1
1070
   272
1070
     4
1070
   279
1070
     1
1070
   284
1070
     0
1070
   285
1070
     0
1070
   286
1070
     0
1070
     6
1000
ARROW
1070
     7
1000
ARROW
1002
}
  0
DIMENSION
  5
7DCB
  8
3
  2
*D21
 10
156.65396579861951
 20
2933.856611071918
 30
0.0
 11
115.403965798619
 21
2743.856611071918
 31
0.0
 70
     0
 13
289.80024440407209
 23
2553.856611071918
 33
0.0
 14
289.80024440407033
 24
2933.856611071918
 34
0.0
 50
270.0
1001
ACAD
1000
DSTYLE
1002
{
1070
   287
1070
     3
1070
    40
1040
15.0
1070
    43
1040
0.0
1070
   147
1040
1.5
1070
   173
1070
     1
1070
   272
1070
     4
1070
   279
1070
     0
1070
   284
1070
     0
1070
   285
1070
     0
1070
   286
1070
     0
1070
     6
1000
ARROW
1070
     7
1000
ARROW
1002
}
  0
LINE
  5
7DCC
  8
1
 10
809.80024440407124
 20
2983.356611071918
 30
0.0
 11
809.80024440407158
 21
2918.3566110719189
 31
0.0
  0
LINE
  5
7DCD
  8
1
 10
826.30024440407169
 20
2972.3566110719189
 30
0.0
 11
826.30024440407169
 21
2929.3566110719189
 31
0.0
  0
LINE
  5
7DCE
  8
1
 10
729.80024440407306
 20
2593.8566110719189
 30
0.0
 11
729.80024440407215
 21
3050.8566110719189
 31
0.0
  0
LINE
  5
7DCF
  8
1
 10
749.80024440407215
 20
2585.856611071918
 30
0.0
 11
749.80024440407215
 21
2995.856611071918
 31
0.0
  0
LINE
  5
7DD0
  8
2
 10
909.80024440407158
 20
3321.03799108059
 30
0.0
 11
909.80024440407215
 21
2471.6903077960119
 31
0.0
  0
LINE
  5
7DD1
  8
1
 10
749.80024440407215
 20
2593.8566110719189
 30
0.0
 11
530.80024440407124
 21
2593.8566110719189
 31
0.0
  0
LINE
  5
7DD2
  8
1
 10
729.80024440407215
 20
2933.856611071918
 30
0.0
 11
289.80024440407209
 21
2933.856611071918
 31
0.0
  0
LINE
  5
7DD3
  8
1
 10
729.80024440407215
 20
2893.8566110719189
 30
0.0
 11
289.80024440407209
 21
2893.8566110719189
 31
0.0
  0
LINE
  5
7DD4
  8
2
 10
429.80024440407118
 20
2841.7936110719188
 30
0.0
 11
429.80024440407118
 21
2505.822011071919
 31
0.0
  0
LINE
  5
7DD5
  8
1
 10
328.80024440407118
 20
2837.8566110719189
 30
0.0
 11
328.80024440407118
 21
2575.8566110719189
 31
0.0
  0
LINE
  5
7DD6
  8
1
 10
530.80024440407124
 20
2837.8566110719189
 30
0.0
 11
530.80024440407124
 21
2575.8566110719189
 31
0.0
  0
LINE
  5
7DD7
  8
1
 10
393.30024440407118
 20
2565.8566110719189
 30
0.0
 11
466.30024440407118
 21
2565.8566110719189
 31
0.0
  0
LINE
  5
7DD8
  8
1
 10
512.4002444040716
 20
2560.8566110719189
 30
0.0
 11
347.20024440407173
 21
2560.8566110719189
 31
0.0
  0
LINE
  5
7DD9
  8
1
 10
512.4002444040716
 20
2510.856611071918
 30
0.0
 11
347.20024440407173
 21
2510.856611071918
 31
0.0
  0
LINE
  5
7DDA
  8
1
 10
530.80024440407124
 20
2575.8566110719189
 30
0.0
 11
328.80024440407118
 21
2575.8566110719189
 31
0.0
  0
LINE
  5
7DDB
  8
2
 10
512.4002444040716
 20
2616.8566110719189
 30
0.0
 11
347.20024440407173
 21
2616.8566110719189
 31
0.0
  0
LINE
  5
7DDC
  8
1
 10
289.80024440407118
 20
2572.8566110719189
 30
0.0
 11
289.80024440407118
 21
2593.8566110719189
 31
0.0
  0
LINE
  5
7DDD
  8
1
 10
279.80024440407118
 20
2480.8566110719189
 30
0.0
 11
279.80024440407118
 21
2572.856611071918
 31
0.0
  0
LINE
  5
7DDE
  8
1
 10
347.20024440407173
 20
2560.8566110719189
 30
0.0
 11
347.20024440407173
 21
2510.856611071918
 31
0.0
  0
ARC
  5
7DDF
  8
1
 10
391.30024440407118
 20
2574.8566110719189
 30
0.0
 40
1.0000999999999991
 50
0.0034999999999464
 51
90.0
  0
ARC
  5
7DE0
  8
1
 10
393.30024440407118
 20
2566.8567110719191
 30
0.0
 40
1.0000999999999991
 50
180.00349999999989
 51
270.0
  0
LINE
  5
7DE1
  8
1
 10
392.30024440407118
 20
2566.8566110719189
 30
0.0
 11
392.30024440407118
 21
2574.8566110719189
 31
0.0
  0
LINE
  5
7DE2
  8
1
 10
328.80024440407118
 20
2593.8566110719189
 30
0.0
 11
289.80024440407209
 21
2593.8566110719189
 31
0.0
  0
LINE
  5
7DE3
  8
1
 10
441.80024440407118
 20
2510.8566110719189
 30
0.0
 11
417.80024440407118
 21
2510.8566110719189
 31
0.0
  0
LINE
  5
7DE4
  8
1
 10
417.30024440407118
 20
2565.8566110719189
 30
0.0
 11
417.30024440407118
 21
2560.8566110719189
 31
0.0
  0
LINE
  5
7DE5
  8
1
 10
442.30024440407118
 20
2565.8566110719189
 30
0.0
 11
442.30024440407118
 21
2560.8566110719189
 31
0.0
  0
LINE
  5
7DE6
  8
1
 10
442.30024440407118
 20
2560.8566110719189
 30
0.0
 11
417.30024440407118
 21
2560.8566110719189
 31
0.0
  0
LINE
  5
7DE7
  8
1
 10
466.30024440407118
 20
2565.8566110719189
 30
0.0
 11
466.30024440407118
 21
2575.8566110719189
 31
0.0
  0
LINE
  5
7DE8
  8
1
 10
512.4002444040716
 20
2560.8566110719189
 30
0.0
 11
512.4002444040716
 21
2510.856611071918
 31
0.0
  0
LINE
  5
7DE9
  8
1
 10
530.80024440407124
 20
2837.8566110719189
 30
0.0
 11
328.80024440407118
 21
2837.8566110719189
 31
0.0
  0
LINE
  5
7DEA
  8
1
 10
289.80024440407033
 20
2893.8566110719189
 30
0.0
 11
289.80024440407033
 21
2933.856611071918
 31
0.0
  0
POINT
  5
7DEB
  8
1
 10
289.80024440407033
 20
2933.856611071918
 30
0.0
  0
LINE
  5
7DEC
  8
1
 10
892.30024440407169
 20
2929.3566110719189
 30
0.0
 11
892.30024440407203
 21
2652.3566110719189
 31
0.0
  0
LINE
  5
7DED
  8
1
 10
927.30024440407215
 20
2929.3566110719189
 30
0.0
 11
927.30024440407215
 21
2652.3566110719189
 31
0.0
  0
LINE
  5
7DEE
  8
1
 10
927.30024440407215
 20
2609.3566110719198
 30
0.0
 11
927.30024440407215
 21
2560.856611071918
 31
0.0
  0
LINE
  5
7DEF
  8
1
 10
892.30024440407203
 20
2609.3566110719189
 30
0.0
 11
892.30024440407203
 21
2560.856611071918
 31
0.0
  0
LINE
  5
7DF0
  8
1
 10
846.30024440407215
 20
2560.8566110719189
 30
0.0
 11
846.30024440407215
 21
2510.856611071918
 31
0.0
  0
LINE
  5
7DF1
  8
1
 10
809.80024440407158
 20
2663.3566110719189
 30
0.0
 11
892.30024440407203
 21
2663.3566110719189
 31
0.0
  0
LINE
  5
7DF2
  8
1
 10
809.80024440407158
 20
2598.3566110719189
 30
0.0
 11
892.30024440407203
 21
2598.3566110719189
 31
0.0
  0
LINE
  5
7DF3
  8
1
 10
809.80024440407124
 20
2663.3566110719189
 30
0.0
 11
809.80024440407158
 21
2598.3566110719189
 31
0.0
  0
LINE
  5
7DF4
  8
1
 10
826.30024440407169
 20
2652.3566110719189
 30
0.0
 11
826.30024440407169
 21
2609.3566110719189
 31
0.0
  0
LINE
  5
7DF5
  8
1
 10
809.80024440407158
 20
2918.3566110719189
 30
0.0
 11
892.30024440407203
 21
2918.3566110719189
 31
0.0
  0
LINE
  5
7DF6
  8
1
 10
633.23536352338976
 20
3050.8566110719189
 30
0.0
 11
633.23536352338976
 21
3286.8566110719189
 31
0.0
  0
LINE
  5
7DF7
  8
1
 10
809.80024440407158
 20
2983.356611071918
 30
0.0
 11
892.30024440407203
 21
2983.356611071918
 31
0.0
  0
LINE
  5
7DF8
  8
1
 10
769.80024440407249
 20
2995.856611071918
 30
0.0
 11
769.80024440407306
 21
3050.8566110719189
 31
0.0
  0
LINE
  5
7DF9
  8
1
 10
892.30024440407203
 20
3050.8566110719189
 30
0.0
 11
892.30024440407169
 21
2972.3566110719189
 31
0.0
  0
LINE
  5
7DFA
  8
1
 10
927.30024440407215
 20
3050.8566110719189
 30
0.0
 11
927.30024440407215
 21
2972.3566110719189
 31
0.0
  0
LINE
  5
7DFB
  8
1
 10
729.80024440407215
 20
3333.8566110719189
 30
0.0
 11
769.80024440407385
 21
3333.8566110719189
 31
0.0
  0
LINE
  5
7DFC
  8
1
 10
729.80024440407215
 20
3286.8566110719189
 30
0.0
 11
729.80024440407215
 21
3333.8566110719189
 31
0.0
  0
POINT
  5
7DFD
  8
1
 10
729.80024440407215
 20
3333.8566110719189
 30
0.0
  0
LINE
  5
7DFE
  8
1
 10
769.80024440407306
 20
3286.8566110719189
 30
0.0
 11
769.80024440407385
 21
3333.856611071918
 31
0.0
  0
LINE
  5
7DFF
  8
1
 10
1089.800244404071
 20
3050.8566110719189
 30
0.0
 11
1089.800244404071
 21
2553.856611071918
 31
0.0
  0
DIMENSION
  5
7E00
  8
3
  2
*D22
 10
1227.2307264128681
 20
3333.8566110719189
 30
0.0
 11
1185.9807264128681
 21
2943.8566110719189
 31
0.0
 70
     0
 13
1089.800244404071
 23
2553.856611071918
 33
0.0
 14
1089.8002444040719
 24
3333.8566110719189
 34
0.0
 50
270.0
1001
ACAD
1000
DSTYLE
1002
{
1070
   287
1070
     3
1070
    40
1040
15.0
1070
    43
1040
0.0
1070
   147
1040
1.5
1070
   173
1070
     1
1070
   272
1070
     4
1070
   279
1070
     0
1070
   284
1070
     0
1070
   285
1070
     0
1070
   286
1070
     0
1070
     6
1000
ARROW
1070
     7
1000
ARROW
1002
}
  0
LINE
  5
7E01
  8
1
 10
1069.8002444040719
 20
2585.856611071918
 30
0.0
 11
1069.8002444040719
 21
2995.856611071918
 31
0.0
  0
LINE
  5
7E02
  8
1
 10
1009.800244404072
 20
2983.356611071918
 30
0.0
 11
1009.800244404072
 21
2918.3566110719189
 31
0.0
  0
LINE
  5
7E03
  8
1
 10
993.30024440407215
 20
2972.3566110719189
 30
0.0
 11
993.30024440407215
 21
2929.3566110719189
 31
0.0
  0
LINE
  5
7E04
  8
1
 10
1089.8002444040719
 20
2553.856611071918
 30
0.0
 11
1009.800244404072
 21
2553.856611071918
 31
0.0
  0
LINE
  5
7E05
  8
1
 10
973.30024440407215
 20
2560.856611071918
 30
0.0
 11
973.30024440407215
 21
2510.856611071918
 31
0.0
  0
LINE
  5
7E06
  8
1
 10
1009.800244404072
 20
2480.8566110719189
 30
0.0
 11
1009.800244404072
 21
2572.8566110719189
 31
0.0
  0
POINT
  5
7E07
  8
1
 10
1089.800244404071
 20
2553.856611071918
 30
0.0
  0
LINE
  5
7E08
  8
1
 10
993.30024440407215
 20
2652.3566110719189
 30
0.0
 11
993.30024440407215
 21
2609.3566110719189
 31
0.0
  0
LINE
  5
7E09
  8
1
 10
1009.800244404072
 20
2663.3566110719189
 30
0.0
 11
1009.800244404072
 21
2598.3566110719189
 31
0.0
  0
LINE
  5
7E0A
  8
1
 10
1089.800244404071
 20
2593.8566110719189
 30
0.0
 11
1069.8002444040719
 21
2593.8566110719189
 31
0.0
  0
LINE
  5
7E0B
  8
1
 10
1150.800244404071
 20
3023.856611071918
 30
0.0
 11
1150.800244404071
 21
3313.8566110719189
 31
0.0
  0
LINE
  5
7E0C
  8
1
 10
1153.800244404071
 20
3023.856611071918
 30
0.0
 11
1153.800244404071
 21
3313.8566110719189
 31
0.0
  0
LINE
  5
7E0D
  8
1
 10
1049.8002444040719
 20
3050.8566110719189
 30
0.0
 11
1049.8002444040719
 21
2995.856611071918
 31
0.0
  0
LINE
  5
7E0E
  8
1
 10
1150.8002444040701
 20
3023.856611071918
 30
0.0
 11
1153.800244404071
 21
3023.856611071918
 31
0.0
  0
LINE
  5
7E0F
  8
1
 10
1049.8002444040719
 20
3333.8566110719189
 30
0.0
 11
1089.8002444040719
 21
3333.8566110719189
 31
0.0
  0
LINE
  5
7E10
  8
1
 10
1049.8002444040719
 20
3333.8566110719189
 30
0.0
 11
1049.8002444040719
 21
3286.8566110719189
 31
0.0
  0
LINE
  5
7E11
  8
1
 10
1089.8002444040719
 20
3333.8566110719189
 30
0.0
 11
1089.8002444040719
 21
3286.8566110719189
 31
0.0
  0
POINT
  5
7E12
  8
1
 10
1089.8002444040719
 20
3333.8566110719189
 30
0.0
  0
POINT
  5
7E13
  8
1
 10
1089.8002444040719
 20
3333.8566110719189
 30
0.0
  0
LINE
  5
7E14
  8
1
 10
1150.8002444040701
 20
3313.8566110719189
 30
0.0
 11
1153.800244404071
 21
3313.856611071918
 31
0.0
  0
LINE
  5
7E15
  8
1
 10
2737.5473846318569
 20
1295.23244866562
 30
0.0
 11
2499.5473846318582
 21
1620.4547880157079
 31
0.0
  0
LINE
  5
7E16
  8
1
 10
2735.5473846318582
 20
1620.4547880157079
 30
0.0
 11
2497.5473846318582
 21
1295.23244866562
 31
0.0
  0
LINE
  5
7E17
  8
1
 10
2737.5473846318591
 20
1620.4547880157079
 30
0.0
 11
2737.5473846318582
 21
1411.8847141128349
 31
0.0
  0
LINE
  5
7E18
  8
1
 10
2737.5473846318582
 20
1620.4547880157079
 30
0.0
 11
2737.5473846318582
 21
1295.23244866562
 31
0.0
  0
LINE
  5
7E19
  8
1
 10
2735.5473846318582
 20
1620.4547880157079
 30
0.0
 11
2735.5473846318582
 21
1411.8847141128349
 31
0.0
  0
LINE
  5
7E1A
  8
1
 10
2735.5473846318582
 20
1620.4547880157079
 30
0.0
 11
2735.5473846318582
 21
1295.23244866562
 31
0.0
  0
LINE
  5
7E1B
  8
1
 10
2499.5473846318582
 20
1620.4547880157079
 30
0.0
 11
2499.5473846318582
 21
1411.8847141128349
 31
0.0
  0
LINE
  5
7E1C
  8
1
 10
2497.5473846318582
 20
1620.4547880157079
 30
0.0
 11
2497.5473846318582
 21
1411.8847141128349
 31
0.0
  0
LINE
  5
7E1D
  8
1
 10
2499.5473846318582
 20
1620.4547880157079
 30
0.0
 11
2499.5473846318582
 21
1295.23244866562
 31
0.0
  0
LINE
  5
7E1E
  8
1
 10
2497.5473846318582
 20
1620.4547880157079
 30
0.0
 11
2497.5473846318582
 21
1295.23244866562
 31
0.0
  0
LINE
  5
7E1F
  8
1
 10
2737.5473846318591
 20
1620.4547880157079
 30
0.0
 11
2737.5473846318569
 21
1295.23244866562
 31
0.0
  0
LINE
  5
7E20
  8
1
 10
2497.5473846318569
 20
1620.4547880157079
 30
0.0
 11
2497.5473846318582
 21
1295.23244866562
 31
0.0
  0
LINE
  5
7E21
  8
1
 10
2472.5473846318569
 20
1645.4547880157079
 30
0.0
 11
2472.5473846318582
 21
1270.23244866562
 31
0.0
  0
LINE
  5
7E22
  8
1
 10
2762.5473846318591
 20
1645.4547880157079
 30
0.0
 11
2762.5473846318569
 21
1270.23244866562
 31
0.0
  0
LINE
  5
7E23
  8
2
 10
2617.5473846318582
 20
1994.5010958025989
 30
0.0
 11
2617.5473846318582
 21
1051.715084731761
 31
0.0
  0
LINE
  5
7E24
  8
1
 10
2434.5473846318569
 20
1589.7436183406651
 30
0.0
 11
2434.5473846318569
 21
1272.8436183406641
 31
0.0
  0
DIMENSION
  5
7E25
  8
3
  2
*D23
 10
2782.5473846318569
 20
947.61772152455876
 30
0.0
 11
2700.0473846318582
 21
988.86772152455887
 31
0.0
 70
     0
 13
2617.5473846318582
 23
1051.715084731761
 33
0.0
 14
2782.5473846318569
 24
1086.843618340665
 34
0.0
1001
ACAD
1000
DSTYLE
1002
{
1070
   287
1070
     3
1070
    40
1040
15.0
1070
    43
1040
0.0
1070
   147
1040
1.5
1070
   173
1070
     1
1070
   271
1070
     0
1070
   272
1070
     4
1070
   279
1070
     0
1070
   284
1070
     0
1070
   285
1070
     0
1070
   286
1070
     0
1070
     6
1000
ARROW
1070
     7
1000
ARROW
1002
}
  0
LINE
  5
7E26
  8
1
 10
2497.5473846318582
 20
1295.23244866562
 30
0.0
 11
2737.5473846318569
 21
1295.23244866562
 31
0.0
  0
LINE
  5
7E27
  8
1
 10
2497.5473846318582
 20
1295.23244866562
 30
0.0
 11
2737.5473846318569
 21
1295.23244866562
 31
0.0
  0
LINE
  5
7E28
  8
1
 10
2472.5473846318582
 20
1270.23244866562
 30
0.0
 11
2762.5473846318569
 21
1270.23244866562
 31
0.0
  0
LINE
  5
7E29
  8
1
 10
2499.5473846318569
 20
1295.23244866562
 30
0.0
 11
2735.5473846318582
 21
1295.23244866562
 31
0.0
  0
LINE
  5
7E2A
  8
1
 10
2782.5473846318569
 20
1161.8436183406641
 30
0.0
 11
2782.5473846318569
 21
1086.8436183406641
 31
0.0
  0
LINE
  5
7E2B
  8
1
 10
2782.5473846318569
 20
1272.8436183406641
 30
0.0
 11
2782.5473846318569
 21
1197.8436183406641
 31
0.0
  0
LINE
  5
7E2C
  8
1
 10
2762.5473846318569
 20
1272.8436183406641
 30
0.0
 11
2782.5473846318569
 21
1272.8436183406641
 31
0.0
  0
DIMENSION
  5
7E2D
  8
3
  2
*D24
 10
2738.5473846318582
 20
2094.757979753686
 30
0.0
 11
2678.0473846318582
 21
2136.007979753686
 31
0.0
 70
     0
 13
2617.5473846318582
 23
2055.5839332377368
 33
0.0
 14
2738.5473846318582
 24
1831.3436451048899
 34
0.0
1001
ACAD
1000
DSTYLE
1002
{
1070
   287
1070
     3
1070
    40
1040
15.0
1070
    43
1040
0.0
1070
   147
1040
1.5
1070
   173
1070
     1
1070
   271
1070
     0
1070
   272
1070
     4
1070
   279
1070
     0
1070
   284
1070
     0
1070
   285
1070
     0
1070
   286
1070
     0
1070
     6
1000
ARROW
1070
     7
1000
ARROW
1002
}
  0
DIMENSION
  5
7E2E
  8
3
  2
*D25
 10
2735.5473846318582
 20
1991.2335090684419
 30
0.0
 11
2617.5473846318582
 21
2032.4835090684419
 31
0.0
 70
     0
 13
2499.5473846318582
 23
1884.808499221346
 33
0.0
 14
2735.5473846318582
 24
1884.808499221346
 34
0.0
1001
ACAD
1000
DSTYLE
1002
{
1070
   287
1070
     3
1070
    40
1040
15.0
1070
    43
1040
0.0
1070
   147
1040
1.5
1070
   173
1070
     1
1070
   271
1070
     0
1070
   272
1070
     4
1070
   279
1070
     0
1070
   284
1070
     0
1070
   285
1070
     0
1070
   286
1070
     0
1070
     6
1000
ARROW
1070
     7
1000
ARROW
1002
}
  0
LINE
  5
7E2F
  8
1
 10
2497.5473846318582
 20
1620.4547880157079
 30
0.0
 11
2738.5473846318582
 21
1620.4547880157079
 31
0.0
  0
LINE
  5
7E30
  8
1
 10
2499.5473846318582
 20
1870.8025225684939
 30
0.0
 11
2735.5473846318582
 21
1870.8025225684939
 31
0.0
  0
LINE
  5
7E31
  8
1
 10
2472.5473846318582
 20
1645.4547880157079
 30
0.0
 11
2762.5473846318582
 21
1645.4547880157079
 31
0.0
  0
LINE
  5
7E32
  8
1
 10
2499.5473846318582
 20
1884.808499221346
 30
0.0
 11
2499.5473846318582
 21
1670.4547880157079
 31
0.0
  0
LINE
  5
7E33
  8
1
 10
2497.5473846318582
 20
1884.808499221346
 30
0.0
 11
2497.5473846318582
 21
1670.4547880157079
 31
0.0
  0
ARC
  5
7E34
  8
1
 10
2401.7436769467181
 20
1669.4086801686501
 30
0.0
 40
24.931864229136519
 50
59.099552968319841
 51
95.053838103948024
  0
ARC
  5
7E35
  8
1
 10
2397.3510923169961
 20
1669.4086801686501
 30
0.0
 40
24.931864229136519
 50
84.94616189605199
 51
120.9004470316801
  0
POLYLINE
  5
7E36
  8
1
 66
     1
 10
0.0
 20
0.0
 30
0.0
 70
     1
  0
VERTEX
  5
81EF
  8
1
 10
2393.1954594944268
 20
1702.6050418211751
 30
0.0
  0
VERTEX
  5
81F0
  8
1
 10
2397.8404442673541
 20
1702.6050418211751
 30
0.0
  0
VERTEX
  5
81F1
  8
1
 10
2397.8404442673541
 20
1694.2436183406651
 30
0.0
  0
VERTEX
  5
81F2
  8
1
 10
2393.1954594944268
 20
1694.2436183406651
 30
0.0
  0
SEQEND
  5
81F3
  8
1
  0
LINE
  5
7E3C
  8
2
 10
2399.5473846318569
 20
1715.4852097921039
 30
0.0
 11
2399.5473846318569
 21
1544.3107782553309
 31
0.0
  0
POLYLINE
  5
7E3D
  8
1
 66
     1
 10
0.0
 20
0.0
 30
0.0
 70
     1
  0
VERTEX
  5
81F4
  8
1
 10
2434.5473846318569
 20
1551.0436183406639
 30
0.0
  0
VERTEX
  5
81F5
  8
1
 10
2434.5473846318569
 20
1591.0436183406639
 30
0.0
  0
VERTEX
  5
81F6
  8
1
 10
2436.5473846318569
 20
1591.0436183406639
 30
0.0
 42
-0.4142135623730951
  0
VERTEX
  5
81F7
  8
1
 10
2439.5473846318569
 20
1588.0436183406639
 30
0.0
  0
VERTEX
  5
81F8
  8
1
 10
2439.5473846318569
 20
1560.5436183406639
 30
0.0
 42
0.4142135623730951
  0
VERTEX
  5
81F9
  8
1
 10
2444.0473846318569
 20
1556.0436183406639
 30
0.0
  0
VERTEX
  5
81FA
  8
1
 10
2471.5473846318569
 20
1556.0436183406639
 30
0.0
 42
-0.4142135623730951
  0
VERTEX
  5
81FB
  8
1
 10
2474.5473846318569
 20
1553.0436183406639
 30
0.0
  0
VERTEX
  5
81FC
  8
1
 10
2474.5473846318569
 20
1551.0436183406639
 30
0.0
  0
SEQEND
  5
81FD
  8
1
  0
LINE
  5
7E48
  8
1
 10
2434.5473846318569
 20
1589.7436183406651
 30
0.0
 11
2434.5473846318569
 21
1539.7436183406639
 31
0.0
  0
LINE
  5
7E49
  8
1
 10
2434.5473846318569
 20
1589.7436183406651
 30
0.0
 11
2434.5473846318569
 21
1549.7436183406651
 31
0.0
  0
LINE
  5
7E4A
  8
1
 10
2447.5473846318582
 20
1551.0436183406639
 30
0.0
 11
2497.5473846318582
 21
1551.0436183406639
 31
0.0
  0
LINE
  5
7E4B
  8
1
 10
2447.5473846318582
 20
1545.0436183406639
 30
0.0
 11
2497.5473846318582
 21
1545.0436183406639
 31
0.0
  0
LINE
  5
7E4C
  8
1
 10
2447.5473846318582
 20
1545.0436183406639
 30
0.0
 11
2447.5473846318582
 21
1549.7436183406651
 31
0.0
  0
LINE
  5
7E4D
  8
1
 10
2447.5473846318582
 20
1551.0436183406639
 30
0.0
 11
2447.5473846318582
 21
1545.0436183406639
 31
0.0
  0
LINE
  5
7E4E
  8
1
 10
2472.5473846318582
 20
1630.3436183406641
 30
0.0
 11
2420.8304162127938
 21
1630.3436183406641
 31
0.0
  0
LINE
  5
7E4F
  8
1
 10
2497.5473846318582
 20
1665.3436183406641
 30
0.0
 11
2418.347384631857
 21
1665.3436183406641
 31
0.0
  0
LINE
  5
7E50
  8
1
 10
2367.2473846318571
 20
1620.432473631294
 30
0.0
 11
2367.2473846318571
 21
1675.2547630500351
 31
0.0
  0
ARC
  5
7E51
  8
1
 10
2119.5599514327891
 20
1687.784675131096
 30
0.0
 40
265.0046083029427
 50
345.01056085638442
 51
0.6523233868105212
  0
ARC
  5
7E52
  8
1
 10
2679.5348178309241
 20
1687.784675131096
 30
0.0
 40
265.0046083029427
 50
179.34767661318941
 51
194.9894391436155
  0
LINE
  5
7E53
  8
1
 10
2375.5473846318569
 20
1600.2436183406639
 30
0.0
 11
2423.5473846318569
 21
1600.2436183406639
 31
0.0
  0
LINE
  5
7E54
  8
1
 10
2375.5473846318569
 20
1619.2436183406639
 30
0.0
 11
2423.5473846318569
 21
1619.2436183406639
 31
0.0
  0
LINE
  5
7E55
  8
1
 10
2375.5473846318569
 20
1600.2436183406639
 30
0.0
 11
2423.5473846318569
 21
1600.2436183406639
 31
0.0
  0
POLYLINE
  5
7E56
  8
1
 66
     1
 10
0.0
 20
0.0
 30
0.0
 70
     1
  0
VERTEX
  5
81FE
  8
1
 10
2367.0473846318569
 20
1594.2436183406639
 30
0.0
  0
VERTEX
  5
81FF
  8
1
 10
2432.0473846318569
 20
1594.2436183406639
 30
0.0
  0
VERTEX
  5
8200
  8
1
 10
2432.0473846318569
 20
1600.2436183406639
 30
0.0
  0
VERTEX
  5
8201
  8
1
 10
2367.0473846318569
 20
1600.2436183406639
 30
0.0
  0
SEQEND
  5
8202
  8
1
  0
LINE
  5
7E5C
  8
1
 10
2375.5473846318569
 20
1600.2436183406639
 30
0.0
 11
2375.5473846318569
 21
1619.2436183406639
 31
0.0
  0
LINE
  5
7E5D
  8
1
 10
2367.2473846318571
 20
1620.432473631294
 30
0.0
 11
2375.8627477010441
 21
1620.432473631294
 31
0.0
  0
LINE
  5
7E5E
  8
1
 10
2423.5473846318569
 20
1600.2436183406639
 30
0.0
 11
2423.5473846318569
 21
1619.2436183406639
 31
0.0
  0
LINE
  5
7E5F
  8
1
 10
2367.2473846318571
 20
1675.2547630500351
 30
0.0
 11
2384.2681751906421
 21
1675.2547630500351
 31
0.0
  0
LINE
  5
7E60
  8
1
 10
2418.347384631857
 20
1642.9676341680999
 30
0.0
 11
2418.347384631857
 21
1675.2547630500351
 31
0.0
  0
LINE
  5
7E61
  8
1
 10
2414.826594073073
 20
1675.2547630500351
 30
0.0
 11
2418.347384631857
 21
1675.2547630500351
 31
0.0
  0
LINE
  5
7E62
  8
1
 10
2444.5473846318569
 20
1594.2436183406639
 30
0.0
 11
2444.547384631855
 21
1591.0436183406639
 31
0.0
  0
LINE
  5
7E63
  8
1
 10
2499.5473846318582
 20
1650.23244866562
 30
0.0
 11
2499.5473846318582
 21
1645.4547880157079
 31
0.0
  0
LINE
  5
7E64
  8
1
 10
2497.5473846318582
 20
1650.23244866562
 30
0.0
 11
2497.5473846318582
 21
1645.4547880157079
 31
0.0
  0
LINE
  5
7E65
  8
1
 10
2497.5473846318582
 20
1670.4547880157079
 30
0.0
 11
2497.5473846318582
 21
1645.4547880157079
 31
0.0
  0
LINE
  5
7E66
  8
1
 10
2499.5473846318582
 20
1670.4547880157079
 30
0.0
 11
2499.5473846318582
 21
1645.4547880157079
 31
0.0
  0
LINE
  5
7E67
  8
1
 10
2497.5473846318582
 20
1884.808499221346
 30
0.0
 11
2499.5473846318582
 21
1884.808499221346
 31
0.0
  0
LINE
  5
7E68
  8
1
 10
2741.5473846318582
 20
1829.343645104891
 30
0.0
 11
2741.5473846318582
 21
1645.4547880157079
 31
0.0
  0
LINE
  5
7E69
  8
1
 10
2738.5473846318582
 20
1831.3436451048899
 30
0.0
 11
2738.5473846318582
 21
1645.454788015709
 31
0.0
  0
LINE
  5
7E6A
  8
1
 10
2735.5473846318582
 20
1884.808499221346
 30
0.0
 11
2735.5473846318582
 21
1670.4547880157079
 31
0.0
  0
LINE
  5
7E6B
  8
1
 10
2737.5473846318582
 20
1884.808499221346
 30
0.0
 11
2737.5473846318582
 21
1670.4547880157079
 31
0.0
  0
DIMENSION
  5
7E6C
  8
3
  2
*D26
 10
2890.7273561743459
 20
1490.3436183406641
 30
0.0
 11
2849.477356174345
 21
1647.843618340665
 31
0.0
 70
     0
 13
2763.5473846318582
 23
1805.3436183406641
 33
0.0
 14
2763.5473846318582
 24
1490.3436183406641
 34
0.0
 50
90.0
1001
ACAD
1000
DSTYLE
1002
{
1070
   287
1070
     3
1070
     3
1000
φ<>
1070
    40
1040
15.0
1070
    43
1040
0.0
1070
   147
1040
1.5
1070
   173
1070
     1
1070
   271
1070
     4
1070
   272
1070
     4
1070
   279
1070
     0
1070
   284
1070
     0
1070
   285
1070
     0
1070
   286
1070
     0
1070
     6
1000
ARROW
1070
     7
1000
ARROW
1002
}
  0
LINE
  5
7E6D
  8
1
 10
2763.5473846318582
 20
1490.3436183406641
 30
0.0
 11
2763.5473846318582
 21
1806.3436451048899
 31
0.0
  0
LINE
  5
7E6E
  8
1
 10
2763.5473846318582
 20
1490.3436183406641
 30
0.0
 11
2762.5473846318582
 21
1490.3436183406641
 31
0.0
  0
LINE
  5
7E6F
  8
1
 10
2735.5473846318582
 20
1650.23244866562
 30
0.0
 11
2735.5473846318582
 21
1645.4547880157079
 31
0.0
  0
LINE
  5
7E70
  8
1
 10
2737.5473846318582
 20
1650.23244866562
 30
0.0
 11
2737.5473846318582
 21
1645.4547880157079
 31
0.0
  0
LINE
  5
7E71
  8
1
 10
2737.5473846318591
 20
1670.454788015709
 30
0.0
 11
2737.5473846318582
 21
1645.4547880157079
 31
0.0
  0
LINE
  5
7E72
  8
1
 10
2735.5473846318582
 20
1670.454788015709
 30
0.0
 11
2735.5473846318582
 21
1645.4547880157079
 31
0.0
  0
LINE
  5
7E73
  8
1
 10
2741.5473846318582
 20
1813.3436451048899
 30
0.0
 11
2741.5473846318582
 21
1829.343645104891
 31
0.0
  0
LINE
  5
7E74
  8
1
 10
2761.5473846318582
 20
1809.3436451048899
 30
0.0
 11
2745.5473846318582
 21
1809.3436451048899
 31
0.0
  0
ARC
  5
7E75
  8
1
 10
2745.5473846318582
 20
1813.3436451048899
 30
0.0
 40
4.0
 50
180.0
 51
270.0
  0
ARC
  5
7E76
  8
1
 10
2761.5473846318582
 20
1807.3436451048899
 30
0.0
 40
2.0
 50
0.0
 51
90.0
  0
LINE
  5
7E77
  8
1
 10
2735.5473846318582
 20
1884.808499221346
 30
0.0
 11
2737.5473846318569
 21
1884.8084992213451
 31
0.0
  0
ARC
  5
7E78
  8
1
 10
2739.5473846318582
 20
1829.343645104891
 30
0.0
 40
2.0
 50
0.0
 51
90.0
  0
LINE
  5
7E79
  8
1
 10
2739.5473846318582
 20
1831.3436451048899
 30
0.0
 11
2738.5473846318582
 21
1831.3436451048899
 31
0.0
  0
LINE
  5
80C8
  8
4
 10
2775.0
 20
750.0
 30
0.0
 11
2775.0
 21
450.0
 31
0.0
  0
LINE
  5
80C9
  8
4
 10
1725.0
 20
750.0
 30
0.0
 11
1725.0
 21
450.0
 31
0.0
  0
LINE
  5
80CA
  8
4
 10
975.0
 20
750.0
 30
0.0
 11
975.0
 21
450.0
 31
0.0
  0
LINE
  5
80CD
  8
4
 10
975.0
 20
450.0
 30
0.0
 11
2775.0
 21
450.0
 31
0.0
  0
LINE
  5
80CE
  8
4
 10
975.0
 20
600.0
 30
0.0
 11
2775.0
 21
600.0
 31
0.0
  0
TEXT
  5
80CF
  8
4
 10
1032.753121270352
 20
647.31453879991932
 30
0.0
 40
75.0
  1
機器名称
  0
TEXT
  5
80D0
  8
4
 10
1029.3871590371959
 20
482.46773509801642
 30
0.0
 40
75.0
  1
機器型番
  0
TEXT
  5
80D1
  8
4
 10
1732.1895767098961
 20
633.28095353542062
 30
0.0
 40
67.5
  1
ミツヤリミットロードファン
  0
TEXT
  5
80D2
  8
4
 10
1779.9817433782209
 20
475.739376419915
 30
0.0
 40
75.0
  1
LL#2-1
  0
TEXT
  5
80D4
  8
4
 10
1227.4252258462179
 20
3575.1432619987731
 30
0.0
 40
80.999999999999986
  1
床置防振ベット
  0
TEXT
  5
80D5
  8
4
 10
474.25138999416959
 20
3800.8214642989469
 30
0.0
 40
108.0
  1
遠心式片吸込片持リミットロードファン
  0
LINE
  5
80D6
  8
4
 10
375.0
 20
3704.1131313972069
 30
0.0
 11
2775.0
 21
3704.1131313972069
 31
0.0
  0
LINE
  5
80D7
  8
4
 10
375.0
 20
4004.1131313972069
 30
0.0
 11
2775.0
 21
4004.1131313972069
 31
0.0
  0
LINE
  5
80D8
  8
4
 10
975.0
 20
750.0
 30
0.0
 11
2775.0
 21
750.0
 31
0.0
  0
LINE
  5
80D9
  8
4
 10
375.0
 20
4004.1131313972069
 30
0.0
 11
375.0
 21
3704.1131313972069
 31
0.0
  0
TEXT
  5
80DA
  8
4
 10
573.63697748216509
 20
3573.4792163195152
 30
0.0
 40
80.999999999999986
  1
左回転右横向
  0
TEXT
  5
80DB
  8
4
 10
2203.4543388739339
 20
4059.0916222429628
 30
0.0
 40
84.000000000000014
  1
No.
  0
TEXT
  5
80DC
  8
4
 10
1966.944093900019
 20
3575.1432619987731
 30
0.0
 40
80.999999999999986
  1
縮尺：1/15
  0
LINE
  5
80DD
  8
4
 10
2775.0
 20
4004.1131313972069
 30
0.0
 11
2775.0
 21
3704.1131313972069
 31
0.0
  0
LINE
  5
80DE
  8
4
 10
3150.0
 20
4425.0
 30
0.0
 11
3150.0
 21
4425.0
 31
0.0
  0
LINE
  5
80DF
  8
4
 10
2160.9261335397969
 20
4021.895374688102
 30
0.0
 11
2160.9261335397969
 21
4179.9783923246277
 31
0.0
  0
LINE
  5
80E0
  8
4
 10
2160.9261335397969
 20
4179.9783923246277
 30
0.0
 11
2775.0
 21
4179.9783923246277
 31
0.0
  0
LINE
  5
80E1
  8
4
 10
2775.0
 20
4179.9783923246277
 30
0.0
 11
2775.0
 21
4021.895374688102
 31
0.0
  0
LINE
  5
80E2
  8
4
 10
2775.0
 20
4021.895374688102
 30
0.0
 11
2160.9261335397969
 21
4021.895374688102
 31
0.0
  0
LINE
  5
80E3
  8
4
 10
0.0
 20
0.0
 30
0.0
 11
0.0
 21
4425.0
 31
0.0
  0
LINE
  5
80E4
  8
4
 10
0.0
 20
4425.0
 30
0.0
 11
3150.0
 21
4425.0
 31
0.0
  0
LINE
  5
80E5
  8
4
 10
3150.0
 20
4425.0
 30
0.0
 11
3150.0
 21
0.0
 31
0.0
  0
LINE
  5
80E6
  8
4
 10
3150.0
 20
0.0
 30
0.0
 11
0.0
 21
0.0
 31
0.0
  0
ENDSEC
  0
EOF
