  0
SECTION
  2
HEADER
  9
$ACADVER
  1
AC1009
  9
$INSBASE
 10
0.0
 20
0.0
 30
0.0
  9
$EXTMIN
 10
0.0
 20
0.0
 30
0.0
  9
$EXTMAX
 10
3150.0
 20
4425.0
 30
0.0
  9
$LIMMIN
 10
0.0
 20
0.0
  9
$LIMMAX
 10
297.0
 20
210.0
  9
$ORTHOMODE
 70
     0
  9
$REGENMODE
 70
     1
  9
$FILLMODE
 70
     0
  9
$QTEXTMODE
 70
     0
  9
$MIRRTEXT
 70
     1
  9
$DRAGMODE
 70
     2
  9
$LTSCALE
 40
100.0
  9
$OSMODE
 70
    37
  9
$ATTMODE
 70
     1
  9
$TEXTSIZE
 40
180.0
  9
$TRACEWID
 40
0.05
  9
$TEXTSTYLE
  7
STANDARD
  9
$CLAYER
  8
3
  9
$CELTYPE
  6
BYLAYER
  9
$CECOLOR
 62
   256
  9
$DIMSCALE
 40
15.0
  9
$DIMASZ
 40
2.0
  9
$DIMEXO
 40
0.5
  9
$DIMDLI
 40
10.0
  9
$DIMRND
 40
0.0
  9
$DIMDLE
 40
0.0
  9
$DIMEXE
 40
1.0
  9
$DIMTP
 40
1.0
  9
$DIMTM
 40
1.0
  9
$DIMTXT
 40
3.0
  9
$DIMCEN
 40
0.0
  9
$DIMTSZ
 40
0.0
  9
$DIMTOL
 70
     0
  9
$DIMLIM
 70
     0
  9
$DIMTIH
 70
     0
  9
$DIMTOH
 70
     0
  9
$DIMSE1
 70
     0
  9
$DIMSE2
 70
     0
  9
$DIMTAD
 70
     1
  9
$DIMZIN
 70
     8
  9
$DIMBLK
  1

  9
$DIMASO
 70
     1
  9
$DIMSHO
 70
     1
  9
$DIMPOST
  1

  9
$DIMAPOST
  1

  9
$DIMALT
 70
     0
  9
$DIMALTD
 70
     2
  9
$DIMALTF
 40
0.039
  9
$DIMLFAC
 40
1.0
  9
$DIMTOFL
 70
     1
  9
$DIMTVP
 40
0.0
  9
$DIMTIX
 70
     0
  9
$DIMSOXD
 70
     0
  9
$DIMSAH
 70
     1
  9
$DIMBLK1
  1
OPEN
  9
$DIMBLK2
  1
OPEN
  9
$DIMSTYLE
  2
IGA
  9
$DIMCLRD
 70
     0
  9
$DIMCLRE
 70
     0
  9
$DIMCLRT
 70
     0
  9
$DIMTFAC
 40
10.0
  9
$DIMGAP
 40
1.0
  9
$LUNITS
 70
     2
  9
$LUPREC
 70
     3
  9
$SKETCHINC
 40
0.1
  9
$FILLETRAD
 40
50.0
  9
$AUNITS
 70
     0
  9
$AUPREC
 70
     0
  9
$MENU
  1
acad
  9
$ELEVATION
 40
0.0
  9
$PELEVATION
 40
0.0
  9
$THICKNESS
 40
0.0
  9
$LIMCHECK
 70
     0
  9
$BLIPMODE
 70
     0
  9
$CHAMFERA
 40
0.5
  9
$CHAMFERB
 40
0.5
  9
$SKPOLY
 70
     0
  9
$TDCREATE
 40
2451019.5485409722
  9
$TDUPDATE
 40
2454953.6379575338
  9
$TDINDWG
 40
0.0522504167
  9
$TDUSRTIMER
 40
0.0522504167
  9
$USRTIMER
 70
     1
  9
$ANGBASE
 50
0.0
  9
$ANGDIR
 70
     0
  9
$PDMODE
 70
     0
  9
$PDSIZE
 40
0.0
  9
$PLINEWID
 40
0.0
  9
$COORDS
 70
     1
  9
$SPLFRAME
 70
     0
  9
$SPLINETYPE
 70
     6
  9
$SPLINESEGS
 70
     8
  9
$ATTDIA
 70
     0
  9
$ATTREQ
 70
     1
  9
$HANDLING
 70
 10241
  9
$HANDSEED
  5
885F
  9
$SURFTAB1
 70
     6
  9
$SURFTAB2
 70
     6
  9
$SURFTYPE
 70
     6
  9
$SURFU
 70
     6
  9
$SURFV
 70
     6
  9
$UCSNAME
  2

  9
$UCSORG
 10
0.0
 20
0.0
 30
0.0
  9
$UCSXDIR
 10
1.0
 20
0.0
 30
0.0
  9
$UCSYDIR
 10
0.0
 20
1.0
 30
0.0
  9
$PUCSNAME
  2

  9
$PUCSORG
 10
0.0
 20
0.0
 30
0.0
  9
$PUCSXDIR
 10
1.0
 20
0.0
 30
0.0
  9
$PUCSYDIR
 10
0.0
 20
1.0
 30
0.0
  9
$USERI1
 70
     0
  9
$USERI2
 70
     0
  9
$USERI3
 70
     0
  9
$USERI4
 70
     0
  9
$USERI5
 70
     0
  9
$USERR1
 40
0.0
  9
$USERR2
 40
0.0
  9
$USERR3
 40
0.0
  9
$USERR4
 40
0.0
  9
$USERR5
 40
0.0
  9
$WORLDVIEW
 70
     1
  9
$SHADEDGE
 70
     3
  9
$SHADEDIF
 70
    70
  9
$TILEMODE
 70
     1
  9
$MAXACTVP
 70
    16
  9
$PLIMCHECK
 70
     0
  9
$PEXTMIN
 10
1.0000000000000000E+020
 20
1.0000000000000000E+020
 30
1.0000000000000000E+020
  9
$PEXTMAX
 10
-1.0000000000000000E+020
 20
-1.0000000000000000E+020
 30
-1.0000000000000000E+020
  9
$PLIMMIN
 10
0.0
 20
0.0
  9
$PLIMMAX
 10
12.0
 20
9.0
  9
$UNITMODE
 70
     0
  9
$VISRETAIN
 70
     0
  9
$PLINEGEN
 70
     0
  9
$PSLTSCALE
 70
     1
  0
ENDSEC
  0
SECTION
  2
TABLES
  0
TABLE
  2
VPORT
 70
     2
  0
VPORT
  2
*ACTIVE
 70
     0
 10
0.0
 20
0.0
 11
1.0
 21
1.0
 12
2910.20841157009
 22
525.19464714913829
 13
0.0
 23
0.0
 14
10.0
 24
10.0
 15
10.0
 25
10.0
 16
0.0
 26
0.0
 36
1.0
 17
0.0
 27
0.0
 37
0.0
 40
1253.3303632288789
 41
3.1666666666666661
 42
50.0
 43
0.0
 44
0.0
 50
0.0
 51
0.0
 71
     0
 72
   100
 73
     1
 74
     0
 75
     0
 76
     0
 77
     0
 78
     0
  0
ENDTAB
  0
TABLE
  2
LTYPE
 70
     2
  0
LTYPE
  2
CONTINUOUS
 70
     0
  3
Solid line
 72
    65
 73
     0
 40
0.0
  0
LTYPE
  2
CENTER
 70
     0
  3
____ _ ____ _ ____ _ ____ _ ____ _ ____ _ ____ 
 72
    65
 73
     4
 40
2.0
 49
1.25
 49
-0.25
 49
0.25
 49
-0.25
  0
ENDTAB
  0
TABLE
  2
LAYER
 70
     6
  0
LAYER
  2
0
 70
     0
 62
     7
  6
CONTINUOUS
  0
LAYER
  2
3
 70
     0
 62
     2
  6
CONTINUOUS
  0
LAYER
  2
2
 70
     0
 62
     3
  6
CENTER
  0
LAYER
  2
1
 70
     0
 62
     4
  6
CONTINUOUS
  0
LAYER
  2
4
 70
     0
 62
     7
  6
CONTINUOUS
  0
LAYER
  2
DEFPOINTS
 70
     0
 62
     7
  6
CONTINUOUS
  0
ENDTAB
  0
TABLE
  2
STYLE
 70
     1
  0
STYLE
  2
STANDARD
 70
     0
 40
0.0
 41
1.0
 50
0.0
 71
     0
 42
180.0
  3
simplex.shx
  4
extfont.shx
  0
ENDTAB
  0
TABLE
  2
VIEW
 70
     0
  0
ENDTAB
  0
TABLE
  2
UCS
 70
     0
  0
ENDTAB
  0
TABLE
  2
APPID
 70
     1
  0
APPID
  2
ACAD
 70
     0
  0
ENDTAB
  0
TABLE
  2
DIMSTYLE
 70
     1
  0
DIMSTYLE
  2
IGA
 70
     0
  3

  4

  5

  6
OPEN
  7
OPEN
 40
2.0
 41
2.0
 42
0.5
 43
10.0
 44
1.0
 45
0.0
 46
0.0
 47
1.0
 48
1.0
140
3.0
141
0.0
142
0.0
143
0.03937
144
1.0
145
0.0
146
10.0
147
1.0
 71
     0
 72
     0
 73
     0
 74
     0
 75
     0
 76
     0
 77
     1
 78
     8
170
     0
171
     2
172
     0
173
     1
174
     0
175
     0
176
     0
177
     0
178
     0
  0
ENDTAB
  0
ENDSEC
  0
SECTION
  2
BLOCKS
  0
BLOCK
  8
0
  2
$MODEL_SPACE
 70
     0
 10
0.0
 20
0.0
 30
0.0
  3
$MODEL_SPACE
  1

  0
ENDBLK
  5
1B
  8
0
  0
BLOCK
 67
     1
  8
0
  2
$PAPER_SPACE
 70
     0
 10
0.0
 20
0.0
 30
0.0
  3
$PAPER_SPACE
  1

  0
ENDBLK
  5
18
 67
     1
  8
0
  0
BLOCK
  8
0
  2
_OPEN
 70
     0
 10
0.0
 20
0.0
 30
0.0
  3
_OPEN
  1

  0
LINE
  5
7A12
  8
0
  6
BYBLOCK
 62
     0
 10
-1.0
 20
0.1666666666666666
 30
0.0
 11
0.0
 21
0.0
 31
0.0
  0
LINE
  5
7A13
  8
0
  6
BYBLOCK
 62
     0
 10
0.0
 20
0.0
 30
0.0
 11
-1.0
 21
-0.1666666666666666
 31
0.0
  0
LINE
  5
7A14
  8
0
  6
BYBLOCK
 62
     0
 10
0.0
 20
0.0
 30
0.0
 11
-1.0
 21
0.0
 31
0.0
  0
ENDBLK
  5
7A16
  8
0
  0
BLOCK
  8
0
  2
*D1
 70
     1
 10
0.0
 20
0.0
 30
0.0
  3
*D1
  1

  0
LINE
  5
8788
  8
3
 62
     0
 10
993.84848165425876
 20
1960.4469467452079
 30
0.0
 11
993.84848165425876
 21
1996.6054384644631
 31
0.0
  0
LINE
  5
8789
  8
3
 62
     0
 10
1267.4133625349409
 20
1675.843666064337
 30
0.0
 11
1267.4133625349409
 21
1996.6054384644631
 31
0.0
  0
LINE
  5
878A
  8
3
 62
     0
 10
1023.848481654259
 20
1981.605438464464
 30
0.0
 11
1237.4133625349409
 21
1981.605438464464
 31
0.0
  0
INSERT
  5
878B
  8
3
 62
     0
  2
_OPEN
 10
993.84848165425876
 20
1981.605438464464
 30
0.0
 41
30.0
 42
30.0
 43
30.0
 50
180.0
  0
INSERT
  5
878C
  8
3
 62
     0
  2
_OPEN
 10
1267.4133625349409
 20
1981.605438464464
 30
0.0
 41
30.0
 42
30.0
 43
30.0
  0
TEXT
  8
3
  40
45
  5
884B
  62
0
  72
0
  71
0
 10
1040.63
 20
1939.46
 30
0.000000
  1
274
  0
POINT
  5
878E
  8
DEFPOINTS
 62
     0
 10
993.84848165425876
 20
1952.9469467452079
 30
0.0
  0
POINT
  5
878F
  8
DEFPOINTS
 62
     0
 10
1267.4133625349409
 20
1668.343666064337
 30
0.0
  0
POINT
  5
8790
  8
DEFPOINTS
 62
     0
 10
1267.4133625349409
 20
1981.605438464464
 30
0.0
  0
ENDBLK
  5
8441
  8
0
  0
BLOCK
  8
0
  2
*D2
 70
     1
 10
0.0
 20
0.0
 30
0.0
  3
*D2
  1

  0
LINE
  5
879B
  8
3
 62
     0
 10
729.88835530377321
 20
1692.343666064337
 30
0.0
 11
482.8589822356156
 21
1692.343666064337
 31
0.0
  0
LINE
  5
879C
  8
3
 62
     0
 10
806.34848165425876
 20
1242.343666064337
 30
0.0
 11
482.85898223561537
 21
1242.343666064337
 31
0.0
  0
LINE
  5
879D
  8
3
 62
     0
 10
497.85898223561549
 20
1662.343666064337
 30
0.0
 11
497.85898223561549
 21
1272.343666064337
 31
0.0
  0
INSERT
  5
879E
  8
3
 62
     0
  2
_OPEN
 10
497.85898223561549
 20
1692.343666064337
 30
0.0
 41
30.0
 42
30.0
 43
30.0
 50
90.0
  0
INSERT
  5
879F
  8
3
 62
     0
  2
_OPEN
 10
497.85898223561549
 20
1242.343666064337
 30
0.0
 41
30.0
 42
30.0
 43
30.0
 50
270.0
  0
TEXT
  8
3
  40
45
  5
884C
  62
0
  72
0
  71
0
 10
370.359
 20
1387.69
 30
0.000000
  1
450
  0
POINT
  5
87A1
  8
DEFPOINTS
 62
     0
 10
737.38835530377332
 20
1692.343666064337
 30
0.0
  0
POINT
  5
87A2
  8
DEFPOINTS
 62
     0
 10
813.84848165425876
 20
1242.343666064337
 30
0.0
  0
POINT
  5
87A3
  8
DEFPOINTS
 62
     0
 10
497.85898223561549
 20
1242.343666064337
 30
0.0
  0
ENDBLK
  5
823F
  8
0
  0
BLOCK
  8
0
  2
*D3
 70
     1
 10
0.0
 20
0.0
 30
0.0
  3
*D3
  1

  0
LINE
  5
87A4
  8
3
 62
     0
 10
741.34848165425876
 20
1341.343666064337
 30
0.0
 11
573.33978399942521
 21
1341.343666064337
 31
0.0
  0
LINE
  5
87A5
  8
3
 62
     0
 10
729.88835530377321
 20
1692.343666064337
 30
0.0
 11
573.33978399942521
 21
1692.343666064337
 31
0.0
  0
LINE
  5
87A6
  8
3
 62
     0
 10
588.33978399942521
 20
1371.343666064337
 30
0.0
 11
588.33978399942521
 21
1662.343666064337
 31
0.0
  0
INSERT
  5
87A7
  8
3
 62
     0
  2
_OPEN
 10
588.33978399942521
 20
1341.343666064337
 30
0.0
 41
30.0
 42
30.0
 43
30.0
 50
270.0
  0
INSERT
  5
87A8
  8
3
 62
     0
  2
_OPEN
 10
588.33978399942521
 20
1692.343666064337
 30
0.0
 41
30.0
 42
30.0
 43
30.0
 50
90.0
  0
TEXT
  8
3
  40
45
  5
884D
  62
0
  72
0
  71
0
 10
460.840
 20
1437.19
 30
0.000000
  1
351
  0
POINT
  5
87AA
  8
DEFPOINTS
 62
     0
 10
748.84848165425876
 20
1341.343666064337
 30
0.0
  0
POINT
  5
87AB
  8
DEFPOINTS
 62
     0
 10
737.38835530377332
 20
1692.343666064337
 30
0.0
  0
POINT
  5
87AC
  8
DEFPOINTS
 62
     0
 10
588.33978399942521
 20
1692.343666064337
 30
0.0
  0
ENDBLK
  5
821E
  8
0
  0
BLOCK
  8
0
  2
*D4
 70
     1
 10
0.0
 20
0.0
 30
0.0
  3
*D4
  1

  0
LINE
  5
87AD
  8
3
 62
     0
 10
741.34848165425876
 20
1341.343666064337
 30
0.0
 11
665.37294911588128
 21
1341.343666064337
 31
0.0
  0
LINE
  5
87AE
  8
3
 62
     0
 10
741.34848165425876
 20
1666.343666064337
 30
0.0
 11
665.37294911588128
 21
1666.343666064337
 31
0.0
  0
LINE
  5
87AF
  8
3
 62
     0
 10
680.37294911588117
 20
1371.343666064337
 30
0.0
 11
680.37294911588117
 21
1636.343666064337
 31
0.0
  0
INSERT
  5
87B0
  8
3
 62
     0
  2
_OPEN
 10
680.37294911588117
 20
1341.343666064337
 30
0.0
 41
30.0
 42
30.0
 43
30.0
 50
270.0
  0
INSERT
  5
87B1
  8
3
 62
     0
  2
_OPEN
 10
680.37294911588117
 20
1666.343666064337
 30
0.0
 41
30.0
 42
30.0
 43
30.0
 50
90.0
  0
TEXT
  8
3
  40
45
  5
884E
  62
0
  72
0
  71
0
 10
552.873
 20
1424.19
 30
0.000000
  1
325
  0
POINT
  5
87B3
  8
DEFPOINTS
 62
     0
 10
748.84848165425876
 20
1341.343666064337
 30
0.0
  0
POINT
  5
87B4
  8
DEFPOINTS
 62
     0
 10
748.84848165425876
 20
1666.343666064337
 30
0.0
  0
POINT
  5
87B5
  8
DEFPOINTS
 62
     0
 10
680.37294911588117
 20
1666.343666064337
 30
0.0
  0
ENDBLK
  5
8229
  8
0
  0
BLOCK
  8
0
  2
*D5
 70
     1
 10
0.0
 20
0.0
 30
0.0
  3
*D5
  1

  0
LINE
  5
87B9
  8
3
 62
     0
 10
748.84848165425876
 20
1702.2324963892929
 30
0.0
 11
748.84848165425876
 21
1996.6054384644631
 31
0.0
  0
LINE
  5
87BA
  8
3
 62
     0
 10
993.84848165425876
 20
1960.4469467452079
 30
0.0
 11
993.84848165425876
 21
1996.6054384644631
 31
0.0
  0
LINE
  5
87BB
  8
3
 62
     0
 10
778.84848165425876
 20
1981.605438464464
 30
0.0
 11
963.84848165425876
 21
1981.605438464464
 31
0.0
  0
INSERT
  5
87BC
  8
3
 62
     0
  2
_OPEN
 10
748.84848165425876
 20
1981.605438464464
 30
0.0
 41
30.0
 42
30.0
 43
30.0
 50
180.0
  0
INSERT
  5
87BD
  8
3
 62
     0
  2
_OPEN
 10
993.84848165425876
 20
1981.605438464464
 30
0.0
 41
30.0
 42
30.0
 43
30.0
  0
TEXT
  8
3
  40
45
  5
884F
  62
0
  72
0
  71
0
 10
781.348
 20
1939.46
 30
0.000000
  1
245
  0
POINT
  5
87BF
  8
DEFPOINTS
 62
     0
 10
748.84848165425876
 20
1694.7324963892929
 30
0.0
  0
POINT
  5
87C0
  8
DEFPOINTS
 62
     0
 10
993.84848165425876
 20
1952.9469467452079
 30
0.0
  0
POINT
  5
87C1
  8
DEFPOINTS
 62
     0
 10
993.84848165425876
 20
1981.605438464464
 30
0.0
  0
ENDBLK
  5
8436
  8
0
  0
BLOCK
  8
0
  2
*D6
 70
     1
 10
0.0
 20
0.0
 30
0.0
  3
*D6
  1

  0
LINE
  5
87C2
  8
3
 62
     0
 10
2478.579500154724
 20
1936.8085469450191
 30
0.0
 11
2478.579500154724
 21
1989.519093299059
 31
0.0
  0
LINE
  5
87C3
  8
3
 62
     0
 10
2714.579500154724
 20
1936.8085469450191
 30
0.0
 11
2714.579500154724
 21
1989.519093299059
 31
0.0
  0
LINE
  5
87C4
  8
3
 62
     0
 10
2508.5795001547231
 20
1974.519093299059
 30
0.0
 11
2684.579500154724
 21
1974.519093299059
 31
0.0
  0
INSERT
  5
87C5
  8
3
 62
     0
  2
_OPEN
 10
2478.579500154724
 20
1974.519093299059
 30
0.0
 41
30.0
 42
30.0
 43
30.0
 50
180.0
  0
INSERT
  5
87C6
  8
3
 62
     0
  2
_OPEN
 10
2714.579500154724
 20
1974.519093299059
 30
0.0
 41
30.0
 42
30.0
 43
30.0
  0
TEXT
  8
3
  40
45
  5
8850
  62
0
  72
0
  71
0
 10
2506.58
 20
1932.37
 30
0.000000
  1
236
  0
POINT
  5
87C8
  8
DEFPOINTS
 62
     0
 10
2478.579500154724
 20
1929.3085469450191
 30
0.0
  0
POINT
  5
87C9
  8
DEFPOINTS
 62
     0
 10
2714.579500154724
 20
1929.3085469450191
 30
0.0
  0
POINT
  5
87CA
  8
DEFPOINTS
 62
     0
 10
2714.579500154724
 20
1974.519093299059
 30
0.0
  0
ENDBLK
  5
84CE
  8
0
  0
BLOCK
  8
0
  2
*D7
 70
     1
 10
0.0
 20
0.0
 30
0.0
  3
*D7
  1

  0
LINE
  5
87D5
  8
3
 62
     0
 10
2750.079500154724
 20
1849.843666064337
 30
0.0
 11
2885.5718532876908
 21
1849.843666064337
 31
0.0
  0
LINE
  5
87D6
  8
3
 62
     0
 10
2750.079500154724
 20
1534.843666064337
 30
0.0
 11
2885.5718532876908
 21
1534.843666064337
 31
0.0
  0
LINE
  5
87D7
  8
3
 62
     0
 10
2870.5718532876908
 20
1819.843666064337
 30
0.0
 11
2870.5718532876908
 21
1564.843666064337
 31
0.0
  0
INSERT
  5
87D8
  8
3
 62
     0
  2
_OPEN
 10
2870.5718532876908
 20
1849.843666064337
 30
0.0
 41
30.0
 42
30.0
 43
30.0
 50
90.0
  0
INSERT
  5
87D9
  8
3
 62
     0
  2
_OPEN
 10
2870.5718532876908
 20
1534.843666064337
 30
0.0
 41
30.0
 42
30.0
 43
30.0
 50
270.0
  0
TEXT
  8
3
  40
45
  5
8851
  62
0
  72
0
  71
0
 10
2743.07
 20
1611.36
 30
0.000000
  1
φ315
  0
POINT
  5
87DB
  8
DEFPOINTS
 62
     0
 10
2742.5795001547231
 20
1849.843666064337
 30
0.0
  0
POINT
  5
87DC
  8
DEFPOINTS
 62
     0
 10
2742.5795001547231
 20
1534.843666064337
 30
0.0
  0
POINT
  5
87DD
  8
DEFPOINTS
 62
     0
 10
2870.5718532876908
 20
1534.843666064337
 30
0.0
  0
ENDBLK
  5
86F3
  8
0
  0
BLOCK
  8
0
  2
_DOT
 70
     0
 10
0.0
 20
0.0
 30
0.0
  3
_DOT
  1

  0
LINE
  5
8681
  8
0
  6
BYBLOCK
 62
     0
 10
0.0
 20
0.0
 30
0.0
 11
-1.0
 21
-0.0000000000000284
 31
0.0
  0
POLYLINE
  5
8682
  8
0
  6
BYBLOCK
 62
     0
 66
     1
 10
0.0
 20
0.0
 30
0.0
 70
     1
 40
0.1666666666666666
 41
0.1666666666666666
  0
VERTEX
  5
881B
  8
0
  6
BYBLOCK
 62
     0
 10
-0.0833333333333286
 20
-0.0000000000000284
 30
0.0
 42
1.0
  0
VERTEX
  5
881C
  8
0
  6
BYBLOCK
 62
     0
 10
0.0833333333333286
 20
-0.0000000000000284
 30
0.0
 42
1.0
  0
SEQEND
  5
881D
  8
0
  6
BYBLOCK
 62
     0
  0
ENDBLK
  5
84A9
  8
0
  0
BLOCK
  8
0
  2
*D9
 70
     1
 10
0.0
 20
0.0
 30
0.0
  3
*D9
  1

  0
LINE
  5
87DE
  8
3
 62
     0
 10
1005.11343423895
 20
1918.302570292167
 30
0.0
 11
482.85898223561537
 21
1918.302570292167
 31
0.0
  0
LINE
  5
87DF
  8
3
 62
     0
 10
497.85898223561549
 20
1722.343666064337
 30
0.0
 11
497.85898223561549
 21
1888.302570292167
 31
0.0
  0
INSERT
  5
87E0
  8
3
 62
     0
  2
_OPEN
 10
497.85898223561549
 20
1692.343666064337
 30
0.0
 41
30.0
 42
30.0
 43
30.0
 50
270.0
  0
INSERT
  5
87E1
  8
3
 62
     0
  2
_OPEN
 10
497.85898223561549
 20
1918.302570292167
 30
0.0
 41
30.0
 42
30.0
 43
30.0
 50
90.0
  0
TEXT
  8
3
  40
45
  5
8852
  62
0
  72
0
  71
0
 10
370.359
 20
1725.67
 30
0.000000
  1
226
  0
POINT
  5
87E3
  8
DEFPOINTS
 62
     0
 10
737.38835530377332
 20
1692.343666064337
 30
0.0
  0
POINT
  5
87E4
  8
DEFPOINTS
 62
     0
 10
1012.613434238949
 20
1918.302570292167
 30
0.0
  0
POINT
  5
87E5
  8
DEFPOINTS
 62
     0
 10
497.85898223561549
 20
1918.302570292167
 30
0.0
  0
ENDBLK
  5
856D
  8
0
  0
BLOCK
  8
0
  2
*D10
 70
     1
 10
0.0
 20
0.0
 30
0.0
  3
*D10
  1

  0
LINE
  5
87E6
  8
3
 62
     0
 10
748.84848165425876
 20
1702.2324963892929
 30
0.0
 11
748.84848165425876
 21
2090.8761985293818
 31
0.0
  0
LINE
  5
87E7
  8
3
 62
     0
 10
1613.8484816542591
 20
1324.843666064337
 30
0.0
 11
1613.8484816542591
 21
2090.8761985293818
 31
0.0
  0
LINE
  5
87E8
  8
3
 62
     0
 10
778.84848165425876
 20
2075.8761985293818
 30
0.0
 11
1583.8484816542591
 21
2075.8761985293818
 31
0.0
  0
INSERT
  5
87E9
  8
3
 62
     0
  2
_OPEN
 10
748.84848165425876
 20
2075.8761985293818
 30
0.0
 41
30.0
 42
30.0
 43
30.0
 50
180.0
  0
INSERT
  5
87EA
  8
3
 62
     0
  2
_OPEN
 10
1613.8484816542591
 20
2075.8761985293818
 30
0.0
 41
30.0
 42
30.0
 43
30.0
  0
TEXT
  8
3
  40
45
  5
8853
  62
0
  72
0
  71
0
 10
1074.39
 20
2033.73
 30
0.000000
  1
865
  0
POINT
  5
87EC
  8
DEFPOINTS
 62
     0
 10
748.84848165425876
 20
1694.7324963892929
 30
0.0
  0
POINT
  5
87ED
  8
DEFPOINTS
 62
     0
 10
1613.8484816542591
 20
1317.343666064337
 30
0.0
  0
POINT
  5
87EE
  8
DEFPOINTS
 62
     0
 10
1613.8484816542591
 20
2075.8761985293818
 30
0.0
  0
ENDBLK
  5
861E
  8
0
  0
BLOCK
  8
0
  2
*D11
 70
     1
 10
0.0
 20
0.0
 30
0.0
  3
*D11
  1

  0
LINE
  5
87EF
  8
3
 62
     0
 10
2596.579500154724
 20
2048.8161083916798
 30
0.0
 11
2596.579500154724
 21
2076.622490156788
 31
0.0
  0
LINE
  5
87F0
  8
3
 62
     0
 10
1908.579500154724
 20
1799.843666064337
 30
0.0
 11
1908.579500154724
 21
2076.622490156788
 31
0.0
  0
LINE
  5
87F1
  8
3
 62
     0
 10
2566.579500154724
 20
2061.6224901567871
 30
0.0
 11
1938.579500154724
 21
2061.6224901567871
 31
0.0
  0
INSERT
  5
87F2
  8
3
 62
     0
  2
_OPEN
 10
2596.579500154724
 20
2061.6224901567871
 30
0.0
 41
30.0
 42
30.0
 43
30.0
  0
INSERT
  5
87F3
  8
3
 62
     0
  2
_OPEN
 10
1908.579500154724
 20
2061.6224901567871
 30
0.0
 41
30.0
 42
30.0
 43
30.0
 50
180.0
  0
TEXT
  8
3
  40
45
  5
8854
  62
0
  72
0
  71
0
 10
2170.92
 20
2056.97
 30
0.000000
  1
MAX
  0
TEXT
  8
3
  40
45
  5
8855
  62
0
  72
0
  71
0
 10
2170.92
 20
1998.47
 30
0.000000
  1
760
  0
POINT
  5
87F5
  8
DEFPOINTS
 62
     0
 10
2596.579500154724
 20
2041.31610839168
 30
0.0
  0
POINT
  5
87F6
  8
DEFPOINTS
 62
     0
 10
1908.579500154724
 20
1792.343666064337
 30
0.0
  0
POINT
  5
87F7
  8
DEFPOINTS
 62
     0
 10
1908.579500154724
 20
2061.6224901567871
 30
0.0
  0
ENDBLK
  5
86B2
  8
0
  0
BLOCK
  8
0
  2
*D12
 70
     1
 10
0.0
 20
0.0
 30
0.0
  3
*D12
  1

  0
LINE
  5
87F8
  8
3
 62
     0
 10
813.84848165425944
 20
3209.6673120973019
 30
0.0
 11
813.84848165425944
 21
3325.0695386331749
 31
0.0
  0
LINE
  5
87F9
  8
3
 62
     0
 10
1173.8484816542591
 20
3209.6673120973028
 30
0.0
 11
1173.8484816542591
 21
3325.0695386331749
 31
0.0
  0
LINE
  5
87FA
  8
3
 62
     0
 10
843.84848165425956
 20
3310.0695386331749
 30
0.0
 11
1143.8484816542591
 21
3310.0695386331749
 31
0.0
  0
INSERT
  5
87FB
  8
3
 62
     0
  2
_OPEN
 10
813.84848165425944
 20
3310.0695386331749
 30
0.0
 41
30.0
 42
30.0
 43
30.0
 50
180.0
  0
INSERT
  5
87FC
  8
3
 62
     0
  2
_OPEN
 10
1173.8484816542591
 20
3310.0695386331749
 30
0.0
 41
30.0
 42
30.0
 43
30.0
  0
TEXT
  8
3
  40
45
  5
8856
  62
0
  72
0
  71
0
 10
908.764
 20
3267.92
 30
0.000000
  1
360
  0
POINT
  5
87FE
  8
DEFPOINTS
 62
     0
 10
813.84848165425944
 20
3202.1673120973019
 30
0.0
  0
POINT
  5
87FF
  8
DEFPOINTS
 62
     0
 10
1173.8484816542591
 20
3202.1673120973019
 30
0.0
  0
POINT
  5
8800
  8
DEFPOINTS
 62
     0
 10
1173.8484816542591
 20
3310.0695386331749
 30
0.0
  0
ENDBLK
  5
864E
  8
0
  0
BLOCK
  8
0
  2
*D13
 70
     1
 10
0.0
 20
0.0
 30
0.0
  3
*D13
  1

  0
LINE
  5
8801
  8
3
 62
     0
 10
1613.8484816542609
 20
2809.6673120973028
 30
0.0
 11
1613.8484816542609
 21
3325.0695386331749
 31
0.0
  0
LINE
  5
8802
  8
3
 62
     0
 10
1203.8484816542591
 20
3310.0695386331749
 30
0.0
 11
1583.8484816542609
 21
3310.0695386331749
 31
0.0
  0
INSERT
  5
8803
  8
3
 62
     0
  2
_OPEN
 10
1173.8484816542591
 20
3310.0695386331749
 30
0.0
 41
30.0
 42
30.0
 43
30.0
 50
180.0
  0
INSERT
  5
8804
  8
3
 62
     0
  2
_OPEN
 10
1613.8484816542609
 20
3310.0695386331749
 30
0.0
 41
30.0
 42
30.0
 43
30.0
  0
TEXT
  8
3
  40
45
  5
8857
  62
0
  72
0
  71
0
 10
1303.85
 20
3267.92
 30
0.000000
  1
440
  0
POINT
  5
8806
  8
DEFPOINTS
 62
     0
 10
1173.8484816542591
 20
3202.1673120973019
 30
0.0
  0
POINT
  5
8807
  8
DEFPOINTS
 62
     0
 10
1613.8484816542609
 20
2802.1673120973028
 30
0.0
  0
POINT
  5
8808
  8
DEFPOINTS
 62
     0
 10
1613.8484816542609
 20
3310.0695386331749
 30
0.0
  0
ENDBLK
  5
865A
  8
0
  0
BLOCK
  8
0
  2
*D14
 70
     1
 10
0.0
 20
0.0
 30
0.0
  3
*D14
  1

  0
LINE
  5
8809
  8
3
 62
     0
 10
1621.3484816542609
 20
2802.1673120973028
 30
0.0
 11
1760.6341239353169
 21
2802.1673120973028
 31
0.0
  0
LINE
  5
880A
  8
3
 62
     0
 10
1621.3484816542609
 20
2422.1673120973028
 30
0.0
 11
1760.6341239353169
 21
2422.1673120973028
 31
0.0
  0
LINE
  5
880B
  8
3
 62
     0
 10
1745.6341239353169
 20
2772.1673120973028
 30
0.0
 11
1745.6341239353169
 21
2452.1673120973019
 31
0.0
  0
INSERT
  5
880C
  8
3
 62
     0
  2
_OPEN
 10
1745.6341239353169
 20
2802.1673120973028
 30
0.0
 41
30.0
 42
30.0
 43
30.0
 50
90.0
  0
INSERT
  5
880D
  8
3
 62
     0
  2
_OPEN
 10
1745.6341239353169
 20
2422.1673120973028
 30
0.0
 41
30.0
 42
30.0
 43
30.0
 50
270.0
  0
TEXT
  8
3
  40
45
  5
8858
  62
0
  72
0
  71
0
 10
1618.13
 20
2530.99
 30
0.000000
  1
380
  0
POINT
  5
880F
  8
DEFPOINTS
 62
     0
 10
1613.8484816542609
 20
2802.1673120973028
 30
0.0
  0
POINT
  5
8810
  8
DEFPOINTS
 62
     0
 10
1613.8484816542609
 20
2422.1673120973028
 30
0.0
  0
POINT
  5
8811
  8
DEFPOINTS
 62
     0
 10
1745.6341239353169
 20
2422.1673120973028
 30
0.0
  0
ENDBLK
  5
8667
  8
0
  0
BLOCK
  8
0
  2
*D15
 70
     1
 10
0.0
 20
0.0
 30
0.0
  3
*D15
  1

  0
LINE
  5
8812
  8
3
 62
     0
 10
806.34848165425956
 20
3202.1673120973019
 30
0.0
 11
675.93655274242565
 21
3202.1673120973019
 31
0.0
  0
LINE
  5
8813
  8
3
 62
     0
 10
806.34848165426035
 20
2422.1673120973019
 30
0.0
 11
675.93655274242553
 21
2422.1673120973019
 31
0.0
  0
LINE
  5
8814
  8
3
 62
     0
 10
690.93655274242565
 20
3172.1673120973019
 30
0.0
 11
690.93655274242553
 21
2452.1673120973019
 31
0.0
  0
INSERT
  5
8815
  8
3
 62
     0
  2
_OPEN
 10
690.93655274242565
 20
3202.1673120973019
 30
0.0
 41
30.0
 42
30.0
 43
30.0
 50
90.0
  0
INSERT
  5
8816
  8
3
 62
     0
  2
_OPEN
 10
690.93655274242553
 20
2422.1673120973019
 30
0.0
 41
30.0
 42
30.0
 43
30.0
 50
270.0
  0
TEXT
  8
3
  40
45
  5
8859
  62
0
  72
0
  71
0
 10
563.437
 20
2753.40
 30
0.000000
  1
780
  0
POINT
  5
8818
  8
DEFPOINTS
 62
     0
 10
813.84848165425944
 20
3202.1673120973019
 30
0.0
  0
POINT
  5
8819
  8
DEFPOINTS
 62
     0
 10
813.84848165426035
 20
2422.1673120973019
 30
0.0
  0
POINT
  5
881A
  8
DEFPOINTS
 62
     0
 10
690.93655274242553
 20
2422.1673120973019
 30
0.0
  0
ENDBLK
  5
867F
  8
0
  0
BLOCK
  8
0
  2
*D16
 70
     1
 10
0.0
 20
0.0
 30
0.0
  3
*D16
  1

  0
LINE
  5
870D
  8
0
  6
BYBLOCK
 62
     0
 10
2717.579500154724
 20
1883.343692828563
 30
0.0
 11
2717.579500154724
 21
2076.622490156788
 31
0.0
  0
LINE
  5
870E
  8
0
  6
BYBLOCK
 62
     0
 10
2626.579500154724
 20
2061.6224901567871
 30
0.0
 11
2687.579500154724
 21
2061.6224901567871
 31
0.0
  0
TEXT
  5
870F
  8
3
 62
     0
 10
2613.150928726152
 20
2078.765475871056
 30
0.0
 40
45.0
  1
121
  0
INSERT
  5
8710
  8
0
  6
BYBLOCK
 62
     0
  2
_OPEN
 10
2596.579500154724
 20
2061.6224901567871
 30
0.0
 41
30.0
 42
30.0
 43
30.0
 50
180.0
  0
INSERT
  5
8711
  8
0
  6
BYBLOCK
 62
     0
  2
_OPEN
 10
2717.579500154724
 20
2061.6224901567871
 30
0.0
 41
30.0
 42
30.0
 43
30.0
  0
POINT
  5
8712
  8
DEFPOINTS
  6
BYBLOCK
 62
     0
 10
2596.579500154724
 20
2041.31610839168
 30
0.0
  0
POINT
  5
8713
  8
DEFPOINTS
  6
BYBLOCK
 62
     0
 10
2717.579500154724
 20
1875.843692828563
 30
0.0
  0
POINT
  5
8714
  8
DEFPOINTS
  6
BYBLOCK
 62
     0
 10
2717.579500154724
 20
2061.6224901567871
 30
0.0
  0
ENDBLK
  5
8715
  8
0
  0
BLOCK
  8
0
  2
*D17
 70
     1
 10
0.0
 20
0.0
 30
0.0
  3
*D17
  1

  0
LINE
  5
881E
  8
3
 62
     0
 10
813.84848165425876
 20
1234.843666064337
 30
0.0
 11
813.84848165425876
 21
1105.2015985981061
 31
0.0
  0
LINE
  5
881F
  8
3
 62
     0
 10
993.84848165425899
 20
1234.843666064337
 30
0.0
 11
993.84848165425899
 21
1105.2015985981061
 31
0.0
  0
LINE
  5
8820
  8
3
 62
     0
 10
843.84848165425876
 20
1120.201598598107
 30
0.0
 11
963.8484816542591
 21
1120.201598598107
 31
0.0
  0
INSERT
  5
8821
  8
3
 62
     0
  2
_OPEN
 10
813.84848165425876
 20
1120.201598598107
 30
0.0
 41
30.0
 42
30.0
 43
30.0
 50
180.0
  0
INSERT
  5
8822
  8
3
 62
     0
  2
_OPEN
 10
993.84848165425899
 20
1120.201598598107
 30
0.0
 41
30.0
 42
30.0
 43
30.0
  0
TEXT
  8
3
  40
45
  5
885A
  62
0
  72
0
  71
0
 10
813.848
 20
1078.05
 30
0.000000
  1
180
  0
POINT
  5
8824
  8
DEFPOINTS
 62
     0
 10
813.84848165425876
 20
1242.343666064337
 30
0.0
  0
POINT
  5
8825
  8
DEFPOINTS
 62
     0
 10
993.84848165425899
 20
1242.343666064337
 30
0.0
  0
POINT
  5
8826
  8
DEFPOINTS
 62
     0
 10
993.84848165425899
 20
1120.201598598107
 30
0.0
  0
ENDBLK
  5
872F
  8
0
  0
BLOCK
  8
0
  2
*D18
 70
     1
 10
0.0
 20
0.0
 30
0.0
  3
*D18
  1

  0
LINE
  5
8827
  8
3
 62
     0
 10
993.84848165425899
 20
1234.843666064337
 30
0.0
 11
993.84848165425899
 21
1105.2015985981061
 31
0.0
  0
LINE
  5
8828
  8
3
 62
     0
 10
1613.8484816542591
 20
1234.843666064337
 30
0.0
 11
1613.8484816542591
 21
1105.2015985981061
 31
0.0
  0
LINE
  5
8829
  8
3
 62
     0
 10
1023.848481654259
 20
1120.201598598107
 30
0.0
 11
1583.8484816542591
 21
1120.201598598107
 31
0.0
  0
INSERT
  5
882A
  8
3
 62
     0
  2
_OPEN
 10
993.84848165425899
 20
1120.201598598107
 30
0.0
 41
30.0
 42
30.0
 43
30.0
 50
180.0
  0
INSERT
  5
882B
  8
3
 62
     0
  2
_OPEN
 10
1613.8484816542591
 20
1120.201598598107
 30
0.0
 41
30.0
 42
30.0
 43
30.0
  0
TEXT
  8
3
  40
45
  5
885B
  62
0
  72
0
  71
0
 10
1213.85
 20
1078.05
 30
0.000000
  1
620
  0
POINT
  5
882D
  8
DEFPOINTS
 62
     0
 10
993.84848165425899
 20
1242.343666064337
 30
0.0
  0
POINT
  5
882E
  8
DEFPOINTS
 62
     0
 10
1613.8484816542591
 20
1242.343666064337
 30
0.0
  0
POINT
  5
882F
  8
DEFPOINTS
 62
     0
 10
1613.8484816542591
 20
1120.201598598107
 30
0.0
  0
ENDBLK
  5
873C
  8
0
  0
BLOCK
  8
0
  2
*D19
 70
     1
 10
0.0
 20
0.0
 30
0.0
  3
*D19
  1

  0
LINE
  5
8830
  8
3
 62
     0
 10
1981.579500154724
 20
1234.843666064337
 30
0.0
 11
1981.579500154724
 21
1105.2015985981061
 31
0.0
  0
LINE
  5
8831
  8
3
 62
     0
 10
2596.5795001547231
 20
1234.843666064337
 30
0.0
 11
2596.5795001547231
 21
1105.2015985981061
 31
0.0
  0
LINE
  5
8832
  8
3
 62
     0
 10
2011.579500154724
 20
1120.201598598107
 30
0.0
 11
2566.5795001547231
 21
1120.201598598107
 31
0.0
  0
INSERT
  5
8833
  8
3
 62
     0
  2
_OPEN
 10
1981.579500154724
 20
1120.201598598107
 30
0.0
 41
30.0
 42
30.0
 43
30.0
 50
180.0
  0
INSERT
  5
8834
  8
3
 62
     0
  2
_OPEN
 10
2596.5795001547231
 20
1120.201598598107
 30
0.0
 41
30.0
 42
30.0
 43
30.0
  0
TEXT
  8
3
  40
45
  5
885C
  62
0
  72
0
  71
0
 10
2199.08
 20
1078.05
 30
0.000000
  1
615
  0
POINT
  5
8836
  8
DEFPOINTS
 62
     0
 10
1981.579500154724
 20
1242.343666064337
 30
0.0
  0
POINT
  5
8837
  8
DEFPOINTS
 62
     0
 10
2596.5795001547231
 20
1242.343666064337
 30
0.0
  0
POINT
  5
8838
  8
DEFPOINTS
 62
     0
 10
2596.5795001547231
 20
1120.201598598107
 30
0.0
  0
ENDBLK
  5
8749
  8
0
  0
BLOCK
  8
0
  2
*D20
 70
     1
 10
0.0
 20
0.0
 30
0.0
  3
*D20
  1

  0
LINE
  5
8839
  8
3
 62
     0
 10
2596.5795001547231
 20
1234.843666064337
 30
0.0
 11
2596.5795001547231
 21
1105.2015985981061
 31
0.0
  0
LINE
  5
883A
  8
3
 62
     0
 10
2761.5795001547231
 20
1234.843666064337
 30
0.0
 11
2761.5795001547231
 21
1105.2015985981061
 31
0.0
  0
LINE
  5
883B
  8
3
 62
     0
 10
2626.5795001547231
 20
1120.201598598107
 30
0.0
 11
2731.5795001547222
 21
1120.201598598107
 31
0.0
  0
INSERT
  5
883C
  8
3
 62
     0
  2
_OPEN
 10
2596.5795001547231
 20
1120.201598598107
 30
0.0
 41
30.0
 42
30.0
 43
30.0
 50
180.0
  0
INSERT
  5
883D
  8
3
 62
     0
  2
_OPEN
 10
2761.5795001547231
 20
1120.201598598107
 30
0.0
 41
30.0
 42
30.0
 43
30.0
  0
TEXT
  8
3
  40
45
  5
885D
  62
0
  72
0
  71
0
 10
2589.08
 20
1078.05
 30
0.000000
  1
165
  0
POINT
  5
883F
  8
DEFPOINTS
 62
     0
 10
2596.5795001547231
 20
1242.343666064337
 30
0.0
  0
POINT
  5
8840
  8
DEFPOINTS
 62
     0
 10
2761.5795001547231
 20
1242.343666064337
 30
0.0
  0
POINT
  5
8841
  8
DEFPOINTS
 62
     0
 10
2761.5795001547231
 20
1120.201598598107
 30
0.0
  0
ENDBLK
  5
8758
  8
0
  0
BLOCK
  8
0
  2
*D21
 70
     1
 10
0.0
 20
0.0
 30
0.0
  3
*D21
  1

  0
LINE
  5
8842
  8
3
 62
     0
 10
997.61343423894982
 20
1918.302570292167
 30
0.0
 11
358.55532059188778
 21
1918.302570292167
 31
0.0
  0
LINE
  5
8843
  8
3
 62
     0
 10
806.34848165425876
 20
1242.343666064337
 30
0.0
 11
358.55532059188772
 21
1242.343666064337
 31
0.0
  0
LINE
  5
8844
  8
3
 62
     0
 10
373.55532059188778
 20
1888.302570292167
 30
0.0
 11
373.55532059188772
 21
1272.343666064337
 31
0.0
  0
INSERT
  5
8845
  8
3
 62
     0
  2
_OPEN
 10
373.55532059188778
 20
1918.302570292167
 30
0.0
 41
30.0
 42
30.0
 43
30.0
 50
90.0
  0
INSERT
  5
8846
  8
3
 62
     0
  2
_OPEN
 10
373.55532059188772
 20
1242.343666064337
 30
0.0
 41
30.0
 42
30.0
 43
30.0
 50
270.0
  0
TEXT
  8
3
  40
45
  5
885E
  62
0
  72
0
  71
0
 10
246.055
 20
1500.67
 30
0.000000
  1
676
  0
POINT
  5
8848
  8
DEFPOINTS
 62
     0
 10
1005.11343423895
 20
1918.302570292167
 30
0.0
  0
POINT
  5
8849
  8
DEFPOINTS
 62
     0
 10
813.84848165425876
 20
1242.343666064337
 30
0.0
  0
POINT
  5
884A
  8
DEFPOINTS
 62
     0
 10
373.55532059188772
 20
1242.343666064337
 30
0.0
  0
ENDBLK
  5
8765
  8
0
  0
ENDSEC
  0
SECTION
  2
ENTITIES
  0
LINE
  5
7CD8
  8
1
 10
1981.579500154724
 20
1317.343666064337
 30
0.0
 11
2761.5795001547231
 21
1317.343666064337
 31
0.0
  0
LINE
  5
7CE9
  8
2
 10
2778.6847227960602
 20
1692.343666064337
 30
0.0
 11
1886.7938697498471
 21
1692.343666064337
 31
0.0
  0
LINE
  5
7CEA
  8
1
 10
2423.5795001547231
 20
1635.543666064337
 30
0.0
 11
2013.579500154724
 21
1635.543666064337
 31
0.0
  0
LINE
  5
7CF2
  8
1
 10
2423.5795001547231
 20
1638.743666064337
 30
0.0
 11
2013.579500154724
 21
1638.743666064337
 31
0.0
  0
LINE
  5
7CF3
  8
1
 10
2761.5795001547231
 20
1242.343666064337
 30
0.0
 11
1981.579500154724
 21
1242.343666064337
 31
0.0
  0
DIMENSION
  5
7CF7
  8
3
  2
*D1
 10
1267.4133625349409
 20
1981.605438464464
 30
0.0
 11
1130.6309220946
 21
2019.1054384644631
 31
0.0
 70
     0
 13
993.84848165425876
 23
1952.9469467452079
 33
0.0
 14
1267.4133625349409
 24
1668.343666064337
 34
0.0
1001
ACAD
1000
DSTYLE
1002
{
1070
   287
1070
     3
1070
    40
1040
15.0
1070
   143
1040
0.039
1070
   172
1070
     1
1070
   271
1070
     0
1070
   279
1070
     0
1070
   288
1070
     1
1002
}
  0
ARC
  5
7CF8
  8
1
 10
1012.613434238949
 20
1663.1503380242459
 30
0.0
 40
255.15223226792139
 50
1.1540559356372131
 51
97.460342772904141
  0
LINE
  5
7CF9
  8
1
 10
943.05413861793784
 20
1606.2046231423931
 30
0.0
 11
1397.6569670997781
 21
1338.135101681421
 31
0.0
  0
LINE
  5
7CFA
  8
1
 10
1027.562493759167
 20
1786.4891141103799
 30
0.0
 11
1524.4194998116229
 21
1608.5618381334
 31
0.0
  0
LINE
  5
7CFB
  8
1
 10
964.84284171072545
 20
1635.855411962568
 30
0.0
 11
1436.1183106410961
 21
1393.8644567917991
 31
0.0
  0
LINE
  5
7CFC
  8
1
 10
1018.710945723759
 20
1750.77403385706
 30
0.0
 11
1506.189261687972
 21
1543.3491523584919
 31
0.0
  0
LINE
  5
7CFD
  8
1
 10
1077.3484816542591
 20
1644.743666064337
 30
0.0
 11
1023.348481654258
 21
1644.743666064337
 31
0.0
  0
ARC
  5
7CFE
  8
1
 10
1017.848481654259
 20
1668.343666064337
 30
0.0
 40
260.96488088068128
 50
0.0
 51
97.373766361329587
  0
LINE
  5
7D01
  8
1
 10
1623.8484816542591
 20
1317.343666064337
 30
0.0
 11
813.84848165425876
 21
1317.343666064337
 31
0.0
  0
LINE
  5
7D02
  8
1
 10
1613.8484816542591
 20
1242.343666064337
 30
0.0
 11
813.84848165425876
 21
1242.343666064337
 31
0.0
  0
LINE
  5
7D03
  8
1
 10
793.84848165425797
 20
1635.543666064337
 30
0.0
 11
1193.848481654258
 21
1635.543666064337
 31
0.0
  0
LINE
  5
7D04
  8
2
 10
1348.709334762601
 20
1692.343666064337
 30
0.0
 11
737.38835530377332
 21
1692.343666064337
 31
0.0
  0
LINE
  5
7D05
  8
1
 10
833.84848165425888
 20
1638.743666064337
 30
0.0
 11
1153.848481654258
 21
1638.743666064337
 31
0.0
  0
ARC
  5
7D06
  8
1
 10
969.84848165425967
 20
1668.343666064337
 30
0.0
 40
297.56488088068153
 50
274.610207495868
 51
0.0000000000002036
  0
POLYLINE
  5
7D07
  8
1
 66
     1
 10
0.0
 20
0.0
 30
0.0
 70
     1
  0
VERTEX
  5
8791
  8
1
 10
1093.848481654258
 20
1638.743666064337
 30
0.0
  0
VERTEX
  5
8792
  8
1
 10
893.84848165425876
 20
1638.743666064337
 30
0.0
  0
VERTEX
  5
8793
  8
1
 10
893.84848165425876
 20
1644.743666064337
 30
0.0
  0
VERTEX
  5
8794
  8
1
 10
1093.848481654258
 20
1644.743666064337
 30
0.0
  0
SEQEND
  5
8795
  8
1
  0
POLYLINE
  5
7D0D
  8
1
 66
     1
 10
0.0
 20
0.0
 30
0.0
 70
     1
  0
VERTEX
  5
8796
  8
1
 10
1093.848481654258
 20
1638.743666064337
 30
0.0
  0
VERTEX
  5
8797
  8
1
 10
893.84848165425876
 20
1638.743666064337
 30
0.0
  0
VERTEX
  5
8798
  8
1
 10
893.84848165425876
 20
1644.743666064337
 30
0.0
  0
VERTEX
  5
8799
  8
1
 10
1093.848481654258
 20
1644.743666064337
 30
0.0
  0
SEQEND
  5
879A
  8
1
  0
DIMENSION
  5
7D14
  8
3
  2
*D2
 10
497.85898223561549
 20
1242.343666064337
 30
0.0
 11
460.35898223561531
 21
1467.343666064337
 31
0.0
 70
     0
 13
737.38835530377332
 23
1692.343666064337
 33
0.0
 14
813.84848165425876
 24
1242.343666064337
 34
0.0
 50
90.0
1001
ACAD
1000
DSTYLE
1002
{
1070
   287
1070
     3
1070
    40
1040
15.0
1070
   143
1040
0.039
1070
   172
1070
     1
1070
   271
1070
     0
1070
   279
1070
     0
1070
   288
1070
     1
1002
}
  0
DIMENSION
  5
7D15
  8
3
  2
*D3
 10
588.33978399942521
 20
1692.343666064337
 30
0.0
 11
550.83978399942487
 21
1516.843666064337
 31
0.0
 70
     0
 13
748.84848165425876
 23
1341.343666064337
 33
0.0
 14
737.38835530377332
 24
1692.343666064337
 34
0.0
 50
90.0
1001
ACAD
1000
DSTYLE
1002
{
1070
   287
1070
     3
1070
    40
1040
15.0
1070
   143
1040
0.039
1070
   172
1070
     1
1070
   271
1070
     0
1070
   279
1070
     0
1070
   288
1070
     1
1002
}
  0
DIMENSION
  5
7D16
  8
3
  2
*D4
 10
680.37294911588117
 20
1666.343666064337
 30
0.0
 11
642.87294911588106
 21
1503.843666064337
 31
0.0
 70
     0
 13
748.84848165425876
 23
1341.343666064337
 33
0.0
 14
748.84848165425876
 24
1666.343666064337
 34
0.0
 50
90.0
1001
ACAD
1000
DSTYLE
1002
{
1070
   287
1070
     3
1070
    40
1040
15.0
1070
   143
1040
0.039
1070
   172
1070
     1
1070
   271
1070
     0
1070
   279
1070
     0
1070
   288
1070
     1
1002
}
  0
LINE
  5
7D17
  8
1
 10
748.84848165425876
 20
1694.7324963892929
 30
0.0
 11
748.84848165425876
 21
1314.7324963892929
 31
0.0
  0
LINE
  5
7D18
  8
1
 10
751.84848165425888
 20
1694.7324963892929
 30
0.0
 11
751.84848165425888
 21
1316.7324963892929
 31
0.0
  0
LINE
  5
7D19
  8
1
 10
773.84848165425876
 20
1334.23303926878
 30
0.0
 11
773.84848165425876
 21
1670.7324963892929
 31
0.0
  0
LINE
  5
7D1A
  8
1
 10
843.84848165425797
 20
1635.543666064337
 30
0.0
 11
843.84848165425967
 21
1317.343666064337
 31
0.0
  0
LINE
  5
7D1B
  8
2
 10
993.84848165425876
 20
1786.482981256813
 30
0.0
 11
993.84848165425899
 21
1242.343666064337
 31
0.0
  0
LINE
  5
7D21
  8
1
 10
748.84848165425876
 20
1339.732496389292
 30
0.0
 11
994.00683588724598
 21
1368.7512403597279
 31
0.0
  0
LINE
  5
7D22
  8
1
 10
813.84848165425876
 20
1392.343666064337
 30
0.0
 11
813.84848165425876
 21
1242.343666064337
 31
0.0
  0
POLYLINE
  5
7D23
  8
1
 66
     1
 10
0.0
 20
0.0
 30
0.0
  0
VERTEX
  5
87B6
  8
1
 10
748.84848165425876
 20
1339.7324963892929
 30
0.0
  0
VERTEX
  5
87B7
  8
1
 10
893.61782595549926
 20
1356.8684595922971
 30
0.0
 42
0.3908380251735333
  0
SEQEND
  5
87B8
  8
1
  0
LINE
  5
7D27
  8
1
 10
843.84848165425876
 20
1322.343666064337
 30
0.0
 11
813.84848165425876
 21
1322.343666064337
 31
0.0
  0
LINE
  5
7D28
  8
1
 10
773.84848165425967
 20
1339.7324963892929
 30
0.0
 11
748.84848165425967
 21
1339.7324963892929
 31
0.0
  0
ARC
  5
7D29
  8
1
 10
771.84848165425979
 20
1338.7324963892929
 30
0.0
 40
2.0
 50
270.0
 51
0.0
  0
LINE
  5
7D2A
  8
1
 10
748.84848165425967
 20
1339.7324963892929
 30
0.0
 11
748.84848165425967
 21
1314.7324963892929
 31
0.0
  0
LINE
  5
7D2B
  8
1
 10
751.84848165425967
 20
1316.7324963892929
 30
0.0
 11
751.84848165425967
 21
1332.7324963892929
 31
0.0
  0
LINE
  5
7D2C
  8
1
 10
755.84848165425967
 20
1336.7324963892929
 30
0.0
 11
771.84848165425979
 21
1336.7324963892929
 31
0.0
  0
ARC
  5
7D2D
  8
1
 10
755.84848165425967
 20
1332.7324963892929
 30
0.0
 40
4.0
 50
90.0
 51
180.0
  0
LINE
  5
7D2F
  8
1
 10
748.84848165425967
 20
1314.7324963892929
 30
0.0
 11
749.84848165425979
 21
1314.7324963892929
 31
0.0
  0
ARC
  5
7D30
  8
1
 10
749.84848165425979
 20
1316.7324963892929
 30
0.0
 40
2.0
 50
270.0
 51
0.0
  0
LINE
  5
7D31
  8
1
 10
773.84848165425876
 20
1343.302849737807
 30
0.0
 11
773.84848165425876
 21
1344.302849737807
 31
0.0
  0
LINE
  5
7D32
  8
1
 10
773.84848165425967
 20
1338.7324963892929
 30
0.0
 11
773.84848165425967
 21
1339.7324963892929
 31
0.0
  0
LINE
  5
7D33
  8
1
 10
773.84848165425876
 20
1334.23303926878
 30
0.0
 11
813.84848165425876
 21
1338.9677331463299
 31
0.0
  0
LINE
  5
7D34
  8
1
 10
843.84848165425944
 20
1392.343666064337
 30
0.0
 11
813.84848165425876
 21
1392.343666064337
 31
0.0
  0
DIMENSION
  5
7D35
  8
3
  2
*D5
 10
993.84848165425876
 20
1981.605438464464
 30
0.0
 11
871.34848165425888
 21
2019.1054384644631
 31
0.0
 70
     0
 13
748.84848165425876
 23
1694.7324963892929
 33
0.0
 14
993.84848165425876
 24
1952.9469467452079
 34
0.0
1001
ACAD
1000
DSTYLE
1002
{
1070
   287
1070
     3
1070
    40
1040
15.0
1070
   143
1040
0.039
1070
   172
1070
     1
1070
   271
1070
     0
1070
   279
1070
     0
1070
   288
1070
     1
1002
}
  0
ARC
  5
7D37
  8
1
 10
993.84848165425876
 20
1692.343666064337
 30
0.0
 40
100.0
 50
70.297269738203724
 51
239.47306048950711
  0
ARC
  5
7D38
  8
1
 10
1006.851425729484
 20
1716.419375126545
 30
0.0
 40
201.58952384937541
 50
97.79780284392973
 51
181.563977764425
  0
ARC
  5
7D39
  8
1
 10
1012.348481654259
 20
1710.843666064337
 30
0.0
 40
218.11047620624919
 50
97.373766361329587
 51
179.99999999999989
  0
CIRCLE
  5
7D3A
  8
1
 10
993.84848165425876
 20
1692.343666064337
 30
0.0
 40
63.5
  0
LINE
  5
7D3B
  8
1
 10
793.84848165425797
 20
1635.543666064337
 30
0.0
 11
793.84848165425797
 21
1595.543666064337
 31
0.0
  0
LINE
  5
7D3C
  8
1
 10
843.84848165425797
 20
1595.543666064337
 30
0.0
 11
773.84848165425876
 21
1595.543666064337
 31
0.0
  0
LINE
  5
7D3D
  8
1
 10
843.84848165425797
 20
1591.043666064337
 30
0.0
 11
773.84848165425876
 21
1591.043666064337
 31
0.0
  0
LINE
  5
7D3E
  8
1
 10
748.84848165425876
 20
1669.7324963892929
 30
0.0
 11
748.84848165425876
 21
1694.7324963892929
 31
0.0
  0
ARC
  5
7D3F
  8
1
 10
755.84848165425888
 20
1676.7324963892929
 30
0.0
 40
4.0
 50
180.0
 51
270.0
  0
ARC
  5
7D40
  8
1
 10
975.34848165425876
 20
1710.843666064337
 30
0.0
 40
170.010476206249
 50
179.9999999999996
 51
195.17384176877829
  0
ARC
  5
7D41
  8
1
 10
975.34848165425694
 20
1710.8436660643381
 30
0.0
 40
181.11047620624669
 50
180.0000000000002
 51
190.98146693575629
  0
ARC
  5
7D42
  8
1
 10
771.84848165425888
 20
1670.7324963892929
 30
0.0
 40
2.0
 50
0.0
 51
90.0
  0
LINE
  5
7D43
  8
1
 10
748.84848165425876
 20
1666.343666064337
 30
0.0
 11
811.26523442933421
 21
1666.343666064337
 31
0.0
  0
LINE
  5
7D45
  8
1
 10
755.84848165425888
 20
1672.7324963892929
 30
0.0
 11
771.84848165425888
 21
1672.7324963892929
 31
0.0
  0
LINE
  5
7D46
  8
1
 10
773.84848165425876
 20
1670.7324963892929
 30
0.0
 11
773.84848165425876
 21
1669.7324963892929
 31
0.0
  0
LINE
  5
7D47
  8
1
 10
773.84848165425876
 20
1676.343666064337
 30
0.0
 11
773.84848165425876
 21
1669.7324963892929
 31
0.0
  0
LINE
  5
7D48
  8
1
 10
773.84848165425876
 20
1676.343666064337
 30
0.0
 11
797.55434622889084
 21
1676.343666064337
 31
0.0
  0
LINE
  5
7D49
  8
1
 10
751.84848165425888
 20
1692.7324963892929
 30
0.0
 11
751.84848165425888
 21
1676.7324963892929
 31
0.0
  0
ARC
  5
7D4A
  8
1
 10
749.84848165425876
 20
1692.7324963892929
 30
0.0
 40
2.0
 50
0.0
 51
90.0
  0
LINE
  5
7D4B
  8
1
 10
748.84848165425876
 20
1694.7324963892929
 30
0.0
 11
749.84848165425876
 21
1694.7324963892929
 31
0.0
  0
LINE
  5
7D4C
  8
1
 10
833.84848165425888
 20
1638.743666064337
 30
0.0
 11
833.84848165425888
 21
1635.543666064337
 31
0.0
  0
CIRCLE
  5
7D4D
  8
1
 10
993.84848165425876
 20
1552.343666064337
 30
0.0
 40
65.0
  0
LINE
  5
7D4E
  8
2
 10
1063.848481654258
 20
1552.343666064337
 30
0.0
 11
923.84848165425888
 21
1552.343666064337
 31
0.0
  0
LINE
  5
7D4F
  8
1
 10
910.34848165425876
 20
1644.743666064337
 30
0.0
 11
964.34848165425888
 21
1644.743666064337
 31
0.0
  0
LINE
  5
7D50
  8
2
 10
993.84848165425876
 20
1952.9469467452079
 30
0.0
 11
993.84848165425876
 21
1805.4229082350021
 31
0.0
  0
LINE
  5
7D51
  8
1
 10
993.84848165425876
 20
1792.343666064337
 30
0.0
 11
993.84848165425876
 21
1792.343666064337
 31
0.0
  0
ARC
  5
7D52
  8
1
 10
1473.8484816542591
 20
1467.343666064337
 30
0.0
 40
150.0
 50
239.47306048950711
 51
70.29726973820371
  0
LINE
  5
7D53
  8
1
 10
2265.579500154724
 20
1564.343666064337
 30
0.0
 11
2265.579500154724
 21
1377.343666064337
 31
0.0
  0
LINE
  5
7D54
  8
1
 10
1143.848481654258
 20
1635.543666064337
 30
0.0
 11
1143.848481654258
 21
1317.343666064337
 31
0.0
  0
LINE
  5
7D55
  8
2
 10
1473.8484816542591
 20
1259.3783148244249
 30
0.0
 11
1473.8484816542591
 21
1575.8047660643369
 31
0.0
  0
ARC
  5
7D56
  8
1
 10
1473.8484816542591
 20
1467.343666064337
 30
0.0
 40
100.8
 50
0.0
 51
239.69929999999999
  0
ARC
  5
7D57
  8
1
 10
1473.8484816542591
 20
1467.343666064337
 30
0.0
 40
100.8
 50
0.0
 51
239.69929999999999
  0
ARC
  5
7D58
  8
1
 10
1473.8484816542591
 20
1467.343666064337
 30
0.0
 40
97.0
 50
0.0
 51
242.49639999999999
  0
ARC
  5
7D59
  8
1
 10
1473.8484816542591
 20
1467.343666064337
 30
0.0
 40
97.0
 50
0.0
 51
242.49639999999999
  0
CIRCLE
  5
7D5A
  8
1
 10
1473.8484816542591
 20
1467.343666064337
 30
0.0
 40
82.599999999999994
  0
ARC
  5
7D5B
  8
1
 10
969.84848165425876
 20
1668.343666064337
 30
0.0
 40
308.96488088068128
 50
304.27536477064342
 51
0.0
  0
LINE
  5
7D5C
  8
1
 10
2000.579500154724
 20
1792.343666064337
 30
0.0
 11
2000.579500154724
 21
1317.343666064337
 31
0.0
  0
LINE
  5
7D5D
  8
1
 10
1908.579500154724
 20
1792.343666064337
 30
0.0
 11
1908.579500154724
 21
1317.343666064337
 31
0.0
  0
LINE
  5
7D5E
  8
1
 10
1988.579500154724
 20
1644.9436660643371
 30
0.0
 11
1988.579500154724
 21
1365.743666064337
 31
0.0
  0
LINE
  5
7D5F
  8
1
 10
1938.579500154724
 20
1644.9436660643371
 30
0.0
 11
1938.579500154724
 21
1365.743666064337
 31
0.0
  0
LINE
  5
7D60
  8
1
 10
1993.579500154724
 20
1430.843666064337
 30
0.0
 11
1993.579500154724
 21
1503.843666064337
 31
0.0
  0
LINE
  5
7D61
  8
1
 10
2003.579500154724
 20
1564.343666064337
 30
0.0
 11
2003.579500154724
 21
1377.343666064337
 31
0.0
  0
LINE
  5
7D62
  8
1
 10
1385.8484816542591
 20
1377.343666064337
 30
0.0
 11
1425.8484816542591
 21
1377.343666064337
 31
0.0
  0
LINE
  5
7D63
  8
1
 10
1574.752353122946
 20
1377.343666064337
 30
0.0
 11
1372.9446101855719
 21
1377.343666064337
 31
0.0
  0
LINE
  5
7D64
  8
2
 10
1369.383281654259
 20
1467.343666064337
 30
0.0
 11
1579.951281654259
 21
1467.343666064337
 31
0.0
  0
LINE
  5
7D65
  8
1
 10
1623.8484816542591
 20
1347.343666064337
 30
0.0
 11
1323.8484816542591
 21
1347.343666064337
 31
0.0
  0
LINE
  5
7D66
  8
1
 10
1173.848481654258
 20
1392.343666064337
 30
0.0
 11
1173.848481654258
 21
1317.343666064337
 31
0.0
  0
LINE
  5
7D67
  8
1
 10
1173.848481654258
 20
1322.343666064337
 30
0.0
 11
1143.848481654258
 21
1322.343666064337
 31
0.0
  0
LINE
  5
7D68
  8
1
 10
1173.848481654258
 20
1392.343666064337
 30
0.0
 11
1143.848481654258
 21
1392.343666064337
 31
0.0
  0
LINE
  5
7D69
  8
1
 10
1361.34848165426
 20
1347.343666064337
 30
0.0
 11
1372.9446101855719
 21
1377.343666064337
 31
0.0
  0
LINE
  5
7D6A
  8
1
 10
1323.8484816542591
 20
1317.343666064337
 30
0.0
 11
1323.8484816542591
 21
1347.343666064337
 31
0.0
  0
LINE
  5
7D6B
  8
1
 10
1403.8484816542591
 20
1372.9771660643371
 30
0.0
 11
1403.8484816542591
 21
1389.880566064337
 31
0.0
  0
LINE
  5
7D6C
  8
1
 10
1385.8484816542591
 20
1377.343666064337
 30
0.0
 11
1385.8484816542591
 21
1385.343666064337
 31
0.0
  0
LINE
  5
7D6D
  8
1
 10
1391.701981654259
 20
1408.9263660643369
 30
0.0
 11
1385.8484816542591
 21
1385.343666064337
 31
0.0
  0
LINE
  5
7D6F
  8
1
 10
1586.3484816542591
 20
1347.343666064337
 30
0.0
 11
1574.752353122946
 21
1377.343666064337
 31
0.0
  0
LINE
  5
7D70
  8
1
 10
1429.0179816542591
 20
1381.343666064337
 30
0.0
 11
1518.9723816542589
 21
1381.343666064337
 31
0.0
  0
LINE
  5
7D71
  8
1
 10
1429.0179816542591
 20
1381.343666064337
 30
0.0
 11
1518.9723816542589
 21
1381.343666064337
 31
0.0
  0
LINE
  5
7D72
  8
1
 10
1422.9243816542589
 20
1380.343666064337
 30
0.0
 11
1524.8794816542591
 21
1380.343666064337
 31
0.0
  0
LINE
  5
7D73
  8
1
 10
1422.9243816542589
 20
1380.343666064337
 30
0.0
 11
1524.8794816542591
 21
1380.343666064337
 31
0.0
  0
LINE
  5
7D74
  8
1
 10
1425.8484816542591
 20
1380.316466064337
 30
0.0
 11
1425.8484816542591
 21
1377.343666064337
 31
0.0
  0
ARC
  5
7D75
  8
1
 10
1473.8484816542591
 20
1467.343666064337
 30
0.0
 40
97.0
 50
297.61250000000001
 51
0.0
  0
ARC
  5
7D76
  8
1
 10
1473.8484816542591
 20
1467.343666064337
 30
0.0
 40
100.8
 50
300.3932999999999
 51
0.0
  0
ARC
  5
7D77
  8
1
 10
1473.8484816542591
 20
1467.343666064337
 30
0.0
 40
97.0
 50
297.61250000000001
 51
0.0
  0
ARC
  5
7D78
  8
1
 10
1473.8484816542591
 20
1467.343666064337
 30
0.0
 40
100.8
 50
300.3932999999999
 51
0.0
  0
LINE
  5
7D79
  8
1
 10
1561.8484816542591
 20
1377.343666064337
 30
0.0
 11
1521.8484816542591
 21
1377.343666064337
 31
0.0
  0
LINE
  5
7D7A
  8
1
 10
1543.8484816542591
 20
1372.9771660643371
 30
0.0
 11
1543.8484816542591
 21
1389.880566064337
 31
0.0
  0
LINE
  5
7D7B
  8
1
 10
1521.8484816542591
 20
1380.274666064337
 30
0.0
 11
1521.8484816542591
 21
1377.343666064337
 31
0.0
  0
LINE
  5
7D7C
  8
1
 10
1555.9950816542589
 20
1408.9263660643369
 30
0.0
 11
1561.8484816542591
 21
1385.343666064337
 31
0.0
  0
LINE
  5
7D7D
  8
1
 10
1561.8484816542591
 20
1377.343666064337
 30
0.0
 11
1561.8484816542591
 21
1385.343666064337
 31
0.0
  0
LINE
  5
7D7E
  8
1
 10
1613.8484816542591
 20
1317.343666064337
 30
0.0
 11
1613.8484816542591
 21
1242.343666064337
 31
0.0
  0
LINE
  5
7D7F
  8
1
 10
1623.8484816542591
 20
1317.343666064337
 30
0.0
 11
1623.848481654258
 21
1347.343666064337
 31
0.0
  0
LINE
  5
7D80
  8
1
 10
2003.579500154724
 20
1377.343666064337
 30
0.0
 11
2265.579500154724
 21
1377.343666064337
 31
0.0
  0
LINE
  5
7D81
  8
2
 10
2280.0922656272342
 20
1467.343666064337
 30
0.0
 11
1887.1822583303649
 21
1467.343666064337
 31
0.0
  0
LINE
  5
7D83
  8
1
 10
2023.579500154724
 20
1377.343666064337
 30
0.0
 11
2023.579500154724
 21
1317.343666064337
 31
0.0
  0
LINE
  5
7D84
  8
1
 10
2020.3795001547239
 20
1377.343666064337
 30
0.0
 11
2020.3795001547239
 21
1317.343666064337
 31
0.0
  0
LINE
  5
7D85
  8
1
 10
1908.579500154724
 20
1317.343666064337
 30
0.0
 11
2000.579500154724
 21
1317.343666064337
 31
0.0
  0
LINE
  5
7D86
  8
1
 10
1981.579500154724
 20
1317.343666064337
 30
0.0
 11
1981.579500154724
 21
1242.343666064337
 31
0.0
  0
LINE
  5
7D87
  8
1
 10
1988.579500154724
 20
1365.743666064337
 30
0.0
 11
1938.579500154724
 21
1365.743666064337
 31
0.0
  0
LINE
  5
7D88
  8
1
 10
1993.579500154724
 20
1454.843666064337
 30
0.0
 11
1988.579500154724
 21
1454.843666064337
 31
0.0
  0
ARC
  5
7D89
  8
1
 10
1994.5796001547239
 20
1430.843666064337
 30
0.0
 40
1.0000999999999991
 50
180.0
 51
269.99650000000003
  0
ARC
  5
7D8A
  8
1
 10
2002.579500154724
 20
1428.843666064337
 30
0.0
 40
1.0000999999999991
 50
0.0
 51
89.996500000000054
  0
LINE
  5
7D8B
  8
1
 10
1994.579500154724
 20
1429.843666064337
 30
0.0
 11
2002.579500154724
 21
1429.843666064337
 31
0.0
  0
LINE
  5
7D8C
  8
1
 10
1993.579500154724
 20
1479.843666064337
 30
0.0
 11
1988.579500154724
 21
1479.843666064337
 31
0.0
  0
LINE
  5
7D8D
  8
1
 10
1988.579500154724
 20
1479.843666064337
 30
0.0
 11
1988.579500154724
 21
1454.843666064337
 31
0.0
  0
LINE
  5
7D8E
  8
1
 10
1270.114126738097
 20
1595.5436660643379
 30
0.0
 11
1143.848481654258
 21
1595.5436660643379
 31
0.0
  0
LINE
  5
7D8F
  8
1
 10
1268.9872581738091
 20
1591.0436660643379
 30
0.0
 11
1143.848481654258
 21
1591.043666064337
 31
0.0
  0
LINE
  5
7D90
  8
1
 10
1193.848481654258
 20
1635.543666064337
 30
0.0
 11
1193.848481654258
 21
1595.5436660643379
 31
0.0
  0
LINE
  5
7D91
  8
1
 10
1153.848481654258
 20
1638.743666064337
 30
0.0
 11
1153.848481654258
 21
1635.543666064337
 31
0.0
  0
LINE
  5
7D99
  8
1
 10
2003.579500154724
 20
1564.343666064337
 30
0.0
 11
2265.579500154724
 21
1564.343666064337
 31
0.0
  0
LINE
  5
7D9B
  8
1
 10
1988.579500154724
 20
1755.843666064337
 30
0.0
 11
1988.579500154724
 21
1628.843666064337
 31
0.0
  0
LINE
  5
7D9C
  8
1
 10
1938.579500154724
 20
1755.843666064337
 30
0.0
 11
1938.579500154724
 21
1628.843666064337
 31
0.0
  0
LINE
  5
7D9E
  8
1
 10
2023.579500154724
 20
1635.543666064337
 30
0.0
 11
2023.579500154724
 21
1564.343666064337
 31
0.0
  0
LINE
  5
7D9F
  8
1
 10
1988.579500154724
 20
1568.9436660643371
 30
0.0
 11
1938.579500154724
 21
1568.9436660643371
 31
0.0
  0
LINE
  5
7DA0
  8
1
 10
1938.579500154724
 20
1574.343666064337
 30
0.0
 11
1938.579500154724
 21
1550.343666064337
 31
0.0
  0
LINE
  5
7DA1
  8
1
 10
1993.579500154724
 20
1503.843666064337
 30
0.0
 11
2003.579500154724
 21
1503.843666064337
 31
0.0
  0
LINE
  5
7DA2
  8
1
 10
1988.579500154724
 20
1628.843666064337
 30
0.0
 11
1938.579500154724
 21
1628.843666064337
 31
0.0
  0
LINE
  5
7DA3
  8
1
 10
2013.579500154724
 20
1638.743666064337
 30
0.0
 11
2013.579500154724
 21
1635.543666064337
 31
0.0
  0
LINE
  5
7DA4
  8
1
 10
1908.5795001547251
 20
1792.343666064337
 30
0.0
 11
2000.579500154724
 21
1792.343666064337
 31
0.0
  0
LINE
  5
7DA5
  8
1
 10
1988.579500154724
 20
1755.8436660643381
 30
0.0
 11
1938.579500154724
 21
1755.8436660643381
 31
0.0
  0
LINE
  5
7DC6
  8
1
 10
833.84848165425956
 20
2454.1673120973019
 30
0.0
 11
976.34848165425944
 21
2454.1673120973019
 31
0.0
  0
LINE
  5
7DC7
  8
1
 10
833.84848165426047
 20
2864.1673120973019
 30
0.0
 11
976.34848165425944
 21
2864.1673120973019
 31
0.0
  0
LINE
  5
7DCA
  8
1
 10
1270.4133625349421
 20
2919.1673120973028
 30
0.0
 11
752.84848165426092
 21
2919.1673120973028
 31
0.0
  0
LINE
  5
7DCB
  8
1
 10
1270.4133625349421
 20
3155.1673120973028
 30
0.0
 11
752.84848165426092
 21
3155.1673120973019
 31
0.0
  0
LINE
  5
7DCD
  8
2
 10
1293.879743201624
 20
3037.1673120973019
 30
0.0
 11
744.24936162804352
 21
3037.1673120973019
 31
0.0
  0
LINE
  5
7DCE
  8
1
 10
893.84848165425956
 20
2441.1673120973019
 30
0.0
 11
1623.84848165426
 21
2441.1673120973019
 31
0.0
  0
LINE
  5
7DD5
  8
1
 10
893.84848165425956
 20
2349.1673120973028
 30
0.0
 11
1623.84848165426
 21
2349.1673120973028
 31
0.0
  0
LINE
  5
7DD8
  8
1
 10
833.84848165425956
 20
2454.1673120973019
 30
0.0
 11
833.84848165425956
 21
2864.1673120973019
 31
0.0
  0
LINE
  5
7DD9
  8
2
 10
993.8484816542599
 20
3189.3486921059739
 30
0.0
 11
993.84848165425956
 21
2340.0010088213962
 31
0.0
  0
LINE
  5
7DDB
  8
1
 10
813.84848165426035
 20
2919.1673120973028
 30
0.0
 11
813.84848165426035
 21
2422.1673120973028
 31
0.0
  0
LINE
  5
7DE0
  8
1
 10
813.84848165425944
 20
2422.1673120973019
 30
0.0
 11
893.84848165425956
 21
2422.1673120973019
 31
0.0
  0
POINT
  5
7DE1
  8
1
 10
813.84848165426035
 20
2422.1673120973019
 30
0.0
  0
LINE
  5
7DE2
  8
1
 10
893.84848165425956
 20
2349.1673120973028
 30
0.0
 11
893.84848165425956
 21
2441.1673120973019
 31
0.0
  0
LINE
  5
7DE5
  8
1
 10
1011.348481654259
 20
2919.1673120973019
 30
0.0
 11
1011.348481654259
 21
2429.1673120973019
 31
0.0
  0
LINE
  5
7DE6
  8
1
 10
976.34848165425944
 20
2919.1673120973028
 30
0.0
 11
976.34848165425944
 21
2429.1673120973019
 31
0.0
  0
LINE
  5
7DE7
  8
1
 10
1057.3484816542591
 20
2379.1673120973028
 30
0.0
 11
930.34848165425956
 21
2379.1673120973019
 31
0.0
  0
LINE
  5
7DE8
  8
1
 10
1057.3484816542591
 20
2429.1673120973028
 30
0.0
 11
930.34848165425956
 21
2429.1673120973019
 31
0.0
  0
LINE
  5
7DE9
  8
1
 10
930.34848165425956
 20
2429.1673120973019
 30
0.0
 11
930.34848165425956
 21
2379.1673120973019
 31
0.0
  0
LINE
  5
7DEA
  8
1
 10
1057.3484816542591
 20
2429.1673120973028
 30
0.0
 11
1057.3484816542591
 21
2379.1673120973019
 31
0.0
  0
LINE
  5
7DED
  8
1
 10
749.84848165426035
 20
2892.1673120973019
 30
0.0
 11
749.84848165426035
 21
3182.1673120973019
 31
0.0
  0
LINE
  5
7DEE
  8
1
 10
752.84848165426035
 20
2892.1673120973019
 30
0.0
 11
752.84848165426035
 21
3182.1673120973019
 31
0.0
  0
LINE
  5
7DF0
  8
1
 10
752.84848165426092
 20
2892.1673120973019
 30
0.0
 11
749.84848165426035
 21
2892.1673120973019
 31
0.0
  0
LINE
  5
7DF5
  8
1
 10
752.84848165426092
 20
3182.1673120973019
 30
0.0
 11
749.84848165426035
 21
3182.1673120973019
 31
0.0
  0
POINT
  5
7DF6
  8
1
 10
813.84848165425944
 20
3202.1673120973019
 30
0.0
  0
POINT
  5
7DF7
  8
1
 10
813.84848165425944
 20
3202.1673120973019
 30
0.0
  0
LINE
  5
7DF8
  8
1
 10
813.84848165425944
 20
3202.1673120973019
 30
0.0
 11
813.84848165425944
 21
3155.1673120973028
 31
0.0
  0
LINE
  5
7DFD
  8
1
 10
1153.8484816542591
 20
2454.1673120973019
 30
0.0
 11
1153.8484816542591
 21
2864.1673120973019
 31
0.0
  0
LINE
  5
7DFE
  8
1
 10
1173.8484816542591
 20
2802.1673120973019
 30
0.0
 11
1173.8484816542591
 21
2919.1673120973028
 31
0.0
  0
LINE
  5
7DFF
  8
1
 10
1372.84848165426
 20
2706.1673120973028
 30
0.0
 11
1574.84848165426
 21
2706.1673120973028
 31
0.0
  0
LINE
  5
7E01
  8
1
 10
1372.84848165426
 20
2444.1673120973028
 30
0.0
 11
1574.84848165426
 21
2444.1673120973028
 31
0.0
  0
LINE
  5
7E03
  8
1
 10
1173.8484816542591
 20
2802.1673120973028
 30
0.0
 11
1613.8484816542591
 21
2802.1673120973028
 31
0.0
  0
LINE
  5
7E04
  8
1
 10
1391.2484816542601
 20
2379.1673120973019
 30
0.0
 11
1556.4484816542599
 21
2379.1673120973019
 31
0.0
  0
LINE
  5
7E05
  8
1
 10
1391.2484816542601
 20
2429.1673120973028
 30
0.0
 11
1556.4484816542599
 21
2429.1673120973028
 31
0.0
  0
LINE
  5
7E06
  8
1
 10
1372.84848165426
 20
2706.1673120973028
 30
0.0
 11
1372.84848165426
 21
2444.1673120973028
 31
0.0
  0
LINE
  5
7E0A
  8
1
 10
1391.2484816542601
 20
2429.1673120973028
 30
0.0
 11
1391.2484816542601
 21
2379.1673120973019
 31
0.0
  0
LINE
  5
7E0B
  8
1
 10
1574.84848165426
 20
2706.1673120973028
 30
0.0
 11
1574.84848165426
 21
2444.1673120973028
 31
0.0
  0
LINE
  5
7E0C
  8
2
 10
1473.84848165426
 20
2729.8164461027532
 30
0.0
 11
1473.84848165426
 21
2336.7034582239148
 31
0.0
  0
LINE
  5
7E0F
  8
1
 10
1510.34848165426
 20
2434.1673120973028
 30
0.0
 11
1437.34848165426
 21
2434.1673120973028
 31
0.0
  0
LINE
  5
7E10
  8
1
 10
1461.84848165426
 20
2379.1673120973028
 30
0.0
 11
1485.84848165426
 21
2379.1673120973028
 31
0.0
  0
LINE
  5
7E11
  8
1
 10
1461.34848165426
 20
2429.1673120973028
 30
0.0
 11
1486.34848165426
 21
2429.1673120973028
 31
0.0
  0
LINE
  5
7E12
  8
1
 10
1437.34848165426
 20
2434.1673120973028
 30
0.0
 11
1437.34848165426
 21
2444.1673120973028
 31
0.0
  0
LINE
  5
7E13
  8
1
 10
1461.34848165426
 20
2434.1673120973028
 30
0.0
 11
1461.34848165426
 21
2429.1673120973028
 31
0.0
  0
LINE
  5
7E14
  8
1
 10
1486.34848165426
 20
2434.1673120973028
 30
0.0
 11
1486.34848165426
 21
2429.1673120973028
 31
0.0
  0
LINE
  5
7E15
  8
1
 10
1556.4484816542599
 20
2429.1673120973028
 30
0.0
 11
1556.4484816542599
 21
2379.1673120973019
 31
0.0
  0
LINE
  5
7E16
  8
1
 10
1511.34848165426
 20
2435.1673120973028
 30
0.0
 11
1511.34848165426
 21
2443.1673120973028
 31
0.0
  0
ARC
  5
7E17
  8
1
 10
1510.34848165426
 20
2435.167412097303
 30
0.0
 40
1.0000999999999991
 50
270.0
 51
359.99650000000003
  0
ARC
  5
7E18
  8
1
 10
1512.34848165426
 20
2443.1673120973028
 30
0.0
 40
1.0000999999999991
 50
90.0
 51
179.9965
  0
LINE
  5
7E1A
  8
1
 10
1623.84848165426
 20
2349.1673120973028
 30
0.0
 11
1623.84848165426
 21
2441.1673120973019
 31
0.0
  0
LINE
  5
7E1B
  8
1
 10
1613.8484816542609
 20
2441.1673120973019
 30
0.0
 11
1613.8484816542609
 21
2802.1673120973028
 31
0.0
  0
POINT
  5
7E1C
  8
1
 10
1613.8484816542609
 20
2802.1673120973028
 30
0.0
  0
LINE
  5
7E1D
  8
1
 10
1270.4133625349421
 20
2919.1673120973028
 30
0.0
 11
1270.4133625349421
 21
3155.1673120973028
 31
0.0
  0
LINE
  5
7E1F
  8
1
 10
1173.8484816542591
 20
3202.1673120973019
 30
0.0
 11
813.84848165425944
 21
3202.1673120973019
 31
0.0
  0
POINT
  5
7E21
  8
1
 10
1173.8484816542591
 20
3202.1673120973019
 30
0.0
  0
LINE
  5
7E22
  8
1
 10
1173.8484816542591
 20
3155.1673120973028
 30
0.0
 11
1173.8484816542591
 21
3202.1673120973019
 31
0.0
  0
LINE
  5
7E23
  8
1
 10
2478.579500154724
 20
1694.7324963892929
 30
0.0
 11
2478.579500154724
 21
1329.7324963892929
 31
0.0
  0
LINE
  5
7E24
  8
1
 10
2714.5795001547249
 20
1694.7324963892929
 30
0.0
 11
2714.579500154724
 21
1329.7324963892929
 31
0.0
  0
LINE
  5
7E25
  8
1
 10
2716.5795001547249
 20
1694.7324963892929
 30
0.0
 11
2716.579500154724
 21
1329.7324963892929
 31
0.0
  0
LINE
  5
7E26
  8
1
 10
2476.5795001547231
 20
1694.7324963892929
 30
0.0
 11
2476.5795001547231
 21
1329.7324963892929
 31
0.0
  0
LINE
  5
7E27
  8
1
 10
2451.579500154724
 20
1689.954835739381
 30
0.0
 11
2451.579500154724
 21
1317.343666064337
 31
0.0
  0
LINE
  5
7E28
  8
1
 10
2741.579500154724
 20
1694.7324963892929
 30
0.0
 11
2741.579500154724
 21
1317.343666064337
 31
0.0
  0
LINE
  5
7E29
  8
1
 10
2716.5795001547249
 20
1714.9548357393819
 30
0.0
 11
2716.5795001547249
 21
1456.3847618365071
 31
0.0
  0
LINE
  5
7E2A
  8
1
 10
2476.5795001547249
 20
1714.9548357393819
 30
0.0
 11
2476.5795001547231
 21
1456.3847618365071
 31
0.0
  0
LINE
  5
7E2B
  8
1
 10
2714.5795001547249
 20
1714.9548357393819
 30
0.0
 11
2714.579500154724
 21
1456.3847618365071
 31
0.0
  0
LINE
  5
7E2C
  8
1
 10
2478.5795001547249
 20
1714.9548357393819
 30
0.0
 11
2478.579500154724
 21
1456.3847618365071
 31
0.0
  0
LINE
  5
7E2D
  8
2
 10
2596.579500154724
 20
1969.27468468251
 30
0.0
 11
2596.5795001547231
 21
1242.343666064337
 31
0.0
  0
LINE
  5
7E2E
  8
1
 10
2413.5795001547231
 20
1634.243666064337
 30
0.0
 11
2413.5795001547231
 21
1317.343666064337
 31
0.0
  0
LINE
  5
7E30
  8
1
 10
2478.579500154724
 20
1339.7324963892929
 30
0.0
 11
2714.579500154724
 21
1339.7324963892929
 31
0.0
  0
LINE
  5
7E31
  8
1
 10
2476.5795001547231
 20
1329.7324963892929
 30
0.0
 11
2478.579500154724
 21
1329.7324963892929
 31
0.0
  0
LINE
  5
7E32
  8
1
 10
2714.579500154724
 20
1329.7324963892929
 30
0.0
 11
2716.579500154724
 21
1329.7324963892929
 31
0.0
  0
LINE
  5
7E34
  8
1
 10
2761.5795001547231
 20
1317.343666064337
 30
0.0
 11
2761.5795001547231
 21
1242.343666064337
 31
0.0
  0
DIMENSION
  5
7E36
  8
3
  2
*D6
 10
2714.579500154724
 20
1974.519093299059
 30
0.0
 11
2596.579500154724
 21
2012.0190932990599
 31
0.0
 70
     0
 13
2478.579500154724
 23
1929.3085469450191
 33
0.0
 14
2714.579500154724
 24
1929.3085469450191
 34
0.0
1001
ACAD
1000
DSTYLE
1002
{
1070
   287
1070
     3
1070
    40
1040
15.0
1070
   143
1040
0.039
1070
   172
1070
     1
1070
   271
1070
     0
1070
   279
1070
     0
1070
   288
1070
     1
1002
}
  0
LINE
  5
7E37
  8
1
 10
2716.5795001547249
 20
1694.7324963892929
 30
0.0
 11
2741.579500154724
 21
1694.7324963892929
 31
0.0
  0
ARC
  5
7E38
  8
1
 10
2724.579500154724
 20
1857.843692828563
 30
0.0
 40
4.0
 50
180.0
 51
270.0
  0
ARC
  5
7E39
  8
1
 10
2718.579500154724
 20
1873.843692828563
 30
0.0
 40
2.0
 50
0.0
 51
90.0
  0
ARC
  5
7E3A
  8
1
 10
2718.579500154724
 20
1511.843666064337
 30
0.0
 40
2.0
 50
270.0
 51
0.0
  0
ARC
  5
7E3B
  8
1
 10
2724.579500154724
 20
1527.843666064337
 30
0.0
 40
4.0
 50
90.0
 51
180.0
  0
LINE
  5
7E3C
  8
1
 10
2717.579500154724
 20
1875.843692828563
 30
0.0
 11
2717.579500154724
 21
1689.954835739381
 31
0.0
  0
LINE
  5
7E3D
  8
1
 10
2478.579500154724
 20
1929.3085469450191
 30
0.0
 11
2478.579500154724
 21
1714.954835739381
 31
0.0
  0
LINE
  5
7E3E
  8
1
 10
2714.579500154724
 20
1929.3085469450191
 30
0.0
 11
2714.579500154724
 21
1714.9548357393819
 31
0.0
  0
LINE
  5
7E3F
  8
1
 10
2476.5795001547231
 20
1929.3085469450191
 30
0.0
 11
2476.5795001547231
 21
1714.954835739381
 31
0.0
  0
LINE
  5
7E40
  8
1
 10
2716.579500154724
 20
1929.3085469450191
 30
0.0
 11
2716.579500154724
 21
1714.9548357393819
 31
0.0
  0
POLYLINE
  5
7E43
  8
1
 66
     1
 10
0.0
 20
0.0
 30
0.0
 70
     1
  0
VERTEX
  5
87CB
  8
1
 10
2413.5795001547231
 20
1595.543666064337
 30
0.0
  0
VERTEX
  5
87CC
  8
1
 10
2413.5795001547231
 20
1635.543666064337
 30
0.0
  0
VERTEX
  5
87CD
  8
1
 10
2415.5795001547231
 20
1635.543666064337
 30
0.0
 42
-0.4142135623730951
  0
VERTEX
  5
87CE
  8
1
 10
2418.5795001547231
 20
1632.543666064337
 30
0.0
  0
VERTEX
  5
87CF
  8
1
 10
2418.5795001547231
 20
1605.043666064337
 30
0.0
 42
0.4142135623730951
  0
VERTEX
  5
87D0
  8
1
 10
2423.0795001547231
 20
1600.543666064337
 30
0.0
  0
VERTEX
  5
87D1
  8
1
 10
2450.5795001547231
 20
1600.543666064337
 30
0.0
 42
-0.4142135623730951
  0
VERTEX
  5
87D2
  8
1
 10
2453.5795001547231
 20
1597.543666064337
 30
0.0
  0
VERTEX
  5
87D3
  8
1
 10
2453.5795001547231
 20
1595.543666064337
 30
0.0
  0
SEQEND
  5
87D4
  8
1
  0
LINE
  5
7E4E
  8
1
 10
2413.5795001547231
 20
1634.243666064337
 30
0.0
 11
2413.5795001547231
 21
1584.243666064337
 31
0.0
  0
LINE
  5
7E4F
  8
1
 10
2413.5795001547231
 20
1634.243666064338
 30
0.0
 11
2413.5795001547231
 21
1594.243666064338
 31
0.0
  0
LINE
  5
7E50
  8
1
 10
2426.579500154724
 20
1595.543666064337
 30
0.0
 11
2476.5795001547249
 21
1595.543666064337
 31
0.0
  0
LINE
  5
7E51
  8
1
 10
2426.579500154724
 20
1589.543666064337
 30
0.0
 11
2476.5795001547249
 21
1589.543666064337
 31
0.0
  0
LINE
  5
7E52
  8
1
 10
2426.579500154724
 20
1589.543666064337
 30
0.0
 11
2426.579500154724
 21
1594.243666064337
 31
0.0
  0
LINE
  5
7E53
  8
1
 10
2426.579500154724
 20
1595.543666064337
 30
0.0
 11
2426.579500154724
 21
1589.543666064337
 31
0.0
  0
LINE
  5
7E54
  8
1
 10
2451.579500154724
 20
1689.954835739381
 30
0.0
 11
2476.5795001547249
 21
1689.954835739381
 31
0.0
  0
LINE
  5
7E55
  8
1
 10
2476.5795001547249
 20
1709.843666064337
 30
0.0
 11
1988.579500154724
 21
1709.843666064337
 31
0.0
  0
LINE
  5
7E57
  8
1
 10
2451.579500154724
 20
1674.843666064337
 30
0.0
 11
1988.579500154724
 21
1674.843666064337
 31
0.0
  0
LINE
  5
7E59
  8
1
 10
2423.5795001547231
 20
1638.743666064337
 30
0.0
 11
2423.5795001547222
 21
1635.543666064337
 31
0.0
  0
LINE
  5
7E5C
  8
1
 10
2717.579500154724
 20
1509.843666064337
 30
0.0
 11
2717.579500154724
 21
1689.954835739381
 31
0.0
  0
LINE
  5
7E5D
  8
1
 10
2718.579500154724
 20
1509.843666064337
 30
0.0
 11
2717.579500154724
 21
1509.843666064337
 31
0.0
  0
LINE
  5
7E5E
  8
1
 10
2478.579500154724
 20
1915.302570292167
 30
0.0
 11
2714.579500154724
 21
1915.302570292167
 31
0.0
  0
LINE
  5
7E5F
  8
1
 10
2476.5795001547231
 20
1929.3085469450191
 30
0.0
 11
2478.579500154724
 21
1929.3085469450191
 31
0.0
  0
LINE
  5
7E60
  8
1
 10
2714.579500154724
 20
1929.3085469450191
 30
0.0
 11
2716.579500154724
 21
1929.308546945018
 31
0.0
  0
LINE
  5
7E61
  8
1
 10
2718.579500154724
 20
1875.843692828563
 30
0.0
 11
2717.579500154724
 21
1875.843692828563
 31
0.0
  0
LINE
  5
7E62
  8
1
 10
2720.579500154724
 20
1873.843692828563
 30
0.0
 11
2720.579500154724
 21
1517.7176212622101
 31
0.0
  0
DIMENSION
  5
7E63
  8
3
  2
*D7
 10
2870.5718532876908
 20
1534.843666064337
 30
0.0
 11
2870.5718532876908
 21
1691.0127839511911
 31
0.0
 70
   128
 13
2742.5795001547231
 23
1849.843666064337
 33
0.0
 14
2742.5795001547231
 24
1534.843666064337
 34
0.0
 50
90.0
1001
ACAD
1000
DSTYLE
1002
{
1070
   287
1070
     3
1070
     3
1000
φ<>
1070
    40
1040
15.0
1070
   143
1040
0.039
1070
   172
1070
     1
1070
   271
1070
     0
1070
   279
1070
     0
1070
   288
1070
     1
1002
}
  0
LINE
  5
7E64
  8
1
 10
2742.5795001547231
 20
1534.843666064337
 30
0.0
 11
2742.5795001547231
 21
1850.843692828563
 31
0.0
  0
LINE
  5
7E65
  8
1
 10
2720.579500154724
 20
1527.843666064337
 30
0.0
 11
2720.579500154724
 21
1511.843666064337
 31
0.0
  0
LINE
  5
7E66
  8
1
 10
2740.579500154724
 20
1531.843666064337
 30
0.0
 11
2724.579500154724
 21
1531.843666064337
 31
0.0
  0
ARC
  5
7E67
  8
1
 10
2740.579500154724
 20
1533.843666064337
 30
0.0
 40
2.0
 50
270.0
 51
0.0
  0
LINE
  5
7E68
  8
1
 10
2742.5795001547231
 20
1534.843666064337
 30
0.0
 11
2742.5795001547231
 21
1533.843666064337
 31
0.0
  0
LINE
  5
7E69
  8
1
 10
2720.579500154724
 20
1857.843692828563
 30
0.0
 11
2720.579500154724
 21
1873.843692828563
 31
0.0
  0
ARC
  5
7E6A
  8
1
 10
2740.579500154724
 20
1851.843692828563
 30
0.0
 40
2.0
 50
0.0
 51
90.0
  0
LINE
  5
7E6B
  8
1
 10
2740.579500154724
 20
1853.843692828563
 30
0.0
 11
2724.579500154724
 21
1853.843692828563
 31
0.0
  0
LINE
  5
80BA
  8
4
 10
2775.0
 20
750.0
 30
0.0
 11
2775.0
 21
450.0
 31
0.0
  0
LINE
  5
80BB
  8
4
 10
1725.0
 20
750.0
 30
0.0
 11
1725.0
 21
450.0
 31
0.0
  0
LINE
  5
80BC
  8
4
 10
975.0
 20
750.0
 30
0.0
 11
975.0
 21
450.0
 31
0.0
  0
LINE
  5
80BF
  8
4
 10
975.0
 20
450.0
 30
0.0
 11
2775.0
 21
450.0
 31
0.0
  0
LINE
  5
80C0
  8
4
 10
975.0
 20
600.0
 30
0.0
 11
2775.0
 21
600.0
 31
0.0
  0
TEXT
  5
80C1
  8
4
 10
1032.753121270352
 20
647.31453879991932
 30
0.0
 40
75.0
  1
機器名称
  0
TEXT
  5
80C2
  8
4
 10
1029.3871590371959
 20
482.46773509801642
 30
0.0
 40
75.0
  1
機器型番
  0
TEXT
  5
80C3
  8
4
 10
1725.7019222260069
 20
634.0913930483091
 30
0.0
 40
67.5
  1
ミツヤリミットロ－ﾄﾞファン
  0
TEXT
  5
80C4
  8
4
 10
1779.9817433782209
 20
475.739376419915
 30
0.0
 40
75.0
  1
LL#2-1
  0
TEXT
  5
80C6
  8
4
 10
1213.936404756736
 20
3575.1432619987731
 30
0.0
 40
80.999999999999986
  1
床置ベット
  0
TEXT
  5
80C7
  8
4
 10
444.25138999416959
 20
3800.8214642989469
 30
0.0
 40
108.0
  1
遠心式片吸込片持リミットロ－ﾄﾞファン
  0
LINE
  5
80C8
  8
4
 10
375.0
 20
3704.1131313972069
 30
0.0
 11
2775.0
 21
3704.1131313972069
 31
0.0
  0
LINE
  5
80C9
  8
4
 10
375.0
 20
4004.1131313972069
 30
0.0
 11
2775.0
 21
4004.1131313972069
 31
0.0
  0
LINE
  5
80CA
  8
4
 10
975.0
 20
750.0
 30
0.0
 11
2775.0
 21
750.0
 31
0.0
  0
LINE
  5
80CB
  8
4
 10
375.0
 20
4004.1131313972069
 30
0.0
 11
375.0
 21
3704.1131313972069
 31
0.0
  0
TEXT
  5
80CC
  8
4
 10
516.86986213354965
 20
3573.4792163195152
 30
0.0
 40
80.999999999999986
  1
右回転左横向
  0
TEXT
  5
80CD
  8
4
 10
2203.4543388739339
 20
4059.0916222429628
 30
0.0
 40
84.000000000000014
  1
No.
  0
TEXT
  5
80CE
  8
4
 10
1966.944093900019
 20
3575.1432619987731
 30
0.0
 40
80.999999999999986
  1
縮尺：1/15
  0
LINE
  5
80CF
  8
4
 10
2775.0
 20
4004.1131313972069
 30
0.0
 11
2775.0
 21
3704.1131313972069
 31
0.0
  0
LINE
  5
80D0
  8
4
 10
3150.0
 20
4425.0
 30
0.0
 11
3150.0
 21
4425.0
 31
0.0
  0
LINE
  5
80D1
  8
4
 10
2160.9261335397969
 20
4021.895374688102
 30
0.0
 11
2160.9261335397969
 21
4179.9783923246277
 31
0.0
  0
LINE
  5
80D2
  8
4
 10
2160.9261335397969
 20
4179.9783923246277
 30
0.0
 11
2775.0
 21
4179.9783923246277
 31
0.0
  0
LINE
  5
80D3
  8
4
 10
2775.0
 20
4179.9783923246277
 30
0.0
 11
2775.0
 21
4021.895374688102
 31
0.0
  0
LINE
  5
80D4
  8
4
 10
2775.0
 20
4021.895374688102
 30
0.0
 11
2160.9261335397969
 21
4021.895374688102
 31
0.0
  0
LINE
  5
80D5
  8
4
 10
0.0
 20
0.0
 30
0.0
 11
0.0
 21
4425.0
 31
0.0
  0
LINE
  5
80D6
  8
4
 10
0.0
 20
4425.0
 30
0.0
 11
3150.0
 21
4425.0
 31
0.0
  0
LINE
  5
80D7
  8
4
 10
3150.0
 20
4425.0
 30
0.0
 11
3150.0
 21
0.0
 31
0.0
  0
LINE
  5
80D8
  8
4
 10
3150.0
 20
0.0
 30
0.0
 11
0.0
 21
0.0
 31
0.0
  0
DIMENSION
  5
856E
  8
3
  2
*D9
 10
497.85898223561549
 20
1918.302570292167
 30
0.0
 11
460.3589822356152
 21
1805.3231181782519
 31
0.0
 70
     0
 13
737.38835530377332
 23
1692.343666064337
 33
0.0
 14
1012.613434238949
 24
1918.302570292167
 34
0.0
 50
90.0
1001
ACAD
1000
DSTYLE
1002
{
1070
   287
1070
     4
1070
    40
1040
15.0
1070
    75
1070
     1
1070
   143
1040
0.039
1070
   172
1070
     1
1070
   271
1070
     0
1070
   279
1070
     1
1070
   288
1070
     1
1002
}
  0
DIMENSION
  5
8608
  8
3
  2
*D10
 10
1613.8484816542591
 20
2075.8761985293818
 30
0.0
 11
1164.3935473050799
 21
2075.8761985293818
 31
0.0
 70
   128
 13
748.84848165425876
 23
1694.7324963892929
 33
0.0
 14
1613.8484816542591
 24
1317.343666064337
 34
0.0
1001
ACAD
1000
DSTYLE
1002
{
1070
   287
1070
     3
1070
    40
1040
15.0
1070
   143
1040
0.039
1070
   172
1070
     1
1070
   271
1070
     0
1070
   279
1070
     0
1070
   288
1070
     1
1002
}
  0
DIMENSION
  5
8613
  8
3
  2
*D11
 10
1908.579500154724
 20
2061.6224901567871
 30
0.0
 11
2260.9227287666099
 21
2061.6224901567871
 31
0.0
 70
   128
  1
MAX\P760
 13
2596.579500154724
 23
2041.31610839168
 33
0.0
 14
1908.579500154724
 24
1792.343666064337
 34
0.0
1001
ACAD
1000
DSTYLE
1002
{
1070
   287
1070
     3
1070
    40
1040
15.0
1070
   143
1040
0.039
1070
   172
1070
     1
1070
   271
1070
     0
1070
   279
1070
     0
1070
   288
1070
     1
1002
}
  0
DIMENSION
  5
864F
  8
3
  2
*D12
 10
1173.8484816542591
 20
3310.0695386331749
 30
0.0
 11
998.76414667370045
 21
3310.0695386331749
 31
0.0
 70
   128
 13
813.84848165425944
 23
3202.1673120973019
 33
0.0
 14
1173.8484816542591
 24
3202.1673120973019
 34
0.0
1001
ACAD
1000
DSTYLE
1002
{
1070
   287
1070
     3
1070
    40
1040
15.0
1070
   143
1040
0.039
1070
   172
1070
     1
1070
   271
1070
     0
1070
   279
1070
     0
1070
   288
1070
     1
1002
}
  0
DIMENSION
  5
865B
  8
3
  2
*D13
 10
1613.8484816542609
 20
3310.0695386331749
 30
0.0
 11
1393.84848165426
 21
3347.5695386331749
 31
0.0
 70
     0
 13
1173.8484816542591
 23
3202.1673120973019
 33
0.0
 14
1613.8484816542609
 24
2802.1673120973028
 34
0.0
1001
ACAD
1000
DSTYLE
1002
{
1070
   287
1070
     4
1070
    40
1040
15.0
1070
    75
1070
     1
1070
   143
1040
0.039
1070
   172
1070
     1
1070
   271
1070
     0
1070
   279
1070
     1
1070
   288
1070
     1
1002
}
  0
DIMENSION
  5
8668
  8
3
  2
*D14
 10
1745.6341239353169
 20
2422.1673120973028
 30
0.0
 11
1745.6341239353169
 21
2610.6396561645811
 31
0.0
 70
   128
 13
1613.8484816542609
 23
2802.1673120973028
 33
0.0
 14
1613.8484816542609
 24
2422.1673120973028
 34
0.0
 50
90.0
1001
ACAD
1000
DSTYLE
1002
{
1070
   287
1070
     3
1070
    40
1040
15.0
1070
   143
1040
0.039
1070
   172
1070
     1
1070
   271
1070
     0
1070
   279
1070
     0
1070
   288
1070
     1
1002
}
  0
DIMENSION
  5
8680
  8
3
  2
*D15
 10
690.93655274242553
 20
2422.1673120973019
 30
0.0
 11
690.93655274242519
 21
2833.0525028885381
 31
0.0
 70
   128
 13
813.84848165425944
 23
3202.1673120973019
 33
0.0
 14
813.84848165426035
 24
2422.1673120973019
 34
0.0
 50
90.0
1001
ACAD
1000
DSTYLE
1002
{
1070
   287
1070
     3
1070
    40
1040
15.0
1070
   143
1040
0.039
1070
   172
1070
     1
1070
   271
1070
     0
1070
   279
1070
     0
1070
   288
1070
     1
1002
}
  0
LINE
  5
86E7
  8
1
 10
1011.348481654259
 20
2864.1673120973019
 30
0.0
 11
1153.84848165426
 21
2864.1673120973019
 31
0.0
  0
LINE
  5
86E8
  8
1
 10
1011.348481654259
 20
2454.1673120973028
 30
0.0
 11
1153.8484816542591
 21
2454.1673120973019
 31
0.0
  0
DIMENSION
  5
8701
  8
3
  2
*D16
 10
2717.579500154724
 20
2061.6224901567871
 30
0.0
 11
2657.079500154724
 21
2101.265475871056
 31
0.0
 70
   128
 13
2596.579500154724
 23
2041.31610839168
 33
0.0
 14
2717.579500154724
 24
1875.843692828563
 34
0.0
1001
ACAD
1000
DSTYLE
1002
{
1070
   288
1070
     1
1070
   172
1070
     1
1070
    75
1070
     1
1070
    40
1040
15.0
1070
   271
1070
     0
1070
   143
1040
0.039
1002
}
  0
DIMENSION
  5
8730
  8
3
  2
*D17
 10
993.84848165425899
 20
1120.201598598107
 30
0.0
 11
903.84848165425899
 21
1157.701598598107
 31
0.0
 70
     0
 13
813.84848165425876
 23
1242.343666064337
 33
0.0
 14
993.84848165425899
 24
1242.343666064337
 34
0.0
1001
ACAD
1000
DSTYLE
1002
{
1070
   287
1070
     3
1070
    40
1040
15.0
1070
   143
1040
0.039
1070
   172
1070
     1
1070
   271
1070
     0
1070
   279
1070
     0
1002
}
  0
DIMENSION
  5
873D
  8
3
  2
*D18
 10
1613.8484816542591
 20
1120.201598598107
 30
0.0
 11
1303.8484816542591
 21
1157.701598598107
 31
0.0
 70
     0
 13
993.84848165425899
 23
1242.343666064337
 33
0.0
 14
1613.8484816542591
 24
1242.343666064337
 34
0.0
1001
ACAD
1000
DSTYLE
1002
{
1070
   287
1070
     3
1070
    40
1040
15.0
1070
   143
1040
0.039
1070
   172
1070
     1
1070
   271
1070
     0
1070
   279
1070
     0
1002
}
  0
DIMENSION
  5
874A
  8
3
  2
*D19
 10
2596.5795001547231
 20
1120.201598598107
 30
0.0
 11
2289.0795001547231
 21
1157.701598598107
 31
0.0
 70
     0
 13
1981.579500154724
 23
1242.343666064337
 33
0.0
 14
2596.5795001547231
 24
1242.343666064337
 34
0.0
1001
ACAD
1000
DSTYLE
1002
{
1070
   287
1070
     3
1070
    40
1040
15.0
1070
   143
1040
0.039
1070
   172
1070
     1
1070
   271
1070
     0
1070
   279
1070
     0
1002
}
  0
DIMENSION
  5
8759
  8
3
  2
*D20
 10
2761.5795001547231
 20
1120.201598598107
 30
0.0
 11
2679.0795001547231
 21
1157.701598598107
 31
0.0
 70
     0
 13
2596.5795001547231
 23
1242.343666064337
 33
0.0
 14
2761.5795001547231
 24
1242.343666064337
 34
0.0
1001
ACAD
1000
DSTYLE
1002
{
1070
   287
1070
     3
1070
    40
1040
15.0
1070
   143
1040
0.039
1070
   172
1070
     1
1070
   271
1070
     0
1070
   279
1070
     0
1002
}
  0
DIMENSION
  5
8766
  8
3
  2
*D21
 10
373.55532059188772
 20
1242.343666064337
 30
0.0
 11
336.05532059188749
 21
1580.3231181782519
 31
0.0
 70
     0
 13
1005.11343423895
 23
1918.302570292167
 33
0.0
 14
813.84848165425876
 24
1242.343666064337
 34
0.0
 50
90.0
1001
ACAD
1000
DSTYLE
1002
{
1070
   287
1070
     3
1070
    40
1040
15.0
1070
   143
1040
0.039
1070
   172
1070
     1
1070
   271
1070
     0
1070
   279
1070
     0
1002
}
  0
ENDSEC
  0
EOF
