  0
SECTION
  2
HEADER
  9
$ACADVER
  1
AC1009
  9
$INSBASE
 10
0.0
 20
0.0
 30
0.0
  9
$EXTMIN
 10
0.0
 20
0.0
 30
0.0
  9
$EXTMAX
 10
3150.0
 20
4425.0
 30
0.0
  9
$LIMMIN
 10
0.0
 20
0.0
  9
$LIMMAX
 10
297.0
 20
210.0
  9
$ORTHOMODE
 70
     0
  9
$REGENMODE
 70
     1
  9
$FILLMODE
 70
     0
  9
$QTEXTMODE
 70
     0
  9
$MIRRTEXT
 70
     1
  9
$DRAGMODE
 70
     2
  9
$LTSCALE
 40
100.0
  9
$OSMODE
 70
    37
  9
$ATTMODE
 70
     1
  9
$TEXTSIZE
 40
180.0
  9
$TRACEWID
 40
0.05
  9
$TEXTSTYLE
  7
STANDARD
  9
$CLAYER
  8
3
  9
$CELTYPE
  6
BYLAYER
  9
$CECOLOR
 62
   256
  9
$DIMSCALE
 40
15.0
  9
$DIMASZ
 40
2.0
  9
$DIMEXO
 40
0.5
  9
$DIMDLI
 40
10.0
  9
$DIMRND
 40
0.0
  9
$DIMDLE
 40
0.0
  9
$DIMEXE
 40
1.0
  9
$DIMTP
 40
1.0
  9
$DIMTM
 40
1.0
  9
$DIMTXT
 40
3.0
  9
$DIMCEN
 40
0.0
  9
$DIMTSZ
 40
0.0
  9
$DIMTOL
 70
     0
  9
$DIMLIM
 70
     0
  9
$DIMTIH
 70
     0
  9
$DIMTOH
 70
     0
  9
$DIMSE1
 70
     0
  9
$DIMSE2
 70
     0
  9
$DIMTAD
 70
     1
  9
$DIMZIN
 70
     8
  9
$DIMBLK
  1

  9
$DIMASO
 70
     1
  9
$DIMSHO
 70
     1
  9
$DIMPOST
  1

  9
$DIMAPOST
  1

  9
$DIMALT
 70
     0
  9
$DIMALTD
 70
     2
  9
$DIMALTF
 40
0.039
  9
$DIMLFAC
 40
1.0
  9
$DIMTOFL
 70
     1
  9
$DIMTVP
 40
0.0
  9
$DIMTIX
 70
     0
  9
$DIMSOXD
 70
     0
  9
$DIMSAH
 70
     1
  9
$DIMBLK1
  1
OPEN
  9
$DIMBLK2
  1
OPEN
  9
$DIMSTYLE
  2
IGA
  9
$DIMCLRD
 70
     0
  9
$DIMCLRE
 70
     0
  9
$DIMCLRT
 70
     0
  9
$DIMTFAC
 40
10.0
  9
$DIMGAP
 40
1.0
  9
$LUNITS
 70
     2
  9
$LUPREC
 70
     3
  9
$SKETCHINC
 40
0.1
  9
$FILLETRAD
 40
50.0
  9
$AUNITS
 70
     0
  9
$AUPREC
 70
     0
  9
$MENU
  1
acad
  9
$ELEVATION
 40
0.0
  9
$PELEVATION
 40
0.0
  9
$THICKNESS
 40
0.0
  9
$LIMCHECK
 70
     0
  9
$BLIPMODE
 70
     0
  9
$CHAMFERA
 40
0.0
  9
$CHAMFERB
 40
0.0
  9
$SKPOLY
 70
     0
  9
$TDCREATE
 40
2451019.5994862262
  9
$TDUPDATE
 40
2454953.637802002
  9
$TDINDWG
 40
0.0881189468
  9
$TDUSRTIMER
 40
0.0881189468
  9
$USRTIMER
 70
     1
  9
$ANGBASE
 50
0.0
  9
$ANGDIR
 70
     0
  9
$PDMODE
 70
     0
  9
$PDSIZE
 40
0.0
  9
$PLINEWID
 40
0.0
  9
$COORDS
 70
     1
  9
$SPLFRAME
 70
     0
  9
$SPLINETYPE
 70
     6
  9
$SPLINESEGS
 70
     8
  9
$ATTDIA
 70
     0
  9
$ATTREQ
 70
     1
  9
$HANDLING
 70
 10241
  9
$HANDSEED
  5
8845
  9
$SURFTAB1
 70
     6
  9
$SURFTAB2
 70
     6
  9
$SURFTYPE
 70
     6
  9
$SURFU
 70
     6
  9
$SURFV
 70
     6
  9
$UCSNAME
  2

  9
$UCSORG
 10
0.0
 20
0.0
 30
0.0
  9
$UCSXDIR
 10
1.0
 20
0.0
 30
0.0
  9
$UCSYDIR
 10
0.0
 20
1.0
 30
0.0
  9
$PUCSNAME
  2

  9
$PUCSORG
 10
0.0
 20
0.0
 30
0.0
  9
$PUCSXDIR
 10
1.0
 20
0.0
 30
0.0
  9
$PUCSYDIR
 10
0.0
 20
1.0
 30
0.0
  9
$USERI1
 70
     0
  9
$USERI2
 70
     0
  9
$USERI3
 70
     0
  9
$USERI4
 70
     0
  9
$USERI5
 70
     0
  9
$USERR1
 40
0.0
  9
$USERR2
 40
0.0
  9
$USERR3
 40
0.0
  9
$USERR4
 40
0.0
  9
$USERR5
 40
0.0
  9
$WORLDVIEW
 70
     1
  9
$SHADEDGE
 70
     3
  9
$SHADEDIF
 70
    70
  9
$TILEMODE
 70
     1
  9
$MAXACTVP
 70
    16
  9
$PLIMCHECK
 70
     0
  9
$PEXTMIN
 10
1.0000000000000000E+020
 20
1.0000000000000000E+020
 30
1.0000000000000000E+020
  9
$PEXTMAX
 10
-1.0000000000000000E+020
 20
-1.0000000000000000E+020
 30
-1.0000000000000000E+020
  9
$PLIMMIN
 10
0.0
 20
0.0
  9
$PLIMMAX
 10
12.0
 20
9.0
  9
$UNITMODE
 70
     0
  9
$VISRETAIN
 70
     0
  9
$PLINEGEN
 70
     0
  9
$PSLTSCALE
 70
     1
  0
ENDSEC
  0
SECTION
  2
TABLES
  0
TABLE
  2
VPORT
 70
     2
  0
VPORT
  2
*ACTIVE
 70
     0
 10
0.0
 20
0.0
 11
1.0
 21
1.0
 12
3051.4079738303221
 22
528.7673981827038
 13
0.0
 23
0.0
 14
10.0
 24
10.0
 15
10.0
 25
10.0
 16
0.0
 26
0.0
 36
1.0
 17
0.0
 27
0.0
 37
0.0
 40
1351.5390892685809
 41
3.1666666666666661
 42
50.0
 43
0.0
 44
0.0
 50
0.0
 51
0.0
 71
     0
 72
   100
 73
     1
 74
     0
 75
     0
 76
     0
 77
     0
 78
     0
  0
ENDTAB
  0
TABLE
  2
LTYPE
 70
     2
  0
LTYPE
  2
CONTINUOUS
 70
     0
  3
Solid line
 72
    65
 73
     0
 40
0.0
  0
LTYPE
  2
CENTER
 70
     0
  3
____ _ ____ _ ____ _ ____ _ ____ _ ____ _ ____ 
 72
    65
 73
     4
 40
2.0
 49
1.25
 49
-0.25
 49
0.25
 49
-0.25
  0
ENDTAB
  0
TABLE
  2
LAYER
 70
     6
  0
LAYER
  2
0
 70
     0
 62
     7
  6
CONTINUOUS
  0
LAYER
  2
3
 70
     0
 62
     2
  6
CONTINUOUS
  0
LAYER
  2
2
 70
     0
 62
     3
  6
CENTER
  0
LAYER
  2
1
 70
     0
 62
     4
  6
CONTINUOUS
  0
LAYER
  2
4
 70
     0
 62
     7
  6
CONTINUOUS
  0
LAYER
  2
DEFPOINTS
 70
     0
 62
     7
  6
CONTINUOUS
  0
ENDTAB
  0
TABLE
  2
STYLE
 70
     1
  0
STYLE
  2
STANDARD
 70
     0
 40
0.0
 41
1.0
 50
0.0
 71
     0
 42
180.0
  3
simplex.shx
  4
extfont.shx
  0
ENDTAB
  0
TABLE
  2
VIEW
 70
     0
  0
ENDTAB
  0
TABLE
  2
UCS
 70
     0
  0
ENDTAB
  0
TABLE
  2
APPID
 70
     1
  0
APPID
  2
ACAD
 70
     0
  0
ENDTAB
  0
TABLE
  2
DIMSTYLE
 70
     1
  0
DIMSTYLE
  2
IGA
 70
     0
  3

  4

  5

  6
OPEN
  7
OPEN
 40
2.0
 41
2.0
 42
0.5
 43
10.0
 44
1.0
 45
0.0
 46
0.0
 47
1.0
 48
1.0
140
3.0
141
0.0
142
0.0
143
0.03937
144
1.0
145
0.0
146
10.0
147
1.0
 71
     0
 72
     0
 73
     0
 74
     0
 75
     0
 76
     0
 77
     1
 78
     8
170
     0
171
     2
172
     0
173
     1
174
     0
175
     0
176
     0
177
     0
178
     0
  0
ENDTAB
  0
ENDSEC
  0
SECTION
  2
BLOCKS
  0
BLOCK
  8
0
  2
$MODEL_SPACE
 70
     0
 10
0.0
 20
0.0
 30
0.0
  3
$MODEL_SPACE
  1

  0
ENDBLK
  5
1B
  8
0
  0
BLOCK
 67
     1
  8
0
  2
$PAPER_SPACE
 70
     0
 10
0.0
 20
0.0
 30
0.0
  3
$PAPER_SPACE
  1

  0
ENDBLK
  5
18
 67
     1
  8
0
  0
BLOCK
  8
0
  2
_OPEN
 70
     0
 10
0.0
 20
0.0
 30
0.0
  3
_OPEN
  1

  0
LINE
  5
7A12
  8
0
  6
BYBLOCK
 62
     0
 10
-1.0
 20
0.1666666666666666
 30
0.0
 11
0.0
 21
0.0
 31
0.0
  0
LINE
  5
7A13
  8
0
  6
BYBLOCK
 62
     0
 10
0.0
 20
0.0
 30
0.0
 11
-1.0
 21
-0.1666666666666666
 31
0.0
  0
LINE
  5
7A14
  8
0
  6
BYBLOCK
 62
     0
 10
0.0
 20
0.0
 30
0.0
 11
-1.0
 21
0.0
 31
0.0
  0
ENDBLK
  5
7A16
  8
0
  0
BLOCK
  8
0
  2
*D1
 70
     1
 10
0.0
 20
0.0
 30
0.0
  3
*D1
  1

  0
LINE
  5
877C
  8
3
 62
     0
 10
1265.6894278515581
 20
1711.73244866562
 30
0.0
 11
1265.6894278515581
 21
2002.5411310641009
 31
0.0
  0
LINE
  5
877D
  8
3
 62
     0
 10
1020.689427851558
 20
1969.946899021535
 30
0.0
 11
1020.689427851558
 21
2002.5411310641009
 31
0.0
  0
LINE
  5
877E
  8
3
 62
     0
 10
1235.6894278515581
 20
1987.5411310641009
 30
0.0
 11
1050.6894278515581
 21
1987.5411310641009
 31
0.0
  0
INSERT
  5
877F
  8
3
 62
     0
  2
_OPEN
 10
1265.6894278515581
 20
1987.5411310641009
 30
0.0
 41
30.0
 42
30.0
 43
30.0
  0
INSERT
  5
8780
  8
3
 62
     0
  2
_OPEN
 10
1020.689427851558
 20
1987.5411310641009
 30
0.0
 41
30.0
 42
30.0
 43
30.0
 50
180.0
  0
TEXT
  8
3
  40
45
  5
8831
  62
0
  72
0
  71
0
 10
1053.19
 20
1945.39
 30
0.000000
  1
245
  0
POINT
  5
8782
  8
DEFPOINTS
 62
     0
 10
1265.6894278515581
 20
1704.23244866562
 30
0.0
  0
POINT
  5
8783
  8
DEFPOINTS
 62
     0
 10
1020.689427851558
 20
1962.446899021535
 30
0.0
  0
POINT
  5
8784
  8
DEFPOINTS
 62
     0
 10
1020.689427851558
 20
1987.5411310641009
 30
0.0
  0
ENDBLK
  5
8451
  8
0
  0
BLOCK
  8
0
  2
*D2
 70
     1
 10
0.0
 20
0.0
 30
0.0
  3
*D2
  1

  0
LINE
  5
8785
  8
3
 62
     0
 10
1273.1894278515581
 20
1350.8436183406641
 30
0.0
 11
1435.5461429612519
 21
1350.8436183406641
 31
0.0
  0
LINE
  5
8786
  8
3
 62
     0
 10
1273.1894278515581
 20
1675.8436183406641
 30
0.0
 11
1435.5461429612519
 21
1675.8436183406641
 31
0.0
  0
LINE
  5
8787
  8
3
 62
     0
 10
1420.5461429612519
 20
1380.8436183406641
 30
0.0
 11
1420.5461429612519
 21
1645.8436183406641
 31
0.0
  0
INSERT
  5
8788
  8
3
 62
     0
  2
_OPEN
 10
1420.5461429612519
 20
1350.8436183406641
 30
0.0
 41
30.0
 42
30.0
 43
30.0
 50
270.0
  0
INSERT
  5
8789
  8
3
 62
     0
  2
_OPEN
 10
1420.5461429612519
 20
1675.8436183406641
 30
0.0
 41
30.0
 42
30.0
 43
30.0
 50
90.0
  0
TEXT
  8
3
  40
45
  5
8832
  62
0
  72
0
  71
0
 10
1293.05
 20
1433.69
 30
0.000000
  1
325
  0
POINT
  5
878B
  8
DEFPOINTS
 62
     0
 10
1265.6894278515581
 20
1350.8436183406641
 30
0.0
  0
POINT
  5
878C
  8
DEFPOINTS
 62
     0
 10
1265.6894278515581
 20
1675.8436183406641
 30
0.0
  0
POINT
  5
878D
  8
DEFPOINTS
 62
     0
 10
1420.5461429612519
 20
1675.8436183406641
 30
0.0
  0
ENDBLK
  5
83DF
  8
0
  0
BLOCK
  8
0
  2
*D3
 70
     1
 10
0.0
 20
0.0
 30
0.0
  3
*D3
  1

  0
LINE
  5
878E
  8
3
 62
     0
 10
1273.1894278515581
 20
1350.8436183406641
 30
0.0
 11
1527.579308077708
 21
1350.8436183406641
 31
0.0
  0
LINE
  5
878F
  8
3
 62
     0
 10
1284.649554202043
 20
1701.843618340665
 30
0.0
 11
1527.579308077708
 21
1701.843618340665
 31
0.0
  0
LINE
  5
8790
  8
3
 62
     0
 10
1512.579308077708
 20
1380.8436183406641
 30
0.0
 11
1512.579308077708
 21
1671.8436183406641
 31
0.0
  0
INSERT
  5
8791
  8
3
 62
     0
  2
_OPEN
 10
1512.579308077708
 20
1350.8436183406641
 30
0.0
 41
30.0
 42
30.0
 43
30.0
 50
270.0
  0
INSERT
  5
8792
  8
3
 62
     0
  2
_OPEN
 10
1512.579308077708
 20
1701.843618340665
 30
0.0
 41
30.0
 42
30.0
 43
30.0
 50
90.0
  0
TEXT
  8
3
  40
45
  5
8833
  62
0
  72
0
  71
0
 10
1385.08
 20
1446.69
 30
0.000000
  1
351
  0
POINT
  5
8794
  8
DEFPOINTS
 62
     0
 10
1265.6894278515581
 20
1350.8436183406641
 30
0.0
  0
POINT
  5
8795
  8
DEFPOINTS
 62
     0
 10
1277.149554202043
 20
1701.843618340665
 30
0.0
  0
POINT
  5
8796
  8
DEFPOINTS
 62
     0
 10
1512.579308077708
 20
1701.843618340665
 30
0.0
  0
ENDBLK
  5
83EA
  8
0
  0
BLOCK
  8
0
  2
*D4
 70
     1
 10
0.0
 20
0.0
 30
0.0
  3
*D4
  1

  0
LINE
  5
8797
  8
3
 62
     0
 10
1284.649554202043
 20
1701.843618340665
 30
0.0
 11
1618.0601098415179
 21
1701.8436183406641
 31
0.0
  0
LINE
  5
8798
  8
3
 62
     0
 10
1208.1894278515581
 20
1251.8436183406641
 30
0.0
 11
1618.0601098415179
 21
1251.8436183406641
 31
0.0
  0
LINE
  5
8799
  8
3
 62
     0
 10
1603.0601098415179
 20
1671.8436183406641
 30
0.0
 11
1603.0601098415179
 21
1281.8436183406641
 31
0.0
  0
INSERT
  5
879A
  8
3
 62
     0
  2
_OPEN
 10
1603.0601098415179
 20
1701.8436183406641
 30
0.0
 41
30.0
 42
30.0
 43
30.0
 50
90.0
  0
INSERT
  5
879B
  8
3
 62
     0
  2
_OPEN
 10
1603.0601098415179
 20
1251.8436183406641
 30
0.0
 41
30.0
 42
30.0
 43
30.0
 50
270.0
  0
TEXT
  8
3
  40
45
  5
8834
  62
0
  72
0
  71
0
 10
1475.56
 20
1397.19
 30
0.000000
  1
450
  0
POINT
  5
879D
  8
DEFPOINTS
 62
     0
 10
1277.149554202043
 20
1701.843618340665
 30
0.0
  0
POINT
  5
879E
  8
DEFPOINTS
 62
     0
 10
1200.6894278515581
 20
1251.8436183406641
 30
0.0
  0
POINT
  5
879F
  8
DEFPOINTS
 62
     0
 10
1603.0601098415179
 20
1251.8436183406641
 30
0.0
  0
ENDBLK
  5
83F5
  8
0
  0
BLOCK
  8
0
  2
*D5
 70
     1
 10
0.0
 20
0.0
 30
0.0
  3
*D5
  1

  0
LINE
  5
87A0
  8
3
 62
     0
 10
2499.5473846318582
 20
1946.3084992213451
 30
0.0
 11
2499.5473846318582
 21
2000.682291594349
 31
0.0
  0
LINE
  5
87A1
  8
3
 62
     0
 10
2735.5473846318582
 20
1946.3084992213451
 30
0.0
 11
2735.5473846318582
 21
2000.682291594349
 31
0.0
  0
LINE
  5
87A2
  8
3
 62
     0
 10
2529.5473846318582
 20
1985.682291594349
 30
0.0
 11
2705.5473846318582
 21
1985.682291594349
 31
0.0
  0
INSERT
  5
87A3
  8
3
 62
     0
  2
_OPEN
 10
2499.5473846318582
 20
1985.682291594349
 30
0.0
 41
30.0
 42
30.0
 43
30.0
 50
180.0
  0
INSERT
  5
87A4
  8
3
 62
     0
  2
_OPEN
 10
2735.5473846318582
 20
1985.682291594349
 30
0.0
 41
30.0
 42
30.0
 43
30.0
  0
TEXT
  8
3
  40
45
  5
8835
  62
0
  72
0
  71
0
 10
2527.55
 20
1943.53
 30
0.000000
  1
236
  0
POINT
  5
87A6
  8
DEFPOINTS
 62
     0
 10
2499.5473846318582
 20
1938.8084992213451
 30
0.0
  0
POINT
  5
87A7
  8
DEFPOINTS
 62
     0
 10
2735.5473846318582
 20
1938.8084992213451
 30
0.0
  0
POINT
  5
87A8
  8
DEFPOINTS
 62
     0
 10
2735.5473846318582
 20
1985.682291594349
 30
0.0
  0
ENDBLK
  5
84CE
  8
0
  0
BLOCK
  8
0
  2
*D6
 70
     1
 10
0.0
 20
0.0
 30
0.0
  3
*D6
  1

  0
LINE
  5
87B3
  8
3
 62
     0
 10
2771.0473846318582
 20
1859.3436183406641
 30
0.0
 11
2911.8384513163792
 21
1859.3436183406641
 31
0.0
  0
LINE
  5
87B4
  8
3
 62
     0
 10
2771.0473846318582
 20
1544.3436183406641
 30
0.0
 11
2911.8384513163792
 21
1544.3436183406641
 31
0.0
  0
LINE
  5
87B5
  8
3
 62
     0
 10
2896.8384513163778
 20
1829.3436183406641
 30
0.0
 11
2896.8384513163778
 21
1574.3436183406641
 31
0.0
  0
INSERT
  5
87B6
  8
3
 62
     0
  2
_OPEN
 10
2896.8384513163778
 20
1859.3436183406641
 30
0.0
 41
30.0
 42
30.0
 43
30.0
 50
90.0
  0
INSERT
  5
87B7
  8
3
 62
     0
  2
_OPEN
 10
2896.8384513163778
 20
1544.3436183406641
 30
0.0
 41
30.0
 42
30.0
 43
30.0
 50
270.0
  0
TEXT
  8
3
  40
45
  5
8836
  62
0
  72
0
  71
0
 10
2769.34
 20
1609.70
 30
0.000000
  1
φ315
  0
POINT
  5
87B9
  8
DEFPOINTS
 62
     0
 10
2763.5473846318582
 20
1859.3436183406641
 30
0.0
  0
POINT
  5
87BA
  8
DEFPOINTS
 62
     0
 10
2763.5473846318582
 20
1544.3436183406641
 30
0.0
  0
POINT
  5
87BB
  8
DEFPOINTS
 62
     0
 10
2896.8384513163778
 20
1544.3436183406641
 30
0.0
  0
ENDBLK
  5
870B
  8
0
  0
BLOCK
  8
0
  2
_DOT
 70
     0
 10
0.0
 20
0.0
 30
0.0
  3
_DOT
  1

  0
LINE
  5
867C
  8
0
  6
BYBLOCK
 62
     0
 10
0.0
 20
0.0
 30
0.0
 11
-1.0
 21
-0.0000000000000284
 31
0.0
  0
POLYLINE
  5
867D
  8
0
  6
BYBLOCK
 62
     0
 66
     1
 10
0.0
 20
0.0
 30
0.0
 70
     1
 40
0.1666666666666666
 41
0.1666666666666666
  0
VERTEX
  5
87F9
  8
0
  6
BYBLOCK
 62
     0
 10
-0.0833333333333286
 20
-0.0000000000000284
 30
0.0
 42
1.0
  0
VERTEX
  5
87FA
  8
0
  6
BYBLOCK
 62
     0
 10
0.0833333333333286
 20
-0.0000000000000284
 30
0.0
 42
1.0
  0
SEQEND
  5
87FB
  8
0
  6
BYBLOCK
 62
     0
  0
ENDBLK
  5
849E
  8
0
  0
BLOCK
  8
0
  2
*D8
 70
     1
 10
0.0
 20
0.0
 30
0.0
  3
*D8
  1

  0
LINE
  5
87BC
  8
3
 62
     0
 10
1009.424475266867
 20
1927.8025225684939
 30
0.0
 11
1618.0601098415179
 21
1927.8025225684939
 31
0.0
  0
LINE
  5
87BD
  8
3
 62
     0
 10
1603.0601098415179
 20
1731.8436183406641
 30
0.0
 11
1603.0601098415179
 21
1897.8025225684939
 31
0.0
  0
INSERT
  5
87BE
  8
3
 62
     0
  2
_OPEN
 10
1603.0601098415179
 20
1701.8436183406641
 30
0.0
 41
30.0
 42
30.0
 43
30.0
 50
270.0
  0
INSERT
  5
87BF
  8
3
 62
     0
  2
_OPEN
 10
1603.0601098415179
 20
1927.8025225684939
 30
0.0
 41
30.0
 42
30.0
 43
30.0
 50
90.0
  0
TEXT
  8
3
  40
45
  5
8837
  62
0
  72
0
  71
0
 10
1475.56
 20
1735.17
 30
0.000000
  1
226
  0
POINT
  5
87C1
  8
DEFPOINTS
 62
     0
 10
1277.149554202043
 20
1701.843618340665
 30
0.0
  0
POINT
  5
87C2
  8
DEFPOINTS
 62
     0
 10
1001.924475266867
 20
1927.8025225684939
 30
0.0
  0
POINT
  5
87C3
  8
DEFPOINTS
 62
     0
 10
1603.0601098415179
 20
1927.8025225684939
 30
0.0
  0
ENDBLK
  5
8561
  8
0
  0
BLOCK
  8
0
  2
*D9
 70
     1
 10
0.0
 20
0.0
 30
0.0
  3
*D9
  1

  0
LINE
  5
87C4
  8
3
 62
     0
 10
1265.6894278515581
 20
1711.73244866562
 30
0.0
 11
1265.6894278515581
 21
2094.258861192975
 31
0.0
  0
LINE
  5
87C5
  8
3
 62
     0
 10
400.68942785155809
 20
1334.3436183406641
 30
0.0
 11
400.68942785155809
 21
2094.258861192975
 31
0.0
  0
LINE
  5
87C6
  8
3
 62
     0
 10
1235.6894278515581
 20
2079.258861192975
 30
0.0
 11
430.68942785155809
 21
2079.258861192975
 31
0.0
  0
INSERT
  5
87C7
  8
3
 62
     0
  2
_OPEN
 10
1265.6894278515581
 20
2079.258861192975
 30
0.0
 41
30.0
 42
30.0
 43
30.0
  0
INSERT
  5
87C8
  8
3
 62
     0
  2
_OPEN
 10
400.68942785155809
 20
2079.258861192975
 30
0.0
 41
30.0
 42
30.0
 43
30.0
 50
180.0
  0
TEXT
  8
3
  40
45
  5
8838
  62
0
  72
0
  71
0
 10
729.352
 20
2037.11
 30
0.000000
  1
865
  0
POINT
  5
87CA
  8
DEFPOINTS
 62
     0
 10
1265.6894278515581
 20
1704.23244866562
 30
0.0
  0
POINT
  5
87CB
  8
DEFPOINTS
 62
     0
 10
400.68942785155809
 20
1326.8436183406641
 30
0.0
  0
POINT
  5
87CC
  8
DEFPOINTS
 62
     0
 10
400.68942785155809
 20
2079.258861192975
 30
0.0
  0
ENDBLK
  5
8615
  8
0
  0
BLOCK
  8
0
  2
*D10
 70
     1
 10
0.0
 20
0.0
 30
0.0
  3
*D10
  1

  0
LINE
  5
87CD
  8
3
 62
     0
 10
2617.5473846318582
 20
2063.423263290123
 30
0.0
 11
2617.5473846318582
 21
2095.4811080444879
 31
0.0
  0
LINE
  5
87CE
  8
3
 62
     0
 10
1929.547384631858
 20
1809.3436183406641
 30
0.0
 11
1929.547384631858
 21
2095.4811080444879
 31
0.0
  0
LINE
  5
87CF
  8
3
 62
     0
 10
2587.5473846318582
 20
2080.4811080444888
 30
0.0
 11
1959.547384631858
 21
2080.4811080444888
 31
0.0
  0
INSERT
  5
87D0
  8
3
 62
     0
  2
_OPEN
 10
2617.5473846318582
 20
2080.4811080444888
 30
0.0
 41
30.0
 42
30.0
 43
30.0
  0
INSERT
  5
87D1
  8
3
 62
     0
  2
_OPEN
 10
1929.547384631858
 20
2080.4811080444888
 30
0.0
 41
30.0
 42
30.0
 43
30.0
 50
180.0
  0
TEXT
  8
3
  40
45
  5
8839
  62
0
  72
0
  71
0
 10
2213.45
 20
2075.83
 30
0.000000
  1
MAX
  0
TEXT
  8
3
  40
45
  5
883A
  62
0
  72
0
  71
0
 10
2213.45
 20
2017.33
 30
0.000000
  1
760
  0
POINT
  5
87D3
  8
DEFPOINTS
 62
     0
 10
2617.5473846318582
 20
2055.923263290123
 30
0.0
  0
POINT
  5
87D4
  8
DEFPOINTS
 62
     0
 10
1929.547384631858
 20
1801.8436183406641
 30
0.0
  0
POINT
  5
87D5
  8
DEFPOINTS
 62
     0
 10
1929.547384631858
 20
2080.4811080444888
 30
0.0
  0
ENDBLK
  5
86AE
  8
0
  0
BLOCK
  8
0
  2
*D11
 70
     1
 10
0.0
 20
0.0
 30
0.0
  3
*D11
  1

  0
LINE
  5
87D6
  8
3
 62
     0
 10
1200.689427851557
 20
3341.3566110719189
 30
0.0
 11
1200.689427851557
 21
3445.3652799912911
 31
0.0
  0
LINE
  5
87D7
  8
3
 62
     0
 10
840.68942785155741
 20
3341.3566110719189
 30
0.0
 11
840.68942785155741
 21
3445.3652799912911
 31
0.0
  0
LINE
  5
87D8
  8
3
 62
     0
 10
1170.689427851557
 20
3430.3652799912911
 30
0.0
 11
870.68942785155753
 21
3430.3652799912911
 31
0.0
  0
INSERT
  5
87D9
  8
3
 62
     0
  2
_OPEN
 10
1200.689427851557
 20
3430.3652799912911
 30
0.0
 41
30.0
 42
30.0
 43
30.0
  0
INSERT
  5
87DA
  8
3
 62
     0
  2
_OPEN
 10
840.68942785155741
 20
3430.3652799912911
 30
0.0
 41
30.0
 42
30.0
 43
30.0
 50
180.0
  0
TEXT
  8
3
  40
45
  5
883B
  62
0
  72
0
  71
0
 10
945.100
 20
3388.22
 30
0.000000
  1
360
  0
POINT
  5
87DC
  8
DEFPOINTS
 62
     0
 10
1200.689427851557
 20
3333.8566110719189
 30
0.0
  0
POINT
  5
87DD
  8
DEFPOINTS
 62
     0
 10
840.68942785155741
 20
3333.8566110719189
 30
0.0
  0
POINT
  5
87DE
  8
DEFPOINTS
 62
     0
 10
840.68942785155741
 20
3430.3652799912911
 30
0.0
  0
ENDBLK
  5
8639
  8
0
  0
BLOCK
  8
0
  2
*D12
 70
     1
 10
0.0
 20
0.0
 30
0.0
  3
*D12
  1

  0
LINE
  5
87DF
  8
3
 62
     0
 10
400.68942785155548
 20
2941.3566110719189
 30
0.0
 11
400.68942785155559
 21
3445.3652799912911
 31
0.0
  0
LINE
  5
87E0
  8
3
 62
     0
 10
810.6894278515573
 20
3430.3652799912911
 30
0.0
 11
430.68942785155559
 21
3430.3652799912911
 31
0.0
  0
INSERT
  5
87E1
  8
3
 62
     0
  2
_OPEN
 10
840.68942785155741
 20
3430.3652799912911
 30
0.0
 41
30.0
 42
30.0
 43
30.0
  0
INSERT
  5
87E2
  8
3
 62
     0
  2
_OPEN
 10
400.68942785155559
 20
3430.3652799912911
 30
0.0
 41
30.0
 42
30.0
 43
30.0
 50
180.0
  0
TEXT
  8
3
  40
45
  5
883C
  62
0
  72
0
  71
0
 10
530.689
 20
3388.22
 30
0.000000
  1
440
  0
POINT
  5
87E4
  8
DEFPOINTS
 62
     0
 10
840.68942785155741
 20
3333.8566110719189
 30
0.0
  0
POINT
  5
87E5
  8
DEFPOINTS
 62
     0
 10
400.68942785155548
 20
2933.856611071918
 30
0.0
  0
POINT
  5
87E6
  8
DEFPOINTS
 62
     0
 10
400.68942785155559
 20
3430.3652799912911
 30
0.0
  0
ENDBLK
  5
8645
  8
0
  0
BLOCK
  8
0
  2
*D13
 70
     1
 10
0.0
 20
0.0
 30
0.0
  3
*D13
  1

  0
LINE
  5
87E7
  8
3
 62
     0
 10
393.18942785155548
 20
2933.856611071918
 30
0.0
 11
302.48432817095681
 21
2933.856611071918
 31
0.0
  0
LINE
  5
87E8
  8
3
 62
     0
 10
385.23988165398981
 20
2553.856611071918
 30
0.0
 11
302.4843281709567
 21
2553.856611071918
 31
0.0
  0
LINE
  5
87E9
  8
3
 62
     0
 10
317.48432817095681
 20
2903.8566110719189
 30
0.0
 11
317.4843281709567
 21
2583.856611071918
 31
0.0
  0
INSERT
  5
87EA
  8
3
 62
     0
  2
_OPEN
 10
317.48432817095681
 20
2933.856611071918
 30
0.0
 41
30.0
 42
30.0
 43
30.0
 50
90.0
  0
INSERT
  5
87EB
  8
3
 62
     0
  2
_OPEN
 10
317.4843281709567
 20
2553.856611071918
 30
0.0
 41
30.0
 42
30.0
 43
30.0
 50
270.0
  0
TEXT
  8
3
  40
45
  5
883D
  62
0
  72
0
  71
0
 10
189.984
 20
2665.92
 30
0.000000
  1
380
  0
POINT
  5
87ED
  8
DEFPOINTS
 62
     0
 10
400.68942785155548
 20
2933.856611071918
 30
0.0
  0
POINT
  5
87EE
  8
DEFPOINTS
 62
     0
 10
392.73988165398981
 20
2553.856611071918
 30
0.0
  0
POINT
  5
87EF
  8
DEFPOINTS
 62
     0
 10
317.4843281709567
 20
2553.856611071918
 30
0.0
  0
ENDBLK
  5
865E
  8
0
  0
BLOCK
  8
0
  2
*D14
 70
     1
 10
0.0
 20
0.0
 30
0.0
  3
*D14
  1

  0
LINE
  5
87F0
  8
3
 62
     0
 10
1208.189427851557
 20
3333.8566110719189
 30
0.0
 11
1407.563602908391
 21
3333.8566110719189
 31
0.0
  0
LINE
  5
87F1
  8
3
 62
     0
 10
1208.189427851556
 20
2553.856611071918
 30
0.0
 11
1407.563602908391
 21
2553.856611071918
 31
0.0
  0
LINE
  5
87F2
  8
3
 62
     0
 10
1392.563602908391
 20
3303.856611071918
 30
0.0
 11
1392.563602908391
 21
2583.856611071918
 31
0.0
  0
INSERT
  5
87F3
  8
3
 62
     0
  2
_OPEN
 10
1392.563602908391
 20
3333.8566110719189
 30
0.0
 41
30.0
 42
30.0
 43
30.0
 50
90.0
  0
INSERT
  5
87F4
  8
3
 62
     0
  2
_OPEN
 10
1392.5636029083901
 20
2553.856611071918
 30
0.0
 41
30.0
 42
30.0
 43
30.0
 50
270.0
  0
TEXT
  8
3
  40
45
  5
883E
  62
0
  72
0
  71
0
 10
1265.06
 20
2870.01
 30
0.000000
  1
780
  0
POINT
  5
87F6
  8
DEFPOINTS
 62
     0
 10
1200.689427851557
 20
3333.8566110719189
 30
0.0
  0
POINT
  5
87F7
  8
DEFPOINTS
 62
     0
 10
1200.689427851556
 20
2553.856611071918
 30
0.0
  0
POINT
  5
87F8
  8
DEFPOINTS
 62
     0
 10
1392.5636029083901
 20
2553.856611071918
 30
0.0
  0
ENDBLK
  5
866A
  8
0
  0
BLOCK
  8
0
  2
*D15
 70
     1
 10
0.0
 20
0.0
 30
0.0
  3
*D15
  1

  0
LINE
  5
87FC
  8
3
 62
     0
 10
747.1245469708756
 20
1685.3436183406641
 30
0.0
 11
747.1245469708756
 21
2002.5411310641009
 31
0.0
  0
LINE
  5
87FD
  8
3
 62
     0
 10
990.68942785155809
 20
1987.5411310641009
 30
0.0
 11
777.12454697087549
 21
1987.5411310641009
 31
0.0
  0
INSERT
  5
87FE
  8
3
 62
     0
  2
_OPEN
 10
1020.689427851558
 20
1987.5411310641009
 30
0.0
 41
30.0
 42
30.0
 43
30.0
  0
INSERT
  5
87FF
  8
3
 62
     0
  2
_OPEN
 10
747.1245469708756
 20
1987.5411310641009
 30
0.0
 41
30.0
 42
30.0
 43
30.0
 50
180.0
  0
TEXT
  8
3
  40
45
  5
883F
  62
0
  72
0
  71
0
 10
793.907
 20
1945.39
 30
0.000000
  1
274
  0
POINT
  5
8801
  8
DEFPOINTS
 62
     0
 10
1020.689427851558
 20
1962.446899021535
 30
0.0
  0
POINT
  5
8802
  8
DEFPOINTS
 62
     0
 10
747.1245469708756
 20
1677.8436183406641
 30
0.0
  0
POINT
  5
8803
  8
DEFPOINTS
 62
     0
 10
747.1245469708756
 20
1987.5411310641009
 30
0.0
  0
ENDBLK
  5
868F
  8
0
  0
BLOCK
  8
0
  2
*D16
 70
     1
 10
0.0
 20
0.0
 30
0.0
  3
*D16
  1

  0
LINE
  5
86F8
  8
0
  6
BYBLOCK
 62
     0
 10
2738.5473846318582
 20
1892.8436451048899
 30
0.0
 11
2738.5473846318582
 21
2095.4811080444879
 31
0.0
  0
LINE
  5
86F9
  8
0
  6
BYBLOCK
 62
     0
 10
2647.5473846318582
 20
2080.4811080444888
 30
0.0
 11
2708.5473846318582
 21
2080.4811080444888
 31
0.0
  0
TEXT
  5
86FA
  8
3
 62
     0
 10
2634.1188132032862
 20
2097.6685501508582
 30
0.0
 40
45.0
  1
121
  0
INSERT
  5
86FB
  8
0
  6
BYBLOCK
 62
     0
  2
_OPEN
 10
2617.5473846318582
 20
2080.4811080444888
 30
0.0
 41
30.0
 42
30.0
 43
30.0
 50
180.0
  0
INSERT
  5
86FC
  8
0
  6
BYBLOCK
 62
     0
  2
_OPEN
 10
2738.5473846318582
 20
2080.4811080444888
 30
0.0
 41
30.0
 42
30.0
 43
30.0
  0
POINT
  5
86FD
  8
DEFPOINTS
  6
BYBLOCK
 62
     0
 10
2617.5473846318582
 20
2055.923263290123
 30
0.0
  0
POINT
  5
86FE
  8
DEFPOINTS
  6
BYBLOCK
 62
     0
 10
2738.5473846318582
 20
1885.3436451048899
 30
0.0
  0
POINT
  5
86FF
  8
DEFPOINTS
  6
BYBLOCK
 62
     0
 10
2738.5473846318582
 20
2080.4811080444888
 30
0.0
  0
ENDBLK
  5
8700
  8
0
  0
BLOCK
  8
0
  2
*D17
 70
     1
 10
0.0
 20
0.0
 30
0.0
  3
*D17
  1

  0
LINE
  5
8804
  8
3
 62
     0
 10
400.68942785155718
 20
1244.3436183406641
 30
0.0
 11
400.68942785155718
 21
1113.043191027165
 31
0.0
  0
LINE
  5
8805
  8
3
 62
     0
 10
1020.689427851558
 20
1244.3436183406641
 30
0.0
 11
1020.689427851558
 21
1113.043191027165
 31
0.0
  0
LINE
  5
8806
  8
3
 62
     0
 10
430.68942785155718
 20
1128.043191027165
 30
0.0
 11
990.68942785155809
 21
1128.043191027165
 31
0.0
  0
INSERT
  5
8807
  8
3
 62
     0
  2
_OPEN
 10
400.68942785155718
 20
1128.043191027165
 30
0.0
 41
30.0
 42
30.0
 43
30.0
 50
180.0
  0
INSERT
  5
8808
  8
3
 62
     0
  2
_OPEN
 10
1020.689427851558
 20
1128.043191027165
 30
0.0
 41
30.0
 42
30.0
 43
30.0
  0
TEXT
  8
3
  40
45
  5
8840
  62
0
  72
0
  71
0
 10
620.689
 20
1085.89
 30
0.000000
  1
620
  0
POINT
  5
880A
  8
DEFPOINTS
 62
     0
 10
400.68942785155718
 20
1251.8436183406641
 30
0.0
  0
POINT
  5
880B
  8
DEFPOINTS
 62
     0
 10
1020.689427851558
 20
1251.8436183406641
 30
0.0
  0
POINT
  5
880C
  8
DEFPOINTS
 62
     0
 10
1020.689427851558
 20
1128.043191027165
 30
0.0
  0
ENDBLK
  5
8721
  8
0
  0
BLOCK
  8
0
  2
*D18
 70
     1
 10
0.0
 20
0.0
 30
0.0
  3
*D18
  1

  0
LINE
  5
880D
  8
3
 62
     0
 10
1020.689427851558
 20
1244.3436183406641
 30
0.0
 11
1020.689427851558
 21
1113.043191027165
 31
0.0
  0
LINE
  5
880E
  8
3
 62
     0
 10
1200.6894278515581
 20
1244.3436183406641
 30
0.0
 11
1200.6894278515581
 21
1113.043191027165
 31
0.0
  0
LINE
  5
880F
  8
3
 62
     0
 10
1050.6894278515581
 20
1128.043191027165
 30
0.0
 11
1170.6894278515581
 21
1128.043191027165
 31
0.0
  0
INSERT
  5
8810
  8
3
 62
     0
  2
_OPEN
 10
1020.689427851558
 20
1128.043191027165
 30
0.0
 41
30.0
 42
30.0
 43
30.0
 50
180.0
  0
INSERT
  5
8811
  8
3
 62
     0
  2
_OPEN
 10
1200.6894278515581
 20
1128.043191027165
 30
0.0
 41
30.0
 42
30.0
 43
30.0
  0
TEXT
  8
3
  40
45
  5
8841
  62
0
  72
0
  71
0
 10
1020.69
 20
1085.89
 30
0.000000
  1
180
  0
POINT
  5
8813
  8
DEFPOINTS
 62
     0
 10
1020.689427851558
 20
1251.8436183406641
 30
0.0
  0
POINT
  5
8814
  8
DEFPOINTS
 62
     0
 10
1200.6894278515581
 20
1251.8436183406641
 30
0.0
  0
POINT
  5
8815
  8
DEFPOINTS
 62
     0
 10
1200.6894278515581
 20
1128.043191027165
 30
0.0
  0
ENDBLK
  5
8730
  8
0
  0
BLOCK
  8
0
  2
*D19
 70
     1
 10
0.0
 20
0.0
 30
0.0
  3
*D19
  1

  0
LINE
  5
8816
  8
3
 62
     0
 10
2002.547384631858
 20
1244.3436183406641
 30
0.0
 11
2002.547384631858
 21
1113.043191027165
 31
0.0
  0
LINE
  5
8817
  8
3
 62
     0
 10
2617.5473846318582
 20
1244.3436183406641
 30
0.0
 11
2617.5473846318582
 21
1113.043191027165
 31
0.0
  0
LINE
  5
8818
  8
3
 62
     0
 10
2032.547384631858
 20
1128.043191027165
 30
0.0
 11
2587.5473846318582
 21
1128.043191027165
 31
0.0
  0
INSERT
  5
8819
  8
3
 62
     0
  2
_OPEN
 10
2002.547384631858
 20
1128.043191027165
 30
0.0
 41
30.0
 42
30.0
 43
30.0
 50
180.0
  0
INSERT
  5
881A
  8
3
 62
     0
  2
_OPEN
 10
2617.5473846318582
 20
1128.043191027165
 30
0.0
 41
30.0
 42
30.0
 43
30.0
  0
TEXT
  8
3
  40
45
  5
8842
  62
0
  72
0
  71
0
 10
2220.05
 20
1085.89
 30
0.000000
  1
615
  0
POINT
  5
881C
  8
DEFPOINTS
 62
     0
 10
2002.547384631858
 20
1251.8436183406641
 30
0.0
  0
POINT
  5
881D
  8
DEFPOINTS
 62
     0
 10
2617.5473846318582
 20
1251.8436183406641
 30
0.0
  0
POINT
  5
881E
  8
DEFPOINTS
 62
     0
 10
2617.5473846318582
 20
1128.043191027165
 30
0.0
  0
ENDBLK
  5
873D
  8
0
  0
BLOCK
  8
0
  2
*D20
 70
     1
 10
0.0
 20
0.0
 30
0.0
  3
*D20
  1

  0
LINE
  5
881F
  8
3
 62
     0
 10
2617.5473846318582
 20
1244.3436183406641
 30
0.0
 11
2617.5473846318582
 21
1113.043191027165
 31
0.0
  0
LINE
  5
8820
  8
3
 62
     0
 10
2782.5473846318569
 20
1244.3436183406641
 30
0.0
 11
2782.5473846318569
 21
1113.043191027165
 31
0.0
  0
LINE
  5
8821
  8
3
 62
     0
 10
2647.5473846318582
 20
1128.043191027165
 30
0.0
 11
2752.5473846318569
 21
1128.043191027165
 31
0.0
  0
INSERT
  5
8822
  8
3
 62
     0
  2
_OPEN
 10
2617.5473846318582
 20
1128.043191027165
 30
0.0
 41
30.0
 42
30.0
 43
30.0
 50
180.0
  0
INSERT
  5
8823
  8
3
 62
     0
  2
_OPEN
 10
2782.5473846318569
 20
1128.043191027165
 30
0.0
 41
30.0
 42
30.0
 43
30.0
  0
TEXT
  8
3
  40
45
  5
8843
  62
0
  72
0
  71
0
 10
2610.05
 20
1085.89
 30
0.000000
  1
165
  0
POINT
  5
8825
  8
DEFPOINTS
 62
     0
 10
2617.5473846318582
 20
1251.8436183406641
 30
0.0
  0
POINT
  5
8826
  8
DEFPOINTS
 62
     0
 10
2782.5473846318569
 20
1251.8436183406641
 30
0.0
  0
POINT
  5
8827
  8
DEFPOINTS
 62
     0
 10
2782.5473846318569
 20
1128.043191027165
 30
0.0
  0
ENDBLK
  5
874C
  8
0
  0
BLOCK
  8
0
  2
*D21
 70
     1
 10
0.0
 20
0.0
 30
0.0
  3
*D21
  1

  0
LINE
  5
8828
  8
3
 62
     0
 10
1016.924475266867
 20
1927.8025225684939
 30
0.0
 11
1737.096212237758
 21
1927.8025225684939
 31
0.0
  0
LINE
  5
8829
  8
3
 62
     0
 10
1208.1894278515581
 20
1251.8436183406641
 30
0.0
 11
1737.096212237758
 21
1251.8436183406641
 31
0.0
  0
LINE
  5
882A
  8
3
 62
     0
 10
1722.096212237758
 20
1897.8025225684939
 30
0.0
 11
1722.096212237758
 21
1281.8436183406641
 31
0.0
  0
INSERT
  5
882B
  8
3
 62
     0
  2
_OPEN
 10
1722.096212237758
 20
1927.8025225684939
 30
0.0
 41
30.0
 42
30.0
 43
30.0
 50
90.0
  0
INSERT
  5
882C
  8
3
 62
     0
  2
_OPEN
 10
1722.096212237758
 20
1251.8436183406641
 30
0.0
 41
30.0
 42
30.0
 43
30.0
 50
270.0
  0
TEXT
  8
3
  40
45
  5
8844
  62
0
  72
0
  71
0
 10
1594.60
 20
1510.17
 30
0.000000
  1
676
  0
POINT
  5
882E
  8
DEFPOINTS
 62
     0
 10
1009.424475266867
 20
1927.8025225684939
 30
0.0
  0
POINT
  5
882F
  8
DEFPOINTS
 62
     0
 10
1200.6894278515581
 20
1251.8436183406641
 30
0.0
  0
POINT
  5
8830
  8
DEFPOINTS
 62
     0
 10
1722.096212237758
 20
1251.8436183406641
 30
0.0
  0
ENDBLK
  5
8759
  8
0
  0
ENDSEC
  0
SECTION
  2
ENTITIES
  0
LINE
  5
7CDF
  8
1
 10
2002.547384631858
 20
1326.8436183406641
 30
0.0
 11
2472.5473846318582
 21
1326.8436183406641
 31
0.0
  0
LINE
  5
7CE9
  8
2
 10
2799.6526072731931
 20
1701.8436183406641
 30
0.0
 11
1907.7617542269811
 21
1701.8436183406641
 31
0.0
  0
LINE
  5
7CEA
  8
1
 10
2444.5473846318569
 20
1645.0436183406639
 30
0.0
 11
2034.547384631858
 21
1645.043618340663
 31
0.0
  0
LINE
  5
7CEB
  8
1
 10
2444.5473846318569
 20
1648.2436183406639
 30
0.0
 11
2034.547384631858
 21
1648.2436183406639
 31
0.0
  0
LINE
  5
7CEC
  8
1
 10
2782.5473846318569
 20
1251.8436183406641
 30
0.0
 11
2002.547384631858
 21
1251.8436183406641
 31
0.0
  0
LINE
  5
7CEF
  8
1
 10
950.68942785155809
 20
1561.8436183406641
 30
0.0
 11
1090.6894278515581
 21
1561.8436183406641
 31
0.0
  0
CIRCLE
  5
7CF0
  8
1
 10
1020.689427851558
 20
1561.8436183406641
 30
0.0
 40
65.0
  0
CIRCLE
  5
7CF1
  8
1
 10
1020.689427851558
 20
1701.843618340665
 30
0.0
 40
63.5
  0
ARC
  5
7CF2
  8
1
 10
1020.689427851558
 20
1701.843618340665
 30
0.0
 40
100.0
 50
300.52693951049281
 51
109.70273026179621
  0
ARC
  5
7CF3
  8
1
 10
1002.189427851557
 20
1720.3436183406641
 30
0.0
 40
218.11047620624919
 50
0.0000000000000509
 51
82.626233638670399
  0
ARC
  5
7CF4
  8
1
 10
1007.686483776332
 20
1725.919327402873
 30
0.0
 40
201.58952384937541
 50
358.43602223557491
 51
82.202197156070284
  0
DIMENSION
  5
7CF6
  8
3
  2
*D1
 10
1020.689427851558
 20
1987.5411310641009
 30
0.0
 11
1143.1894278515581
 21
1987.5411310641009
 31
0.0
 70
   128
 13
1265.6894278515581
 23
1704.23244866562
 33
0.0
 14
1020.689427851558
 24
1962.446899021535
 34
0.0
1001
ACAD
1000
DSTYLE
1002
{
1070
   287
1070
     3
1070
    40
1040
15.0
1070
   143
1040
0.039
1070
   172
1070
     1
1070
   271
1070
     0
1070
   279
1070
     0
1070
   288
1070
     1
1002
}
  0
LINE
  5
7CF7
  8
1
 10
1265.689427851559
 20
1350.8436183406641
 30
0.0
 11
1020.531073618571
 21
1379.8623623110991
 31
0.0
  0
LINE
  5
7CFA
  8
1
 10
1180.6894278515581
 20
1648.2436183406639
 30
0.0
 11
860.68942785155798
 21
1648.2436183406639
 31
0.0
  0
LINE
  5
7CFB
  8
2
 10
673.07855118348925
 20
1701.843618340665
 30
0.0
 11
1277.149554202043
 21
1701.843618340665
 31
0.0
  0
LINE
  5
7CFC
  8
1
 10
1220.689427851559
 20
1645.0436183406639
 30
0.0
 11
820.68942785155798
 21
1645.043618340665
 31
0.0
  0
LINE
  5
7CFF
  8
1
 10
390.68942785155809
 20
1326.8436183406641
 30
0.0
 11
1200.6894278515581
 21
1326.8436183406641
 31
0.0
  0
LINE
  5
7D00
  8
1
 10
400.68942785155718
 20
1251.8436183406641
 30
0.0
 11
1200.6894278515581
 21
1251.8436183406641
 31
0.0
  0
LINE
  5
7D01
  8
1
 10
1071.483770887879
 20
1615.70457541872
 30
0.0
 11
616.88094240603891
 21
1347.6350539577479
 31
0.0
  0
ARC
  5
7D0F
  8
1
 10
1044.6894278515581
 20
1677.8436183406641
 30
0.0
 40
308.96488088068128
 50
180.0
 51
235.72463522935649
  0
ARC
  5
7D10
  8
1
 10
540.68942785155707
 20
1476.8436183406641
 30
0.0
 40
100.8
 50
300.30070000000001
 51
180.0
  0
ARC
  5
7D11
  8
1
 10
540.68942785155707
 20
1476.8436183406641
 30
0.0
 40
100.8
 50
300.30070000000001
 51
180.0
  0
CIRCLE
  5
7D14
  8
1
 10
540.68942785155707
 20
1476.8436183406641
 30
0.0
 40
82.599999999999994
  0
ARC
  5
7D15
  8
1
 10
540.68942785155707
 20
1476.8436183406641
 30
0.0
 40
150.0
 50
109.70273026179621
 51
300.52693951049281
  0
LINE
  5
7D16
  8
1
 10
870.68942785155798
 20
1645.0436183406639
 30
0.0
 11
870.68942785155798
 21
1326.8436183406641
 31
0.0
  0
LINE
  5
7D17
  8
2
 10
540.68942785155707
 20
1380.859518340664
 30
0.0
 11
540.68942785155707
 21
1585.3047183406641
 31
0.0
  0
LINE
  5
7D18
  8
2
 10
1020.689427851558
 20
1795.9829335331401
 30
0.0
 11
1020.689427851558
 21
1251.8436183406641
 31
0.0
  0
ARC
  5
7D19
  8
1
 10
1047.3387679012451
 20
1678.8790811736981
 30
0.0
 40
300.21600662207788
 50
180.1976169374532
 51
264.87696775153091
  0
LINE
  5
7D1A
  8
1
 10
1049.6950677950911
 20
1645.3553642388949
 30
0.0
 11
578.41959886472046
 21
1403.364409068126
 31
0.0
  0
LINE
  5
7D1F
  8
1
 10
591.61352785155725
 20
1389.8436183406641
 30
0.0
 11
489.65842785155718
 21
1389.8436183406641
 31
0.0
  0
LINE
  5
7D20
  8
1
 10
591.61352785155725
 20
1389.8436183406641
 30
0.0
 11
489.65842785155718
 21
1389.8436183406641
 31
0.0
  0
LINE
  5
7D21
  8
1
 10
439.78555638287048
 20
1386.8436183406641
 30
0.0
 11
641.59329932024434
 21
1386.8436183406641
 31
0.0
  0
LINE
  5
7D22
  8
1
 10
390.68942785155809
 20
1356.8436183406641
 30
0.0
 11
690.68942785155707
 21
1356.8436183406641
 31
0.0
  0
LINE
  5
7D23
  8
2
 10
645.15462785155773
 20
1476.8436183406641
 30
0.0
 11
434.58662785155752
 21
1476.8436183406641
 31
0.0
  0
LINE
  5
7D24
  8
1
 10
428.18942785155713
 20
1356.8436183406641
 30
0.0
 11
439.78555638287048
 21
1386.8436183406641
 31
0.0
  0
LINE
  5
7D25
  8
1
 10
400.68942785155809
 20
1326.8436183406641
 30
0.0
 11
400.68942785155718
 21
1251.8436183406641
 31
0.0
  0
LINE
  5
7D26
  8
1
 10
390.68942785155809
 20
1326.8436183406641
 30
0.0
 11
390.68942785155809
 21
1356.8436183406641
 31
0.0
  0
ARC
  5
7D28
  8
1
 10
540.68942785155707
 20
1476.8436183406641
 30
0.0
 40
100.8
 50
180.0
 51
239.6066999999999
  0
ARC
  5
7D2A
  8
1
 10
540.68942785155707
 20
1476.8436183406641
 30
0.0
 40
100.8
 50
180.0
 51
239.6066999999999
  0
LINE
  5
7D2B
  8
1
 10
452.68942785155713
 20
1386.8436183406641
 30
0.0
 11
492.68942785155718
 21
1386.8436183406641
 31
0.0
  0
LINE
  5
7D2C
  8
1
 10
452.68942785155713
 20
1386.8436183406641
 30
0.0
 11
452.68942785155713
 21
1394.8436183406641
 31
0.0
  0
LINE
  5
7D2D
  8
1
 10
458.54282785155709
 20
1418.426318340664
 30
0.0
 11
452.68942785155713
 21
1394.8436183406641
 31
0.0
  0
LINE
  5
7D2E
  8
1
 10
470.68942785155713
 20
1382.477118340664
 30
0.0
 11
470.68942785155713
 21
1399.3805183406639
 31
0.0
  0
LINE
  5
7D2F
  8
1
 10
492.68942785155718
 20
1389.7746183406639
 30
0.0
 11
492.68942785155718
 21
1386.8436183406641
 31
0.0
  0
LINE
  5
7D30
  8
1
 10
653.18942785155707
 20
1356.8436183406641
 30
0.0
 11
641.59329932024434
 21
1386.8436183406641
 31
0.0
  0
LINE
  5
7D31
  8
1
 10
690.68942785155707
 20
1326.8436183406641
 30
0.0
 11
690.68942785155707
 21
1356.8436183406641
 31
0.0
  0
LINE
  5
7D32
  8
1
 10
628.68942785155707
 20
1386.8436183406641
 30
0.0
 11
588.68942785155718
 21
1386.8436183406641
 31
0.0
  0
LINE
  5
7D33
  8
1
 10
588.68942785155718
 20
1389.8164183406641
 30
0.0
 11
588.68942785155718
 21
1386.8436183406641
 31
0.0
  0
LINE
  5
7D34
  8
1
 10
610.68942785155707
 20
1382.477118340664
 30
0.0
 11
610.68942785155707
 21
1399.3805183406639
 31
0.0
  0
LINE
  5
7D35
  8
1
 10
628.68942785155707
 20
1386.8436183406641
 30
0.0
 11
628.68942785155707
 21
1394.8436183406641
 31
0.0
  0
LINE
  5
7D36
  8
1
 10
622.83592785155747
 20
1418.426318340664
 30
0.0
 11
628.68942785155707
 21
1394.8436183406641
 31
0.0
  0
LINE
  5
7D37
  8
1
 10
840.68942785155809
 20
1401.8436183406641
 30
0.0
 11
840.68942785155809
 21
1326.8436183406641
 31
0.0
  0
LINE
  5
7D38
  8
1
 10
840.68942785155809
 20
1331.8436183406641
 30
0.0
 11
870.68942785155798
 21
1331.8436183406641
 31
0.0
  0
LINE
  5
7D39
  8
1
 10
840.68942785155809
 20
1401.8436183406641
 30
0.0
 11
870.68942785155798
 21
1401.8436183406641
 31
0.0
  0
ARC
  5
7D3A
  8
1
 10
996.68942785155798
 20
1677.8436183406641
 30
0.0
 40
260.96488088068128
 50
82.626233638670399
 51
180.0
  0
LINE
  5
7D3C
  8
1
 10
995.82696378205742
 20
1760.2739861333871
 30
0.0
 11
508.34864781784449
 21
1552.849104634819
 31
0.0
  0
LINE
  5
7D3D
  8
1
 10
986.97541574664933
 20
1795.989066386707
 30
0.0
 11
490.11840969419399
 21
1618.061790409728
 31
0.0
  0
ARC
  5
7D3E
  8
1
 10
1001.924475266867
 20
1672.650290300573
 30
0.0
 40
255.15223226792139
 50
82.539657227095873
 51
178.8459440643627
  0
LINE
  5
7D3F
  8
1
 10
820.68942785155798
 20
1645.0436183406639
 30
0.0
 11
820.68942785155798
 21
1605.043618340665
 31
0.0
  0
LINE
  5
7D40
  8
1
 10
745.55065133200765
 20
1600.543618340665
 30
0.0
 11
870.68942785155798
 21
1600.543618340665
 31
0.0
  0
LINE
  5
7D41
  8
1
 10
744.42378276771944
 20
1605.043618340665
 30
0.0
 11
870.68942785155798
 21
1605.043618340665
 31
0.0
  0
LINE
  5
7D42
  8
1
 10
860.68942785155798
 20
1648.2436183406639
 30
0.0
 11
860.68942785155798
 21
1645.0436183406639
 31
0.0
  0
LINE
  5
7D44
  8
2
 10
1020.689427851558
 20
1962.446899021535
 30
0.0
 11
1020.689427851558
 21
1814.922860511329
 31
0.0
  0
LINE
  5
7D45
  8
1
 10
1020.689427851558
 20
1801.8436183406641
 30
0.0
 11
1020.689427851558
 21
1801.8436183406641
 31
0.0
  0
LINE
  5
7D46
  8
1
 10
1265.6894278515581
 20
1704.23244866562
 30
0.0
 11
1265.6894278515581
 21
1324.23244866562
 31
0.0
  0
LINE
  5
7D47
  8
1
 10
1240.6894278515581
 20
1343.7329915451071
 30
0.0
 11
1240.6894278515581
 21
1680.23244866562
 31
0.0
  0
LINE
  5
7D48
  8
1
 10
1262.6894278515581
 20
1704.23244866562
 30
0.0
 11
1262.6894278515581
 21
1326.23244866562
 31
0.0
  0
DIMENSION
  5
7D49
  8
3
  2
*D2
 10
1420.5461429612519
 20
1675.8436183406641
 30
0.0
 11
1383.046142961251
 21
1513.3436183406641
 31
0.0
 70
     0
 13
1265.6894278515581
 23
1350.8436183406641
 33
0.0
 14
1265.6894278515581
 24
1675.8436183406641
 34
0.0
 50
270.0
1001
ACAD
1000
DSTYLE
1002
{
1070
   287
1070
     3
1070
    40
1040
15.0
1070
   143
1040
0.039
1070
   172
1070
     1
1070
   271
1070
     0
1070
   279
1070
     0
1070
   288
1070
     1
1002
}
  0
DIMENSION
  5
7D4A
  8
3
  2
*D3
 10
1512.579308077708
 20
1701.843618340665
 30
0.0
 11
1475.0793080777071
 21
1526.343618340665
 31
0.0
 70
     0
 13
1265.6894278515581
 23
1350.8436183406641
 33
0.0
 14
1277.149554202043
 24
1701.843618340665
 34
0.0
 50
270.0
1001
ACAD
1000
DSTYLE
1002
{
1070
   287
1070
     3
1070
    40
1040
15.0
1070
   143
1040
0.039
1070
   172
1070
     1
1070
   271
1070
     0
1070
   279
1070
     0
1070
   288
1070
     1
1002
}
  0
DIMENSION
  5
7D4B
  8
3
  2
*D4
 10
1603.0601098415179
 20
1251.8436183406641
 30
0.0
 11
1565.560109841517
 21
1476.843618340665
 31
0.0
 70
     0
 13
1277.149554202043
 23
1701.843618340665
 33
0.0
 14
1200.6894278515581
 24
1251.8436183406641
 34
0.0
 50
270.0
1001
ACAD
1000
DSTYLE
1002
{
1070
   287
1070
     3
1070
    40
1040
15.0
1070
   143
1040
0.039
1070
   172
1070
     1
1070
   271
1070
     0
1070
   279
1070
     0
1070
   288
1070
     1
1002
}
  0
LINE
  5
7D4C
  8
1
 10
1170.6894278515581
 20
1645.0436183406639
 30
0.0
 11
1170.689427851557
 21
1326.8436183406641
 31
0.0
  0
LINE
  5
7D4D
  8
1
 10
2286.5473846318582
 20
1573.8436183406641
 30
0.0
 11
2286.5473846318582
 21
1386.8436183406629
 31
0.0
  0
LINE
  5
7D4E
  8
1
 10
2021.547384631858
 20
1801.8436183406629
 30
0.0
 11
2021.547384631858
 21
1326.8436183406641
 31
0.0
  0
LINE
  5
7D4F
  8
1
 10
1929.547384631858
 20
1801.8436183406629
 30
0.0
 11
1929.547384631858
 21
1326.8436183406629
 31
0.0
  0
LINE
  5
7D50
  8
1
 10
2009.547384631858
 20
1654.443618340664
 30
0.0
 11
2009.547384631858
 21
1375.243618340663
 31
0.0
  0
LINE
  5
7D51
  8
1
 10
1959.547384631858
 20
1654.443618340664
 30
0.0
 11
1959.547384631858
 21
1375.243618340663
 31
0.0
  0
LINE
  5
7D52
  8
1
 10
2014.547384631858
 20
1440.3436183406629
 30
0.0
 11
2014.547384631858
 21
1513.3436183406629
 31
0.0
  0
LINE
  5
7D53
  8
1
 10
2024.547384631858
 20
1573.8436183406641
 30
0.0
 11
2024.547384631858
 21
1386.8436183406629
 31
0.0
  0
LINE
  5
7D57
  8
1
 10
1240.6894278515581
 20
1343.7329915451071
 30
0.0
 11
1200.6894278515581
 21
1348.467685422658
 31
0.0
  0
LINE
  5
7D5C
  8
1
 10
1200.6894278515581
 20
1401.8436183406641
 30
0.0
 11
1200.6894278515581
 21
1251.8436183406641
 31
0.0
  0
LINE
  5
7D5D
  8
1
 10
1170.6894278515581
 20
1331.8436183406641
 30
0.0
 11
1200.6894278515581
 21
1331.8436183406641
 31
0.0
  0
LINE
  5
7D5E
  8
1
 10
1170.689427851557
 20
1401.8436183406641
 30
0.0
 11
1200.6894278515581
 21
1401.8436183406641
 31
0.0
  0
LINE
  5
7D5F
  8
1
 10
1240.6894278515581
 20
1352.8028020141339
 30
0.0
 11
1240.6894278515581
 21
1353.8028020141339
 31
0.0
  0
LINE
  5
7D60
  8
1
 10
1240.689427851557
 20
1348.23244866562
 30
0.0
 11
1240.689427851557
 21
1349.23244866562
 31
0.0
  0
LINE
  5
7D61
  8
1
 10
1258.689427851557
 20
1346.23244866562
 30
0.0
 11
1242.689427851557
 21
1346.23244866562
 31
0.0
  0
LINE
  5
7D62
  8
1
 10
1265.689427851557
 20
1349.23244866562
 30
0.0
 11
1265.689427851557
 21
1324.23244866562
 31
0.0
  0
LINE
  5
7D63
  8
1
 10
1262.689427851557
 20
1326.23244866562
 30
0.0
 11
1262.689427851557
 21
1342.23244866562
 31
0.0
  0
ARC
  5
7D64
  8
1
 10
1258.689427851557
 20
1342.23244866562
 30
0.0
 40
4.0
 50
0.0
 51
90.0
  0
LINE
  5
7D66
  8
1
 10
1265.689427851557
 20
1324.23244866562
 30
0.0
 11
1264.689427851557
 21
1324.23244866562
 31
0.0
  0
ARC
  5
7D67
  8
1
 10
1264.689427851557
 20
1326.23244866562
 30
0.0
 40
2.0
 50
180.0
 51
270.0
  0
LINE
  5
7D68
  8
1
 10
1240.689427851557
 20
1349.23244866562
 30
0.0
 11
1265.689427851557
 21
1349.23244866562
 31
0.0
  0
ARC
  5
7D69
  8
1
 10
1242.689427851557
 20
1348.23244866562
 30
0.0
 40
2.0
 50
180.0
 51
270.0
  0
LINE
  5
7D6B
  8
1
 10
2009.547384631858
 20
1375.243618340663
 30
0.0
 11
1959.547384631858
 21
1375.243618340663
 31
0.0
  0
LINE
  5
7D6C
  8
1
 10
1929.547384631858
 20
1326.8436183406629
 30
0.0
 11
2021.547384631858
 21
1326.8436183406629
 31
0.0
  0
LINE
  5
7D6D
  8
2
 10
2308.2416921434919
 20
1476.8436183406629
 30
0.0
 11
1906.637561064304
 21
1476.8436183406629
 31
0.0
  0
LINE
  5
7D6F
  8
1
 10
2024.547384631858
 20
1386.8436183406629
 30
0.0
 11
2286.5473846318582
 21
1386.8436183406629
 31
0.0
  0
LINE
  5
7D70
  8
1
 10
2044.547384631858
 20
1386.8436183406629
 30
0.0
 11
2044.547384631858
 21
1326.8436183406641
 31
0.0
  0
LINE
  5
7D72
  8
1
 10
2002.547384631858
 20
1326.8436183406641
 30
0.0
 11
2002.547384631858
 21
1251.8436183406641
 31
0.0
  0
LINE
  5
7D73
  8
1
 10
2014.547384631858
 20
1464.3436183406629
 30
0.0
 11
2009.547384631858
 21
1464.3436183406629
 31
0.0
  0
ARC
  5
7D74
  8
1
 10
2015.547484631858
 20
1440.3436183406629
 30
0.0
 40
1.0000999999999991
 50
180.0
 51
269.99650000000003
  0
ARC
  5
7D75
  8
1
 10
2023.547384631858
 20
1438.3436183406629
 30
0.0
 40
1.0000999999999991
 50
0.0
 51
89.996500000000054
  0
LINE
  5
7D76
  8
1
 10
2015.547384631858
 20
1439.3436183406641
 30
0.0
 11
2023.547384631858
 21
1439.3436183406641
 31
0.0
  0
LINE
  5
7D77
  8
1
 10
2014.547384631858
 20
1489.3436183406629
 30
0.0
 11
2009.547384631858
 21
1489.3436183406629
 31
0.0
  0
LINE
  5
7D78
  8
1
 10
2009.547384631858
 20
1489.3436183406629
 30
0.0
 11
2009.547384631858
 21
1464.3436183406629
 31
0.0
  0
LINE
  5
7D79
  8
1
 10
1240.6894278515581
 20
1685.843618340665
 30
0.0
 11
1216.9835632769259
 21
1685.843618340665
 31
0.0
  0
LINE
  5
7D7A
  8
1
 10
1265.6894278515581
 20
1675.8436183406641
 30
0.0
 11
1203.2726750764839
 21
1675.8436183406641
 31
0.0
  0
LINE
  5
7D7C
  8
1
 10
1170.6894278515581
 20
1600.5436183406639
 30
0.0
 11
1240.6894278515581
 21
1600.5436183406639
 31
0.0
  0
LINE
  5
7D7D
  8
1
 10
1170.6894278515581
 20
1605.043618340665
 30
0.0
 11
1240.6894278515581
 21
1605.0436183406639
 31
0.0
  0
LINE
  5
7D7E
  8
1
 10
1220.689427851559
 20
1645.0436183406639
 30
0.0
 11
1220.689427851559
 21
1605.0436183406639
 31
0.0
  0
ARC
  5
7D7F
  8
1
 10
1039.189427851559
 20
1720.343618340665
 30
0.0
 40
181.11047620624669
 50
349.01853306424351
 51
359.99999999999972
  0
ARC
  5
7D80
  8
1
 10
1039.1894278515581
 20
1720.3436183406641
 30
0.0
 40
170.010476206249
 50
344.82615823122188
 51
0.0000000000004071
  0
LINE
  5
7D81
  8
1
 10
1180.6894278515581
 20
1648.2436183406639
 30
0.0
 11
1180.6894278515581
 21
1645.0436183406639
 31
0.0
  0
LINE
  5
7D82
  8
1
 10
1265.6894278515581
 20
1679.23244866562
 30
0.0
 11
1265.6894278515581
 21
1704.23244866562
 31
0.0
  0
ARC
  5
7D83
  8
1
 10
1258.6894278515581
 20
1686.23244866562
 30
0.0
 40
4.0
 50
270.0
 51
0.0
  0
LINE
  5
7D84
  8
1
 10
1240.6894278515581
 20
1680.23244866562
 30
0.0
 11
1240.6894278515581
 21
1679.23244866562
 31
0.0
  0
LINE
  5
7D85
  8
1
 10
1240.6894278515581
 20
1685.843618340665
 30
0.0
 11
1240.6894278515581
 21
1679.23244866562
 31
0.0
  0
LINE
  5
7D86
  8
1
 10
1258.6894278515581
 20
1682.23244866562
 30
0.0
 11
1242.6894278515581
 21
1682.23244866562
 31
0.0
  0
ARC
  5
7D87
  8
1
 10
1242.6894278515581
 20
1680.23244866562
 30
0.0
 40
2.0
 50
90.0
 51
180.0
  0
LINE
  5
7D88
  8
1
 10
1262.6894278515581
 20
1702.23244866562
 30
0.0
 11
1262.6894278515581
 21
1686.23244866562
 31
0.0
  0
ARC
  5
7D89
  8
1
 10
1264.6894278515581
 20
1702.23244866562
 30
0.0
 40
2.0
 50
90.0
 51
180.0
  0
LINE
  5
7D8A
  8
1
 10
1265.6894278515581
 20
1704.23244866562
 30
0.0
 11
1264.6894278515581
 21
1704.23244866562
 31
0.0
  0
LINE
  5
7D8B
  8
1
 10
2009.547384631858
 20
1578.443618340664
 30
0.0
 11
1959.547384631858
 21
1578.443618340664
 31
0.0
  0
LINE
  5
7D8C
  8
1
 10
1929.547384631858
 20
1801.8436183406641
 30
0.0
 11
2021.547384631858
 21
1801.8436183406641
 31
0.0
  0
LINE
  5
7D8D
  8
1
 10
2009.547384631858
 20
1638.3436183406641
 30
0.0
 11
1959.547384631858
 21
1638.3436183406641
 31
0.0
  0
LINE
  5
7D8E
  8
1
 10
2009.547384631858
 20
1765.3436183406641
 30
0.0
 11
1959.547384631858
 21
1765.3436183406641
 31
0.0
  0
LINE
  5
7D8F
  8
1
 10
1959.547384631858
 20
1765.3436183406641
 30
0.0
 11
1959.547384631858
 21
1638.3436183406641
 31
0.0
  0
LINE
  5
7D90
  8
1
 10
1959.547384631858
 20
1583.8436183406641
 30
0.0
 11
1959.547384631858
 21
1559.8436183406641
 31
0.0
  0
LINE
  5
7D99
  8
1
 10
2009.547384631858
 20
1765.3436183406641
 30
0.0
 11
2009.547384631858
 21
1638.3436183406641
 31
0.0
  0
LINE
  5
7D9B
  8
1
 10
2024.547384631858
 20
1573.8436183406641
 30
0.0
 11
2286.5473846318582
 21
1573.8436183406641
 31
0.0
  0
LINE
  5
7D9D
  8
1
 10
2044.547384631858
 20
1645.043618340663
 30
0.0
 11
2044.547384631858
 21
1573.8436183406641
 31
0.0
  0
LINE
  5
7D9E
  8
1
 10
2014.547384631858
 20
1513.3436183406629
 30
0.0
 11
2024.547384631858
 21
1513.3436183406629
 31
0.0
  0
LINE
  5
7DAA
  8
1
 10
2034.547384631858
 20
1648.2436183406639
 30
0.0
 11
2034.547384631858
 21
1645.043618340663
 31
0.0
  0
LINE
  5
7DB6
  8
1
 10
957.1894278515573
 20
2560.8566110719189
 30
0.0
 11
1084.189427851557
 21
2560.856611071918
 31
0.0
  0
LINE
  5
7DB7
  8
1
 10
957.1894278515573
 20
2510.8566110719189
 30
0.0
 11
1084.189427851557
 21
2510.856611071918
 31
0.0
  0
LINE
  5
7DBA
  8
1
 10
1120.689427851557
 20
2480.8566110719189
 30
0.0
 11
390.6894278515565
 21
2480.8566110719189
 31
0.0
  0
LINE
  5
7DBB
  8
1
 10
1120.689427851557
 20
2572.8566110719189
 30
0.0
 11
390.6894278515565
 21
2572.8566110719189
 31
0.0
  0
LINE
  5
7DBC
  8
2
 10
720.65816630419249
 20
3168.8566110719189
 30
0.0
 11
1270.288547877773
 21
3168.8566110719189
 31
0.0
  0
LINE
  5
7DBD
  8
1
 10
880.68942785155832
 20
3288.8566110719189
 30
0.0
 11
1160.689427851557
 21
3288.8566110719189
 31
0.0
  0
LINE
  5
7DBE
  8
1
 10
744.12454697087514
 20
3286.8566110719189
 30
0.0
 11
1261.689427851556
 21
3286.856611071918
 31
0.0
  0
LINE
  5
7DBF
  8
1
 10
744.12454697087514
 20
3050.8566110719189
 30
0.0
 11
1261.689427851556
 21
3050.8566110719189
 31
0.0
  0
LINE
  5
7DC2
  8
1
 10
1180.689427851556
 20
2995.856611071918
 30
0.0
 11
1038.189427851557
 21
2995.856611071918
 31
0.0
  0
LINE
  5
7DC3
  8
1
 10
1180.689427851557
 20
2585.856611071918
 30
0.0
 11
1038.189427851557
 21
2585.856611071918
 31
0.0
  0
LINE
  5
7DCE
  8
1
 10
840.68942785155764
 20
2933.8566110719189
 30
0.0
 11
840.68942785155741
 21
3050.8566110719189
 31
0.0
  0
LINE
  5
7DCF
  8
1
 10
860.6894278515573
 20
2585.856611071918
 30
0.0
 11
860.6894278515573
 21
2995.856611071918
 31
0.0
  0
LINE
  5
7DD0
  8
2
 10
1020.689427851557
 20
3321.03799108059
 30
0.0
 11
1020.689427851557
 21
2471.6903077960119
 31
0.0
  0
LINE
  5
7DD2
  8
1
 10
840.68942785155741
 20
2933.856611071918
 30
0.0
 11
400.68942785155741
 21
2933.856611071918
 31
0.0
  0
LINE
  5
7DD4
  8
2
 10
540.68942785155639
 20
2841.7936110719188
 30
0.0
 11
540.68942785155639
 21
2505.822011071919
 31
0.0
  0
LINE
  5
7DD5
  8
1
 10
439.68942785155639
 20
2837.8566110719189
 30
0.0
 11
439.68942785155639
 21
2575.8566110719189
 31
0.0
  0
LINE
  5
7DD6
  8
1
 10
641.6894278515565
 20
2837.8566110719189
 30
0.0
 11
641.6894278515565
 21
2575.8566110719189
 31
0.0
  0
LINE
  5
7DD7
  8
1
 10
504.1894278515565
 20
2565.8566110719189
 30
0.0
 11
577.18942785155639
 21
2565.8566110719189
 31
0.0
  0
LINE
  5
7DD8
  8
1
 10
623.28942785155675
 20
2560.8566110719189
 30
0.0
 11
458.08942785155699
 21
2560.8566110719189
 31
0.0
  0
LINE
  5
7DD9
  8
1
 10
623.28942785155675
 20
2510.856611071918
 30
0.0
 11
458.08942785155699
 21
2510.856611071918
 31
0.0
  0
LINE
  5
7DDA
  8
1
 10
641.6894278515565
 20
2575.8566110719189
 30
0.0
 11
439.68942785155639
 21
2575.8566110719189
 31
0.0
  0
LINE
  5
7DDD
  8
1
 10
390.6894278515565
 20
2480.8566110719189
 30
0.0
 11
390.6894278515565
 21
2572.856611071918
 31
0.0
  0
LINE
  5
7DDE
  8
1
 10
458.08942785155699
 20
2560.8566110719189
 30
0.0
 11
458.08942785155699
 21
2510.856611071918
 31
0.0
  0
ARC
  5
7DDF
  8
1
 10
502.18942785155639
 20
2574.8566110719189
 30
0.0
 40
1.0000999999999991
 50
0.0034999999999464
 51
90.0
  0
ARC
  5
7DE0
  8
1
 10
504.1894278515565
 20
2566.8567110719191
 30
0.0
 40
1.0000999999999991
 50
180.00349999999989
 51
270.0
  0
LINE
  5
7DE1
  8
1
 10
503.18942785155639
 20
2566.8566110719189
 30
0.0
 11
503.18942785155639
 21
2574.8566110719189
 31
0.0
  0
LINE
  5
7DE3
  8
1
 10
552.68942785155639
 20
2510.8566110719189
 30
0.0
 11
528.6894278515565
 21
2510.8566110719189
 31
0.0
  0
LINE
  5
7DE4
  8
1
 10
528.18942785155639
 20
2565.8566110719189
 30
0.0
 11
528.18942785155639
 21
2560.8566110719189
 31
0.0
  0
LINE
  5
7DE5
  8
1
 10
553.18942785155639
 20
2565.8566110719189
 30
0.0
 11
553.18942785155639
 21
2560.8566110719189
 31
0.0
  0
LINE
  5
7DE6
  8
1
 10
553.18942785155639
 20
2560.8566110719189
 30
0.0
 11
528.18942785155639
 21
2560.8566110719189
 31
0.0
  0
LINE
  5
7DE7
  8
1
 10
577.18942785155639
 20
2565.8566110719189
 30
0.0
 11
577.18942785155639
 21
2575.8566110719189
 31
0.0
  0
LINE
  5
7DE8
  8
1
 10
623.28942785155675
 20
2560.8566110719189
 30
0.0
 11
623.28942785155675
 21
2510.856611071918
 31
0.0
  0
LINE
  5
7DE9
  8
1
 10
641.6894278515565
 20
2837.8566110719189
 30
0.0
 11
439.68942785155639
 21
2837.8566110719189
 31
0.0
  0
LINE
  5
7DEA
  8
1
 10
400.68942785155548
 20
2553.856611071918
 30
0.0
 11
400.68942785155559
 21
2933.856611071918
 31
0.0
  0
POINT
  5
7DEB
  8
1
 10
400.68942785155559
 20
2933.856611071918
 30
0.0
  0
LINE
  5
7DEE
  8
1
 10
1038.189427851557
 20
3050.8566110719189
 30
0.0
 11
1038.189427851557
 21
2560.856611071918
 31
0.0
  0
LINE
  5
7DEF
  8
1
 10
1003.189427851557
 20
3050.8566110719189
 30
0.0
 11
1003.189427851557
 21
2560.856611071918
 31
0.0
  0
LINE
  5
7DF0
  8
1
 10
957.1894278515573
 20
2560.8566110719189
 30
0.0
 11
957.1894278515573
 21
2510.856611071918
 31
0.0
  0
LINE
  5
7DF6
  8
1
 10
744.12454697087514
 20
3050.8566110719189
 30
0.0
 11
744.12454697087514
 21
3286.8566110719189
 31
0.0
  0
LINE
  5
7DFC
  8
1
 10
840.68942785155741
 20
3286.8566110719189
 30
0.0
 11
840.68942785155741
 21
3333.8566110719189
 31
0.0
  0
POINT
  5
7DFD
  8
1
 10
840.68942785155741
 20
3333.8566110719189
 30
0.0
  0
LINE
  5
7DFF
  8
1
 10
1200.689427851556
 20
3050.8566110719189
 30
0.0
 11
1200.689427851556
 21
2553.856611071918
 31
0.0
  0
LINE
  5
7E01
  8
1
 10
1180.689427851557
 20
2585.856611071918
 30
0.0
 11
1180.689427851557
 21
2995.856611071918
 31
0.0
  0
LINE
  5
7E04
  8
1
 10
1200.689427851557
 20
2553.856611071918
 30
0.0
 11
400.68942785155548
 21
2553.856611071918
 31
0.0
  0
LINE
  5
7E05
  8
1
 10
1084.189427851557
 20
2560.856611071918
 30
0.0
 11
1084.189427851557
 21
2510.856611071918
 31
0.0
  0
LINE
  5
7E06
  8
1
 10
1120.689427851557
 20
2480.8566110719189
 30
0.0
 11
1120.689427851557
 21
2572.8566110719189
 31
0.0
  0
POINT
  5
7E07
  8
1
 10
1200.689427851556
 20
2553.856611071918
 30
0.0
  0
LINE
  5
7E0B
  8
1
 10
1261.689427851556
 20
3023.856611071918
 30
0.0
 11
1261.689427851556
 21
3313.8566110719189
 31
0.0
  0
LINE
  5
7E0C
  8
1
 10
1264.689427851556
 20
3023.856611071918
 30
0.0
 11
1264.689427851556
 21
3313.8566110719189
 31
0.0
  0
LINE
  5
7E0E
  8
1
 10
1261.689427851556
 20
3023.856611071918
 30
0.0
 11
1264.689427851556
 21
3023.856611071918
 31
0.0
  0
LINE
  5
7E0F
  8
1
 10
840.68942785155741
 20
3333.8566110719189
 30
0.0
 11
1200.689427851557
 21
3333.8566110719189
 31
0.0
  0
LINE
  5
7E11
  8
1
 10
1200.689427851557
 20
3333.8566110719189
 30
0.0
 11
1200.689427851557
 21
3286.8566110719189
 31
0.0
  0
POINT
  5
7E12
  8
1
 10
1200.689427851557
 20
3333.8566110719189
 30
0.0
  0
POINT
  5
7E13
  8
1
 10
1200.689427851557
 20
3333.8566110719189
 30
0.0
  0
LINE
  5
7E14
  8
1
 10
1261.689427851556
 20
3313.8566110719189
 30
0.0
 11
1264.689427851556
 21
3313.856611071918
 31
0.0
  0
LINE
  5
7E15
  8
1
 10
2737.5473846318569
 20
1349.2324486656189
 30
0.0
 11
2499.5473846318582
 21
1674.4547880157079
 31
0.0
  0
LINE
  5
7E16
  8
1
 10
2735.5473846318582
 20
1674.4547880157079
 30
0.0
 11
2497.5473846318582
 21
1349.2324486656189
 31
0.0
  0
LINE
  5
7E17
  8
1
 10
2737.5473846318591
 20
1674.4547880157079
 30
0.0
 11
2737.5473846318582
 21
1465.884714112834
 31
0.0
  0
LINE
  5
7E18
  8
1
 10
2737.5473846318582
 20
1674.4547880157079
 30
0.0
 11
2737.5473846318582
 21
1349.2324486656189
 31
0.0
  0
LINE
  5
7E19
  8
1
 10
2735.5473846318582
 20
1674.4547880157079
 30
0.0
 11
2735.5473846318582
 21
1465.884714112834
 31
0.0
  0
LINE
  5
7E1A
  8
1
 10
2735.5473846318582
 20
1674.4547880157079
 30
0.0
 11
2735.5473846318582
 21
1349.2324486656189
 31
0.0
  0
LINE
  5
7E1B
  8
1
 10
2499.5473846318582
 20
1674.4547880157079
 30
0.0
 11
2499.5473846318582
 21
1465.884714112834
 31
0.0
  0
LINE
  5
7E1C
  8
1
 10
2497.5473846318582
 20
1674.4547880157079
 30
0.0
 11
2497.5473846318582
 21
1465.884714112834
 31
0.0
  0
LINE
  5
7E1D
  8
1
 10
2499.5473846318582
 20
1674.4547880157079
 30
0.0
 11
2499.5473846318582
 21
1349.2324486656189
 31
0.0
  0
LINE
  5
7E1E
  8
1
 10
2497.5473846318582
 20
1674.4547880157079
 30
0.0
 11
2497.5473846318582
 21
1349.2324486656189
 31
0.0
  0
LINE
  5
7E1F
  8
1
 10
2737.5473846318591
 20
1674.4547880157079
 30
0.0
 11
2737.5473846318569
 21
1349.2324486656189
 31
0.0
  0
LINE
  5
7E20
  8
1
 10
2497.5473846318569
 20
1674.4547880157079
 30
0.0
 11
2497.5473846318582
 21
1349.2324486656189
 31
0.0
  0
LINE
  5
7E21
  8
1
 10
2472.5473846318569
 20
1699.4547880157079
 30
0.0
 11
2472.5473846318582
 21
1324.2324486656189
 31
0.0
  0
LINE
  5
7E22
  8
1
 10
2762.5473846318591
 20
1699.4547880157079
 30
0.0
 11
2762.5473846318569
 21
1324.2324486656189
 31
0.0
  0
LINE
  5
7E23
  8
2
 10
2617.5473846318582
 20
1993.4715107429961
 30
0.0
 11
2617.5473846318582
 21
1251.8436183406641
 31
0.0
  0
LINE
  5
7E24
  8
1
 10
2434.5473846318569
 20
1643.7436183406639
 30
0.0
 11
2434.5473846318569
 21
1326.8436183406641
 31
0.0
  0
LINE
  5
7E26
  8
1
 10
2497.5473846318582
 20
1349.2324486656189
 30
0.0
 11
2737.5473846318569
 21
1349.2324486656189
 31
0.0
  0
LINE
  5
7E27
  8
1
 10
2497.5473846318582
 20
1349.2324486656189
 30
0.0
 11
2737.5473846318569
 21
1349.2324486656189
 31
0.0
  0
LINE
  5
7E28
  8
1
 10
2472.5473846318582
 20
1324.2324486656189
 30
0.0
 11
2762.5473846318569
 21
1324.2324486656189
 31
0.0
  0
LINE
  5
7E29
  8
1
 10
2499.5473846318569
 20
1349.2324486656189
 30
0.0
 11
2735.5473846318582
 21
1349.2324486656189
 31
0.0
  0
LINE
  5
7E2B
  8
1
 10
2782.5473846318569
 20
1326.8436183406641
 30
0.0
 11
2782.5473846318569
 21
1251.8436183406641
 31
0.0
  0
LINE
  5
7E2C
  8
1
 10
2762.5473846318569
 20
1326.8436183406641
 30
0.0
 11
2782.5473846318569
 21
1326.8436183406641
 31
0.0
  0
DIMENSION
  5
7E2E
  8
3
  2
*D5
 10
2735.5473846318582
 20
1985.682291594349
 30
0.0
 11
2617.5473846318582
 21
2023.182291594349
 31
0.0
 70
     0
 13
2499.5473846318582
 23
1938.8084992213451
 33
0.0
 14
2735.5473846318582
 24
1938.8084992213451
 34
0.0
1001
ACAD
1000
DSTYLE
1002
{
1070
   287
1070
     3
1070
    40
1040
15.0
1070
   143
1040
0.039
1070
   172
1070
     1
1070
   271
1070
     0
1070
   279
1070
     0
1070
   288
1070
     1
1002
}
  0
LINE
  5
7E2F
  8
1
 10
2497.5473846318582
 20
1674.4547880157079
 30
0.0
 11
2738.5473846318582
 21
1674.4547880157079
 31
0.0
  0
LINE
  5
7E30
  8
1
 10
2499.5473846318582
 20
1924.8025225684939
 30
0.0
 11
2735.5473846318582
 21
1924.8025225684939
 31
0.0
  0
LINE
  5
7E31
  8
1
 10
2472.5473846318582
 20
1699.4547880157079
 30
0.0
 11
2762.5473846318582
 21
1699.4547880157079
 31
0.0
  0
LINE
  5
7E32
  8
1
 10
2499.5473846318582
 20
1938.8084992213451
 30
0.0
 11
2499.5473846318582
 21
1724.4547880157079
 31
0.0
  0
LINE
  5
7E33
  8
1
 10
2497.5473846318582
 20
1938.8084992213451
 30
0.0
 11
2497.5473846318582
 21
1724.4547880157079
 31
0.0
  0
POLYLINE
  5
7E3D
  8
1
 66
     1
 10
0.0
 20
0.0
 30
0.0
 70
     1
  0
VERTEX
  5
87A9
  8
1
 10
2434.5473846318569
 20
1605.0436183406639
 30
0.0
  0
VERTEX
  5
87AA
  8
1
 10
2434.5473846318569
 20
1645.0436183406639
 30
0.0
  0
VERTEX
  5
87AB
  8
1
 10
2436.5473846318569
 20
1645.0436183406639
 30
0.0
 42
-0.4142135623730951
  0
VERTEX
  5
87AC
  8
1
 10
2439.5473846318569
 20
1642.0436183406639
 30
0.0
  0
VERTEX
  5
87AD
  8
1
 10
2439.5473846318569
 20
1614.543618340663
 30
0.0
 42
0.4142135623730951
  0
VERTEX
  5
87AE
  8
1
 10
2444.0473846318569
 20
1610.0436183406639
 30
0.0
  0
VERTEX
  5
87AF
  8
1
 10
2471.5473846318569
 20
1610.0436183406639
 30
0.0
 42
-0.4142135623730951
  0
VERTEX
  5
87B0
  8
1
 10
2474.5473846318569
 20
1607.0436183406639
 30
0.0
  0
VERTEX
  5
87B1
  8
1
 10
2474.5473846318569
 20
1605.0436183406639
 30
0.0
  0
SEQEND
  5
87B2
  8
1
  0
LINE
  5
7E48
  8
1
 10
2434.5473846318569
 20
1643.7436183406639
 30
0.0
 11
2434.5473846318569
 21
1593.7436183406639
 31
0.0
  0
LINE
  5
7E49
  8
1
 10
2434.5473846318569
 20
1643.7436183406651
 30
0.0
 11
2434.5473846318569
 21
1603.7436183406639
 31
0.0
  0
LINE
  5
7E4A
  8
1
 10
2447.5473846318582
 20
1605.0436183406639
 30
0.0
 11
2497.5473846318582
 21
1605.0436183406639
 31
0.0
  0
LINE
  5
7E4B
  8
1
 10
2447.5473846318582
 20
1599.043618340663
 30
0.0
 11
2497.5473846318582
 21
1599.043618340663
 31
0.0
  0
LINE
  5
7E4C
  8
1
 10
2447.5473846318582
 20
1599.043618340663
 30
0.0
 11
2447.5473846318582
 21
1603.7436183406639
 31
0.0
  0
LINE
  5
7E4D
  8
1
 10
2447.5473846318582
 20
1605.0436183406639
 30
0.0
 11
2447.5473846318582
 21
1599.043618340663
 31
0.0
  0
LINE
  5
7E4E
  8
1
 10
2472.5473846318582
 20
1684.3436183406641
 30
0.0
 11
2009.547384631858
 21
1684.3436183406641
 31
0.0
  0
LINE
  5
7E4F
  8
1
 10
2497.5473846318582
 20
1719.3436183406641
 30
0.0
 11
2009.547384631858
 21
1719.3436183406641
 31
0.0
  0
LINE
  5
7E62
  8
1
 10
2444.5473846318569
 20
1648.2436183406639
 30
0.0
 11
2444.547384631855
 21
1645.0436183406639
 31
0.0
  0
LINE
  5
7E63
  8
1
 10
2499.5473846318582
 20
1704.2324486656189
 30
0.0
 11
2499.5473846318582
 21
1699.4547880157079
 31
0.0
  0
LINE
  5
7E64
  8
1
 10
2497.5473846318582
 20
1704.2324486656189
 30
0.0
 11
2497.5473846318582
 21
1699.4547880157079
 31
0.0
  0
LINE
  5
7E65
  8
1
 10
2497.5473846318582
 20
1724.4547880157079
 30
0.0
 11
2497.5473846318582
 21
1699.4547880157079
 31
0.0
  0
LINE
  5
7E66
  8
1
 10
2499.5473846318582
 20
1724.4547880157079
 30
0.0
 11
2499.5473846318582
 21
1699.4547880157079
 31
0.0
  0
LINE
  5
7E67
  8
1
 10
2497.5473846318582
 20
1938.8084992213451
 30
0.0
 11
2499.5473846318582
 21
1938.8084992213451
 31
0.0
  0
LINE
  5
7E68
  8
1
 10
2741.5473846318582
 20
1883.3436451048899
 30
0.0
 11
2741.5473846318582
 21
1699.4547880157079
 31
0.0
  0
LINE
  5
7E69
  8
1
 10
2738.5473846318582
 20
1885.3436451048899
 30
0.0
 11
2738.5473846318582
 21
1699.4547880157079
 31
0.0
  0
LINE
  5
7E6A
  8
1
 10
2735.5473846318582
 20
1938.8084992213451
 30
0.0
 11
2735.5473846318582
 21
1724.4547880157079
 31
0.0
  0
LINE
  5
7E6B
  8
1
 10
2737.5473846318582
 20
1938.8084992213451
 30
0.0
 11
2737.5473846318582
 21
1724.4547880157079
 31
0.0
  0
DIMENSION
  5
7E6C
  8
3
  2
*D6
 10
2896.8384513163778
 20
1544.3436183406641
 30
0.0
 11
2896.8384513163778
 21
1689.3457858707691
 31
0.0
 70
   128
 13
2763.5473846318582
 23
1859.3436183406641
 33
0.0
 14
2763.5473846318582
 24
1544.3436183406641
 34
0.0
 50
90.0
1001
ACAD
1000
DSTYLE
1002
{
1070
   287
1070
     3
1070
     3
1000
φ<>
1070
    40
1040
15.0
1070
   143
1040
0.039
1070
   172
1070
     1
1070
   271
1070
     0
1070
   279
1070
     0
1070
   288
1070
     1
1002
}
  0
LINE
  5
7E6D
  8
1
 10
2763.5473846318582
 20
1544.3436183406641
 30
0.0
 11
2763.5473846318582
 21
1860.3436451048899
 31
0.0
  0
LINE
  5
7E6E
  8
1
 10
2763.5473846318582
 20
1544.3436183406641
 30
0.0
 11
2762.5473846318582
 21
1544.3436183406641
 31
0.0
  0
LINE
  5
7E6F
  8
1
 10
2735.5473846318582
 20
1704.2324486656189
 30
0.0
 11
2735.5473846318582
 21
1699.4547880157079
 31
0.0
  0
LINE
  5
7E70
  8
1
 10
2737.5473846318582
 20
1704.2324486656189
 30
0.0
 11
2737.5473846318582
 21
1699.4547880157079
 31
0.0
  0
LINE
  5
7E71
  8
1
 10
2737.5473846318591
 20
1724.4547880157079
 30
0.0
 11
2737.5473846318582
 21
1699.4547880157079
 31
0.0
  0
LINE
  5
7E72
  8
1
 10
2735.5473846318582
 20
1724.4547880157079
 30
0.0
 11
2735.5473846318582
 21
1699.4547880157079
 31
0.0
  0
LINE
  5
7E73
  8
1
 10
2741.5473846318582
 20
1867.3436451048899
 30
0.0
 11
2741.5473846318582
 21
1883.3436451048899
 31
0.0
  0
LINE
  5
7E74
  8
1
 10
2761.5473846318582
 20
1863.3436451048899
 30
0.0
 11
2745.5473846318582
 21
1863.3436451048899
 31
0.0
  0
ARC
  5
7E75
  8
1
 10
2745.5473846318582
 20
1867.3436451048899
 30
0.0
 40
4.0
 50
180.0
 51
270.0
  0
ARC
  5
7E76
  8
1
 10
2761.5473846318582
 20
1861.3436451048899
 30
0.0
 40
2.0
 50
0.0
 51
90.0
  0
LINE
  5
7E77
  8
1
 10
2735.5473846318582
 20
1938.8084992213451
 30
0.0
 11
2737.5473846318569
 21
1938.8084992213451
 31
0.0
  0
ARC
  5
7E78
  8
1
 10
2739.5473846318582
 20
1883.3436451048899
 30
0.0
 40
2.0
 50
0.0
 51
90.0
  0
LINE
  5
7E79
  8
1
 10
2739.5473846318582
 20
1885.3436451048899
 30
0.0
 11
2738.5473846318582
 21
1885.3436451048899
 31
0.0
  0
LINE
  5
80C8
  8
4
 10
2775.0
 20
750.0
 30
0.0
 11
2775.0
 21
450.0
 31
0.0
  0
LINE
  5
80C9
  8
4
 10
1725.0
 20
750.0
 30
0.0
 11
1725.0
 21
450.0
 31
0.0
  0
LINE
  5
80CA
  8
4
 10
975.0
 20
750.0
 30
0.0
 11
975.0
 21
450.0
 31
0.0
  0
LINE
  5
80CD
  8
4
 10
975.0
 20
450.0
 30
0.0
 11
2775.0
 21
450.0
 31
0.0
  0
LINE
  5
80CE
  8
4
 10
975.0
 20
600.0
 30
0.0
 11
2775.0
 21
600.0
 31
0.0
  0
TEXT
  5
80CF
  8
4
 10
1032.753121270352
 20
647.31453879991932
 30
0.0
 40
75.0
  1
機器名称
  0
TEXT
  5
80D0
  8
4
 10
1029.3871590371959
 20
482.46773509801642
 30
0.0
 40
75.0
  1
機器型番
  0
TEXT
  5
80D1
  8
4
 10
1732.1895767098961
 20
633.28095353542062
 30
0.0
 40
67.5
  1
ミツヤリミットロ－ﾄﾞファン
  0
TEXT
  5
80D2
  8
4
 10
1779.9817433782209
 20
475.739376419915
 30
0.0
 40
75.0
  1
LL#2-1
  0
TEXT
  5
80D4
  8
4
 10
1248.52110766282
 20
3575.1432619987731
 30
0.0
 40
80.999999999999986
  1
床置ベット
  0
TEXT
  5
80D5
  8
4
 10
444.25138999416959
 20
3800.8214642989469
 30
0.0
 40
108.0
  1
遠心式片吸込片持リミットロ－ﾄﾞファン
  0
LINE
  5
80D6
  8
4
 10
375.0
 20
3704.1131313972069
 30
0.0
 11
2775.0
 21
3704.1131313972069
 31
0.0
  0
LINE
  5
80D7
  8
4
 10
375.0
 20
4004.1131313972069
 30
0.0
 11
2775.0
 21
4004.1131313972069
 31
0.0
  0
LINE
  5
80D8
  8
4
 10
975.0
 20
750.0
 30
0.0
 11
2775.0
 21
750.0
 31
0.0
  0
LINE
  5
80D9
  8
4
 10
375.0
 20
4004.1131313972069
 30
0.0
 11
375.0
 21
3704.1131313972069
 31
0.0
  0
TEXT
  5
80DA
  8
4
 10
573.63697748216509
 20
3573.4792163195152
 30
0.0
 40
80.999999999999986
  1
左回転右横向
  0
TEXT
  5
80DB
  8
4
 10
2203.4543388739339
 20
4059.0916222429628
 30
0.0
 40
84.000000000000014
  1
No.
  0
TEXT
  5
80DC
  8
4
 10
1966.944093900019
 20
3575.1432619987731
 30
0.0
 40
80.999999999999986
  1
縮尺：1/15
  0
LINE
  5
80DD
  8
4
 10
2775.0
 20
4004.1131313972069
 30
0.0
 11
2775.0
 21
3704.1131313972069
 31
0.0
  0
LINE
  5
80DE
  8
4
 10
3150.0
 20
4425.0
 30
0.0
 11
3150.0
 21
4425.0
 31
0.0
  0
LINE
  5
80DF
  8
4
 10
2160.9261335397969
 20
4021.895374688102
 30
0.0
 11
2160.9261335397969
 21
4179.9783923246277
 31
0.0
  0
LINE
  5
80E0
  8
4
 10
2160.9261335397969
 20
4179.9783923246277
 30
0.0
 11
2775.0
 21
4179.9783923246277
 31
0.0
  0
LINE
  5
80E1
  8
4
 10
2775.0
 20
4179.9783923246277
 30
0.0
 11
2775.0
 21
4021.895374688102
 31
0.0
  0
LINE
  5
80E2
  8
4
 10
2775.0
 20
4021.895374688102
 30
0.0
 11
2160.9261335397969
 21
4021.895374688102
 31
0.0
  0
LINE
  5
80E3
  8
4
 10
0.0
 20
0.0
 30
0.0
 11
0.0
 21
4425.0
 31
0.0
  0
LINE
  5
80E4
  8
4
 10
0.0
 20
4425.0
 30
0.0
 11
3150.0
 21
4425.0
 31
0.0
  0
LINE
  5
80E5
  8
4
 10
3150.0
 20
4425.0
 30
0.0
 11
3150.0
 21
0.0
 31
0.0
  0
LINE
  5
80E6
  8
4
 10
3150.0
 20
0.0
 30
0.0
 11
0.0
 21
0.0
 31
0.0
  0
DIMENSION
  5
8562
  8
3
  2
*D8
 10
1603.0601098415179
 20
1927.8025225684939
 30
0.0
 11
1565.560109841517
 21
1814.823070454579
 31
0.0
 70
     0
 13
1277.149554202043
 23
1701.843618340665
 33
0.0
 14
1001.924475266867
 24
1927.8025225684939
 34
0.0
 50
90.0
1001
ACAD
1000
DSTYLE
1002
{
1070
   287
1070
     4
1070
    40
1040
15.0
1070
    75
1070
     1
1070
   143
1040
0.039
1070
   172
1070
     1
1070
   271
1070
     0
1070
   279
1070
     1
1070
   288
1070
     1
1002
}
  0
DIMENSION
  5
860A
  8
3
  2
*D9
 10
400.68942785155809
 20
2079.258861192975
 30
0.0
 11
819.3516620658902
 21
2079.258861192975
 31
0.0
 70
   128
 13
1265.6894278515581
 23
1704.23244866562
 33
0.0
 14
400.68942785155809
 24
1326.8436183406641
 34
0.0
1001
ACAD
1000
DSTYLE
1002
{
1070
   287
1070
     3
1070
    40
1040
15.0
1070
   143
1040
0.039
1070
   172
1070
     1
1070
   271
1070
     0
1070
   279
1070
     0
1070
   288
1070
     1
1002
}
  0
DIMENSION
  5
8622
  8
3
  2
*D10
 10
1929.547384631858
 20
2080.4811080444888
 30
0.0
 11
2303.4520846330629
 21
2080.4811080444888
 31
0.0
 70
   128
  1
MAX\P760
 13
2617.5473846318582
 23
2055.923263290123
 33
0.0
 14
1929.547384631858
 24
1801.8436183406641
 34
0.0
1001
ACAD
1000
DSTYLE
1002
{
1070
   287
1070
     3
1070
    40
1040
15.0
1070
   143
1040
0.039
1070
   172
1070
     1
1070
   271
1070
     0
1070
   279
1070
     0
1070
   288
1070
     1
1002
}
  0
DIMENSION
  5
863A
  8
3
  2
*D11
 10
840.68942785155741
 20
3430.3652799912911
 30
0.0
 11
1035.0997415782019
 21
3430.3652799912911
 31
0.0
 70
   128
 13
1200.689427851557
 23
3333.8566110719189
 33
0.0
 14
840.68942785155741
 24
3333.8566110719189
 34
0.0
1001
ACAD
1000
DSTYLE
1002
{
1070
   287
1070
     3
1070
    40
1040
15.0
1070
   143
1040
0.039
1070
   172
1070
     1
1070
   271
1070
     0
1070
   279
1070
     0
1070
   288
1070
     1
1002
}
  0
DIMENSION
  5
8646
  8
3
  2
*D12
 10
400.68942785155559
 20
3430.3652799912911
 30
0.0
 11
620.6894278515565
 21
3467.8652799912911
 31
0.0
 70
     0
 13
840.68942785155741
 23
3333.8566110719189
 33
0.0
 14
400.68942785155548
 24
2933.856611071918
 34
0.0
1001
ACAD
1000
DSTYLE
1002
{
1070
   287
1070
     4
1070
    40
1040
15.0
1070
    75
1070
     1
1070
   143
1040
0.039
1070
   172
1070
     1
1070
   271
1070
     0
1070
   279
1070
     1
1070
   288
1070
     1
1002
}
  0
DIMENSION
  5
8653
  8
3
  2
*D13
 10
317.4843281709567
 20
2553.856611071918
 30
0.0
 11
317.4843281709563
 21
2745.5678146000209
 31
0.0
 70
   128
 13
400.68942785155548
 23
2933.856611071918
 33
0.0
 14
392.73988165398981
 24
2553.856611071918
 34
0.0
 50
90.0
1001
ACAD
1000
DSTYLE
1002
{
1070
   287
1070
     3
1070
    40
1040
15.0
1070
   143
1040
0.039
1070
   172
1070
     1
1070
   271
1070
     0
1070
   279
1070
     0
1070
   288
1070
     1
1002
}
  0
DIMENSION
  5
866B
  8
3
  2
*D14
 10
1392.5636029083901
 20
2553.856611071918
 30
0.0
 11
1392.5636029083901
 21
2949.6643186951219
 31
0.0
 70
   128
 13
1200.689427851557
 23
3333.8566110719189
 33
0.0
 14
1200.689427851556
 24
2553.856611071918
 34
0.0
 50
90.0
1001
ACAD
1000
DSTYLE
1002
{
1070
   287
1070
     3
1070
    40
1040
15.0
1070
   143
1040
0.039
1070
   172
1070
     1
1070
   271
1070
     0
1070
   279
1070
     0
1070
   288
1070
     1
1002
}
  0
DIMENSION
  5
8690
  8
3
  2
*D15
 10
747.1245469708756
 20
1987.5411310641009
 30
0.0
 11
883.90698741121673
 21
2025.0411310641009
 31
0.0
 70
     0
 13
1020.689427851558
 23
1962.446899021535
 33
0.0
 14
747.1245469708756
 24
1677.8436183406641
 34
0.0
1001
ACAD
1000
DSTYLE
1002
{
1070
   287
1070
     4
1070
    40
1040
15.0
1070
    75
1070
     1
1070
   143
1040
0.039
1070
   172
1070
     1
1070
   271
1070
     0
1070
   279
1070
     1
1070
   288
1070
     1
1002
}
  0
LINE
  5
86D1
  8
1
 10
1003.189427851557
 20
2995.856611071918
 30
0.0
 11
860.68942785155639
 21
2995.856611071918
 31
0.0
  0
LINE
  5
86D2
  8
1
 10
1003.189427851557
 20
2585.856611071918
 30
0.0
 11
860.6894278515573
 21
2585.856611071918
 31
0.0
  0
DIMENSION
  5
86E0
  8
3
  2
*D16
 10
2738.5473846318582
 20
2080.4811080444888
 30
0.0
 11
2678.0473846318582
 21
2120.1685501508582
 31
0.0
 70
   128
 13
2617.5473846318582
 23
2055.923263290123
 33
0.0
 14
2738.5473846318582
 24
1885.3436451048899
 34
0.0
1001
ACAD
1000
DSTYLE
1002
{
1070
   288
1070
     1
1070
   172
1070
     1
1070
    75
1070
     1
1070
    40
1040
15.0
1070
   271
1070
     0
1070
   143
1040
0.039
1002
}
  0
DIMENSION
  5
8722
  8
3
  2
*D17
 10
1020.689427851558
 20
1128.043191027165
 30
0.0
 11
710.68942785155764
 21
1165.543191027165
 31
0.0
 70
     0
 13
400.68942785155718
 23
1251.8436183406641
 33
0.0
 14
1020.689427851558
 24
1251.8436183406641
 34
0.0
1001
ACAD
1000
DSTYLE
1002
{
1070
   287
1070
     3
1070
    40
1040
15.0
1070
   143
1040
0.039
1070
   172
1070
     1
1070
   271
1070
     0
1070
   279
1070
     0
1002
}
  0
DIMENSION
  5
8731
  8
3
  2
*D18
 10
1200.6894278515581
 20
1128.043191027165
 30
0.0
 11
1110.6894278515581
 21
1165.543191027165
 31
0.0
 70
     0
 13
1020.689427851558
 23
1251.8436183406641
 33
0.0
 14
1200.6894278515581
 24
1251.8436183406641
 34
0.0
1001
ACAD
1000
DSTYLE
1002
{
1070
   287
1070
     3
1070
    40
1040
15.0
1070
   143
1040
0.039
1070
   172
1070
     1
1070
   271
1070
     0
1070
   279
1070
     0
1002
}
  0
DIMENSION
  5
873E
  8
3
  2
*D19
 10
2617.5473846318582
 20
1128.043191027165
 30
0.0
 11
2310.0473846318582
 21
1165.543191027165
 31
0.0
 70
     0
 13
2002.547384631858
 23
1251.8436183406641
 33
0.0
 14
2617.5473846318582
 24
1251.8436183406641
 34
0.0
1001
ACAD
1000
DSTYLE
1002
{
1070
   287
1070
     3
1070
    40
1040
15.0
1070
   143
1040
0.039
1070
   172
1070
     1
1070
   271
1070
     0
1070
   279
1070
     0
1002
}
  0
DIMENSION
  5
874D
  8
3
  2
*D20
 10
2782.5473846318569
 20
1128.043191027165
 30
0.0
 11
2700.0473846318582
 21
1165.543191027165
 31
0.0
 70
     0
 13
2617.5473846318582
 23
1251.8436183406641
 33
0.0
 14
2782.5473846318569
 24
1251.8436183406641
 34
0.0
1001
ACAD
1000
DSTYLE
1002
{
1070
   287
1070
     3
1070
    40
1040
15.0
1070
   143
1040
0.039
1070
   172
1070
     1
1070
   271
1070
     0
1070
   279
1070
     0
1002
}
  0
DIMENSION
  5
875A
  8
3
  2
*D21
 10
1722.096212237758
 20
1251.8436183406641
 30
0.0
 11
1684.596212237758
 21
1589.823070454579
 31
0.0
 70
     0
 13
1009.424475266867
 23
1927.8025225684939
 33
0.0
 14
1200.6894278515581
 24
1251.8436183406641
 34
0.0
 50
90.0
1001
ACAD
1000
DSTYLE
1002
{
1070
   287
1070
     3
1070
    40
1040
15.0
1070
   143
1040
0.039
1070
   172
1070
     1
1070
   271
1070
     0
1070
   279
1070
     0
1002
}
  0
ENDSEC
  0
EOF
