  0
SECTION
  2
HEADER
  9
$ACADVER
  1
AC1009
  9
$INSBASE
 10
0.0
 20
0.0
 30
0.0
  9
$EXTMIN
 10
0.0
 20
0.0
 30
0.0
  9
$EXTMAX
 10
3150.0
 20
4425.0
 30
0.0
  9
$LIMMIN
 10
0.0
 20
0.0
  9
$LIMMAX
 10
297.0
 20
210.0
  9
$ORTHOMODE
 70
     0
  9
$REGENMODE
 70
     1
  9
$FILLMODE
 70
     0
  9
$QTEXTMODE
 70
     0
  9
$MIRRTEXT
 70
     1
  9
$DRAGMODE
 70
     2
  9
$LTSCALE
 40
100.0
  9
$OSMODE
 70
    37
  9
$ATTMODE
 70
     1
  9
$TEXTSIZE
 40
180.0
  9
$TRACEWID
 40
0.05
  9
$TEXTSTYLE
  7
STANDARD
  9
$CLAYER
  8
3
  9
$CELTYPE
  6
BYLAYER
  9
$CECOLOR
 62
   256
  9
$DIMSCALE
 40
15.0
  9
$DIMASZ
 40
2.0
  9
$DIMEXO
 40
0.5
  9
$DIMDLI
 40
10.0
  9
$DIMRND
 40
0.0
  9
$DIMDLE
 40
0.0
  9
$DIMEXE
 40
1.0
  9
$DIMTP
 40
1.0
  9
$DIMTM
 40
1.0
  9
$DIMTXT
 40
3.0
  9
$DIMCEN
 40
0.0
  9
$DIMTSZ
 40
0.0
  9
$DIMTOL
 70
     0
  9
$DIMLIM
 70
     0
  9
$DIMTIH
 70
     0
  9
$DIMTOH
 70
     0
  9
$DIMSE1
 70
     0
  9
$DIMSE2
 70
     0
  9
$DIMTAD
 70
     1
  9
$DIMZIN
 70
     8
  9
$DIMBLK
  1

  9
$DIMASO
 70
     1
  9
$DIMSHO
 70
     1
  9
$DIMPOST
  1

  9
$DIMAPOST
  1

  9
$DIMALT
 70
     0
  9
$DIMALTD
 70
     2
  9
$DIMALTF
 40
0.039
  9
$DIMLFAC
 40
1.0
  9
$DIMTOFL
 70
     1
  9
$DIMTVP
 40
0.0
  9
$DIMTIX
 70
     0
  9
$DIMSOXD
 70
     0
  9
$DIMSAH
 70
     1
  9
$DIMBLK1
  1
OPEN
  9
$DIMBLK2
  1
OPEN
  9
$DIMSTYLE
  2
IGA
  9
$DIMCLRD
 70
     0
  9
$DIMCLRE
 70
     0
  9
$DIMCLRT
 70
     0
  9
$DIMTFAC
 40
10.0
  9
$DIMGAP
 40
1.0
  9
$LUNITS
 70
     2
  9
$LUPREC
 70
     3
  9
$SKETCHINC
 40
0.1
  9
$FILLETRAD
 40
50.0
  9
$AUNITS
 70
     0
  9
$AUPREC
 70
     0
  9
$MENU
  1
acad
  9
$ELEVATION
 40
0.0
  9
$PELEVATION
 40
0.0
  9
$THICKNESS
 40
0.0
  9
$LIMCHECK
 70
     0
  9
$BLIPMODE
 70
     0
  9
$CHAMFERA
 40
0.5
  9
$CHAMFERB
 40
0.5
  9
$SKPOLY
 70
     0
  9
$TDCREATE
 40
2451019.5564371529
  9
$TDUPDATE
 40
2454953.6376963891
  9
$TDINDWG
 40
0.1042439352
  9
$TDUSRTIMER
 40
0.1042439352
  9
$USRTIMER
 70
     1
  9
$ANGBASE
 50
0.0
  9
$ANGDIR
 70
     0
  9
$PDMODE
 70
     0
  9
$PDSIZE
 40
0.0
  9
$PLINEWID
 40
0.0
  9
$COORDS
 70
     1
  9
$SPLFRAME
 70
     0
  9
$SPLINETYPE
 70
     6
  9
$SPLINESEGS
 70
     8
  9
$ATTDIA
 70
     0
  9
$ATTREQ
 70
     1
  9
$HANDLING
 70
 10241
  9
$HANDSEED
  5
8826
  9
$SURFTAB1
 70
     6
  9
$SURFTAB2
 70
     6
  9
$SURFTYPE
 70
     6
  9
$SURFU
 70
     6
  9
$SURFV
 70
     6
  9
$UCSNAME
  2

  9
$UCSORG
 10
0.0
 20
0.0
 30
0.0
  9
$UCSXDIR
 10
1.0
 20
0.0
 30
0.0
  9
$UCSYDIR
 10
0.0
 20
1.0
 30
0.0
  9
$PUCSNAME
  2

  9
$PUCSORG
 10
0.0
 20
0.0
 30
0.0
  9
$PUCSXDIR
 10
1.0
 20
0.0
 30
0.0
  9
$PUCSYDIR
 10
0.0
 20
1.0
 30
0.0
  9
$USERI1
 70
     0
  9
$USERI2
 70
     0
  9
$USERI3
 70
     0
  9
$USERI4
 70
     0
  9
$USERI5
 70
     0
  9
$USERR1
 40
0.0
  9
$USERR2
 40
0.0
  9
$USERR3
 40
0.0
  9
$USERR4
 40
0.0
  9
$USERR5
 40
0.0
  9
$WORLDVIEW
 70
     1
  9
$SHADEDGE
 70
     3
  9
$SHADEDIF
 70
    70
  9
$TILEMODE
 70
     1
  9
$MAXACTVP
 70
    16
  9
$PLIMCHECK
 70
     0
  9
$PEXTMIN
 10
1.0000000000000000E+020
 20
1.0000000000000000E+020
 30
1.0000000000000000E+020
  9
$PEXTMAX
 10
-1.0000000000000000E+020
 20
-1.0000000000000000E+020
 30
-1.0000000000000000E+020
  9
$PLIMMIN
 10
0.0
 20
0.0
  9
$PLIMMAX
 10
12.0
 20
9.0
  9
$UNITMODE
 70
     0
  9
$VISRETAIN
 70
     0
  9
$PLINEGEN
 70
     0
  9
$PSLTSCALE
 70
     1
  0
ENDSEC
  0
SECTION
  2
TABLES
  0
TABLE
  2
VPORT
 70
     2
  0
VPORT
  2
*ACTIVE
 70
     0
 10
0.0
 20
0.0
 11
1.0
 21
1.0
 12
2926.552662792637
 22
525.19464714913829
 13
0.0
 23
0.0
 14
10.0
 24
10.0
 15
10.0
 25
10.0
 16
0.0
 26
0.0
 36
1.0
 17
0.0
 27
0.0
 37
0.0
 40
1290.743213627047
 41
3.1666666666666661
 42
50.0
 43
0.0
 44
0.0
 50
0.0
 51
0.0
 71
     0
 72
   100
 73
     1
 74
     0
 75
     0
 76
     0
 77
     0
 78
     0
  0
ENDTAB
  0
TABLE
  2
LTYPE
 70
     2
  0
LTYPE
  2
CONTINUOUS
 70
     0
  3
Solid line
 72
    65
 73
     0
 40
0.0
  0
LTYPE
  2
CENTER
 70
     0
  3
____ _ ____ _ ____ _ ____ _ ____ _ ____ _ ____ 
 72
    65
 73
     4
 40
2.0
 49
1.25
 49
-0.25
 49
0.25
 49
-0.25
  0
ENDTAB
  0
TABLE
  2
LAYER
 70
     6
  0
LAYER
  2
0
 70
     0
 62
     7
  6
CONTINUOUS
  0
LAYER
  2
3
 70
     0
 62
     2
  6
CONTINUOUS
  0
LAYER
  2
2
 70
     0
 62
     3
  6
CENTER
  0
LAYER
  2
1
 70
     0
 62
     4
  6
CONTINUOUS
  0
LAYER
  2
4
 70
     0
 62
     7
  6
CONTINUOUS
  0
LAYER
  2
DEFPOINTS
 70
     0
 62
     7
  6
CONTINUOUS
  0
ENDTAB
  0
TABLE
  2
STYLE
 70
     1
  0
STYLE
  2
STANDARD
 70
     0
 40
0.0
 41
1.0
 50
0.0
 71
     0
 42
180.0
  3
simplex.shx
  4
extfont.shx
  0
ENDTAB
  0
TABLE
  2
VIEW
 70
     0
  0
ENDTAB
  0
TABLE
  2
UCS
 70
     0
  0
ENDTAB
  0
TABLE
  2
APPID
 70
     1
  0
APPID
  2
ACAD
 70
     0
  0
ENDTAB
  0
TABLE
  2
DIMSTYLE
 70
     1
  0
DIMSTYLE
  2
IGA
 70
     0
  3

  4

  5

  6
OPEN
  7
OPEN
 40
2.0
 41
2.0
 42
0.5
 43
10.0
 44
1.0
 45
0.0
 46
0.0
 47
1.0
 48
1.0
140
3.0
141
0.0
142
0.0
143
0.03937
144
1.0
145
0.0
146
10.0
147
1.0
 71
     0
 72
     0
 73
     0
 74
     0
 75
     0
 76
     0
 77
     1
 78
     8
170
     0
171
     2
172
     0
173
     1
174
     0
175
     0
176
     0
177
     0
178
     0
  0
ENDTAB
  0
ENDSEC
  0
SECTION
  2
BLOCKS
  0
BLOCK
  8
0
  2
$MODEL_SPACE
 70
     0
 10
0.0
 20
0.0
 30
0.0
  3
$MODEL_SPACE
  1

  0
ENDBLK
  5
1B
  8
0
  0
BLOCK
 67
     1
  8
0
  2
$PAPER_SPACE
 70
     0
 10
0.0
 20
0.0
 30
0.0
  3
$PAPER_SPACE
  1

  0
ENDBLK
  5
18
 67
     1
  8
0
  0
BLOCK
  8
0
  2
_OPEN
 70
     0
 10
0.0
 20
0.0
 30
0.0
  3
_OPEN
  1

  0
LINE
  5
7A12
  8
0
  6
BYBLOCK
 62
     0
 10
-1.0
 20
0.1666666666666666
 30
0.0
 11
0.0
 21
0.0
 31
0.0
  0
LINE
  5
7A13
  8
0
  6
BYBLOCK
 62
     0
 10
0.0
 20
0.0
 30
0.0
 11
-1.0
 21
-0.1666666666666666
 31
0.0
  0
LINE
  5
7A14
  8
0
  6
BYBLOCK
 62
     0
 10
0.0
 20
0.0
 30
0.0
 11
-1.0
 21
0.0
 31
0.0
  0
ENDBLK
  5
7A16
  8
0
  0
BLOCK
  8
0
  2
*D1
 70
     1
 10
0.0
 20
0.0
 30
0.0
  3
*D1
  1

  0
LINE
  5
874A
  8
3
 62
     0
 10
985.4910986161176
 20
1956.871483165475
 30
0.0
 11
985.4910986161176
 21
2011.3112644250009
 31
0.0
  0
LINE
  5
874B
  8
3
 62
     0
 10
1259.055979496799
 20
1596.787096048851
 30
0.0
 11
1259.055979496799
 21
2011.3112644250009
 31
0.0
  0
LINE
  5
874C
  8
3
 62
     0
 10
1015.491098616117
 20
1996.3112644250009
 30
0.0
 11
1229.055979496799
 21
1996.3112644250009
 31
0.0
  0
INSERT
  5
874D
  8
3
 62
     0
  2
_OPEN
 10
985.4910986161176
 20
1996.3112644250009
 30
0.0
 41
30.0
 42
30.0
 43
30.0
 50
180.0
  0
INSERT
  5
874E
  8
3
 62
     0
  2
_OPEN
 10
1259.055979496799
 20
1996.3112644250009
 30
0.0
 41
30.0
 42
30.0
 43
30.0
  0
TEXT
  8
3
  40
45
  5
8813
  62
0
  72
0
  71
0
 10
1032.27
 20
1954.16
 30
0.000000
  1
274
  0
POINT
  5
8750
  8
DEFPOINTS
 62
     0
 10
985.4910986161176
 20
1949.371483165474
 30
0.0
  0
POINT
  5
8751
  8
DEFPOINTS
 62
     0
 10
1259.055979496799
 20
1589.287096048851
 30
0.0
  0
POINT
  5
8752
  8
DEFPOINTS
 62
     0
 10
1259.055979496799
 20
1996.3112644250009
 30
0.0
  0
ENDBLK
  5
83EC
  8
0
  0
BLOCK
  8
0
  2
*D2
 70
     1
 10
0.0
 20
0.0
 30
0.0
  3
*D2
  1

  0
LINE
  5
8753
  8
3
 62
     0
 10
721.53097226563204
 20
1565.287096048851
 30
0.0
 11
512.88673157971982
 21
1565.287096048851
 31
0.0
  0
LINE
  5
8754
  8
3
 62
     0
 10
797.9910986161176
 20
1250.287096048851
 30
0.0
 11
512.88673157971959
 21
1250.287096048851
 31
0.0
  0
LINE
  5
8755
  8
3
 62
     0
 10
527.88673157971982
 20
1535.287096048851
 30
0.0
 11
527.88673157971982
 21
1280.287096048851
 31
0.0
  0
INSERT
  5
8756
  8
3
 62
     0
  2
_OPEN
 10
527.88673157971982
 20
1565.287096048851
 30
0.0
 41
30.0
 42
30.0
 43
30.0
 50
90.0
  0
INSERT
  5
8757
  8
3
 62
     0
  2
_OPEN
 10
527.88673157971971
 20
1250.287096048851
 30
0.0
 41
30.0
 42
30.0
 43
30.0
 50
270.0
  0
TEXT
  8
3
  40
45
  5
8814
  62
0
  72
0
  71
0
 10
400.387
 20
1328.14
 30
0.000000
  1
315
  0
POINT
  5
8759
  8
DEFPOINTS
 62
     0
 10
729.03097226563204
 20
1565.287096048851
 30
0.0
  0
POINT
  5
875A
  8
DEFPOINTS
 62
     0
 10
805.49109861611748
 20
1250.287096048851
 30
0.0
  0
POINT
  5
875B
  8
DEFPOINTS
 62
     0
 10
527.88673157971971
 20
1250.287096048851
 30
0.0
  0
ENDBLK
  5
8208
  8
0
  0
BLOCK
  8
0
  2
*D3
 70
     1
 10
0.0
 20
0.0
 30
0.0
  3
*D3
  1

  0
LINE
  5
875C
  8
3
 62
     0
 10
740.49109861611748
 20
1950.3982657238951
 30
0.0
 11
740.49109861611748
 21
2011.3112644250009
 31
0.0
  0
LINE
  5
875D
  8
3
 62
     0
 10
985.4910986161176
 20
1956.871483165475
 30
0.0
 11
985.4910986161176
 21
2011.3112644250009
 31
0.0
  0
LINE
  5
875E
  8
3
 62
     0
 10
770.49109861611748
 20
1996.3112644250009
 30
0.0
 11
955.49109861611748
 21
1996.3112644250009
 31
0.0
  0
INSERT
  5
875F
  8
3
 62
     0
  2
_OPEN
 10
740.49109861611748
 20
1996.3112644250009
 30
0.0
 41
30.0
 42
30.0
 43
30.0
 50
180.0
  0
INSERT
  5
8760
  8
3
 62
     0
  2
_OPEN
 10
985.4910986161176
 20
1996.3112644250009
 30
0.0
 41
30.0
 42
30.0
 43
30.0
  0
TEXT
  8
3
  40
45
  5
8815
  62
0
  72
0
  71
0
 10
772.991
 20
1954.16
 30
0.000000
  1
245
  0
POINT
  5
8762
  8
DEFPOINTS
 62
     0
 10
740.49109861611748
 20
1942.8982657238951
 30
0.0
  0
POINT
  5
8763
  8
DEFPOINTS
 62
     0
 10
985.4910986161176
 20
1949.371483165474
 30
0.0
  0
POINT
  5
8764
  8
DEFPOINTS
 62
     0
 10
985.4910986161176
 20
1996.3112644250009
 30
0.0
  0
ENDBLK
  5
83E1
  8
0
  0
BLOCK
  8
0
  2
*D4
 70
     1
 10
0.0
 20
0.0
 30
0.0
  3
*D4
  1

  0
LINE
  5
8765
  8
3
 62
     0
 10
732.99109861611748
 20
1916.287096048851
 30
0.0
 11
512.88673157971982
 21
1916.287096048851
 31
0.0
  0
LINE
  5
8766
  8
3
 62
     0
 10
721.53097226563204
 20
1565.287096048851
 30
0.0
 11
512.88673157971959
 21
1565.287096048851
 31
0.0
  0
LINE
  5
8767
  8
3
 62
     0
 10
527.88673157971982
 20
1886.287096048851
 30
0.0
 11
527.88673157971971
 21
1595.287096048851
 31
0.0
  0
INSERT
  5
8768
  8
3
 62
     0
  2
_OPEN
 10
527.88673157971982
 20
1916.287096048851
 30
0.0
 41
30.0
 42
30.0
 43
30.0
 50
90.0
  0
INSERT
  5
8769
  8
3
 62
     0
  2
_OPEN
 10
527.88673157971971
 20
1565.287096048851
 30
0.0
 41
30.0
 42
30.0
 43
30.0
 50
270.0
  0
TEXT
  8
3
  40
45
  5
8816
  62
0
  72
0
  71
0
 10
400.387
 20
1661.14
 30
0.000000
  1
351
  0
POINT
  5
876B
  8
DEFPOINTS
 62
     0
 10
740.49109861611748
 20
1916.287096048851
 30
0.0
  0
POINT
  5
876C
  8
DEFPOINTS
 62
     0
 10
729.03097226563204
 20
1565.287096048851
 30
0.0
  0
POINT
  5
876D
  8
DEFPOINTS
 62
     0
 10
527.88673157971971
 20
1565.287096048851
 30
0.0
  0
ENDBLK
  5
8315
  8
0
  0
BLOCK
  8
0
  2
*D5
 70
     1
 10
0.0
 20
0.0
 30
0.0
  3
*D5
  1

  0
LINE
  5
876E
  8
3
 62
     0
 10
732.99109861611748
 20
1916.287096048851
 30
0.0
 11
613.396261712007
 21
1916.287096048851
 31
0.0
  0
LINE
  5
876F
  8
3
 62
     0
 10
732.99109861611748
 20
1591.287096048851
 30
0.0
 11
613.39626171200689
 21
1591.287096048851
 31
0.0
  0
LINE
  5
8770
  8
3
 62
     0
 10
628.396261712007
 20
1886.287096048851
 30
0.0
 11
628.39626171200678
 21
1621.287096048851
 31
0.0
  0
INSERT
  5
8771
  8
3
 62
     0
  2
_OPEN
 10
628.396261712007
 20
1916.287096048851
 30
0.0
 41
30.0
 42
30.0
 43
30.0
 50
90.0
  0
INSERT
  5
8772
  8
3
 62
     0
  2
_OPEN
 10
628.39626171200678
 20
1591.287096048851
 30
0.0
 41
30.0
 42
30.0
 43
30.0
 50
270.0
  0
TEXT
  8
3
  40
45
  5
8817
  62
0
  72
0
  71
0
 10
500.896
 20
1674.14
 30
0.000000
  1
325
  0
POINT
  5
8774
  8
DEFPOINTS
 62
     0
 10
740.49109861611748
 20
1916.287096048851
 30
0.0
  0
POINT
  5
8775
  8
DEFPOINTS
 62
     0
 10
740.49109861611748
 20
1591.287096048851
 30
0.0
  0
POINT
  5
8776
  8
DEFPOINTS
 62
     0
 10
628.39626171200678
 20
1591.287096048851
 30
0.0
  0
ENDBLK
  5
821E
  8
0
  0
BLOCK
  8
0
  2
*D6
 70
     1
 10
0.0
 20
0.0
 30
0.0
  3
*D6
  1

  0
LINE
  5
8777
  8
3
 62
     0
 10
2724.2332074702822
 20
1722.787096048851
 30
0.0
 11
2845.9114970299088
 21
1722.787096048851
 31
0.0
  0
LINE
  5
8778
  8
3
 62
     0
 10
2724.2332074702822
 20
1407.787096048851
 30
0.0
 11
2845.9114970299088
 21
1407.787096048851
 31
0.0
  0
LINE
  5
8779
  8
3
 62
     0
 10
2830.9114970299088
 20
1692.787096048851
 30
0.0
 11
2830.9114970299088
 21
1437.787096048851
 31
0.0
  0
INSERT
  5
877A
  8
3
 62
     0
  2
_OPEN
 10
2830.9114970299088
 20
1722.787096048851
 30
0.0
 41
30.0
 42
30.0
 43
30.0
 50
90.0
  0
INSERT
  5
877B
  8
3
 62
     0
  2
_OPEN
 10
2830.9114970299088
 20
1407.787096048851
 30
0.0
 41
30.0
 42
30.0
 43
30.0
 50
270.0
  0
TEXT
  8
3
  40
45
  5
8818
  62
0
  72
0
  71
0
 10
2703.41
 20
1485.64
 30
0.000000
  1
φ315
  0
POINT
  5
877D
  8
DEFPOINTS
 62
     0
 10
2716.7332074702822
 20
1722.787096048851
 30
0.0
  0
POINT
  5
877E
  8
DEFPOINTS
 62
     0
 10
2716.7332074702822
 20
1407.787096048851
 30
0.0
  0
POINT
  5
877F
  8
DEFPOINTS
 62
     0
 10
2830.9114970299088
 20
1407.787096048851
 30
0.0
  0
ENDBLK
  5
85EB
  8
0
  0
BLOCK
  8
0
  2
*D7
 70
     1
 10
0.0
 20
0.0
 30
0.0
  3
*D7
  1

  0
LINE
  5
87A5
  8
3
 62
     0
 10
2452.7332074702831
 20
1925.3982657238951
 30
0.0
 11
2452.7332074702831
 21
2001.2671753875049
 31
0.0
  0
LINE
  5
87A6
  8
3
 62
     0
 10
2688.7332074702822
 20
1925.3982657238951
 30
0.0
 11
2688.7332074702822
 21
2001.2671753875049
 31
0.0
  0
LINE
  5
87A7
  8
3
 62
     0
 10
2482.7332074702822
 20
1986.2671753875049
 30
0.0
 11
2658.7332074702822
 21
1986.2671753875049
 31
0.0
  0
INSERT
  5
87A8
  8
3
 62
     0
  2
_OPEN
 10
2452.7332074702831
 20
1986.2671753875049
 30
0.0
 41
30.0
 42
30.0
 43
30.0
 50
180.0
  0
INSERT
  5
87A9
  8
3
 62
     0
  2
_OPEN
 10
2688.7332074702822
 20
1986.2671753875049
 30
0.0
 41
30.0
 42
30.0
 43
30.0
  0
TEXT
  8
3
  40
45
  5
8819
  62
0
  72
0
  71
0
 10
2480.73
 20
1944.12
 30
0.000000
  1
236
  0
POINT
  5
87AB
  8
DEFPOINTS
 62
     0
 10
2452.7332074702831
 20
1917.8982657238951
 30
0.0
  0
POINT
  5
87AC
  8
DEFPOINTS
 62
     0
 10
2688.7332074702822
 20
1917.8982657238951
 30
0.0
  0
POINT
  5
87AD
  8
DEFPOINTS
 62
     0
 10
2688.7332074702822
 20
1986.2671753875049
 30
0.0
  0
ENDBLK
  5
86DB
  8
0
  0
BLOCK
  8
0
  2
_DOT
 70
     0
 10
0.0
 20
0.0
 30
0.0
  3
_DOT
  1

  0
LINE
  5
862E
  8
0
  6
BYBLOCK
 62
     0
 10
0.0
 20
0.0
 30
0.0
 11
-1.0
 21
-0.0000000000000284
 31
0.0
  0
POLYLINE
  5
862F
  8
0
  6
BYBLOCK
 62
     0
 66
     1
 10
0.0
 20
0.0
 30
0.0
 70
     1
 40
0.1666666666666666
 41
0.1666666666666666
  0
VERTEX
  5
87E3
  8
0
  6
BYBLOCK
 62
     0
 10
-0.0833333333333286
 20
-0.0000000000000284
 30
0.0
 42
1.0
  0
VERTEX
  5
87E4
  8
0
  6
BYBLOCK
 62
     0
 10
0.0833333333333286
 20
-0.0000000000000284
 30
0.0
 42
1.0
  0
SEQEND
  5
87E5
  8
0
  6
BYBLOCK
 62
     0
  0
ENDBLK
  5
8460
  8
0
  0
BLOCK
  8
0
  2
*D9
 70
     1
 10
0.0
 20
0.0
 30
0.0
  3
*D9
  1

  0
LINE
  5
87AE
  8
3
 62
     0
 10
805.49109861611748
 20
3310.1617376090189
 30
0.0
 11
805.49109861611748
 21
3403.0383122793901
 31
0.0
  0
LINE
  5
87AF
  8
3
 62
     0
 10
1165.4910986161169
 20
3310.1617376090189
 30
0.0
 11
1165.4910986161169
 21
3403.0383122793901
 31
0.0
  0
LINE
  5
87B0
  8
3
 62
     0
 10
835.4910986161176
 20
3388.0383122793901
 30
0.0
 11
1135.4910986161169
 21
3388.0383122793901
 31
0.0
  0
INSERT
  5
87B1
  8
3
 62
     0
  2
_OPEN
 10
805.49109861611748
 20
3388.0383122793901
 30
0.0
 41
30.0
 42
30.0
 43
30.0
 50
180.0
  0
INSERT
  5
87B2
  8
3
 62
     0
  2
_OPEN
 10
1165.4910986161169
 20
3388.0383122793901
 30
0.0
 41
30.0
 42
30.0
 43
30.0
  0
TEXT
  8
3
  40
45
  5
881A
  62
0
  72
0
  71
0
 10
895.968
 20
3345.89
 30
0.000000
  1
360
  0
POINT
  5
87B4
  8
DEFPOINTS
 62
     0
 10
805.49109861611748
 20
3302.6617376090189
 30
0.0
  0
POINT
  5
87B5
  8
DEFPOINTS
 62
     0
 10
1165.4910986161169
 20
3302.661737609018
 30
0.0
  0
POINT
  5
87B6
  8
DEFPOINTS
 62
     0
 10
1165.4910986161169
 20
3388.0383122793901
 30
0.0
  0
ENDBLK
  5
849A
  8
0
  0
BLOCK
  8
0
  2
*D10
 70
     1
 10
0.0
 20
0.0
 30
0.0
  3
*D10
  1

  0
LINE
  5
87B7
  8
3
 62
     0
 10
1605.491098616119
 20
2910.1617376090189
 30
0.0
 11
1605.491098616119
 21
3403.0383122793901
 31
0.0
  0
LINE
  5
87B8
  8
3
 62
     0
 10
1195.4910986161169
 20
3388.0383122793901
 30
0.0
 11
1575.491098616119
 21
3388.0383122793901
 31
0.0
  0
INSERT
  5
87B9
  8
3
 62
     0
  2
_OPEN
 10
1165.4910986161169
 20
3388.0383122793901
 30
0.0
 41
30.0
 42
30.0
 43
30.0
 50
180.0
  0
INSERT
  5
87BA
  8
3
 62
     0
  2
_OPEN
 10
1605.491098616119
 20
3388.0383122793901
 30
0.0
 41
30.0
 42
30.0
 43
30.0
  0
TEXT
  8
3
  40
45
  5
881B
  62
0
  72
0
  71
0
 10
1295.49
 20
3345.89
 30
0.000000
  1
440
  0
POINT
  5
87BC
  8
DEFPOINTS
 62
     0
 10
1165.4910986161169
 20
3302.661737609018
 30
0.0
  0
POINT
  5
87BD
  8
DEFPOINTS
 62
     0
 10
1605.491098616119
 20
2902.6617376090189
 30
0.0
  0
POINT
  5
87BE
  8
DEFPOINTS
 62
     0
 10
1605.491098616119
 20
3388.0383122793901
 30
0.0
  0
ENDBLK
  5
84A6
  8
0
  0
BLOCK
  8
0
  2
*D11
 70
     1
 10
0.0
 20
0.0
 30
0.0
  3
*D11
  1

  0
LINE
  5
87BF
  8
3
 62
     0
 10
1612.991098616119
 20
2902.6617376090189
 30
0.0
 11
1769.004434397119
 21
2902.6617376090189
 31
0.0
  0
LINE
  5
87C0
  8
3
 62
     0
 10
1613.330140502557
 20
2522.661737609018
 30
0.0
 11
1769.0044343971181
 21
2522.661737609018
 31
0.0
  0
LINE
  5
87C1
  8
3
 62
     0
 10
1754.004434397119
 20
2872.6617376090189
 30
0.0
 11
1754.004434397119
 21
2552.661737609018
 31
0.0
  0
INSERT
  5
87C2
  8
3
 62
     0
  2
_OPEN
 10
1754.004434397119
 20
2902.6617376090189
 30
0.0
 41
30.0
 42
30.0
 43
30.0
 50
90.0
  0
INSERT
  5
87C3
  8
3
 62
     0
  2
_OPEN
 10
1754.004434397119
 20
2522.661737609018
 30
0.0
 41
30.0
 42
30.0
 43
30.0
 50
270.0
  0
TEXT
  8
3
  40
45
  5
881C
  62
0
  72
0
  71
0
 10
1626.50
 20
2627.35
 30
0.000000
  1
380
  0
POINT
  5
87C5
  8
DEFPOINTS
 62
     0
 10
1605.491098616119
 20
2902.6617376090189
 30
0.0
  0
POINT
  5
87C6
  8
DEFPOINTS
 62
     0
 10
1605.830140502557
 20
2522.661737609018
 30
0.0
  0
POINT
  5
87C7
  8
DEFPOINTS
 62
     0
 10
1754.004434397119
 20
2522.661737609018
 30
0.0
  0
ENDBLK
  5
84BF
  8
0
  0
BLOCK
  8
0
  2
*D12
 70
     1
 10
0.0
 20
0.0
 30
0.0
  3
*D12
  1

  0
LINE
  5
87C8
  8
3
 62
     0
 10
797.9910986161176
 20
3302.6617376090189
 30
0.0
 11
667.21033290735113
 21
3302.6617376090189
 31
0.0
  0
LINE
  5
87C9
  8
3
 62
     0
 10
797.99109861611839
 20
2522.661737609018
 30
0.0
 11
667.21033290735102
 21
2522.661737609018
 31
0.0
  0
LINE
  5
87CA
  8
3
 62
     0
 10
682.21033290735113
 20
3272.6617376090189
 30
0.0
 11
682.21033290735102
 21
2552.661737609018
 31
0.0
  0
INSERT
  5
87CB
  8
3
 62
     0
  2
_OPEN
 10
682.21033290735113
 20
3302.6617376090189
 30
0.0
 41
30.0
 42
30.0
 43
30.0
 50
90.0
  0
INSERT
  5
87CC
  8
3
 62
     0
  2
_OPEN
 10
682.21033290735102
 20
2522.661737609018
 30
0.0
 41
30.0
 42
30.0
 43
30.0
 50
270.0
  0
TEXT
  8
3
  40
45
  5
881D
  62
0
  72
0
  71
0
 10
554.710
 20
2839.56
 30
0.000000
  1
780
  0
POINT
  5
87CE
  8
DEFPOINTS
 62
     0
 10
805.49109861611748
 20
3302.6617376090189
 30
0.0
  0
POINT
  5
87CF
  8
DEFPOINTS
 62
     0
 10
805.49109861611862
 20
2522.661737609018
 30
0.0
  0
POINT
  5
87D0
  8
DEFPOINTS
 62
     0
 10
682.21033290735102
 20
2522.661737609018
 30
0.0
  0
ENDBLK
  5
84CB
  8
0
  0
BLOCK
  8
0
  2
*D13
 70
     1
 10
0.0
 20
0.0
 30
0.0
  3
*D13
  1

  0
LINE
  5
87D1
  8
3
 62
     0
 10
740.49109861611748
 20
1950.3982657238951
 30
0.0
 11
740.49109861611748
 21
2115.7612348012149
 31
0.0
  0
LINE
  5
87D2
  8
3
 62
     0
 10
1605.4910986161169
 20
1332.787096048851
 30
0.0
 11
1605.4910986161169
 21
2115.7612348012149
 31
0.0
  0
LINE
  5
87D3
  8
3
 62
     0
 10
770.49109861611748
 20
2100.7612348012149
 30
0.0
 11
1575.4910986161169
 21
2100.7612348012149
 31
0.0
  0
INSERT
  5
87D4
  8
3
 62
     0
  2
_OPEN
 10
740.49109861611748
 20
2100.7612348012149
 30
0.0
 41
30.0
 42
30.0
 43
30.0
 50
180.0
  0
INSERT
  5
87D5
  8
3
 62
     0
  2
_OPEN
 10
1605.4910986161169
 20
2100.7612348012149
 30
0.0
 41
30.0
 42
30.0
 43
30.0
  0
TEXT
  8
3
  40
45
  5
881E
  62
0
  72
0
  71
0
 10
1054.41
 20
2058.61
 30
0.000000
  1
865
  0
POINT
  5
87D7
  8
DEFPOINTS
 62
     0
 10
740.49109861611748
 20
1942.8982657238951
 30
0.0
  0
POINT
  5
87D8
  8
DEFPOINTS
 62
     0
 10
1605.4910986161169
 20
1325.287096048851
 30
0.0
  0
POINT
  5
87D9
  8
DEFPOINTS
 62
     0
 10
1605.4910986161169
 20
2100.7612348012149
 30
0.0
  0
ENDBLK
  5
8605
  8
0
  0
BLOCK
  8
0
  2
*D14
 70
     1
 10
0.0
 20
0.0
 30
0.0
  3
*D14
  1

  0
LINE
  5
87DA
  8
3
 62
     0
 10
2570.7332074702822
 20
2075.1347051615121
 30
0.0
 11
2570.7332074702822
 21
2115.7612348012149
 31
0.0
  0
LINE
  5
87DB
  8
3
 62
     0
 10
1882.733207470282
 20
1672.787096048851
 30
0.0
 11
1882.733207470282
 21
2115.7612348012149
 31
0.0
  0
LINE
  5
87DC
  8
3
 62
     0
 10
2540.7332074702822
 20
2100.7612348012149
 30
0.0
 11
1912.733207470282
 21
2100.7612348012149
 31
0.0
  0
INSERT
  5
87DD
  8
3
 62
     0
  2
_OPEN
 10
2570.7332074702822
 20
2100.7612348012149
 30
0.0
 41
30.0
 42
30.0
 43
30.0
  0
INSERT
  5
87DE
  8
3
 62
     0
  2
_OPEN
 10
1882.733207470282
 20
2100.7612348012149
 30
0.0
 41
30.0
 42
30.0
 43
30.0
 50
180.0
  0
TEXT
  8
3
  40
45
  5
881F
  62
0
  72
0
  71
0
 10
2134.28
 20
2096.11
 30
0.000000
  1
MAX
  0
TEXT
  8
3
  40
45
  5
8820
  62
0
  72
0
  71
0
 10
2134.28
 20
2037.61
 30
0.000000
  1
760
  0
POINT
  5
87E0
  8
DEFPOINTS
 62
     0
 10
2570.7332074702822
 20
2067.6347051615121
 30
0.0
  0
POINT
  5
87E1
  8
DEFPOINTS
 62
     0
 10
1882.733207470282
 20
1665.287096048851
 30
0.0
  0
POINT
  5
87E2
  8
DEFPOINTS
 62
     0
 10
1882.733207470282
 20
2100.7612348012149
 30
0.0
  0
ENDBLK
  5
8650
  8
0
  0
BLOCK
  8
0
  2
*D15
 70
     1
 10
0.0
 20
0.0
 30
0.0
  3
*D15
  1

  0
LINE
  5
86B1
  8
0
  6
BYBLOCK
 62
     0
 10
2779.0834135997902
 20
1570.398265723896
 30
0.0
 11
2779.0834135997902
 21
2115.7612348012149
 31
0.0
  0
LINE
  5
86B2
  8
0
  6
BYBLOCK
 62
     0
 10
2688.0834135997902
 20
2100.7612348012149
 30
0.0
 11
2749.0834135997902
 21
2100.7612348012149
 31
0.0
  0
TEXT
  5
86B3
  8
3
 62
     0
 10
2674.6548421712182
 20
2117.0444591141249
 30
0.0
 40
45.0
  1
121
  0
INSERT
  5
86B4
  8
0
  6
BYBLOCK
 62
     0
  2
_OPEN
 10
2658.0834135997902
 20
2100.7612348012149
 30
0.0
 41
30.0
 42
30.0
 43
30.0
 50
180.0
  0
INSERT
  5
86B5
  8
0
  6
BYBLOCK
 62
     0
  2
_OPEN
 10
2779.0834135997902
 20
2100.7612348012149
 30
0.0
 41
30.0
 42
30.0
 43
30.0
  0
POINT
  5
86B6
  8
DEFPOINTS
  6
BYBLOCK
 62
     0
 10
2658.0834135997902
 20
2067.6347051615121
 30
0.0
  0
POINT
  5
86B7
  8
DEFPOINTS
  6
BYBLOCK
 62
     0
 10
2779.0834135997902
 20
1562.8982657238951
 30
0.0
  0
POINT
  5
86B8
  8
DEFPOINTS
  6
BYBLOCK
 62
     0
 10
2779.0834135997902
 20
2100.7612348012149
 30
0.0
  0
ENDBLK
  5
86B9
  8
0
  0
BLOCK
  8
0
  2
*D16
 70
     1
 10
0.0
 20
0.0
 30
0.0
  3
*D16
  1

  0
LINE
  5
87E6
  8
3
 62
     0
 10
805.49109861611748
 20
1242.787096048851
 30
0.0
 11
805.49109861611748
 21
1118.97179863203
 31
0.0
  0
LINE
  5
87E7
  8
3
 62
     0
 10
985.4910986161176
 20
1242.787096048851
 30
0.0
 11
985.4910986161176
 21
1118.97179863203
 31
0.0
  0
LINE
  5
87E8
  8
3
 62
     0
 10
835.4910986161176
 20
1133.97179863203
 30
0.0
 11
955.49109861611748
 21
1133.97179863203
 31
0.0
  0
INSERT
  5
87E9
  8
3
 62
     0
  2
_OPEN
 10
805.49109861611748
 20
1133.97179863203
 30
0.0
 41
30.0
 42
30.0
 43
30.0
 50
180.0
  0
INSERT
  5
87EA
  8
3
 62
     0
  2
_OPEN
 10
985.4910986161176
 20
1133.97179863203
 30
0.0
 41
30.0
 42
30.0
 43
30.0
  0
TEXT
  8
3
  40
45
  5
8821
  62
0
  72
0
  71
0
 10
805.491
 20
1091.82
 30
0.000000
  1
180
  0
POINT
  5
87EC
  8
DEFPOINTS
 62
     0
 10
805.49109861611748
 20
1250.287096048851
 30
0.0
  0
POINT
  5
87ED
  8
DEFPOINTS
 62
     0
 10
985.4910986161176
 20
1250.287096048851
 30
0.0
  0
POINT
  5
87EE
  8
DEFPOINTS
 62
     0
 10
985.4910986161176
 20
1133.97179863203
 30
0.0
  0
ENDBLK
  5
86F1
  8
0
  0
BLOCK
  8
0
  2
*D17
 70
     1
 10
0.0
 20
0.0
 30
0.0
  3
*D17
  1

  0
LINE
  5
87EF
  8
3
 62
     0
 10
985.4910986161176
 20
1242.787096048851
 30
0.0
 11
985.4910986161176
 21
1118.97179863203
 31
0.0
  0
LINE
  5
87F0
  8
3
 62
     0
 10
1605.4910986161181
 20
1242.787096048851
 30
0.0
 11
1605.4910986161181
 21
1118.97179863203
 31
0.0
  0
LINE
  5
87F1
  8
3
 62
     0
 10
1015.491098616117
 20
1133.97179863203
 30
0.0
 11
1575.4910986161181
 21
1133.97179863203
 31
0.0
  0
INSERT
  5
87F2
  8
3
 62
     0
  2
_OPEN
 10
985.4910986161176
 20
1133.97179863203
 30
0.0
 41
30.0
 42
30.0
 43
30.0
 50
180.0
  0
INSERT
  5
87F3
  8
3
 62
     0
  2
_OPEN
 10
1605.4910986161181
 20
1133.97179863203
 30
0.0
 41
30.0
 42
30.0
 43
30.0
  0
TEXT
  8
3
  40
45
  5
8822
  62
0
  72
0
  71
0
 10
1205.49
 20
1091.82
 30
0.000000
  1
620
  0
POINT
  5
87F5
  8
DEFPOINTS
 62
     0
 10
985.4910986161176
 20
1250.287096048851
 30
0.0
  0
POINT
  5
87F6
  8
DEFPOINTS
 62
     0
 10
1605.4910986161181
 20
1250.287096048851
 30
0.0
  0
POINT
  5
87F7
  8
DEFPOINTS
 62
     0
 10
1605.4910986161181
 20
1133.97179863203
 30
0.0
  0
ENDBLK
  5
86FE
  8
0
  0
BLOCK
  8
0
  2
*D18
 70
     1
 10
0.0
 20
0.0
 30
0.0
  3
*D18
  1

  0
LINE
  5
87F8
  8
3
 62
     0
 10
1955.733207470282
 20
1242.7870960488499
 30
0.0
 11
1955.733207470282
 21
1118.97179863203
 31
0.0
  0
LINE
  5
87F9
  8
3
 62
     0
 10
2570.7332074702822
 20
1242.7870960488499
 30
0.0
 11
2570.7332074702822
 21
1118.97179863203
 31
0.0
  0
LINE
  5
87FA
  8
3
 62
     0
 10
1985.733207470282
 20
1133.97179863203
 30
0.0
 11
2540.7332074702822
 21
1133.97179863203
 31
0.0
  0
INSERT
  5
87FB
  8
3
 62
     0
  2
_OPEN
 10
1955.733207470282
 20
1133.97179863203
 30
0.0
 41
30.0
 42
30.0
 43
30.0
 50
180.0
  0
INSERT
  5
87FC
  8
3
 62
     0
  2
_OPEN
 10
2570.7332074702822
 20
1133.97179863203
 30
0.0
 41
30.0
 42
30.0
 43
30.0
  0
TEXT
  8
3
  40
45
  5
8823
  62
0
  72
0
  71
0
 10
2173.23
 20
1091.82
 30
0.000000
  1
615
  0
POINT
  5
87FE
  8
DEFPOINTS
 62
     0
 10
1955.733207470282
 20
1250.2870960488499
 30
0.0
  0
POINT
  5
87FF
  8
DEFPOINTS
 62
     0
 10
2570.7332074702822
 20
1250.2870960488499
 30
0.0
  0
POINT
  5
8800
  8
DEFPOINTS
 62
     0
 10
2570.7332074702822
 20
1133.97179863203
 30
0.0
  0
ENDBLK
  5
870B
  8
0
  0
BLOCK
  8
0
  2
*D19
 70
     1
 10
0.0
 20
0.0
 30
0.0
  3
*D19
  1

  0
LINE
  5
8801
  8
3
 62
     0
 10
2570.7332074702822
 20
1242.7870960488499
 30
0.0
 11
2570.7332074702822
 21
1118.97179863203
 31
0.0
  0
LINE
  5
8802
  8
3
 62
     0
 10
2735.7332074702822
 20
1242.787096048851
 30
0.0
 11
2735.7332074702822
 21
1118.97179863203
 31
0.0
  0
LINE
  5
8803
  8
3
 62
     0
 10
2600.7332074702822
 20
1133.97179863203
 30
0.0
 11
2705.7332074702808
 21
1133.97179863203
 31
0.0
  0
INSERT
  5
8804
  8
3
 62
     0
  2
_OPEN
 10
2570.7332074702822
 20
1133.97179863203
 30
0.0
 41
30.0
 42
30.0
 43
30.0
 50
180.0
  0
INSERT
  5
8805
  8
3
 62
     0
  2
_OPEN
 10
2735.7332074702822
 20
1133.97179863203
 30
0.0
 41
30.0
 42
30.0
 43
30.0
  0
TEXT
  8
3
  40
45
  5
8824
  62
0
  72
0
  71
0
 10
2563.23
 20
1091.82
 30
0.000000
  1
165
  0
POINT
  5
8807
  8
DEFPOINTS
 62
     0
 10
2570.7332074702822
 20
1250.2870960488499
 30
0.0
  0
POINT
  5
8808
  8
DEFPOINTS
 62
     0
 10
2735.7332074702822
 20
1250.287096048851
 30
0.0
  0
POINT
  5
8809
  8
DEFPOINTS
 62
     0
 10
2735.7332074702822
 20
1133.97179863203
 30
0.0
  0
ENDBLK
  5
871A
  8
0
  0
BLOCK
  8
0
  2
*D20
 70
     1
 10
0.0
 20
0.0
 30
0.0
  3
*D20
  1

  0
LINE
  5
880A
  8
3
 62
     0
 10
732.99109861611748
 20
1942.8982657238951
 30
0.0
 11
400.19717719600538
 21
1942.898265723896
 31
0.0
  0
LINE
  5
880B
  8
3
 62
     0
 10
797.9910986161176
 20
1250.287096048851
 30
0.0
 11
400.19717719600521
 21
1250.287096048851
 31
0.0
  0
LINE
  5
880C
  8
3
 62
     0
 10
415.19717719600533
 20
1912.898265723896
 30
0.0
 11
415.1971771960051
 21
1280.287096048851
 31
0.0
  0
INSERT
  5
880D
  8
3
 62
     0
  2
_OPEN
 10
415.19717719600533
 20
1942.898265723896
 30
0.0
 41
30.0
 42
30.0
 43
30.0
 50
90.0
  0
INSERT
  5
880E
  8
3
 62
     0
  2
_OPEN
 10
415.1971771960051
 20
1250.287096048851
 30
0.0
 41
30.0
 42
30.0
 43
30.0
 50
270.0
  0
TEXT
  8
3
  40
45
  5
8825
  62
0
  72
0
  71
0
 10
287.697
 20
1516.94
 30
0.000000
  1
693
  0
POINT
  5
8810
  8
DEFPOINTS
 62
     0
 10
740.49109861611748
 20
1942.8982657238951
 30
0.0
  0
POINT
  5
8811
  8
DEFPOINTS
 62
     0
 10
805.49109861611748
 20
1250.287096048851
 30
0.0
  0
POINT
  5
8812
  8
DEFPOINTS
 62
     0
 10
415.1971771960051
 20
1250.287096048851
 30
0.0
  0
ENDBLK
  5
8727
  8
0
  0
ENDSEC
  0
SECTION
  2
ENTITIES
  0
LINE
  5
7CC4
  8
1
 10
1955.733207470282
 20
1325.2870960488499
 30
0.0
 11
2735.7332074702822
 21
1325.2870960488499
 31
0.0
  0
LINE
  5
7CCF
  8
2
 10
2752.838430111618
 20
1565.287096048851
 30
0.0
 11
1860.947577065406
 21
1565.287096048851
 31
0.0
  0
LINE
  5
7CD0
  8
1
 10
2397.7332074702808
 20
1508.4870960488511
 30
0.0
 11
2239.7332074702822
 21
1508.4870960488511
 31
0.0
  0
LINE
  5
7CD8
  8
1
 10
2397.7332074702808
 20
1511.6870960488509
 30
0.0
 11
2239.7332074702831
 21
1511.6870960488509
 31
0.0
  0
LINE
  5
7CD9
  8
1
 10
2735.7332074702822
 20
1250.287096048851
 30
0.0
 11
1955.733207470282
 21
1250.2870960488499
 31
0.0
  0
LINE
  5
7CDA
  8
2
 10
985.4910986161176
 20
3289.84311761769
 30
0.0
 11
985.4910986161176
 21
2440.4954343331119
 31
0.0
  0
LINE
  5
7CDB
  8
2
 10
1465.4910986161181
 20
2837.7348788259419
 30
0.0
 11
1465.4910986161181
 21
2431.9519325282449
 31
0.0
  0
LINE
  5
7CDD
  8
1
 10
1615.4910986161181
 20
2449.6617376090189
 30
0.0
 11
1615.4910986161181
 21
2541.661737609018
 31
0.0
  0
LINE
  5
7CDE
  8
1
 10
885.4910986161176
 20
2449.6617376090189
 30
0.0
 11
885.4910986161176
 21
2541.6617376090189
 31
0.0
  0
LINE
  5
7CE0
  8
1
 10
1477.9910986161181
 20
2534.6617376090189
 30
0.0
 11
1477.9910986161181
 21
2529.6617376090189
 31
0.0
  0
LINE
  5
7CE1
  8
1
 10
1452.9910986161181
 20
2534.6617376090189
 30
0.0
 11
1452.9910986161181
 21
2529.6617376090189
 31
0.0
  0
LINE
  5
7CE2
  8
1
 10
1002.991098616117
 20
3019.6617376090189
 30
0.0
 11
1002.991098616117
 21
2529.661737609018
 31
0.0
  0
LINE
  5
7CE3
  8
1
 10
967.99109861611748
 20
3019.661737609018
 30
0.0
 11
967.99109861611748
 21
2529.661737609018
 31
0.0
  0
LINE
  5
7CE5
  8
1
 10
805.49109861611805
 20
3019.6617376090189
 30
0.0
 11
805.49109861611862
 21
2522.6617376090189
 31
0.0
  0
LINE
  5
7CE6
  8
1
 10
994.74351124621796
 20
1628.1094078538331
 30
0.0
 11
1477.526520399525
 21
1557.0055677825751
 31
0.0
  0
LINE
  5
7CE7
  8
1
 10
1477.8947766572301
 20
1624.773378934781
 30
0.0
 11
993.76021731019216
 21
1664.944617972805
 31
0.0
  0
LINE
  5
7CEB
  8
1
 10
1615.4910986161169
 20
1325.287096048851
 30
0.0
 11
805.49109861611748
 21
1325.287096048851
 31
0.0
  0
LINE
  5
7CEC
  8
1
 10
1605.4910986161181
 20
1250.287096048851
 30
0.0
 11
805.49109861611748
 21
1250.287096048851
 31
0.0
  0
LINE
  5
7CED
  8
1
 10
785.49109861611669
 20
1508.4870960488511
 30
0.0
 11
1185.4910986161169
 21
1508.4870960488511
 31
0.0
  0
LINE
  5
7CEE
  8
2
 10
1340.3519517244599
 20
1565.287096048851
 30
0.0
 11
729.03097226563204
 21
1565.287096048851
 31
0.0
  0
LINE
  5
7CEF
  8
1
 10
825.4910986161176
 20
1511.6870960488509
 30
0.0
 11
1145.4910986161169
 21
1511.6870960488509
 31
0.0
  0
ARC
  5
7CF0
  8
1
 10
1004.256051200808
 20
1594.480424088943
 30
0.0
 40
252.15223226792139
 50
262.5396572270958
 51
358.84594406436281
  0
LINE
  5
7CF1
  8
1
 10
971.35677403633144
 20
1503.3801427344349
 30
0.0
 11
1447.105347272962
 21
1394.7593111075801
 31
0.0
  0
LINE
  5
7CF2
  8
1
 10
1422.898741329722
 20
1331.461190521411
 30
0.0
 11
957.09619375852083
 21
1469.4031590305581
 31
0.0
  0
DIMENSION
  5
7CF4
  8
3
  2
*D1
 10
1259.055979496799
 20
1996.3112644250009
 30
0.0
 11
1122.273539056458
 21
2033.8112644250009
 31
0.0
 70
     0
 13
985.4910986161176
 23
1949.371483165474
 33
0.0
 14
1259.055979496799
 24
1589.287096048851
 34
0.0
1001
ACAD
1000
DSTYLE
1002
{
1070
   287
1070
     3
1070
    40
1040
15.0
1070
   143
1040
0.039
1070
   172
1070
     1
1070
   271
1070
     0
1070
   279
1070
     0
1070
   288
1070
     1
1002
}
  0
ARC
  5
7CF5
  8
1
 10
961.49109861611726
 20
1589.287096048851
 30
0.0
 40
308.96488088068128
 50
0.0
 51
85.360493477310484
  0
ARC
  5
7CF6
  8
1
 10
958.84175856642992
 20
1588.2516332158179
 30
0.0
 40
300.21600662207788
 50
0.1976169374532233
 51
84.876967751530984
  0
LINE
  5
7CF7
  8
1
 10
885.4910986161176
 20
2449.6617376090189
 30
0.0
 11
1615.4910986161181
 21
2449.6617376090189
 31
0.0
  0
ARC
  5
7CF8
  8
1
 10
998.494042691343
 20
1541.211386986643
 30
0.0
 40
201.58952384937541
 50
178.43602223557491
 51
262.20219715607021
  0
DIMENSION
  5
7CFA
  8
3
  2
*D2
 10
527.88673157971971
 20
1250.287096048851
 30
0.0
 11
490.38673157971959
 21
1407.787096048851
 31
0.0
 70
     0
 13
729.03097226563204
 23
1565.287096048851
 33
0.0
 14
805.49109861611748
 24
1250.287096048851
 34
0.0
 50
270.0
1001
ACAD
1000
DSTYLE
1002
{
1070
   287
1070
     3
1070
    40
1040
15.0
1070
   143
1040
0.039
1070
   172
1070
     1
1070
   271
1070
     0
1070
   279
1070
     0
1070
   288
1070
     1
1002
}
  0
ARC
  5
7CFC
  8
1
 10
1003.9910986161181
 20
1546.787096048851
 30
0.0
 40
218.11047620624919
 50
180.0
 51
190.11352301515069
  0
CIRCLE
  5
7CFD
  8
1
 10
985.4910986161176
 20
1565.287096048851
 30
0.0
 40
63.5
  0
ARC
  5
7CFE
  8
1
 10
985.4910986161176
 20
1565.287096048851
 30
0.0
 40
100.0
 50
85.256727858981463
 51
253.50396158870819
  0
LINE
  5
7D03
  8
1
 10
805.49109861611748
 20
1365.287096048851
 30
0.0
 11
805.49109861611748
 21
1250.287096048851
 31
0.0
  0
CIRCLE
  5
7D06
  8
1
 10
985.4910986161176
 20
1425.287096048851
 30
0.0
 40
65.0
  0
LINE
  5
7D07
  8
2
 10
1055.4910986161169
 20
1425.287096048851
 30
0.0
 11
915.4910986161176
 21
1425.287096048851
 31
0.0
  0
LINE
  5
7D14
  8
1
 10
835.49109861611669
 20
1508.4870960488511
 30
0.0
 11
835.4910986161176
 21
1325.287096048851
 31
0.0
  0
ARC
  5
7D15
  8
1
 10
1003.9910986161181
 20
1546.787096048851
 30
0.0
 40
218.11047620624919
 50
202.3104024165645
 51
219.4170843541811
  0
LINE
  5
7D16
  8
1
 10
835.4910986161176
 20
1330.287096048851
 30
0.0
 11
805.49109861611748
 21
1330.287096048851
 31
0.0
  0
LINE
  5
7D17
  8
1
 10
835.49109861611703
 20
1365.287096048851
 30
0.0
 11
805.49109861611748
 21
1365.287096048851
 31
0.0
  0
LINE
  5
7D18
  8
1
 10
785.49109861611669
 20
1508.4870960488511
 30
0.0
 11
785.49109861611669
 21
1463.9870960488511
 31
0.0
  0
LINE
  5
7D19
  8
1
 10
835.49109861611669
 20
1468.4870960488511
 30
0.0
 11
785.49109861611669
 21
1468.4870960488511
 31
0.0
  0
LINE
  5
7D1A
  8
1
 10
835.49109861611669
 20
1463.9870960488511
 30
0.0
 11
785.49109861611669
 21
1463.9870960488511
 31
0.0
  0
LINE
  5
7D1B
  8
1
 10
825.4910986161176
 20
1511.6870960488509
 30
0.0
 11
825.4910986161176
 21
1508.4870960488511
 31
0.0
  0
DIMENSION
  5
7D1D
  8
3
  2
*D3
 10
985.4910986161176
 20
1996.3112644250009
 30
0.0
 11
862.9910986161176
 21
2033.8112644250009
 31
0.0
 70
     0
 13
740.49109861611748
 23
1942.8982657238951
 33
0.0
 14
985.4910986161176
 24
1949.371483165474
 34
0.0
1001
ACAD
1000
DSTYLE
1002
{
1070
   287
1070
     3
1070
    40
1040
15.0
1070
   143
1040
0.039
1070
   172
1070
     1
1070
   271
1070
     0
1070
   279
1070
     0
1070
   288
1070
     1
1002
}
  0
LINE
  5
7D1E
  8
1
 10
765.49109861611839
 20
1917.8982657238951
 30
0.0
 11
740.49109861611839
 21
1917.8982657238951
 31
0.0
  0
LINE
  5
7D1F
  8
1
 10
747.49109861611851
 20
1920.8982657238951
 30
0.0
 11
763.49109861611851
 21
1920.8982657238951
 31
0.0
  0
LINE
  5
7D24
  8
1
 10
740.49109861611669
 20
1916.287096048851
 30
0.0
 11
985.64945284910345
 21
1887.268352078416
 31
0.0
  0
LINE
  5
7D25
  8
1
 10
747.4910986161176
 20
1584.8982657238951
 30
0.0
 11
763.4910986161176
 21
1584.8982657238951
 31
0.0
  0
LINE
  5
7D26
  8
1
 10
740.49109861611748
 20
1591.287096048851
 30
0.0
 11
802.90785139119282
 21
1591.287096048851
 31
0.0
  0
LINE
  5
7D28
  8
1
 10
740.49109861611748
 20
1562.8982657238951
 30
0.0
 11
740.49109861611748
 21
1942.8982657238951
 31
0.0
  0
LINE
  5
7D29
  8
1
 10
743.4910986161176
 20
1562.8982657238951
 30
0.0
 11
743.4910986161176
 21
1942.8982657238951
 31
0.0
  0
DIMENSION
  5
7D2A
  8
3
  2
*D4
 10
527.88673157971971
 20
1565.287096048851
 30
0.0
 11
490.38673157971942
 21
1740.787096048851
 31
0.0
 70
     0
 13
740.49109861611748
 23
1916.287096048851
 33
0.0
 14
729.03097226563204
 24
1565.287096048851
 34
0.0
 50
270.0
1001
ACAD
1000
DSTYLE
1002
{
1070
   287
1070
     3
1070
    40
1040
15.0
1070
   143
1040
0.039
1070
   172
1070
     1
1070
   271
1070
     0
1070
   279
1070
     0
1070
   288
1070
     1
1002
}
  0
DIMENSION
  5
7D2B
  8
3
  2
*D5
 10
628.39626171200678
 20
1591.287096048851
 30
0.0
 11
590.89626171200655
 21
1753.787096048851
 31
0.0
 70
     0
 13
740.49109861611748
 23
1916.287096048851
 33
0.0
 14
740.49109861611748
 24
1591.287096048851
 34
0.0
 50
270.0
1001
ACAD
1000
DSTYLE
1002
{
1070
   287
1070
     3
1070
    40
1040
15.0
1070
   143
1040
0.039
1070
   172
1070
     1
1070
   271
1070
     0
1070
   279
1070
     0
1070
   288
1070
     1
1002
}
  0
LINE
  5
7D2C
  8
1
 10
740.49109861611748
 20
1587.8982657238951
 30
0.0
 11
740.49109861611748
 21
1562.8982657238951
 31
0.0
  0
LINE
  5
7D2D
  8
1
 10
743.4910986161176
 20
1564.8982657238951
 30
0.0
 11
743.4910986161176
 21
1580.8982657238951
 31
0.0
  0
ARC
  5
7D2E
  8
1
 10
741.49109861611748
 20
1564.8982657238951
 30
0.0
 40
2.0
 50
270.0
 51
0.0
  0
LINE
  5
7D2F
  8
1
 10
740.49109861611748
 20
1562.8982657238951
 30
0.0
 11
741.49109861611748
 21
1562.8982657238951
 31
0.0
  0
ARC
  5
7D30
  8
1
 10
747.4910986161176
 20
1580.8982657238951
 30
0.0
 40
4.0
 50
90.0
 51
180.0
  0
LINE
  5
7D31
  8
1
 10
740.49109861611839
 20
1917.8982657238951
 30
0.0
 11
740.49109861611839
 21
1942.8982657238951
 31
0.0
  0
LINE
  5
7D32
  8
1
 10
743.49109861611851
 20
1940.898265723896
 30
0.0
 11
743.49109861611851
 21
1924.8982657238951
 31
0.0
  0
ARC
  5
7D33
  8
1
 10
747.49109861611851
 20
1924.8982657238951
 30
0.0
 40
4.0
 50
180.0
 51
270.0
  0
LINE
  5
7D35
  8
1
 10
740.49109861611839
 20
1942.8982657238951
 30
0.0
 11
741.49109861611851
 21
1942.8982657238951
 31
0.0
  0
ARC
  5
7D36
  8
1
 10
741.49109861611851
 20
1940.898265723896
 30
0.0
 40
2.0
 50
0.0
 51
90.0
  0
LINE
  5
7D37
  8
2
 10
985.4910986161176
 20
1949.371483165474
 30
0.0
 11
985.4910986161176
 21
1250.287096048851
 31
0.0
  0
LINE
  5
7D38
  8
1
 10
765.49109861611748
 20
1923.3977228444089
 30
0.0
 11
765.49109861611748
 21
1586.8982657238951
 31
0.0
  0
LINE
  5
7D39
  8
1
 10
765.49109861611748
 20
1586.8982657238951
 30
0.0
 11
765.49109861611748
 21
1587.8982657238951
 31
0.0
  0
LINE
  5
7D3A
  8
1
 10
765.49109861611748
 20
1581.287096048851
 30
0.0
 11
765.49109861611748
 21
1587.8982657238951
 31
0.0
  0
ARC
  5
7D3B
  8
1
 10
763.4910986161176
 20
1586.8982657238951
 30
0.0
 40
2.0
 50
270.0
 51
0.0
  0
ARC
  5
7D3C
  8
1
 10
966.99109861611566
 20
1546.7870960488499
 30
0.0
 40
181.11047620624669
 50
169.0185330642436
 51
179.9999999999998
  0
LINE
  5
7D3D
  8
1
 10
765.49109861611748
 20
1581.287096048851
 30
0.0
 11
789.19696319074956
 21
1581.287096048851
 31
0.0
  0
ARC
  5
7D3E
  8
1
 10
966.99109861611748
 20
1546.787096048851
 30
0.0
 40
170.010476206249
 50
164.8261582312218
 51
180.0000000000004
  0
LINE
  5
7D3F
  8
1
 10
985.4910986161176
 20
1665.287096048851
 30
0.0
 11
985.4910986161176
 21
1665.287096048851
 31
0.0
  0
LINE
  5
7D40
  8
1
 10
765.49109861611748
 20
1923.3977228444089
 30
0.0
 11
986.48209471637074
 21
1897.239604938665
 31
0.0
  0
LINE
  5
7D41
  8
1
 10
765.49109861611748
 20
1914.3279123753809
 30
0.0
 11
765.49109861611748
 21
1913.3279123753821
 31
0.0
  0
LINE
  5
7D42
  8
1
 10
765.49109861611839
 20
1918.8982657238951
 30
0.0
 11
765.49109861611839
 21
1917.8982657238951
 31
0.0
  0
ARC
  5
7D43
  8
1
 10
763.49109861611851
 20
1918.8982657238951
 30
0.0
 40
2.0
 50
0.0
 51
90.0
  0
LINE
  5
7D44
  8
1
 10
805.49109861611748
 20
2522.661737609018
 30
0.0
 11
1605.4910986161201
 21
2522.661737609018
 31
0.0
  0
POINT
  5
7D45
  8
1
 10
805.49109861611862
 20
2522.661737609018
 30
0.0
  0
LINE
  5
7D46
  8
1
 10
1048.9910986161169
 20
2479.6617376090189
 30
0.0
 11
921.9910986161176
 21
2479.661737609018
 31
0.0
  0
LINE
  5
7D47
  8
1
 10
1048.9910986161169
 20
2529.6617376090189
 30
0.0
 11
921.9910986161176
 21
2529.661737609018
 31
0.0
  0
LINE
  5
7D48
  8
1
 10
921.9910986161176
 20
2529.661737609018
 30
0.0
 11
921.9910986161176
 21
2479.661737609018
 31
0.0
  0
LINE
  5
7D49
  8
1
 10
1048.9910986161169
 20
2529.6617376090189
 30
0.0
 11
1048.9910986161169
 21
2479.6617376090189
 31
0.0
  0
LINE
  5
7D4A
  8
1
 10
2239.7332074702831
 20
1572.287096048851
 30
0.0
 11
2239.7332074702822
 21
1385.287096048851
 31
0.0
  0
LINE
  5
7D4B
  8
2
 10
1465.4910986161181
 20
1269.8713936271299
 30
0.0
 11
1465.4910986161181
 21
1583.748196048851
 31
0.0
  0
ARC
  5
7D4C
  8
1
 10
1465.4910986161181
 20
1475.287096048851
 30
0.0
 40
100.8
 50
0.0
 51
239.69929999999999
  0
ARC
  5
7D4D
  8
1
 10
1465.4910986161181
 20
1475.287096048851
 30
0.0
 40
100.8
 50
0.0
 51
239.69929999999999
  0
CIRCLE
  5
7D50
  8
1
 10
1465.4910986161181
 20
1475.287096048851
 30
0.0
 40
82.599999999999994
  0
ARC
  5
7D51
  8
1
 10
1009.491098616117
 20
1589.287096048851
 30
0.0
 40
260.96488088068128
 50
300.86783728670241
 51
0.0
  0
ARC
  5
7D52
  8
1
 10
1465.4910986161181
 20
1475.287096048851
 30
0.0
 40
150.0
 50
253.50396158870819
 51
85.256727858981506
  0
LINE
  5
7D54
  8
1
 10
1974.733207470282
 20
1665.287096048851
 30
0.0
 11
1974.733207470282
 21
1325.287096048851
 31
0.0
  0
LINE
  5
7D55
  8
1
 10
1882.733207470282
 20
1665.287096048851
 30
0.0
 11
1882.733207470282
 21
1325.287096048851
 31
0.0
  0
LINE
  5
7D56
  8
1
 10
1962.733207470282
 20
1628.787096048851
 30
0.0
 11
1962.733207470282
 21
1501.787096048851
 31
0.0
  0
LINE
  5
7D57
  8
1
 10
1977.733207470282
 20
1572.287096048851
 30
0.0
 11
1977.733207470282
 21
1385.287096048851
 31
0.0
  0
LINE
  5
7D58
  8
1
 10
1912.733207470282
 20
1628.787096048851
 30
0.0
 11
1912.733207470282
 21
1501.787096048851
 31
0.0
  0
LINE
  5
7D5B
  8
1
 10
1566.394970084805
 20
1385.287096048851
 30
0.0
 11
1364.58722714743
 21
1385.287096048851
 31
0.0
  0
LINE
  5
7D5E
  8
1
 10
1414.5669986161181
 20
1388.287096048851
 30
0.0
 11
1516.522098616118
 21
1388.287096048851
 31
0.0
  0
LINE
  5
7D5F
  8
1
 10
1414.5669986161181
 20
1388.287096048851
 30
0.0
 11
1516.522098616118
 21
1388.287096048851
 31
0.0
  0
LINE
  5
7D60
  8
2
 10
1361.025898616118
 20
1475.287096048851
 30
0.0
 11
1571.5938986161179
 21
1475.287096048851
 31
0.0
  0
LINE
  5
7D61
  8
1
 10
1615.4910986161169
 20
1355.287096048851
 30
0.0
 11
1315.4910986161181
 21
1355.287096048851
 31
0.0
  0
LINE
  5
7D62
  8
1
 10
1135.4910986161169
 20
1508.4870960488511
 30
0.0
 11
1135.4910986161169
 21
1325.287096048851
 31
0.0
  0
LINE
  5
7D63
  8
1
 10
1165.4910986161169
 20
1365.287096048851
 30
0.0
 11
1165.4910986161169
 21
1325.287096048851
 31
0.0
  0
LINE
  5
7D64
  8
1
 10
1165.4910986161169
 20
1330.287096048851
 30
0.0
 11
1135.4910986161169
 21
1330.287096048851
 31
0.0
  0
LINE
  5
7D65
  8
1
 10
1165.4910986161169
 20
1365.287096048851
 30
0.0
 11
1135.4910986161169
 21
1365.287096048851
 31
0.0
  0
LINE
  5
7D66
  8
1
 10
1240.8134474133501
 20
1468.487096048852
 30
0.0
 11
1135.4910986161169
 21
1468.487096048852
 31
0.0
  0
LINE
  5
7D67
  8
1
 10
1238.407194714815
 20
1463.987096048852
 30
0.0
 11
1135.4910986161169
 21
1463.9870960488511
 31
0.0
  0
LINE
  5
7D68
  8
1
 10
1145.4910986161169
 20
1511.6870960488509
 30
0.0
 11
1145.4910986161169
 21
1508.4870960488511
 31
0.0
  0
LINE
  5
7D69
  8
1
 10
1185.4910986161169
 20
1508.4870960488511
 30
0.0
 11
1185.4910986161169
 21
1468.487096048852
 31
0.0
  0
LINE
  5
7D6A
  8
1
 10
1315.4910986161181
 20
1325.287096048851
 30
0.0
 11
1315.4910986161181
 21
1355.287096048851
 31
0.0
  0
LINE
  5
7D6B
  8
1
 10
1352.9910986161181
 20
1355.287096048851
 30
0.0
 11
1364.58722714743
 21
1385.287096048851
 31
0.0
  0
LINE
  5
7D6C
  8
1
 10
1377.4910986161181
 20
1385.287096048851
 30
0.0
 11
1417.4910986161169
 21
1385.287096048851
 31
0.0
  0
LINE
  5
7D6D
  8
1
 10
1377.4910986161181
 20
1385.287096048851
 30
0.0
 11
1377.4910986161181
 21
1393.287096048851
 31
0.0
  0
LINE
  5
7D6E
  8
1
 10
1383.3445986161171
 20
1416.869796048851
 30
0.0
 11
1377.4910986161181
 21
1393.287096048851
 31
0.0
  0
LINE
  5
7D6F
  8
1
 10
1395.4910986161181
 20
1380.9205960488509
 30
0.0
 11
1395.4910986161181
 21
1397.8239960488511
 31
0.0
  0
LINE
  5
7D70
  8
1
 10
1417.4910986161169
 20
1388.259896048851
 30
0.0
 11
1417.4910986161169
 21
1385.287096048851
 31
0.0
  0
LINE
  5
7D71
  8
1
 10
1605.4910986161169
 20
1325.287096048851
 30
0.0
 11
1605.4910986161181
 21
1250.287096048851
 31
0.0
  0
ARC
  5
7D74
  8
1
 10
1465.4910986161181
 20
1475.287096048851
 30
0.0
 40
100.8
 50
300.3932999999999
 51
0.0
  0
ARC
  5
7D76
  8
1
 10
1465.4910986161181
 20
1475.287096048851
 30
0.0
 40
100.8
 50
300.3932999999999
 51
0.0
  0
LINE
  5
7D77
  8
1
 10
1553.4910986161181
 20
1385.287096048851
 30
0.0
 11
1513.4910986161181
 21
1385.287096048851
 31
0.0
  0
LINE
  5
7D78
  8
1
 10
1513.4910986161181
 20
1388.2180960488511
 30
0.0
 11
1513.4910986161181
 21
1385.287096048851
 31
0.0
  0
LINE
  5
7D79
  8
1
 10
1577.9910986161181
 20
1355.287096048851
 30
0.0
 11
1566.394970084805
 21
1385.287096048851
 31
0.0
  0
LINE
  5
7D7A
  8
1
 10
1535.4910986161181
 20
1380.9205960488509
 30
0.0
 11
1535.4910986161181
 21
1397.8239960488511
 31
0.0
  0
LINE
  5
7D7B
  8
1
 10
1547.6376986161181
 20
1416.869796048851
 30
0.0
 11
1553.4910986161181
 21
1393.287096048851
 31
0.0
  0
LINE
  5
7D7C
  8
1
 10
1553.4910986161181
 20
1385.287096048851
 30
0.0
 11
1553.4910986161181
 21
1393.287096048851
 31
0.0
  0
LINE
  5
7D7D
  8
1
 10
1615.4910986161169
 20
1325.287096048851
 30
0.0
 11
1615.4910986161169
 21
1355.287096048851
 31
0.0
  0
LINE
  5
7D7E
  8
1
 10
1977.733207470282
 20
1385.287096048851
 30
0.0
 11
2239.7332074702822
 21
1385.287096048851
 31
0.0
  0
LINE
  5
7D7F
  8
1
 10
1882.733207470282
 20
1325.287096048851
 30
0.0
 11
2083.2718459357602
 21
1325.287096048851
 31
0.0
  0
LINE
  5
7D80
  8
1
 10
1955.733207470282
 20
1325.2870960488499
 30
0.0
 11
1955.733207470282
 21
1250.2870960488499
 31
0.0
  0
LINE
  5
7D82
  8
1
 10
1962.7332074702831
 20
1517.8870960488509
 30
0.0
 11
1962.7332074702831
 21
1352.687096048852
 31
0.0
  0
LINE
  5
7D83
  8
1
 10
1912.733207470282
 20
1517.8870960488509
 30
0.0
 11
1912.733207470282
 21
1352.687096048852
 31
0.0
  0
LINE
  5
7D84
  8
1
 10
1962.7332074702831
 20
1352.687096048852
 30
0.0
 11
1912.733207470282
 21
1352.6870960488509
 31
0.0
  0
LINE
  5
7D86
  8
1
 10
1997.733207470282
 20
1385.287096048851
 30
0.0
 11
1997.733207470282
 21
1325.2870960488499
 31
0.0
  0
LINE
  5
7D87
  8
1
 10
1962.7332074702831
 20
1501.787096048851
 30
0.0
 11
1912.7332074702831
 21
1501.787096048851
 31
0.0
  0
LINE
  5
7D88
  8
1
 10
1962.7332074702831
 20
1517.8870960488509
 30
0.0
 11
1912.733207470282
 21
1517.8870960488509
 31
0.0
  0
LINE
  5
7D89
  8
2
 10
2258.2343825934258
 20
1475.287096048851
 30
0.0
 11
1860.826946208791
 21
1475.287096048851
 31
0.0
  0
LINE
  5
7D8A
  8
1
 10
1912.733207470282
 20
1447.287096048851
 30
0.0
 11
1912.733207470282
 21
1423.287096048851
 31
0.0
  0
LINE
  5
7D8B
  8
1
 10
1967.733207470282
 20
1438.787096048851
 30
0.0
 11
1967.733207470282
 21
1511.787096048851
 31
0.0
  0
LINE
  5
7D8C
  8
1
 10
1962.733207470282
 20
1487.787096048851
 30
0.0
 11
1962.733207470282
 21
1462.787096048851
 31
0.0
  0
LINE
  5
7D8D
  8
1
 10
1967.733207470282
 20
1462.787096048851
 30
0.0
 11
1962.733207470282
 21
1462.787096048851
 31
0.0
  0
ARC
  5
7D8E
  8
1
 10
1968.7333074702819
 20
1438.787096048851
 30
0.0
 40
1.0000999999999991
 50
180.0
 51
269.99650000000003
  0
ARC
  5
7D8F
  8
1
 10
1976.7332074702831
 20
1436.787096048851
 30
0.0
 40
1.0000999999999991
 50
0.0
 51
89.996500000000054
  0
LINE
  5
7D90
  8
1
 10
1968.733207470282
 20
1437.787096048851
 30
0.0
 11
1976.7332074702831
 21
1437.787096048851
 31
0.0
  0
LINE
  5
7D91
  8
1
 10
1967.733207470282
 20
1487.787096048851
 30
0.0
 11
1962.733207470282
 21
1487.787096048851
 31
0.0
  0
LINE
  5
7D92
  8
1
 10
1967.733207470282
 20
1511.787096048851
 30
0.0
 11
1977.7332074702831
 21
1511.787096048851
 31
0.0
  0
LINE
  5
7D93
  8
1
 10
1382.8910986161179
 20
2479.6617376090189
 30
0.0
 11
1548.0910986161171
 21
2479.6617376090189
 31
0.0
  0
LINE
  5
7D94
  8
1
 10
1382.8910986161179
 20
2529.6617376090189
 30
0.0
 11
1548.0910986161171
 21
2529.6617376090189
 31
0.0
  0
LINE
  5
7D95
  8
1
 10
1382.8910986161179
 20
2529.6617376090189
 30
0.0
 11
1382.8910986161179
 21
2479.6617376090189
 31
0.0
  0
LINE
  5
7D96
  8
1
 10
1453.4910986161181
 20
2479.6617376090189
 30
0.0
 11
1477.4910986161181
 21
2479.6617376090189
 31
0.0
  0
LINE
  5
7D97
  8
1
 10
1452.9910986161181
 20
2529.6617376090189
 30
0.0
 11
1477.9910986161181
 21
2529.6617376090189
 31
0.0
  0
LINE
  5
7D98
  8
1
 10
1548.0910986161171
 20
2529.6617376090189
 30
0.0
 11
1548.091098616118
 21
2479.6617376090189
 31
0.0
  0
LINE
  5
7D99
  8
1
 10
1977.733207470282
 20
1572.287096048851
 30
0.0
 11
2239.7332074702831
 21
1572.287096048851
 31
0.0
  0
LINE
  5
7D9B
  8
1
 10
1962.7332074702831
 20
1628.787096048851
 30
0.0
 11
1912.7332074702831
 21
1628.787096048851
 31
0.0
  0
LINE
  5
7D9E
  8
1
 10
1977.7332074702831
 20
1547.7870960488519
 30
0.0
 11
1974.733207470282
 21
1547.7870960488519
 31
0.0
  0
LINE
  5
7DA1
  8
1
 10
1882.7332074702831
 20
1665.287096048851
 30
0.0
 11
1974.733207470282
 21
1665.287096048851
 31
0.0
  0
LINE
  5
7DB9
  8
1
 10
825.4910986161176
 20
2554.661737609018
 30
0.0
 11
967.99109861611748
 21
2554.661737609018
 31
0.0
  0
LINE
  5
7DBA
  8
1
 10
825.49109861611805
 20
2964.661737609018
 30
0.0
 11
967.99109861611748
 21
2964.661737609018
 31
0.0
  0
LINE
  5
7DBD
  8
1
 10
1262.055979496799
 20
3019.6617376090189
 30
0.0
 11
744.49109861611839
 21
3019.6617376090189
 31
0.0
  0
LINE
  5
7DBE
  8
1
 10
1262.055979496799
 20
3255.6617376090189
 30
0.0
 11
744.49109861611839
 21
3255.6617376090189
 31
0.0
  0
LINE
  5
7DC0
  8
2
 10
1285.5223601634821
 20
3137.6617376090189
 30
0.0
 11
735.89197858990156
 21
3137.6617376090189
 31
0.0
  0
LINE
  5
7DC1
  8
1
 10
885.4910986161176
 20
2541.6617376090189
 30
0.0
 11
1615.4910986161181
 21
2541.6617376090189
 31
0.0
  0
LINE
  5
7DC4
  8
1
 10
741.49109861611851
 20
2992.661737609018
 30
0.0
 11
741.49109861611851
 21
3282.6617376090189
 31
0.0
  0
LINE
  5
7DC5
  8
1
 10
744.49109861611839
 20
2992.661737609018
 30
0.0
 11
744.49109861611839
 21
3282.6617376090189
 31
0.0
  0
LINE
  5
7DC7
  8
1
 10
744.49109861611839
 20
2992.661737609018
 30
0.0
 11
741.49109861611851
 21
2992.661737609018
 31
0.0
  0
LINE
  5
7DC9
  8
1
 10
825.4910986161176
 20
2554.661737609018
 30
0.0
 11
825.4910986161176
 21
2964.661737609018
 31
0.0
  0
LINE
  5
7DE2
  8
1
 10
744.49109861611839
 20
3282.6617376090189
 30
0.0
 11
741.49109861611851
 21
3282.661737609018
 31
0.0
  0
LINE
  5
7DE4
  8
1
 10
805.49109861611748
 20
3302.661737609018
 30
0.0
 11
805.49109861611748
 21
3255.6617376090189
 31
0.0
  0
POINT
  5
7DE5
  8
1
 10
805.49109861611748
 20
3302.661737609018
 30
0.0
  0
POINT
  5
7DE6
  8
1
 10
805.49109861611748
 20
3302.661737609018
 30
0.0
  0
LINE
  5
7DEA
  8
1
 10
1165.4910986161169
 20
2902.6617376090189
 30
0.0
 11
1165.4910986161169
 21
3019.6617376090189
 31
0.0
  0
LINE
  5
7DEB
  8
1
 10
1364.4910986161181
 20
2806.6617376090189
 30
0.0
 11
1566.4910986161181
 21
2806.6617376090189
 31
0.0
  0
LINE
  5
7DED
  8
1
 10
1364.4910986161181
 20
2544.6617376090189
 30
0.0
 11
1566.4910986161181
 21
2544.6617376090189
 31
0.0
  0
LINE
  5
7DEE
  8
1
 10
1501.9910986161181
 20
2534.6617376090189
 30
0.0
 11
1428.9910986161181
 21
2534.6617376090189
 31
0.0
  0
LINE
  5
7DF0
  8
1
 10
1165.4910986161169
 20
2902.6617376090189
 30
0.0
 11
1605.4910986161169
 21
2902.6617376090189
 31
0.0
  0
LINE
  5
7DF1
  8
1
 10
1145.4910986161169
 20
2554.661737609018
 30
0.0
 11
1145.4910986161169
 21
2964.661737609018
 31
0.0
  0
LINE
  5
7DF2
  8
1
 10
1364.4910986161181
 20
2806.6617376090189
 30
0.0
 11
1364.4910986161181
 21
2544.6617376090189
 31
0.0
  0
LINE
  5
7DF4
  8
1
 10
1428.9910986161181
 20
2534.6617376090189
 30
0.0
 11
1428.9910986161181
 21
2544.6617376090189
 31
0.0
  0
LINE
  5
7DF5
  8
1
 10
1566.4910986161181
 20
2806.6617376090189
 30
0.0
 11
1566.4910986161181
 21
2544.6617376090189
 31
0.0
  0
LINE
  5
7DF6
  8
1
 10
1502.9910986161181
 20
2535.6617376090189
 30
0.0
 11
1502.9910986161181
 21
2543.6617376090189
 31
0.0
  0
ARC
  5
7DF7
  8
1
 10
1501.9910986161181
 20
2535.6618376090191
 30
0.0
 40
1.0000999999999991
 50
270.0
 51
359.99650000000003
  0
ARC
  5
7DF8
  8
1
 10
1503.9910986161181
 20
2543.6617376090189
 30
0.0
 40
1.0000999999999991
 50
90.0
 51
179.9965
  0
LINE
  5
7DFB
  8
1
 10
1605.4910986161201
 20
2522.661737609018
 30
0.0
 11
1605.491098616119
 21
2902.6617376090189
 31
0.0
  0
POINT
  5
7DFC
  8
1
 10
1605.491098616119
 20
2902.6617376090189
 30
0.0
  0
LINE
  5
7DFD
  8
1
 10
1262.055979496799
 20
3019.6617376090189
 30
0.0
 11
1262.055979496799
 21
3255.6617376090189
 31
0.0
  0
LINE
  5
7DFF
  8
1
 10
1165.4910986161169
 20
3255.6617376090189
 30
0.0
 11
1165.4910986161169
 21
3302.661737609018
 31
0.0
  0
LINE
  5
7E00
  8
1
 10
1165.4910986161169
 20
3302.661737609018
 30
0.0
 11
805.49109861611748
 21
3302.6617376090189
 31
0.0
  0
POINT
  5
7E01
  8
1
 10
1165.4910986161169
 20
3302.661737609018
 30
0.0
  0
DIMENSION
  5
7E03
  8
3
  2
*D6
 10
2830.9114970299088
 20
1407.787096048851
 30
0.0
 11
2830.9114970299088
 21
1565.287096048851
 31
0.0
 70
   128
 13
2716.7332074702822
 23
1722.787096048851
 33
0.0
 14
2716.7332074702822
 24
1407.787096048851
 34
0.0
 50
90.0
1001
ACAD
1000
DSTYLE
1002
{
1070
   287
1070
     3
1070
     3
1000
φ<>
1070
    40
1040
15.0
1070
   143
1040
0.039
1070
   172
1070
     1
1070
   271
1070
     0
1070
   279
1070
     0
1070
   288
1070
     1
1002
}
  0
LINE
  5
7E04
  8
1
 10
2690.7332074702831
 20
1587.8982657238951
 30
0.0
 11
2690.7332074702831
 21
1329.3281918210209
 31
0.0
  0
LINE
  5
7E05
  8
1
 10
2450.7332074702831
 20
1587.8982657238951
 30
0.0
 11
2450.7332074702822
 21
1329.3281918210209
 31
0.0
  0
LINE
  5
7E06
  8
1
 10
2688.7332074702831
 20
1587.8982657238951
 30
0.0
 11
2688.7332074702822
 21
1329.3281918210209
 31
0.0
  0
LINE
  5
7E07
  8
1
 10
2452.7332074702831
 20
1587.8982657238951
 30
0.0
 11
2452.7332074702831
 21
1329.3281918210209
 31
0.0
  0
LINE
  5
7E08
  8
1
 10
2694.7332074702822
 20
1562.8982657238951
 30
0.0
 11
2694.7332074702822
 21
1400.787096048851
 31
0.0
  0
LINE
  5
7E09
  8
1
 10
2691.7332074702822
 20
1382.787096048851
 30
0.0
 11
2691.7332074702822
 21
1562.8982657238951
 31
0.0
  0
LINE
  5
7E0A
  8
1
 10
2716.7332074702822
 20
1407.787096048851
 30
0.0
 11
2716.7332074702822
 21
1723.7871228130771
 31
0.0
  0
LINE
  5
7E0B
  8
2
 10
2570.7332074702822
 20
2000.8378702017089
 30
0.0
 11
2570.7332074702822
 21
1250.2870960488499
 31
0.0
  0
POLYLINE
  5
7E0D
  8
1
 66
     1
 10
0.0
 20
0.0
 30
0.0
  0
VERTEX
  5
8780
  8
1
 10
2695.7332074702822
 20
1340.328191821023
 30
0.0
  0
VERTEX
  5
8781
  8
1
 10
2695.7332074702822
 20
1334.828191821023
 30
0.0
 42
0.4142135623730951
  0
VERTEX
  5
8782
  8
1
 10
2700.2332074702831
 20
1330.328191821023
 30
0.0
  0
VERTEX
  5
8783
  8
1
 10
2727.7332074702822
 20
1330.328191821023
 30
0.0
 42
-0.4142135623730951
  0
VERTEX
  5
8784
  8
1
 10
2730.7332074702831
 20
1327.328191821023
 30
0.0
  0
VERTEX
  5
8785
  8
1
 10
2730.7332074702831
 20
1325.328191821023
 30
0.0
  0
VERTEX
  5
8786
  8
1
 10
2690.7332074702822
 20
1325.328191821023
 30
0.0
  0
SEQEND
  5
8787
  8
1
  0
LINE
  5
7E16
  8
1
 10
2714.7332074702831
 20
1404.787096048851
 30
0.0
 11
2698.7332074702831
 21
1404.787096048851
 31
0.0
  0
LINE
  5
7E17
  8
1
 10
2450.7332074702822
 20
1339.3281918210209
 30
0.0
 11
2688.7332074702822
 21
1339.3281918210209
 31
0.0
  0
LINE
  5
7E18
  8
1
 10
2387.7332074702808
 20
1507.1870960488509
 30
0.0
 11
2387.7332074702808
 21
1325.2870960488499
 31
0.0
  0
POLYLINE
  5
7E19
  8
1
 66
     1
 10
0.0
 20
0.0
 30
0.0
 70
     1
  0
VERTEX
  5
8788
  8
1
 10
2450.7332074702822
 20
1325.328191821023
 30
0.0
  0
VERTEX
  5
8789
  8
1
 10
2450.7332074702822
 20
1365.328191821023
 30
0.0
  0
VERTEX
  5
878A
  8
1
 10
2448.7332074702831
 20
1365.328191821023
 30
0.0
 42
0.4142135623730951
  0
VERTEX
  5
878B
  8
1
 10
2445.7332074702822
 20
1362.328191821023
 30
0.0
  0
VERTEX
  5
878C
  8
1
 10
2445.7332074702822
 20
1334.828191821023
 30
0.0
 42
-0.4142135623730951
  0
VERTEX
  5
878D
  8
1
 10
2441.2332074702831
 20
1330.328191821023
 30
0.0
  0
VERTEX
  5
878E
  8
1
 10
2413.7332074702822
 20
1330.328191821023
 30
0.0
 42
0.4142135623730951
  0
VERTEX
  5
878F
  8
1
 10
2410.7332074702831
 20
1327.328191821023
 30
0.0
  0
VERTEX
  5
8790
  8
1
 10
2410.7332074702831
 20
1325.328191821023
 30
0.0
  0
SEQEND
  5
8791
  8
1
  0
LINE
  5
7E24
  8
1
 10
2450.7332074702822
 20
1329.3281918210209
 30
0.0
 11
2452.7332074702831
 21
1329.3281918210209
 31
0.0
  0
LINE
  5
7E25
  8
1
 10
2400.7332074702822
 20
1468.4870960488511
 30
0.0
 11
2450.7332074702831
 21
1468.4870960488511
 31
0.0
  0
LINE
  5
7E26
  8
1
 10
2400.7332074702822
 20
1462.4870960488511
 30
0.0
 11
2450.7332074702831
 21
1462.4870960488511
 31
0.0
  0
POLYLINE
  5
7E27
  8
1
 66
     1
 10
0.0
 20
0.0
 30
0.0
 70
     1
  0
VERTEX
  5
8792
  8
1
 10
2387.7332074702808
 20
1468.4870960488511
 30
0.0
  0
VERTEX
  5
8793
  8
1
 10
2387.7332074702808
 20
1508.4870960488511
 30
0.0
  0
VERTEX
  5
8794
  8
1
 10
2389.7332074702808
 20
1508.4870960488511
 30
0.0
 42
-0.4142135623730951
  0
VERTEX
  5
8795
  8
1
 10
2392.7332074702822
 20
1505.4870960488511
 30
0.0
  0
VERTEX
  5
8796
  8
1
 10
2392.7332074702822
 20
1477.9870960488511
 30
0.0
 42
0.4142135623730951
  0
VERTEX
  5
8797
  8
1
 10
2397.2332074702822
 20
1473.4870960488511
 30
0.0
  0
VERTEX
  5
8798
  8
1
 10
2424.7332074702822
 20
1473.4870960488511
 30
0.0
 42
-0.4142135623730951
  0
VERTEX
  5
8799
  8
1
 10
2427.7332074702822
 20
1470.4870960488511
 30
0.0
  0
VERTEX
  5
879A
  8
1
 10
2427.7332074702822
 20
1468.4870960488511
 30
0.0
  0
SEQEND
  5
879B
  8
1
  0
LINE
  5
7E32
  8
1
 10
2387.7332074702808
 20
1507.1870960488509
 30
0.0
 11
2387.7332074702808
 21
1457.1870960488509
 31
0.0
  0
LINE
  5
7E33
  8
1
 10
2387.7332074702808
 20
1507.187096048852
 30
0.0
 11
2387.7332074702808
 21
1467.187096048852
 31
0.0
  0
LINE
  5
7E34
  8
1
 10
2400.7332074702822
 20
1462.4870960488511
 30
0.0
 11
2400.7332074702822
 21
1467.1870960488509
 31
0.0
  0
LINE
  5
7E35
  8
1
 10
2400.7332074702822
 20
1468.4870960488511
 30
0.0
 11
2400.7332074702822
 21
1462.4870960488511
 31
0.0
  0
LINE
  5
7E36
  8
1
 10
2397.7332074702808
 20
1511.6870960488509
 30
0.0
 11
2397.7332074702799
 21
1508.4870960488511
 31
0.0
  0
POLYLINE
  5
7E37
  8
1
 66
     1
 10
0.0
 20
0.0
 30
0.0
  0
VERTEX
  5
879C
  8
1
 10
2690.7332074702822
 20
1340.328191821023
 30
0.0
  0
VERTEX
  5
879D
  8
1
 10
2690.7332074702822
 20
1365.328191821023
 30
0.0
  0
VERTEX
  5
879E
  8
1
 10
2692.7332074702831
 20
1365.328191821023
 30
0.0
 42
-0.4142135623730951
  0
VERTEX
  5
879F
  8
1
 10
2695.7332074702822
 20
1362.328191821023
 30
0.0
  0
VERTEX
  5
87A0
  8
1
 10
2695.7332074702822
 20
1340.328191821023
 30
0.0
 42
0.4142135623730951
  0
SEQEND
  5
87A1
  8
1
  0
POLYLINE
  5
7E3E
  8
1
 66
     1
 10
0.0
 20
0.0
 30
0.0
  0
VERTEX
  5
87A2
  8
1
 10
2690.7332074702822
 20
1325.328191821023
 30
0.0
  0
VERTEX
  5
87A3
  8
1
 10
2690.7332074702822
 20
1340.328191821023
 30
0.0
  0
SEQEND
  5
87A4
  8
1
  0
LINE
  5
7E42
  8
1
 10
2688.7332074702822
 20
1329.3281918210209
 30
0.0
 11
2690.7332074702831
 21
1329.3281918210209
 31
0.0
  0
LINE
  5
7E43
  8
1
 10
2692.7332074702831
 20
1382.787096048851
 30
0.0
 11
2691.7332074702822
 21
1382.787096048851
 31
0.0
  0
ARC
  5
7E44
  8
1
 10
2692.7332074702831
 20
1384.787096048851
 30
0.0
 40
2.0
 50
270.0
 51
0.0
  0
LINE
  5
7E45
  8
1
 10
2694.7332074702822
 20
1400.787096048851
 30
0.0
 11
2694.7332074702822
 21
1384.787096048851
 31
0.0
  0
ARC
  5
7E46
  8
1
 10
2698.7332074702831
 20
1400.787096048851
 30
0.0
 40
4.0
 50
90.0
 51
180.0
  0
LINE
  5
7E47
  8
1
 10
2735.7332074702822
 20
1325.2870960488499
 30
0.0
 11
2735.7332074702822
 21
1250.2870960488499
 31
0.0
  0
ARC
  5
7E49
  8
1
 10
2714.7332074702831
 20
1406.787096048851
 30
0.0
 40
2.0
 50
270.0
 51
0.0
  0
LINE
  5
7E4A
  8
1
 10
2716.7332074702822
 20
1407.787096048851
 30
0.0
 11
2716.7332074702822
 21
1406.787096048851
 31
0.0
  0
DIMENSION
  5
7E4C
  8
3
  2
*D7
 10
2688.7332074702822
 20
1986.2671753875049
 30
0.0
 11
2570.7332074702822
 21
2023.7671753875049
 31
0.0
 70
     0
 13
2452.7332074702831
 23
1917.8982657238951
 33
0.0
 14
2688.7332074702822
 24
1917.8982657238951
 34
0.0
1001
ACAD
1000
DSTYLE
1002
{
1070
   287
1070
     3
1070
    40
1040
15.0
1070
   143
1040
0.039
1070
   172
1070
     1
1070
   271
1070
     0
1070
   279
1070
     0
1070
   288
1070
     1
1002
}
  0
LINE
  5
7E4D
  8
1
 10
2690.7332074702831
 20
1562.8982657238951
 30
0.0
 11
2715.7332074702822
 21
1562.8982657238951
 31
0.0
  0
LINE
  5
7E4E
  8
1
 10
2425.7332074702822
 20
1942.8982657238951
 30
0.0
 11
2715.7332074702822
 21
1942.8982657238951
 31
0.0
  0
LINE
  5
7E4F
  8
1
 10
2452.7332074702831
 20
1917.8982657238951
 30
0.0
 11
2452.7332074702831
 21
1587.8982657238951
 31
0.0
  0
LINE
  5
7E50
  8
1
 10
2688.7332074702822
 20
1917.8982657238951
 30
0.0
 11
2688.7332074702822
 21
1587.8982657238951
 31
0.0
  0
LINE
  5
7E51
  8
1
 10
2450.7332074702822
 20
1917.8982657238951
 30
0.0
 11
2450.7332074702822
 21
1587.8982657238951
 31
0.0
  0
LINE
  5
7E52
  8
1
 10
2690.7332074702822
 20
1917.8982657238951
 30
0.0
 11
2690.7332074702822
 21
1587.8982657238951
 31
0.0
  0
LINE
  5
7E53
  8
1
 10
2425.7332074702822
 20
1942.8982657238951
 30
0.0
 11
2425.7332074702822
 21
1562.8982657238951
 31
0.0
  0
LINE
  5
7E54
  8
1
 10
2425.7332074702822
 20
1562.8982657238951
 30
0.0
 11
2450.7332074702831
 21
1562.8982657238951
 31
0.0
  0
LINE
  5
7E55
  8
1
 10
2450.7332074702822
 20
1547.787096048851
 30
0.0
 11
2239.7332074702831
 21
1547.787096048851
 31
0.0
  0
LINE
  5
7E57
  8
1
 10
2425.7332074702822
 20
1582.787096048851
 30
0.0
 11
1974.733207470282
 21
1582.787096048851
 31
0.0
  0
LINE
  5
7E5A
  8
1
 10
2450.7332074702822
 20
1917.8982657238951
 30
0.0
 11
2690.7332074702822
 21
1917.8982657238951
 31
0.0
  0
LINE
  5
7E5B
  8
1
 10
2715.7332074702822
 20
1942.8982657238951
 30
0.0
 11
2715.7332074702822
 21
1562.8982657238951
 31
0.0
  0
LINE
  5
7E5C
  8
1
 10
2716.7332074702822
 20
1723.7871228130771
 30
0.0
 11
2715.7332074702822
 21
1723.7871228130771
 31
0.0
  0
LINE
  5
8097
  8
4
 10
2775.0
 20
750.0
 30
0.0
 11
2775.0
 21
450.0
 31
0.0
  0
LINE
  5
8098
  8
4
 10
1725.0
 20
750.0
 30
0.0
 11
1725.0
 21
450.0
 31
0.0
  0
LINE
  5
8099
  8
4
 10
975.0
 20
750.0
 30
0.0
 11
975.0
 21
450.0
 31
0.0
  0
LINE
  5
809C
  8
4
 10
975.0
 20
450.0
 30
0.0
 11
2775.0
 21
450.0
 31
0.0
  0
LINE
  5
809D
  8
4
 10
975.0
 20
600.0
 30
0.0
 11
2775.0
 21
600.0
 31
0.0
  0
TEXT
  5
809E
  8
4
 10
1032.753121270352
 20
647.31453879991932
 30
0.0
 40
75.0
  1
機器名称
  0
TEXT
  5
809F
  8
4
 10
1029.3871590371959
 20
482.46773509801642
 30
0.0
 40
75.0
  1
機器型番
  0
TEXT
  5
80A0
  8
4
 10
1732.189592551566
 20
633.28095353542062
 30
0.0
 40
67.5
  1
ミツヤリミットロ－ﾄﾞファン
  0
TEXT
  5
80A1
  8
4
 10
1779.9817433782209
 20
475.739376419915
 30
0.0
 40
75.0
  1
LL#2-1
  0
TEXT
  5
80A3
  8
4
 10
1241.000410291188
 20
3575.1432619987731
 30
0.0
 40
80.999999999999986
  1
床置ベット
  0
TEXT
  5
80A4
  8
4
 10
444.25138999416959
 20
3800.8214642989469
 30
0.0
 40
108.0
  1
遠心式片吸込片持リミットロ－ﾄﾞファン
  0
LINE
  5
80A5
  8
4
 10
375.0
 20
3704.1131313972069
 30
0.0
 11
2775.0
 21
3704.1131313972069
 31
0.0
  0
LINE
  5
80A6
  8
4
 10
375.0
 20
4004.1131313972069
 30
0.0
 11
2775.0
 21
4004.1131313972069
 31
0.0
  0
LINE
  5
80A7
  8
4
 10
975.0
 20
750.0
 30
0.0
 11
2775.0
 21
750.0
 31
0.0
  0
LINE
  5
80A8
  8
4
 10
375.0
 20
4004.1131313972069
 30
0.0
 11
375.0
 21
3704.1131313972069
 31
0.0
  0
TEXT
  5
80A9
  8
4
 10
524.97945004049677
 20
3573.4792163195152
 30
0.0
 40
80.999999999999986
  1
左回転左横向
  0
TEXT
  5
80AA
  8
4
 10
2203.4543388739339
 20
4059.0916222429628
 30
0.0
 40
84.000000000000014
  1
No.
  0
TEXT
  5
80AB
  8
4
 10
1966.944093900019
 20
3575.1432619987731
 30
0.0
 40
80.999999999999986
  1
縮尺：1/15
  0
LINE
  5
80AC
  8
4
 10
2775.0
 20
4004.1131313972069
 30
0.0
 11
2775.0
 21
3704.1131313972069
 31
0.0
  0
LINE
  5
80AD
  8
4
 10
3150.0
 20
4425.0
 30
0.0
 11
3150.0
 21
4425.0
 31
0.0
  0
LINE
  5
80AE
  8
4
 10
2160.9261335397969
 20
4021.895374688102
 30
0.0
 11
2160.9261335397969
 21
4179.9783923246277
 31
0.0
  0
LINE
  5
80AF
  8
4
 10
2160.9261335397969
 20
4179.9783923246277
 30
0.0
 11
2775.0
 21
4179.9783923246277
 31
0.0
  0
LINE
  5
80B0
  8
4
 10
2775.0
 20
4179.9783923246277
 30
0.0
 11
2775.0
 21
4021.895374688102
 31
0.0
  0
LINE
  5
80B1
  8
4
 10
2775.0
 20
4021.895374688102
 30
0.0
 11
2160.9261335397969
 21
4021.895374688102
 31
0.0
  0
LINE
  5
80B2
  8
4
 10
0.0
 20
0.0
 30
0.0
 11
0.0
 21
4425.0
 31
0.0
  0
LINE
  5
80B3
  8
4
 10
0.0
 20
4425.0
 30
0.0
 11
3150.0
 21
4425.0
 31
0.0
  0
LINE
  5
80B4
  8
4
 10
3150.0
 20
4425.0
 30
0.0
 11
3150.0
 21
0.0
 31
0.0
  0
LINE
  5
80B5
  8
4
 10
3150.0
 20
0.0
 30
0.0
 11
0.0
 21
0.0
 31
0.0
  0
DIMENSION
  5
849B
  8
3
  2
*D9
 10
1165.4910986161169
 20
3388.0383122793901
 30
0.0
 11
985.9676444595807
 21
3388.0383122793901
 31
0.0
 70
   128
 13
805.49109861611748
 23
3302.6617376090189
 33
0.0
 14
1165.4910986161169
 24
3302.661737609018
 34
0.0
1001
ACAD
1000
DSTYLE
1002
{
1070
   287
1070
     3
1070
    40
1040
15.0
1070
   143
1040
0.039
1070
   172
1070
     1
1070
   271
1070
     0
1070
   279
1070
     0
1070
   288
1070
     1
1002
}
  0
DIMENSION
  5
84A7
  8
3
  2
*D10
 10
1605.491098616119
 20
3388.0383122793901
 30
0.0
 11
1385.4910986161181
 21
3425.5383122793901
 31
0.0
 70
     0
 13
1165.4910986161169
 23
3302.661737609018
 33
0.0
 14
1605.491098616119
 24
2902.6617376090189
 34
0.0
1001
ACAD
1000
DSTYLE
1002
{
1070
   287
1070
     4
1070
    40
1040
15.0
1070
    75
1070
     1
1070
   143
1040
0.039
1070
   172
1070
     1
1070
   271
1070
     0
1070
   279
1070
     1
1070
   288
1070
     1
1002
}
  0
DIMENSION
  5
84B4
  8
3
  2
*D11
 10
1754.004434397119
 20
2522.661737609018
 30
0.0
 11
1754.0044343971181
 21
2706.9990088250702
 31
0.0
 70
   128
 13
1605.491098616119
 23
2902.6617376090189
 33
0.0
 14
1605.830140502557
 24
2522.661737609018
 34
0.0
 50
90.0
1001
ACAD
1000
DSTYLE
1002
{
1070
   287
1070
     3
1070
    40
1040
15.0
1070
   143
1040
0.039
1070
   172
1070
     1
1070
   271
1070
     0
1070
   279
1070
     0
1070
   288
1070
     1
1002
}
  0
DIMENSION
  5
84CC
  8
3
  2
*D12
 10
682.21033290735102
 20
2522.661737609018
 30
0.0
 11
682.21033290735056
 21
2919.2069037527031
 31
0.0
 70
   128
 13
805.49109861611748
 23
3302.6617376090189
 33
0.0
 14
805.49109861611862
 24
2522.661737609018
 34
0.0
 50
90.0
1001
ACAD
1000
DSTYLE
1002
{
1070
   287
1070
     3
1070
    40
1040
15.0
1070
   143
1040
0.039
1070
   172
1070
     1
1070
   271
1070
     0
1070
   279
1070
     0
1070
   288
1070
     1
1002
}
  0
DIMENSION
  5
85FA
  8
3
  2
*D13
 10
1605.4910986161169
 20
2100.7612348012149
 30
0.0
 11
1144.4083272210059
 21
2100.7612348012149
 31
0.0
 70
   128
 13
740.49109861611748
 23
1942.8982657238951
 33
0.0
 14
1605.4910986161169
 24
1325.287096048851
 34
0.0
1001
ACAD
1000
DSTYLE
1002
{
1070
   287
1070
     3
1070
    40
1040
15.0
1070
   143
1040
0.039
1070
   172
1070
     1
1070
   271
1070
     0
1070
   279
1070
     0
1070
   288
1070
     1
1002
}
  0
DIMENSION
  5
8612
  8
3
  2
*D14
 10
1882.733207470282
 20
2100.7612348012149
 30
0.0
 11
2224.2835317569352
 21
2100.7612348012149
 31
0.0
 70
   128
  1
MAX\P760
 13
2570.7332074702822
 23
2067.6347051615121
 33
0.0
 14
1882.733207470282
 24
1665.287096048851
 34
0.0
1001
ACAD
1000
DSTYLE
1002
{
1070
   287
1070
     3
1070
    40
1040
15.0
1070
   143
1040
0.039
1070
   172
1070
     1
1070
   271
1070
     0
1070
   279
1070
     0
1070
   288
1070
     1
1002
}
  0
LINE
  5
8689
  8
1
 10
1002.991098616117
 20
2964.661737609018
 30
0.0
 11
1145.4910986161181
 21
2964.661737609018
 31
0.0
  0
LINE
  5
868A
  8
1
 10
1002.991098616117
 20
2554.661737609018
 30
0.0
 11
1145.4910986161169
 21
2554.661737609018
 31
0.0
  0
DIMENSION
  5
8698
  8
3
  2
*D15
 10
2691.7332074702822
 20
2100.7612348012149
 30
0.0
 11
2631.2332074702822
 21
2139.5444591141259
 31
0.0
 12
-87.350206129507569
 22
0.0
 32
0.0
 70
   128
 13
2570.7332074702822
 23
2067.6347051615121
 33
0.0
 14
2691.7332074702822
 24
1562.8982657238951
 34
0.0
1001
ACAD
1000
DSTYLE
1002
{
1070
   288
1070
     1
1070
   172
1070
     1
1070
    75
1070
     1
1070
    40
1040
15.0
1070
   271
1070
     0
1070
   143
1040
0.039
1002
}
  0
DIMENSION
  5
86F2
  8
3
  2
*D16
 10
985.4910986161176
 20
1133.97179863203
 30
0.0
 11
895.49109861611748
 21
1171.47179863203
 31
0.0
 70
     0
 13
805.49109861611748
 23
1250.287096048851
 33
0.0
 14
985.4910986161176
 24
1250.287096048851
 34
0.0
1001
ACAD
1000
DSTYLE
1002
{
1070
   287
1070
     3
1070
    40
1040
15.0
1070
   143
1040
0.039
1070
   172
1070
     1
1070
   271
1070
     0
1070
   279
1070
     0
1002
}
  0
DIMENSION
  5
86FF
  8
3
  2
*D17
 10
1605.4910986161181
 20
1133.97179863203
 30
0.0
 11
1295.4910986161181
 21
1171.47179863203
 31
0.0
 70
     0
 13
985.4910986161176
 23
1250.287096048851
 33
0.0
 14
1605.4910986161181
 24
1250.287096048851
 34
0.0
1001
ACAD
1000
DSTYLE
1002
{
1070
   287
1070
     3
1070
    40
1040
15.0
1070
   143
1040
0.039
1070
   172
1070
     1
1070
   271
1070
     0
1070
   279
1070
     0
1002
}
  0
DIMENSION
  5
870C
  8
3
  2
*D18
 10
2570.7332074702822
 20
1133.97179863203
 30
0.0
 11
2263.2332074702822
 21
1171.47179863203
 31
0.0
 70
     0
 13
1955.733207470282
 23
1250.2870960488499
 33
0.0
 14
2570.7332074702822
 24
1250.2870960488499
 34
0.0
1001
ACAD
1000
DSTYLE
1002
{
1070
   287
1070
     3
1070
    40
1040
15.0
1070
   143
1040
0.039
1070
   172
1070
     1
1070
   271
1070
     0
1070
   279
1070
     0
1002
}
  0
DIMENSION
  5
871B
  8
3
  2
*D19
 10
2735.7332074702822
 20
1133.97179863203
 30
0.0
 11
2653.2332074702822
 21
1171.47179863203
 31
0.0
 70
     0
 13
2570.7332074702822
 23
1250.2870960488499
 33
0.0
 14
2735.7332074702822
 24
1250.287096048851
 34
0.0
1001
ACAD
1000
DSTYLE
1002
{
1070
   287
1070
     3
1070
    40
1040
15.0
1070
   143
1040
0.039
1070
   172
1070
     1
1070
   271
1070
     0
1070
   279
1070
     0
1002
}
  0
DIMENSION
  5
8728
  8
3
  2
*D20
 10
415.1971771960051
 20
1250.287096048851
 30
0.0
 11
377.69717719600499
 21
1596.592680886374
 31
0.0
 70
     0
 13
740.49109861611748
 23
1942.8982657238951
 33
0.0
 14
805.49109861611748
 24
1250.287096048851
 34
0.0
 50
90.0
1001
ACAD
1000
DSTYLE
1002
{
1070
   287
1070
     3
1070
    40
1040
15.0
1070
   143
1040
0.039
1070
   172
1070
     1
1070
   271
1070
     0
1070
   279
1070
     0
1002
}
  0
ENDSEC
  0
EOF
