  0
SECTION
  2
HEADER
  9
$ACADVER
  1
AC1009
  9
$INSBASE
 10
0.0
 20
0.0
 30
0.0
  9
$EXTMIN
 10
-4128.9508801254269
 20
-7154.4496981635739
 30
0.0
  9
$EXTMAX
 10
8471.0491198745731
 20
10545.55030183642
 30
0.0
  9
$LIMMIN
 10
0.0
 20
0.0
  9
$LIMMAX
 10
297.0
 20
210.0
  9
$ORTHOMODE
 70
     0
  9
$REGENMODE
 70
     1
  9
$FILLMODE
 70
     0
  9
$QTEXTMODE
 70
     0
  9
$MIRRTEXT
 70
     1
  9
$DRAGMODE
 70
     2
  9
$LTSCALE
 40
360.0
  9
$OSMODE
 70
    37
  9
$ATTMODE
 70
     1
  9
$TEXTSIZE
 40
180.0
  9
$TRACEWID
 40
0.05
  9
$TEXTSTYLE
  7
STANDARD
  9
$CLAYER
  8
3
  9
$CELTYPE
  6
BYLAYER
  9
$CECOLOR
 62
   256
  9
$DIMSCALE
 40
60.0
  9
$DIMASZ
 40
2.0
  9
$DIMEXO
 40
0.5
  9
$DIMDLI
 40
10.0
  9
$DIMRND
 40
0.0
  9
$DIMDLE
 40
0.0
  9
$DIMEXE
 40
1.0
  9
$DIMTP
 40
1.0
  9
$DIMTM
 40
1.0
  9
$DIMTXT
 40
3.0
  9
$DIMCEN
 40
0.0
  9
$DIMTSZ
 40
0.0
  9
$DIMTOL
 70
     0
  9
$DIMLIM
 70
     0
  9
$DIMTIH
 70
     0
  9
$DIMTOH
 70
     0
  9
$DIMSE1
 70
     1
  9
$DIMSE2
 70
     1
  9
$DIMTAD
 70
     1
  9
$DIMZIN
 70
     8
  9
$DIMBLK
  1
OPEN30
  9
$DIMASO
 70
     1
  9
$DIMSHO
 70
     1
  9
$DIMPOST
  1
(<>)
  9
$DIMAPOST
  1

  9
$DIMALT
 70
     0
  9
$DIMALTD
 70
     2
  9
$DIMALTF
 40
0.039
  9
$DIMLFAC
 40
1.0
  9
$DIMTOFL
 70
     1
  9
$DIMTVP
 40
0.0
  9
$DIMTIX
 70
     0
  9
$DIMSOXD
 70
     0
  9
$DIMSAH
 70
     1
  9
$DIMBLK1
  1
NONE
  9
$DIMBLK2
  1
NONE
  9
$DIMSTYLE
  2
IGA
  9
$DIMCLRD
 70
     0
  9
$DIMCLRE
 70
     0
  9
$DIMCLRT
 70
     0
  9
$DIMTFAC
 40
10.0
  9
$DIMGAP
 40
1.0
  9
$LUNITS
 70
     2
  9
$LUPREC
 70
     3
  9
$SKETCHINC
 40
0.1
  9
$FILLETRAD
 40
50.0
  9
$AUNITS
 70
     0
  9
$AUPREC
 70
     0
  9
$MENU
  1
acad
  9
$ELEVATION
 40
0.0
  9
$PELEVATION
 40
0.0
  9
$THICKNESS
 40
0.0
  9
$LIMCHECK
 70
     0
  9
$BLIPMODE
 70
     0
  9
$CHAMFERA
 40
0.5
  9
$CHAMFERB
 40
0.5
  9
$SKPOLY
 70
     0
  9
$TDCREATE
 40
2453349.637759502
  9
$TDUPDATE
 40
2454953.6811445602
  9
$TDINDWG
 40
0.2100470139
  9
$TDUSRTIMER
 40
0.2100462963
  9
$USRTIMER
 70
     1
  9
$ANGBASE
 50
0.0
  9
$ANGDIR
 70
     0
  9
$PDMODE
 70
     0
  9
$PDSIZE
 40
0.0
  9
$PLINEWID
 40
0.0
  9
$COORDS
 70
     1
  9
$SPLFRAME
 70
     0
  9
$SPLINETYPE
 70
     6
  9
$SPLINESEGS
 70
     8
  9
$ATTDIA
 70
     0
  9
$ATTREQ
 70
     1
  9
$HANDLING
 70
 10241
  9
$HANDSEED
  5
99C4
  9
$SURFTAB1
 70
     6
  9
$SURFTAB2
 70
     6
  9
$SURFTYPE
 70
     6
  9
$SURFU
 70
     6
  9
$SURFV
 70
     6
  9
$UCSNAME
  2

  9
$UCSORG
 10
0.0
 20
0.0
 30
0.0
  9
$UCSXDIR
 10
1.0
 20
0.0
 30
0.0
  9
$UCSYDIR
 10
0.0
 20
1.0
 30
0.0
  9
$PUCSNAME
  2

  9
$PUCSORG
 10
0.0
 20
0.0
 30
0.0
  9
$PUCSXDIR
 10
1.0
 20
0.0
 30
0.0
  9
$PUCSYDIR
 10
0.0
 20
1.0
 30
0.0
  9
$USERI1
 70
     0
  9
$USERI2
 70
     0
  9
$USERI3
 70
     0
  9
$USERI4
 70
     0
  9
$USERI5
 70
     0
  9
$USERR1
 40
0.0
  9
$USERR2
 40
0.0
  9
$USERR3
 40
0.0
  9
$USERR4
 40
0.0
  9
$USERR5
 40
0.0
  9
$WORLDVIEW
 70
     1
  9
$SHADEDGE
 70
     3
  9
$SHADEDIF
 70
    70
  9
$TILEMODE
 70
     1
  9
$MAXACTVP
 70
    16
  9
$PLIMCHECK
 70
     0
  9
$PEXTMIN
 10
1.0000000000000000E+020
 20
1.0000000000000000E+020
 30
1.0000000000000000E+020
  9
$PEXTMAX
 10
-1.0000000000000000E+020
 20
-1.0000000000000000E+020
 30
-1.0000000000000000E+020
  9
$PLIMMIN
 10
0.0
 20
0.0
  9
$PLIMMAX
 10
12.0
 20
9.0
  9
$UNITMODE
 70
     0
  9
$VISRETAIN
 70
     0
  9
$PLINEGEN
 70
     0
  9
$PSLTSCALE
 70
     1
  0
ENDSEC
  0
SECTION
  2
TABLES
  0
TABLE
  2
VPORT
 70
     2
  0
VPORT
  2
*ACTIVE
 70
     0
 10
0.0
 20
0.0
 11
1.0
 21
1.0
 12
16816.930490632622
 22
1695.550343047445
 13
0.0
 23
0.0
 14
10.0
 24
10.0
 15
10.0
 25
10.0
 16
0.0
 26
0.0
 36
1.0
 17
0.0
 27
0.0
 37
0.0
 40
17838.47551234916
 41
3.1666666666666661
 42
50.0
 43
0.0
 44
0.0
 50
0.0
 51
0.0
 71
     0
 72
   100
 73
     1
 74
     0
 75
     0
 76
     0
 77
     0
 78
     0
  0
ENDTAB
  0
TABLE
  2
LTYPE
 70
     2
  0
LTYPE
  2
CONTINUOUS
 70
     0
  3
Solid line
 72
    65
 73
     0
 40
0.0
  0
LTYPE
  2
CENTER
 70
     0
  3
____ _ ____ _ ____ _ ____ _ ____ _ ____ _ ____ 
 72
    65
 73
     4
 40
2.0
 49
1.25
 49
-0.25
 49
0.25
 49
-0.25
  0
ENDTAB
  0
TABLE
  2
LAYER
 70
     6
  0
LAYER
  2
0
 70
     0
 62
     7
  6
CONTINUOUS
  0
LAYER
  2
1
 70
     0
 62
     4
  6
CONTINUOUS
  0
LAYER
  2
3
 70
     0
 62
     2
  6
CONTINUOUS
  0
LAYER
  2
2
 70
     0
 62
     3
  6
CENTER
  0
LAYER
  2
4
 70
     0
 62
     7
  6
CONTINUOUS
  0
LAYER
  2
DEFPOINTS
 70
     0
 62
     7
  6
CONTINUOUS
  0
ENDTAB
  0
TABLE
  2
STYLE
 70
     1
  0
STYLE
  2
STANDARD
 70
     0
 40
0.0
 41
1.0
 50
0.0
 71
     0
 42
180.0
  3
simplex.shx
  4
extfont.shx
  0
ENDTAB
  0
TABLE
  2
VIEW
 70
     0
  0
ENDTAB
  0
TABLE
  2
UCS
 70
     0
  0
ENDTAB
  0
TABLE
  2
APPID
 70
     1
  0
APPID
  2
ACAD
 70
     0
  0
ENDTAB
  0
TABLE
  2
DIMSTYLE
 70
     1
  0
DIMSTYLE
  2
IGA
 70
     0
  3

  4

  5

  6

  7

 40
2.0
 41
2.0
 42
0.5
 43
10.0
 44
1.0
 45
0.0
 46
0.0
 47
1.0
 48
1.0
140
3.0
141
0.0
142
0.0
143
0.03937
144
1.0
145
0.0
146
10.0
147
1.0
 71
     0
 72
     0
 73
     0
 74
     0
 75
     0
 76
     0
 77
     1
 78
     8
170
     0
171
     2
172
     0
173
     1
174
     0
175
     0
176
     0
177
     0
178
     0
  0
ENDTAB
  0
ENDSEC
  0
SECTION
  2
BLOCKS
  0
BLOCK
  8
0
  2
$MODEL_SPACE
 70
     0
 10
0.0
 20
0.0
 30
0.0
  3
$MODEL_SPACE
  1

  0
ENDBLK
  5
7D74
  8
0
  0
BLOCK
 67
     1
  8
0
  2
$PAPER_SPACE
 70
     0
 10
0.0
 20
0.0
 30
0.0
  3
$PAPER_SPACE
  1

  0
ENDBLK
  5
7D70
 67
     1
  8
0
  0
BLOCK
  8
0
  2
_OPEN30
 70
     0
 10
0.0
 20
0.0
 30
0.0
  3
_OPEN30
  1

  0
LINE
  5
7DAE
  8
1
 62
     0
 10
-1.0
 20
0.26794919
 30
0.0
 11
0.0
 21
0.0
 31
0.0
  0
LINE
  5
7DAF
  8
1
 62
     0
 10
0.0
 20
0.0
 30
0.0
 11
-1.0
 21
-0.26794919
 31
0.0
  0
LINE
  5
7DB0
  8
1
 62
     0
 10
0.0
 20
0.0
 30
0.0
 11
-1.0
 21
0.0
 31
0.0
  0
ENDBLK
  5
7DB1
  8
0
  0
BLOCK
  8
0
  2
*D1
 70
     1
 10
0.0
 20
0.0
 30
0.0
  3
*D1
  1

  0
LINE
  5
98ED
  8
3
 62
     0
 10
6928.0871082668846
 20
-1026.4071789961779
 30
0.0
 11
7769.8980415944388
 21
-1026.407178996179
 31
0.0
  0
LINE
  5
98EE
  8
3
 62
     0
 10
6922.0871082668846
 20
973.5928210038204
 30
0.0
 11
7769.8980415944388
 21
973.59282100382029
 31
0.0
  0
LINE
  5
98EF
  8
3
 62
     0
 10
7709.8980415944388
 20
-906.4071789961788
 30
0.0
 11
7709.8980415944388
 21
853.59282100382029
 31
0.0
  0
INSERT
  5
98F0
  8
3
 62
     0
  2
_OPEN30
 10
7709.8980415944388
 20
-1026.407178996179
 30
0.0
 41
120.0
 42
120.0
 43
120.0
 50
270.0
  0
INSERT
  5
98F1
  8
3
 62
     0
  2
_OPEN30
 10
7709.8980415944388
 20
973.59282100382029
 30
0.0
 41
120.0
 42
120.0
 43
120.0
 50
90.0
  0
TEXT
  8
3
  40
180
  5
99AF
  62
0
  72
0
  71
0
 10
7199.90
 20
-345.007
 30
0.000000
  1
%%c2000
  0
POINT
  5
98F3
  8
DEFPOINTS
 62
     0
 10
6898.0871082668837
 20
-1026.4071789961779
 30
0.0
  0
POINT
  5
98F4
  8
DEFPOINTS
 62
     0
 10
6892.0871082668846
 20
973.5928210038204
 30
0.0
  0
POINT
  5
98F5
  8
DEFPOINTS
 62
     0
 10
7709.8980415944388
 20
973.59282100382029
 30
0.0
  0
ENDBLK
  5
7E6D
  8
0
  0
BLOCK
  8
0
  2
*D2
 70
     1
 10
0.0
 20
0.0
 30
0.0
  3
*D2
  1

  0
LINE
  5
98F6
  8
3
 62
     0
 10
-1364.762714332926
 20
-2174.407178996179
 30
0.0
 11
-2132.0235381864932
 21
-2174.407178996179
 31
0.0
  0
LINE
  5
98F7
  8
3
 62
     0
 10
-1364.762714332925
 20
-114.4071789961792
 30
0.0
 11
-2132.0235381864932
 21
-114.407178996179
 31
0.0
  0
LINE
  5
98F8
  8
3
 62
     0
 10
-2072.0235381864932
 20
-2054.407178996179
 30
0.0
 11
-2072.0235381864932
 21
-234.407178996179
 31
0.0
  0
INSERT
  5
98F9
  8
3
 62
     0
  2
_OPEN30
 10
-2072.0235381864932
 20
-2174.407178996179
 30
0.0
 41
120.0
 42
120.0
 43
120.0
 50
270.0
  0
INSERT
  5
98FA
  8
3
 62
     0
  2
_OPEN30
 10
-2072.0235381864932
 20
-114.407178996179
 30
0.0
 41
120.0
 42
120.0
 43
120.0
 50
90.0
  0
TEXT
  8
3
  40
180
  5
99B0
  62
0
  72
0
  71
0
 10
-2582.02
 20
-1463.01
 30
0.000000
  1
2060
  0
POINT
  5
98FC
  8
DEFPOINTS
 62
     0
 10
-1334.762714332926
 20
-2174.407178996179
 30
0.0
  0
POINT
  5
98FD
  8
DEFPOINTS
 62
     0
 10
-1334.762714332926
 20
-114.4071789961792
 30
0.0
  0
POINT
  5
98FE
  8
DEFPOINTS
 62
     0
 10
-2072.0235381864932
 20
-114.407178996179
 30
0.0
  0
ENDBLK
  5
8048
  8
0
  0
BLOCK
  8
0
  2
*D3
 70
     1
 10
0.0
 20
0.0
 30
0.0
  3
*D3
  1

  0
LINE
  5
98FF
  8
3
 62
     0
 10
-1364.762714332926
 20
-2174.407178996179
 30
0.0
 11
-2589.3466731018661
 21
-2174.407178996179
 31
0.0
  0
LINE
  5
9900
  8
3
 62
     0
 10
-1671.51278941995
 20
-26.407178996179251
 30
0.0
 11
-2589.3466731018648
 21
-26.407178996178981
 31
0.0
  0
LINE
  5
9901
  8
3
 62
     0
 10
-2529.3466731018661
 20
-2054.407178996179
 30
0.0
 11
-2529.3466731018648
 21
-146.407178996179
 31
0.0
  0
INSERT
  5
9902
  8
3
 62
     0
  2
_OPEN30
 10
-2529.3466731018661
 20
-2174.407178996179
 30
0.0
 41
120.0
 42
120.0
 43
120.0
 50
270.0
  0
INSERT
  5
9903
  8
3
 62
     0
  2
_OPEN30
 10
-2529.3466731018648
 20
-26.407178996178999
 30
0.0
 41
120.0
 42
120.0
 43
120.0
 50
90.0
  0
TEXT
  8
3
  40
180
  5
99B1
  62
0
  72
0
  71
0
 10
-3039.35
 20
-1419.01
 30
0.000000
  1
2148
  0
POINT
  5
9905
  8
DEFPOINTS
 62
     0
 10
-1334.762714332926
 20
-2174.407178996179
 30
0.0
  0
POINT
  5
9906
  8
DEFPOINTS
 62
     0
 10
-1641.51278941995
 20
-26.407178996179251
 30
0.0
  0
POINT
  5
9907
  8
DEFPOINTS
 62
     0
 10
-2529.3466731018648
 20
-26.407178996178999
 30
0.0
  0
ENDBLK
  5
8055
  8
0
  0
BLOCK
  8
0
  2
*D4
 70
     1
 10
0.0
 20
0.0
 30
0.0
  3
*D4
  1

  0
LINE
  5
9908
  8
3
 62
     0
 10
1120.2372856670729
 20
5639.7326331639633
 30
0.0
 11
1120.2372856670729
 21
6271.2875301007589
 31
0.0
  0
LINE
  5
9909
  8
3
 62
     0
 10
-1239.762714332926
 20
5639.7326331639633
 30
0.0
 11
-1239.762714332926
 21
6271.2875301007589
 31
0.0
  0
LINE
  5
990A
  8
3
 62
     0
 10
1000.237285667073
 20
6211.2875301007589
 30
0.0
 11
-1119.762714332926
 21
6211.2875301007589
 31
0.0
  0
INSERT
  5
990B
  8
3
 62
     0
  2
_OPEN30
 10
1120.2372856670729
 20
6211.2875301007589
 30
0.0
 41
120.0
 42
120.0
 43
120.0
  0
INSERT
  5
990C
  8
3
 62
     0
  2
_OPEN30
 10
-1239.762714332926
 20
6211.2875301007589
 30
0.0
 41
120.0
 42
120.0
 43
120.0
 50
180.0
  0
TEXT
  8
3
  40
180
  5
99B2
  62
0
  72
0
  71
0
 10
-419.763
 20
6042.69
 30
0.000000
  1
2360
  0
POINT
  5
990E
  8
DEFPOINTS
 62
     0
 10
1120.2372856670729
 20
5609.7326331639642
 30
0.0
  0
POINT
  5
990F
  8
DEFPOINTS
 62
     0
 10
-1239.762714332926
 20
5609.7326331639642
 30
0.0
  0
POINT
  5
9910
  8
DEFPOINTS
 62
     0
 10
-1239.762714332926
 20
6211.2875301007589
 30
0.0
  0
ENDBLK
  5
855F
  8
0
  0
BLOCK
  8
0
  2
*D5
 70
     1
 10
0.0
 20
0.0
 30
0.0
  3
*D5
  1

  0
LINE
  5
9911
  8
3
 62
     0
 10
1120.2372856670729
 20
5639.7326331639633
 30
0.0
 11
1120.2372856670729
 21
6271.2875301007589
 31
0.0
  0
LINE
  5
9912
  8
3
 62
     0
 10
2460.2372856670731
 20
4779.7326331639651
 30
0.0
 11
2460.2372856670731
 21
6271.2875301007589
 31
0.0
  0
LINE
  5
9913
  8
3
 62
     0
 10
1240.2372856670729
 20
6211.2875301007589
 30
0.0
 11
2340.2372856670731
 21
6211.2875301007589
 31
0.0
  0
INSERT
  5
9914
  8
3
 62
     0
  2
_OPEN30
 10
1120.2372856670729
 20
6211.2875301007589
 30
0.0
 41
120.0
 42
120.0
 43
120.0
 50
180.0
  0
INSERT
  5
9915
  8
3
 62
     0
  2
_OPEN30
 10
2460.2372856670731
 20
6211.2875301007589
 30
0.0
 41
120.0
 42
120.0
 43
120.0
  0
TEXT
  8
3
  40
180
  5
99B3
  62
0
  72
0
  71
0
 10
1430.24
 20
6042.69
 30
0.000000
  1
1340
  0
POINT
  5
9917
  8
DEFPOINTS
 62
     0
 10
1120.2372856670729
 20
5609.7326331639642
 30
0.0
  0
POINT
  5
9918
  8
DEFPOINTS
 62
     0
 10
2460.2372856670731
 20
4749.7326331639651
 30
0.0
  0
POINT
  5
9919
  8
DEFPOINTS
 62
     0
 10
2460.2372856670731
 20
6211.2875301007589
 30
0.0
  0
ENDBLK
  5
8575
  8
0
  0
BLOCK
  8
0
  2
*D6
 70
     1
 10
0.0
 20
0.0
 30
0.0
  3
*D6
  1

  0
LINE
  5
991A
  8
3
 62
     0
 10
2460.2372856670731
 20
3519.7326331639651
 30
0.0
 11
2460.2372856670731
 21
2679.315186575383
 31
0.0
  0
LINE
  5
991B
  8
3
 62
     0
 10
-1239.762714332926
 20
3519.7326331639651
 30
0.0
 11
-1239.762714332926
 21
2679.315186575383
 31
0.0
  0
LINE
  5
991C
  8
3
 62
     0
 10
2340.2372856670731
 20
2739.3151865753821
 30
0.0
 11
-1119.762714332926
 21
2739.3151865753821
 31
0.0
  0
INSERT
  5
991D
  8
3
 62
     0
  2
_OPEN30
 10
2460.2372856670731
 20
2739.3151865753821
 30
0.0
 41
120.0
 42
120.0
 43
120.0
  0
INSERT
  5
991E
  8
3
 62
     0
  2
_OPEN30
 10
-1239.762714332926
 20
2739.3151865753821
 30
0.0
 41
120.0
 42
120.0
 43
120.0
 50
180.0
  0
TEXT
  8
3
  40
180
  5
99B4
  62
0
  72
0
  71
0
 10
250.237
 20
2570.72
 30
0.000000
  1
3700
  0
POINT
  5
9920
  8
DEFPOINTS
 62
     0
 10
2460.2372856670731
 20
3549.7326331639638
 30
0.0
  0
POINT
  5
9921
  8
DEFPOINTS
 62
     0
 10
-1239.762714332926
 20
3549.7326331639638
 30
0.0
  0
POINT
  5
9922
  8
DEFPOINTS
 62
     0
 10
-1239.762714332926
 20
2739.3151865753821
 30
0.0
  0
ENDBLK
  5
865D
  8
0
  0
BLOCK
  8
0
  2
*D7
 70
     1
 10
0.0
 20
0.0
 30
0.0
  3
*D7
  1

  0
LINE
  5
9923
  8
3
 62
     0
 10
2490.237285667074
 20
4749.7326331639651
 30
0.0
 11
3375.1789233550949
 21
4749.7326331639651
 31
0.0
  0
LINE
  5
9924
  8
3
 62
     0
 10
2490.237285667074
 20
3549.7326331639638
 30
0.0
 11
3375.1789233550949
 21
3549.7326331639638
 31
0.0
  0
LINE
  5
9925
  8
3
 62
     0
 10
3315.1789233550949
 20
4629.7326331639651
 30
0.0
 11
3315.1789233550949
 21
3669.7326331639638
 31
0.0
  0
INSERT
  5
9926
  8
3
 62
     0
  2
_OPEN30
 10
3315.1789233550949
 20
4749.7326331639651
 30
0.0
 41
120.0
 42
120.0
 43
120.0
 50
90.0
  0
INSERT
  5
9927
  8
3
 62
     0
  2
_OPEN30
 10
3315.1789233550949
 20
3549.7326331639638
 30
0.0
 41
120.0
 42
120.0
 43
120.0
 50
270.0
  0
TEXT
  8
3
  40
180
  5
99B5
  62
0
  72
0
  71
0
 10
2805.18
 20
3831.13
 30
0.000000
  1
1200
  0
POINT
  5
9929
  8
DEFPOINTS
 62
     0
 10
2460.2372856670731
 20
4749.7326331639651
 30
0.0
  0
POINT
  5
992A
  8
DEFPOINTS
 62
     0
 10
2460.2372856670731
 20
3549.7326331639638
 30
0.0
  0
POINT
  5
992B
  8
DEFPOINTS
 62
     0
 10
3315.1789233550949
 20
3549.7326331639638
 30
0.0
  0
ENDBLK
  5
8673
  8
0
  0
BLOCK
  8
0
  2
*D8
 70
     1
 10
0.0
 20
0.0
 30
0.0
  3
*D8
  1

  0
LINE
  5
992C
  8
3
 62
     0
 10
-1269.762714332926
 20
3549.7326331639638
 30
0.0
 11
-2245.9818022332338
 21
3549.7326331639638
 31
0.0
  0
LINE
  5
992D
  8
3
 62
     0
 10
-1269.762714332926
 20
5609.7326331639642
 30
0.0
 11
-2245.9818022332329
 21
5609.7326331639642
 31
0.0
  0
LINE
  5
992E
  8
3
 62
     0
 10
-2185.9818022332338
 20
3669.7326331639651
 30
0.0
 11
-2185.9818022332329
 21
5489.7326331639642
 31
0.0
  0
INSERT
  5
992F
  8
3
 62
     0
  2
_OPEN30
 10
-2185.9818022332338
 20
3549.7326331639638
 30
0.0
 41
120.0
 42
120.0
 43
120.0
 50
270.0
  0
INSERT
  5
9930
  8
3
 62
     0
  2
_OPEN30
 10
-2185.9818022332329
 20
5609.7326331639642
 30
0.0
 41
120.0
 42
120.0
 43
120.0
 50
90.0
  0
TEXT
  8
3
  40
180
  5
99B6
  62
0
  72
0
  71
0
 10
-2695.98
 20
4261.13
 30
0.000000
  1
2060
  0
POINT
  5
9932
  8
DEFPOINTS
 62
     0
 10
-1239.762714332926
 20
3549.7326331639638
 30
0.0
  0
POINT
  5
9933
  8
DEFPOINTS
 62
     0
 10
-1239.762714332926
 20
5609.7326331639642
 30
0.0
  0
POINT
  5
9934
  8
DEFPOINTS
 62
     0
 10
-2185.9818022332329
 20
5609.7326331639642
 30
0.0
  0
ENDBLK
  5
8689
  8
0
  0
BLOCK
  8
0
  2
*D9
 70
     1
 10
0.0
 20
0.0
 30
0.0
  3
*D9
  1

  0
LINE
  5
9935
  8
3
 62
     0
 10
2490.237285667074
 20
-2376.4071789961799
 30
0.0
 11
3142.4414448348389
 21
-2376.4071789961799
 31
0.0
  0
LINE
  5
9936
  8
3
 62
     0
 10
2529.987235927867
 20
-26.40717899617994
 30
0.0
 11
3142.4414448348389
 21
-26.407178996180122
 31
0.0
  0
LINE
  5
9937
  8
3
 62
     0
 10
3082.4414448348389
 20
-2256.4071789961799
 30
0.0
 11
3082.4414448348398
 21
-146.40717899618011
 31
0.0
  0
INSERT
  5
9938
  8
3
 62
     0
  2
_OPEN30
 10
3082.4414448348389
 20
-2376.4071789961799
 30
0.0
 41
120.0
 42
120.0
 43
120.0
 50
270.0
  0
INSERT
  5
9939
  8
3
 62
     0
  2
_OPEN30
 10
3082.4414448348398
 20
-26.4071789961801
 30
0.0
 41
120.0
 42
120.0
 43
120.0
 50
90.0
  0
TEXT
  8
3
  40
180
  5
99B7
  62
0
  72
0
  71
0
 10
2572.44
 20
-1520.01
 30
0.000000
  1
2350
  0
POINT
  5
993B
  8
DEFPOINTS
 62
     0
 10
2460.2372856670731
 20
-2376.4071789961799
 30
0.0
  0
POINT
  5
993C
  8
DEFPOINTS
 62
     0
 10
2499.9872359278661
 20
-26.40717899617993
 30
0.0
  0
POINT
  5
993D
  8
DEFPOINTS
 62
     0
 10
3082.4414448348398
 20
-26.4071789961801
 30
0.0
  0
ENDBLK
  5
93D0
  8
0
  0
BLOCK
  8
0
  2
*D10
 70
     1
 10
0.0
 20
0.0
 30
0.0
  3
*D10
  1

  0
LINE
  5
993E
  8
3
 62
     0
 10
-1671.51278941995
 20
-26.407178996179251
 30
0.0
 11
-2589.3466731018648
 21
-26.407178996178981
 31
0.0
  0
LINE
  5
993F
  8
3
 62
     0
 10
32.737285667073081
 20
1415.5928210038201
 30
0.0
 11
-2589.3466731018639
 21
1415.592821003821
 31
0.0
  0
LINE
  5
9940
  8
3
 62
     0
 10
-2529.3466731018648
 20
93.592821003821015
 30
0.0
 11
-2529.3466731018639
 21
1295.5928210038201
 31
0.0
  0
INSERT
  5
9941
  8
3
 62
     0
  2
_OPEN30
 10
-2529.3466731018648
 20
-26.407178996178999
 30
0.0
 41
120.0
 42
120.0
 43
120.0
 50
270.0
  0
INSERT
  5
9942
  8
3
 62
     0
  2
_OPEN30
 10
-2529.3466731018639
 20
1415.5928210038201
 30
0.0
 41
120.0
 42
120.0
 43
120.0
 50
90.0
  0
TEXT
  8
3
  40
180
  5
99B8
  62
0
  72
0
  71
0
 10
-3039.35
 20
375.993
 30
0.000000
  1
1442
  0
POINT
  5
9944
  8
DEFPOINTS
 62
     0
 10
-1641.51278941995
 20
-26.407178996179251
 30
0.0
  0
POINT
  5
9945
  8
DEFPOINTS
 62
     0
 10
62.737285667073081
 20
1415.5928210038201
 30
0.0
  0
POINT
  5
9946
  8
DEFPOINTS
 62
     0
 10
-2529.3466731018639
 20
1415.5928210038201
 30
0.0
  0
ENDBLK
  5
93F9
  8
0
  0
BLOCK
  8
0
  2
*D11
 70
     1
 10
0.0
 20
0.0
 30
0.0
  3
*D11
  1

  0
LINE
  5
9947
  8
3
 62
     0
 10
5244.0871082668864
 20
1445.5928210038201
 30
0.0
 11
5244.0871082668864
 21
1910.7726709278941
 31
0.0
  0
LINE
  5
9948
  8
3
 62
     0
 10
6744.0871082668864
 20
1445.5928210038201
 30
0.0
 11
6744.0871082668864
 21
1910.7726709278941
 31
0.0
  0
LINE
  5
9949
  8
3
 62
     0
 10
5364.0871082668864
 20
1850.7726709278941
 30
0.0
 11
6624.0871082668864
 21
1850.7726709278941
 31
0.0
  0
INSERT
  5
994A
  8
3
 62
     0
  2
_OPEN30
 10
5244.0871082668864
 20
1850.7726709278941
 30
0.0
 41
120.0
 42
120.0
 43
120.0
 50
180.0
  0
INSERT
  5
994B
  8
3
 62
     0
  2
_OPEN30
 10
6744.0871082668864
 20
1850.7726709278941
 30
0.0
 41
120.0
 42
120.0
 43
120.0
  0
TEXT
  8
3
  40
180
  5
99B9
  62
0
  72
0
  71
0
 10
5634.09
 20
1682.17
 30
0.000000
  1
1500
  0
POINT
  5
994D
  8
DEFPOINTS
 62
     0
 10
5244.0871082668864
 20
1415.5928210038201
 30
0.0
  0
POINT
  5
994E
  8
DEFPOINTS
 62
     0
 10
6744.0871082668864
 20
1415.5928210038201
 30
0.0
  0
POINT
  5
994F
  8
DEFPOINTS
 62
     0
 10
6744.0871082668864
 20
1850.7726709278941
 30
0.0
  0
ENDBLK
  5
9408
  8
0
  0
BLOCK
  8
0
  2
*D12
 70
     1
 10
0.0
 20
0.0
 30
0.0
  3
*D12
  1

  0
LINE
  5
9950
  8
3
 62
     0
 10
4744.0871082668837
 20
553.59282100381972
 30
0.0
 11
4744.0871082668837
 21
2453.1028432939202
 31
0.0
  0
LINE
  5
9951
  8
3
 62
     0
 10
5994.0871082668846
 20
2416.6755532380039
 30
0.0
 11
5994.0871082668846
 21
2333.1028432939202
 31
0.0
  0
LINE
  5
9952
  8
3
 62
     0
 10
4864.0871082668837
 20
2393.1028432939202
 30
0.0
 11
5874.0871082668837
 21
2393.1028432939202
 31
0.0
  0
INSERT
  5
9953
  8
3
 62
     0
  2
_OPEN30
 10
4744.0871082668837
 20
2393.1028432939202
 30
0.0
 41
120.0
 42
120.0
 43
120.0
 50
180.0
  0
INSERT
  5
9954
  8
3
 62
     0
  2
_OPEN30
 10
5994.0871082668846
 20
2393.1028432939202
 30
0.0
 41
120.0
 42
120.0
 43
120.0
  0
TEXT
  8
3
  40
180
  5
99BA
  62
0
  72
0
  71
0
 10
5009.09
 20
2271.65
 30
0.000000
  1
(1250)
  0
POINT
  5
9956
  8
DEFPOINTS
 62
     0
 10
4744.0871082668837
 20
523.59282100381961
 30
0.0
  0
POINT
  5
9957
  8
DEFPOINTS
 62
     0
 10
5994.0871082668846
 20
2446.6755532380048
 30
0.0
  0
POINT
  5
9958
  8
DEFPOINTS
 62
     0
 10
5994.0871082668846
 20
2393.1028432939202
 30
0.0
  0
ENDBLK
  5
9415
  8
0
  0
BLOCK
  8
0
  2
*D13
 70
     1
 10
0.0
 20
0.0
 30
0.0
  3
*D13
  1

  0
LINE
  5
9959
  8
3
 62
     0
 10
5994.0871082668846
 20
2416.6755532380039
 30
0.0
 11
5994.0871082668846
 21
2333.1028432939202
 31
0.0
  0
LINE
  5
995A
  8
3
 62
     0
 10
6898.0871082668837
 20
1078.5928210038201
 30
0.0
 11
6898.0871082668837
 21
2453.1028432939202
 31
0.0
  0
LINE
  5
995B
  8
3
 62
     0
 10
6114.0871082668837
 20
2393.1028432939202
 30
0.0
 11
6778.0871082668837
 21
2393.1028432939202
 31
0.0
  0
INSERT
  5
995C
  8
3
 62
     0
  2
_OPEN30
 10
5994.0871082668846
 20
2393.1028432939202
 30
0.0
 41
120.0
 42
120.0
 43
120.0
 50
180.0
  0
INSERT
  5
995D
  8
3
 62
     0
  2
_OPEN30
 10
6898.0871082668837
 20
2393.1028432939202
 30
0.0
 41
120.0
 42
120.0
 43
120.0
  0
TEXT
  8
3
  40
180
  5
99BB
  62
0
  72
0
  71
0
 10
6086.09
 20
2224.50
 30
0.000000
  1
904
  0
POINT
  5
995F
  8
DEFPOINTS
 62
     0
 10
5994.0871082668846
 20
2446.6755532380048
 30
0.0
  0
POINT
  5
9960
  8
DEFPOINTS
 62
     0
 10
6898.0871082668837
 20
1048.5928210038201
 30
0.0
  0
POINT
  5
9961
  8
DEFPOINTS
 62
     0
 10
6898.0871082668837
 20
2393.1028432939202
 30
0.0
  0
ENDBLK
  5
9422
  8
0
  0
BLOCK
  8
0
  2
*D14
 70
     1
 10
0.0
 20
0.0
 30
0.0
  3
*D14
  1

  0
LINE
  5
9962
  8
3
 62
     0
 10
-1334.762714332926
 20
-5.4071789961790273
 30
0.0
 11
-1334.762714332926
 21
2174.9056025187961
 31
0.0
  0
LINE
  5
9963
  8
3
 62
     0
 10
-59.762714332926407
 20
1773.7726949824389
 30
0.0
 11
-59.762714332926372
 21
2174.9056025187961
 31
0.0
  0
LINE
  5
9964
  8
3
 62
     0
 10
-1214.762714332926
 20
2114.9056025187961
 30
0.0
 11
-179.76271433292629
 21
2114.9056025187961
 31
0.0
  0
INSERT
  5
9965
  8
3
 62
     0
  2
_OPEN30
 10
-1334.762714332926
 20
2114.9056025187961
 30
0.0
 41
120.0
 42
120.0
 43
120.0
 50
180.0
  0
INSERT
  5
9966
  8
3
 62
     0
  2
_OPEN30
 10
-59.762714332926379
 20
2114.9056025187961
 30
0.0
 41
120.0
 42
120.0
 43
120.0
  0
TEXT
  8
3
  40
180
  5
99BC
  62
0
  72
0
  71
0
 10
-1057.26
 20
1946.31
 30
0.000000
  1
1275
  0
POINT
  5
9968
  8
DEFPOINTS
 62
     0
 10
-1334.762714332926
 20
-35.40717899617902
 30
0.0
  0
POINT
  5
9969
  8
DEFPOINTS
 62
     0
 10
-59.762714332926407
 20
1743.7726949824389
 30
0.0
  0
POINT
  5
996A
  8
DEFPOINTS
 62
     0
 10
-59.762714332926379
 20
2114.9056025187961
 30
0.0
  0
ENDBLK
  5
952D
  8
0
  0
BLOCK
  8
0
  2
_OPEN
 70
     0
 10
0.0
 20
0.0
 30
0.0
  3
_OPEN
  1

  0
LINE
  5
9831
  8
0
  6
BYBLOCK
 62
     0
 10
-1.0
 20
0.1666666666666666
 30
0.0
 11
0.0
 21
0.0
 31
0.0
  0
LINE
  5
9832
  8
0
  6
BYBLOCK
 62
     0
 10
0.0
 20
0.0
 30
0.0
 11
-1.0
 21
-0.1666666666666666
 31
0.0
  0
LINE
  5
9833
  8
0
  6
BYBLOCK
 62
     0
 10
0.0
 20
0.0
 30
0.0
 11
-1.0
 21
0.0
 31
0.0
  0
ENDBLK
  5
9834
  8
0
  0
BLOCK
  8
0
  2
*D16
 70
     1
 10
0.0
 20
0.0
 30
0.0
  3
*D16
  1

  0
LINE
  5
996B
  8
3
 62
     0
 10
-1239.762714332926
 20
-2726.4071789961799
 30
0.0
 11
-1239.762714332926
 21
-3164.9527387674239
 31
0.0
  0
LINE
  5
996C
  8
3
 62
     0
 10
-59.762714332926407
 20
-2726.4071789961799
 30
0.0
 11
-59.762714332926443
 21
-3164.9527387674239
 31
0.0
  0
LINE
  5
996D
  8
3
 62
     0
 10
-1119.762714332926
 20
-3104.9527387674239
 30
0.0
 11
-179.76271433292641
 21
-3104.9527387674239
 31
0.0
  0
INSERT
  5
996E
  8
3
 62
     0
  2
_OPEN
 10
-1239.762714332926
 20
-3104.9527387674239
 30
0.0
 41
120.0
 42
120.0
 43
120.0
 50
180.0
  0
INSERT
  5
996F
  8
3
 62
     0
  2
_OPEN
 10
-59.762714332926443
 20
-3104.9527387674239
 30
0.0
 41
120.0
 42
120.0
 43
120.0
  0
TEXT
  8
3
  40
180
  5
99BD
  62
0
  72
0
  71
0
 10
-1009.76
 20
-3273.55
 30
0.000000
  1
1180
  0
POINT
  5
9971
  8
DEFPOINTS
 62
     0
 10
-1239.762714332926
 20
-2696.4071789961799
 30
0.0
  0
POINT
  5
9972
  8
DEFPOINTS
 62
     0
 10
-59.762714332926407
 20
-2696.4071789961799
 30
0.0
  0
POINT
  5
9973
  8
DEFPOINTS
 62
     0
 10
-59.762714332926443
 20
-3104.9527387674239
 30
0.0
  0
ENDBLK
  5
9840
  8
0
  0
BLOCK
  8
0
  2
*D17
 70
     1
 10
0.0
 20
0.0
 30
0.0
  3
*D17
  1

  0
LINE
  5
9974
  8
3
 62
     0
 10
-59.762714332926407
 20
-2726.4071789961799
 30
0.0
 11
-59.762714332926443
 21
-3164.9527387674239
 31
0.0
  0
LINE
  5
9975
  8
3
 62
     0
 10
2460.2372856670731
 20
-2726.4071789961799
 30
0.0
 11
2460.2372856670731
 21
-3164.9527387674239
 31
0.0
  0
LINE
  5
9976
  8
3
 62
     0
 10
60.237285667073557
 20
-3104.9527387674239
 30
0.0
 11
2340.2372856670731
 21
-3104.9527387674239
 31
0.0
  0
INSERT
  5
9977
  8
3
 62
     0
  2
_OPEN
 10
-59.762714332926443
 20
-3104.9527387674239
 30
0.0
 41
120.0
 42
120.0
 43
120.0
 50
180.0
  0
INSERT
  5
9978
  8
3
 62
     0
  2
_OPEN
 10
2460.2372856670731
 20
-3104.9527387674239
 30
0.0
 41
120.0
 42
120.0
 43
120.0
  0
TEXT
  8
3
  40
180
  5
99BE
  62
0
  72
0
  71
0
 10
840.237
 20
-3273.55
 30
0.000000
  1
2520
  0
POINT
  5
997A
  8
DEFPOINTS
 62
     0
 10
-59.762714332926407
 20
-2696.4071789961799
 30
0.0
  0
POINT
  5
997B
  8
DEFPOINTS
 62
     0
 10
2460.2372856670731
 20
-2696.4071789961799
 30
0.0
  0
POINT
  5
997C
  8
DEFPOINTS
 62
     0
 10
2460.2372856670731
 20
-3104.9527387674239
 30
0.0
  0
ENDBLK
  5
984D
  8
0
  0
BLOCK
  8
0
  2
*D18
 70
     1
 10
0.0
 20
0.0
 30
0.0
  3
*D18
  1

  0
LINE
  5
997D
  8
3
 62
     0
 10
-1239.762714332926
 20
-2726.4071789961799
 30
0.0
 11
-1239.762714332926
 21
-3589.3279561049339
 31
0.0
  0
LINE
  5
997E
  8
3
 62
     0
 10
2460.2372856670731
 20
-2726.4071789961799
 30
0.0
 11
2460.2372856670731
 21
-3589.3279561049339
 31
0.0
  0
LINE
  5
997F
  8
3
 62
     0
 10
-1119.762714332926
 20
-3529.3279561049349
 30
0.0
 11
2340.2372856670731
 21
-3529.3279561049349
 31
0.0
  0
INSERT
  5
9980
  8
3
 62
     0
  2
_OPEN
 10
-1239.762714332926
 20
-3529.3279561049349
 30
0.0
 41
120.0
 42
120.0
 43
120.0
 50
180.0
  0
INSERT
  5
9981
  8
3
 62
     0
  2
_OPEN
 10
2460.2372856670731
 20
-3529.3279561049349
 30
0.0
 41
120.0
 42
120.0
 43
120.0
  0
TEXT
  8
3
  40
180
  5
99BF
  62
0
  72
0
  71
0
 10
250.237
 20
-3697.93
 30
0.000000
  1
3700
  0
POINT
  5
9983
  8
DEFPOINTS
 62
     0
 10
-1239.762714332926
 20
-2696.4071789961799
 30
0.0
  0
POINT
  5
9984
  8
DEFPOINTS
 62
     0
 10
2460.2372856670731
 20
-2696.4071789961799
 30
0.0
  0
POINT
  5
9985
  8
DEFPOINTS
 62
     0
 10
2460.2372856670731
 20
-3529.3279561049349
 30
0.0
  0
ENDBLK
  5
985A
  8
0
  0
BLOCK
  8
0
  2
*D19
 70
     1
 10
0.0
 20
0.0
 30
0.0
  3
*D19
  1

  0
LINE
  5
9986
  8
3
 62
     0
 10
4763.0871082668837
 20
-2726.4071789961799
 30
0.0
 11
4763.0871082668837
 21
-3164.9527387674239
 31
0.0
  0
LINE
  5
9987
  8
3
 62
     0
 10
5994.0871082668828
 20
-2726.407178996179
 30
0.0
 11
5994.0871082668828
 21
-3164.9527387674239
 31
0.0
  0
LINE
  5
9988
  8
3
 62
     0
 10
4883.0871082668837
 20
-3104.9527387674239
 30
0.0
 11
5874.0871082668837
 21
-3104.9527387674239
 31
0.0
  0
INSERT
  5
9989
  8
3
 62
     0
  2
_OPEN
 10
4763.0871082668837
 20
-3104.9527387674239
 30
0.0
 41
120.0
 42
120.0
 43
120.0
 50
180.0
  0
INSERT
  5
998A
  8
3
 62
     0
  2
_OPEN
 10
5994.0871082668828
 20
-3104.9527387674239
 30
0.0
 41
120.0
 42
120.0
 43
120.0
  0
TEXT
  8
3
  40
180
  5
99C0
  62
0
  72
0
  71
0
 10
5018.59
 20
-3273.55
 30
0.000000
  1
1231
  0
POINT
  5
998C
  8
DEFPOINTS
 62
     0
 10
4763.0871082668837
 20
-2696.4071789961799
 30
0.0
  0
POINT
  5
998D
  8
DEFPOINTS
 62
     0
 10
5994.0871082668828
 20
-2696.407178996179
 30
0.0
  0
POINT
  5
998E
  8
DEFPOINTS
 62
     0
 10
5994.0871082668828
 20
-3104.9527387674239
 30
0.0
  0
ENDBLK
  5
9867
  8
0
  0
BLOCK
  8
0
  2
*D20
 70
     1
 10
0.0
 20
0.0
 30
0.0
  3
*D20
  1

  0
LINE
  5
998F
  8
3
 62
     0
 10
5994.0871082668828
 20
-2726.407178996179
 30
0.0
 11
5994.0871082668828
 21
-3164.9527387674239
 31
0.0
  0
LINE
  5
9990
  8
3
 62
     0
 10
6823.0871082668837
 20
-2726.4071789961799
 30
0.0
 11
6823.0871082668837
 21
-3164.9527387674239
 31
0.0
  0
LINE
  5
9991
  8
3
 62
     0
 10
6114.0871082668828
 20
-3104.9527387674239
 30
0.0
 11
6703.0871082668837
 21
-3104.9527387674239
 31
0.0
  0
INSERT
  5
9992
  8
3
 62
     0
  2
_OPEN
 10
5994.0871082668828
 20
-3104.9527387674239
 30
0.0
 41
120.0
 42
120.0
 43
120.0
 50
180.0
  0
INSERT
  5
9993
  8
3
 62
     0
  2
_OPEN
 10
6823.0871082668837
 20
-3104.9527387674239
 30
0.0
 41
120.0
 42
120.0
 43
120.0
  0
TEXT
  8
3
  40
180
  5
99C1
  62
0
  72
0
  71
0
 10
6048.59
 20
-3273.55
 30
0.000000
  1
829
  0
POINT
  5
9995
  8
DEFPOINTS
 62
     0
 10
5994.0871082668828
 20
-2696.407178996179
 30
0.0
  0
POINT
  5
9996
  8
DEFPOINTS
 62
     0
 10
6823.0871082668837
 20
-2696.4071789961799
 30
0.0
  0
POINT
  5
9997
  8
DEFPOINTS
 62
     0
 10
6823.0871082668837
 20
-3104.9527387674239
 30
0.0
  0
ENDBLK
  5
9881
  8
0
  0
BLOCK
  8
0
  2
*D21
 70
     1
 10
0.0
 20
0.0
 30
0.0
  3
*D21
  1

  0
LINE
  5
9998
  8
3
 62
     0
 10
4763.0871082668837
 20
-2726.4071789961799
 30
0.0
 11
4763.0871082668837
 21
-3589.3279561049339
 31
0.0
  0
LINE
  5
9999
  8
3
 62
     0
 10
6823.0871082668873
 20
-2726.4071789961799
 30
0.0
 11
6823.0871082668873
 21
-3589.3279561049339
 31
0.0
  0
LINE
  5
999A
  8
3
 62
     0
 10
4883.0871082668837
 20
-3529.3279561049349
 30
0.0
 11
6703.0871082668873
 21
-3529.3279561049349
 31
0.0
  0
INSERT
  5
999B
  8
3
 62
     0
  2
_OPEN
 10
4763.0871082668837
 20
-3529.3279561049349
 30
0.0
 41
120.0
 42
120.0
 43
120.0
 50
180.0
  0
INSERT
  5
999C
  8
3
 62
     0
  2
_OPEN
 10
6823.0871082668873
 20
-3529.3279561049349
 30
0.0
 41
120.0
 42
120.0
 43
120.0
  0
TEXT
  8
3
  40
180
  5
99C2
  62
0
  72
0
  71
0
 10
5433.09
 20
-3697.93
 30
0.000000
  1
2060
  0
POINT
  5
999E
  8
DEFPOINTS
 62
     0
 10
4763.0871082668837
 20
-2696.4071789961799
 30
0.0
  0
POINT
  5
999F
  8
DEFPOINTS
 62
     0
 10
6823.0871082668873
 20
-2696.4071789961799
 30
0.0
  0
POINT
  5
99A0
  8
DEFPOINTS
 62
     0
 10
6823.0871082668873
 20
-3529.3279561049349
 30
0.0
  0
ENDBLK
  5
988E
  8
0
  0
BLOCK
  8
0
  2
_NONE
 70
     0
 10
0.0
 20
0.0
 30
0.0
  3
_NONE
  1

  0
CIRCLE
  5
9892
  8
0
  6
BYBLOCK
 62
     0
 10
0.0
 20
0.0
 30
0.0
 40
0.25
  0
ENDBLK
  5
9893
  8
0
  0
BLOCK
  8
0
  2
_DOT
 70
     0
 10
0.0
 20
0.0
 30
0.0
  3
_DOT
  1

  0
POLYLINE
  5
98A1
  8
0
  6
BYBLOCK
 62
     0
 66
     1
 10
0.0
 20
0.0
 30
0.0
 70
     1
 40
0.5
 41
0.5
  0
VERTEX
  5
99A1
  8
0
  6
BYBLOCK
 62
     0
 10
-0.25
 20
0.0
 30
0.0
 42
1.0
  0
VERTEX
  5
99A2
  8
0
  6
BYBLOCK
 62
     0
 10
0.25
 20
0.0
 30
0.0
 42
1.0
  0
SEQEND
  5
99A3
  8
0
  6
BYBLOCK
 62
     0
  0
LINE
  5
98A5
  8
0
  6
BYBLOCK
 62
     0
 10
-0.5
 20
0.0
 30
0.0
 11
-1.0
 21
0.0
 31
0.0
  0
ENDBLK
  5
98A6
  8
0
  0
BLOCK
  8
0
  2
*D24
 70
     1
 10
0.0
 20
0.0
 30
0.0
  3
*D24
  1

  0
LINE
  5
99A4
  8
3
 62
     0
 10
2490.237285667074
 20
-2516.4071789961799
 30
0.0
 11
3145.75488923378
 21
-2516.4071789961799
 31
0.0
  0
LINE
  5
99A5
  8
3
 62
     0
 10
2490.237285667074
 20
-2696.4071789961799
 30
0.0
 11
3145.75488923378
 21
-2696.4071789961799
 31
0.0
  0
LINE
  5
99A6
  8
3
 62
     0
 10
3085.75488923378
 20
-2396.4071789961799
 30
0.0
 11
3085.75488923378
 21
-2276.4071789961799
 31
0.0
  0
LINE
  5
99A7
  8
3
 62
     0
 10
3085.75488923378
 20
-2816.4071789961799
 30
0.0
 11
3085.7548892337791
 21
-3484.9786075676079
 31
0.0
  0
LINE
  5
99A8
  8
3
 62
     0
 10
3085.75488923378
 20
-2516.4071789961799
 30
0.0
 11
3085.75488923378
 21
-2696.4071789961799
 31
0.0
  0
INSERT
  5
99A9
  8
3
 62
     0
  2
_DOT
 10
3085.75488923378
 20
-2516.4071789961799
 30
0.0
 41
120.0
 42
120.0
 43
120.0
 50
270.0
  0
INSERT
  5
99AA
  8
3
 62
     0
  2
_OPEN
 10
3085.75488923378
 20
-2696.4071789961799
 30
0.0
 41
120.0
 42
120.0
 43
120.0
 50
90.0
  0
TEXT
  8
3
  40
180
  5
99C3
  62
0
  72
0
  71
0
 10
2575.75
 20
-3529.29
 30
0.000000
  1
180
  0
POINT
  5
99AC
  8
DEFPOINTS
 62
     0
 10
2460.2372856670731
 20
-2516.4071789961799
 30
0.0
  0
POINT
  5
99AD
  8
DEFPOINTS
 62
     0
 10
2460.2372856670731
 20
-2696.4071789961799
 30
0.0
  0
POINT
  5
99AE
  8
DEFPOINTS
 62
     0
 10
3085.75488923378
 20
-2696.4071789961799
 30
0.0
  0
ENDBLK
  5
98B4
  8
0
  0
BLOCK
  8
0
  2
*D25
 70
     1
 10
0.0
 20
0.0
 30
0.0
  3
*D25
  1

  0
LINE
  5
98BD
  8
0
  6
BYBLOCK
 62
     0
 10
3077.069760223952
 20
-2516.4071789961799
 30
0.0
 11
3077.069760223952
 21
-2376.4071789961799
 31
0.0
  0
TEXT
  5
98BE
  8
3
 62
     0
 10
3424.2126173668089
 20
-2776.4071789961799
 30
0.0
 40
180.0
  1
(140)
 50
90.0
  0
POINT
  5
98BF
  8
DEFPOINTS
  6
BYBLOCK
 62
     0
 10
2460.2372856670731
 20
-2516.4071789961799
 30
0.0
  0
POINT
  5
98C0
  8
DEFPOINTS
  6
BYBLOCK
 62
     0
 10
2460.2372856670731
 20
-2376.4071789961799
 30
0.0
  0
POINT
  5
98C1
  8
DEFPOINTS
  6
BYBLOCK
 62
     0
 10
3077.069760223952
 20
-2376.4071789961799
 30
0.0
  0
ENDBLK
  5
98C2
  8
0
  0
ENDSEC
  0
SECTION
  2
ENTITIES
  0
LINE
  5
7DB2
  8
2
 10
-59.762714332926407
 20
1743.7726949824389
 30
0.0
 11
-59.762714332926407
 21
-2696.4071789961799
 31
0.0
  0
LINE
  5
7DB3
  8
1
 10
1738.445607420555
 20
-26.40717899617993
 30
0.0
 11
140.23728566707351
 21
-26.40717899617993
 31
0.0
  0
ARC
  5
7DB4
  8
1
 10
-206.76271433292629
 20
-173.40717899617991
 30
0.0
 40
1883.0
 50
275.52935568924681
 51
0.0
  0
ARC
  5
7DB5
  8
1
 10
87.237285667073593
 20
-173.40717899617991
 30
0.0
 40
1589.0
 50
0.0
 51
90.000000000000028
  0
ARC
  5
7DB6
  8
1
 10
62.737285667073593
 20
96.092821003820063
 30
0.0
 40
1319.5
 50
90.000000000000028
 51
180.0
  0
ARC
  5
7DB7
  8
1
 10
-182.26271433292629
 20
96.092821003820063
 30
0.0
 40
1074.5
 50
180.0
 51
191.29760023059791
  0
LINE
  5
7DB8
  8
1
 10
-1334.762714332926
 20
-2253.4071789961781
 30
0.0
 11
-1334.762714332926
 21
-35.40717899617902
 31
0.0
  0
LINE
  5
7DB9
  8
1
 10
-1334.762714332926
 20
-2174.407178996179
 30
0.0
 11
-25.324866126597041
 21
-2047.6455062209361
 31
0.0
  0
LINE
  5
7DBA
  8
1
 10
-1235.9419824216541
 20
-114.407178996179
 30
0.0
 11
-1334.762714332926
 21
-114.407178996179
 31
0.0
  0
LINE
  5
7DBB
  8
1
 10
87.237285667073593
 20
1415.5928210038201
 30
0.0
 11
62.737285667073593
 21
1415.5928210038201
 31
0.0
  0
LINE
  5
7DBC
  8
1
 10
2460.2372856670731
 20
-2376.4071789961799
 30
0.0
 11
-1239.762714332926
 21
-2376.4071789961799
 31
0.0
  0
LINE
  5
7DBD
  8
1
 10
2460.2372856670731
 20
-2196.407178996179
 30
0.0
 11
-1239.762714332926
 21
-2196.407178996179
 31
0.0
  0
LINE
  5
7DBE
  8
1
 10
-1239.762714332926
 20
-2376.4071789961799
 30
0.0
 11
-1239.762714332926
 21
-2196.407178996179
 31
0.0
  0
LINE
  5
7DBF
  8
1
 10
2460.2372856670731
 20
-2376.4071789961799
 30
0.0
 11
2460.2372856670731
 21
-2196.407178996179
 31
0.0
  0
LINE
  5
7DC0
  8
2
 10
-1623.0222476251649
 20
-1144.407178996179
 30
0.0
 11
-741.20527361102177
 21
-1144.407178996179
 31
0.0
  0
LINE
  5
7DC1
  8
1
 10
-1259.762714332926
 20
-2253.4071789961781
 30
0.0
 11
-1259.762714332926
 21
-35.40717899617902
 31
0.0
  0
LINE
  5
7DC2
  8
1
 10
-1334.762714332926
 20
-2253.4071789961781
 30
0.0
 11
-1259.762714332926
 21
-2253.4071789961781
 31
0.0
  0
LINE
  5
7DC3
  8
1
 10
-1334.762714332926
 20
-35.40717899617902
 30
0.0
 11
-1259.762714332926
 21
-35.40717899617902
 31
0.0
  0
LINE
  5
7DC4
  8
1
 10
-1328.762714332926
 20
-2253.4071789961781
 30
0.0
 11
-1328.762714332926
 21
-35.40717899617902
 31
0.0
  0
LINE
  5
7DC5
  8
2
 10
4433.3930178519813
 20
-26.40717899617993
 30
0.0
 11
7203.276995249239
 21
-26.40717899617902
 31
0.0
  0
LINE
  5
7DC6
  8
2
 10
5994.0871082668846
 20
2446.6755532380048
 30
0.0
 11
5994.0871082668846
 21
2139.8796680259829
 31
0.0
  0
LINE
  5
7DC7
  8
1
 10
4763.0871082668837
 20
-2376.4071789961799
 30
0.0
 11
6823.0871082668837
 21
-2376.4071789961799
 31
0.0
  0
LINE
  5
7DC8
  8
1
 10
4763.0871082668837
 20
-2196.407178996179
 30
0.0
 11
6823.0871082668873
 21
-2196.407178996179
 31
0.0
  0
LINE
  5
7DC9
  8
1
 10
6823.0871082668873
 20
-2376.4071789961799
 30
0.0
 11
6823.0871082668837
 21
-2196.407178996179
 31
0.0
  0
LINE
  5
7DCA
  8
1
 10
4763.0871082668837
 20
-2376.4071789961799
 30
0.0
 11
4763.0871082668837
 21
-2196.407178996179
 31
0.0
  0
LINE
  5
7DD4
  8
1
 10
6744.0871082668864
 20
1415.5928210038201
 30
0.0
 11
6744.0871082668846
 21
-2174.4071789961781
 31
0.0
  0
LINE
  5
7DD5
  8
1
 10
5244.0871082668864
 20
1415.5928210038201
 30
0.0
 11
5244.0871082668846
 21
-2174.407178996179
 31
0.0
  0
LINE
  5
7DDA
  8
1
 10
6898.0871082668837
 20
1048.5928210038201
 30
0.0
 11
6898.0871082668837
 21
-1101.4071789961779
 31
0.0
  0
LINE
  5
7DDB
  8
1
 10
6744.0871082668846
 20
-1026.4071789961779
 30
0.0
 11
6898.0871082668837
 21
-1026.407178996179
 31
0.0
  0
LINE
  5
7DDC
  8
1
 10
6744.0871082668846
 20
973.59282100382006
 30
0.0
 11
6898.0871082668837
 21
973.59282100382006
 31
0.0
  0
LINE
  5
7DDD
  8
1
 10
6892.0871082668846
 20
-1101.4071789961779
 30
0.0
 11
6898.0871082668837
 21
-1101.407178996179
 31
0.0
  0
LINE
  5
7DDE
  8
1
 10
6892.0871082668846
 20
1048.5928210038201
 30
0.0
 11
6898.0871082668837
 21
1048.5928210038201
 31
0.0
  0
LINE
  5
7DDF
  8
1
 10
6892.0871082668846
 20
1048.5928210038201
 30
0.0
 11
6892.0871082668846
 21
-1101.4071789961779
 31
0.0
  0
CIRCLE
  5
7DED
  8
1
 10
-59.762714332926407
 20
-26.40717899617993
 30
0.0
 40
400.0
  0
ARC
  5
7DF0
  8
1
 10
-59.762714332926407
 20
-26.40717899617993
 30
0.0
 40
550.0
 50
43.95185839738668
 51
235.06849280763839
  0
LINE
  5
7DF4
  8
1
 10
4824.5064816308659
 20
373.59282100382012
 30
0.0
 11
5004.506481630865
 21
373.59282100382012
 31
0.0
  0
LINE
  5
7DF5
  8
1
 10
4824.5064816308659
 20
-426.40717899617982
 30
0.0
 11
5004.506481630865
 21
-426.40717899617982
 31
0.0
  0
LINE
  5
7DF6
  8
1
 10
4744.0871082668837
 20
523.59282100381961
 30
0.0
 11
5104.0871082668864
 21
523.59282100381961
 31
0.0
  0
LINE
  5
7DF7
  8
2
 10
4597.2378386882738
 20
-1836.4071789961799
 30
0.0
 11
5448.1738968458412
 21
-1836.4071789961799
 31
0.0
  0
LINE
  5
7DF8
  8
1
 10
4824.5064816308659
 20
-1686.407178996179
 30
0.0
 11
5004.506481630865
 21
-1686.407178996179
 31
0.0
  0
LINE
  5
7DF9
  8
1
 10
4824.5064816308659
 20
-1986.407178996179
 30
0.0
 11
5004.506481630865
 21
-1986.407178996179
 31
0.0
  0
LINE
  5
7DFA
  8
1
 10
4744.0871082668837
 20
-2116.407178996179
 30
0.0
 11
5104.0871082668846
 21
-2116.4071789961781
 31
0.0
  0
LINE
  5
7DFB
  8
1
 10
4744.0871082668828
 20
-2116.407178996179
 30
0.0
 11
4744.0871082668837
 21
523.59282100381961
 31
0.0
  0
LINE
  5
7DFC
  8
1
 10
5104.0871082668864
 20
-2116.407178996179
 30
0.0
 11
5104.0871082668864
 21
-2057.2147325337701
 31
0.0
  0
LINE
  5
7DFD
  8
1
 10
5104.0871082668846
 20
231.29237531063879
 30
0.0
 11
5104.0871082668846
 21
523.59282100381961
 31
0.0
  0
LINE
  5
7DFE
  8
1
 10
4824.5064816308659
 20
373.59282100382012
 30
0.0
 11
4824.506481630865
 21
-1986.407178996179
 31
0.0
  0
LINE
  5
7DFF
  8
1
 10
5004.506481630865
 20
373.59282100382012
 30
0.0
 11
5004.5064816308641
 21
-1986.407178996179
 31
0.0
  0
LINE
  5
7E00
  8
2
 10
1844.280996484652
 20
4780.7326331639651
 30
0.0
 11
-1574.25110430058
 21
4780.7326331639651
 31
0.0
  0
LINE
  5
7E01
  8
2
 10
-59.762714332926407
 20
3337.505352115847
 30
0.0
 11
-59.762714332926407
 21
5820.1555871955443
 31
0.0
  0
LINE
  5
7E02
  8
1
 10
1120.2372856670729
 20
5609.7326331639661
 30
0.0
 11
1030.2372856670729
 21
5609.7326331639661
 31
0.0
  0
LINE
  5
7E03
  8
1
 10
2460.2372856670731
 20
3549.7326331639638
 30
0.0
 11
2343.146414668709
 21
3549.7326331639651
 31
0.0
  0
LINE
  5
7E04
  8
1
 10
-1239.762714332926
 20
3549.7326331639638
 30
0.0
 11
-1239.762714332926
 21
4030.7326331639638
 31
0.0
  0
LINE
  5
7E05
  8
1
 10
2460.2372856670731
 20
3549.7326331639638
 30
0.0
 11
2460.2372856670731
 21
3624.7326331639651
 31
0.0
  0
LINE
  5
7E06
  8
1
 10
1120.2372856670729
 20
3890.7326331639638
 30
0.0
 11
1120.2372856670729
 21
4030.7326331639651
 31
0.0
  0
LINE
  5
7E07
  8
1
 10
2460.2372856670731
 20
4749.7326331639651
 30
0.0
 11
1676.2372856670729
 21
4749.7326331639688
 31
0.0
  0
LINE
  5
7E08
  8
1
 10
2460.2372856670731
 20
3624.7326331639651
 30
0.0
 11
2343.146414668709
 21
3624.7326331639651
 31
0.0
  0
LINE
  5
7E09
  8
1
 10
2460.2372856670731
 20
4674.7326331639661
 30
0.0
 11
2371.2023503009609
 21
4674.7326331639661
 31
0.0
  0
LINE
  5
7E0A
  8
1
 10
1045.2372856670729
 20
3890.7326331639638
 30
0.0
 11
1045.2372856670729
 21
4030.7326331639651
 31
0.0
  0
LINE
  5
7E0B
  8
1
 10
-1164.762714332926
 20
3624.7326331639651
 30
0.0
 11
-1164.762714332926
 21
4030.7326331639629
 31
0.0
  0
LINE
  5
7E0C
  8
1
 10
2460.2372856670731
 20
4674.7326331639661
 30
0.0
 11
2460.2372856670731
 21
4749.7326331639651
 31
0.0
  0
LINE
  5
7E12
  8
2
 10
140.23728566707351
 20
-26.40717899617993
 30
0.0
 11
-1641.51278941995
 21
-26.40717899617993
 31
0.0
  0
LINE
  5
7E13
  8
1
 10
1738.445607420555
 20
-35.40717899617993
 30
0.0
 11
140.23728566707351
 21
-35.40717899617993
 31
0.0
  0
LINE
  5
7E14
  8
1
 10
1738.445607420555
 20
-17.40717899617993
 30
0.0
 11
140.23728566707351
 21
-17.40717899617993
 31
0.0
  0
LINE
  5
7E19
  8
1
 10
1676.2372856670729
 20
5530.7326331639642
 30
0.0
 11
-1334.762714332926
 21
5530.7326331639642
 31
0.0
  0
LINE
  5
7E1A
  8
1
 10
1676.2372856670729
 20
4030.7326331639651
 30
0.0
 11
-1334.762714332926
 21
4030.7326331639638
 31
0.0
  0
LINE
  5
7E1D
  8
1
 10
1120.2372856670729
 20
5609.7326331639642
 30
0.0
 11
940.23728566707348
 21
5609.7326331639642
 31
0.0
  0
LINE
  5
7E22
  8
1
 10
-1059.762714332926
 20
5609.7326331639633
 30
0.0
 11
-1239.762714332926
 21
5609.7326331639642
 31
0.0
  0
LINE
  5
7E24
  8
1
 10
1015.237285667073
 20
5684.7326331639642
 30
0.0
 11
-1134.762714332926
 21
5684.7326331639642
 31
0.0
  0
LINE
  5
7E25
  8
1
 10
-1059.762714332926
 20
5530.7326331639642
 30
0.0
 11
-1059.762714332926
 21
5684.7326331639651
 31
0.0
  0
LINE
  5
7E26
  8
1
 10
940.23728566707348
 20
5530.7326331639642
 30
0.0
 11
940.23728566707348
 21
5684.7326331639651
 31
0.0
  0
LINE
  5
7E27
  8
1
 10
1015.237285667073
 20
5678.7326331639651
 30
0.0
 11
-1134.762714332926
 21
5678.7326331639642
 31
0.0
  0
LINE
  5
7E28
  8
1
 10
-1134.762714332926
 20
5678.7326331639642
 30
0.0
 11
-1134.762714332926
 21
5684.7326331639651
 31
0.0
  0
LINE
  5
7E29
  8
1
 10
1015.237285667073
 20
5678.7326331639651
 30
0.0
 11
1015.237285667073
 21
5684.7326331639651
 31
0.0
  0
LINE
  5
7E2B
  8
1
 10
2343.146414668709
 20
3530.7326331639651
 30
0.0
 11
-609.76271433292641
 21
3530.7326331639651
 31
0.0
  0
LINE
  5
7E2C
  8
1
 10
-609.76271433292641
 20
3530.7326331639651
 30
0.0
 11
-609.76271433292641
 21
3890.7326331639638
 31
0.0
  0
LINE
  5
7E2D
  8
1
 10
2343.146414668709
 20
3530.7326331639651
 30
0.0
 11
2343.146414668709
 21
3890.7326331639638
 31
0.0
  0
LINE
  5
7E2E
  8
1
 10
2343.146414668709
 20
3890.7326331639651
 30
0.0
 11
-609.76271433292641
 21
3890.7326331639638
 31
0.0
  0
LINE
  5
7E2F
  8
1
 10
-459.76271433292641
 20
3610.7326331639638
 30
0.0
 11
-459.76271433292641
 21
3790.7326331639638
 31
0.0
  0
LINE
  5
7E30
  8
1
 10
340.23728566707348
 20
3610.7326331639638
 30
0.0
 11
340.23728566707348
 21
3790.7326331639638
 31
0.0
  0
LINE
  5
7E31
  8
1
 10
-609.76271433292641
 20
3624.7326331639638
 30
0.0
 11
-1239.762714332926
 21
3624.7326331639651
 31
0.0
  0
LINE
  5
7E32
  8
1
 10
-609.76271433292641
 20
3549.7326331639638
 30
0.0
 11
-1239.762714332926
 21
3549.7326331639638
 31
0.0
  0
LINE
  5
7E33
  8
1
 10
2213.146414668709
 20
3610.7326331639651
 30
0.0
 11
-459.76271433292641
 21
3610.7326331639638
 31
0.0
  0
LINE
  5
7E34
  8
1
 10
2213.146414668709
 20
3790.7326331639651
 30
0.0
 11
-459.76271433292641
 21
3790.7326331639638
 31
0.0
  0
LINE
  5
7E35
  8
1
 10
2213.146414668709
 20
3610.7326331639638
 30
0.0
 11
2213.146414668709
 21
3790.7326331639651
 31
0.0
  0
LINE
  5
7E36
  8
1
 10
1913.146414668709
 20
3610.7326331639638
 30
0.0
 11
1913.146414668709
 21
3790.7326331639651
 31
0.0
  0
LINE
  5
7E3B
  8
4
 10
6537.5888445345481
 20
-4837.3672664056203
 30
0.0
 11
6537.5888445345499
 21
-6037.3672664056203
 31
0.0
  0
LINE
  5
7E3C
  8
4
 10
1641.425359940142
 20
-4837.3672664056203
 30
0.0
 11
1641.425359940142
 21
-6037.3672664056203
 31
0.0
  0
LINE
  5
7E3D
  8
4
 10
-1358.574640059858
 20
-4837.3672664056203
 30
0.0
 11
-1358.574640059858
 21
-6037.3672664056203
 31
0.0
  0
LINE
  5
7E40
  8
4
 10
-1358.574640059858
 20
-6037.3672664056203
 30
0.0
 11
6537.5888445345481
 21
-6037.3672664056203
 31
0.0
  0
LINE
  5
7E41
  8
4
 10
-1358.574640059858
 20
-5437.3672664056221
 30
0.0
 11
6537.5888445345481
 21
-5437.3672664056221
 31
0.0
  0
TEXT
  5
7E42
  8
4
 10
-1127.562154978448
 20
-5248.1091112059439
 30
0.0
 40
300.0
  1
機器名称
  0
TEXT
  5
7E43
  8
4
 10
-1141.0260039110719
 20
-5907.4963260135546
 30
0.0
 40
300.0
  1
機器型番
  0
TEXT
  5
7E44
  8
4
 10
1807.4978328661309
 20
-5301.9366526602089
 30
0.0
 40
300.0
  1
ミツヤリミットロードファン
  0
TEXT
  5
7E45
  8
4
 10
1861.3523334530239
 20
-5934.409760725961
 30
0.0
 40
300.0
  1
LLE＃12-4
  0
TEXT
  5
7E47
  8
4
 10
216.8386270284536
 20
7146.1233498315187
 30
0.0
 40
323.99999999999977
  1
床置防振ベット
  0
TEXT
  5
7E48
  8
4
 10
-2945.9438318095781
 20
8048.836159032212
 30
0.0
 40
432.0
  1
ベルト駆動式片吸込両持排煙ファン
 41
1.193982332750539
 72
     5
 11
6751.1030818572044
 21
8048.836159032212
 31
0.0
  0
LINE
  5
7E49
  8
4
 10
-3196.1230080652308
 20
7662.0028274252527
 30
0.0
 11
6971.0491198745731
 21
7662.0028274252527
 31
0.0
  0
LINE
  5
7E4A
  8
4
 10
-3196.1230080652308
 20
8862.0028274252545
 30
0.0
 11
6971.0491198745731
 21
8862.0028274252545
 31
0.0
  0
LINE
  5
7E4B
  8
4
 10
-1358.574640059858
 20
-4837.3672664056203
 30
0.0
 11
6537.5888445345481
 21
-4837.3672664056203
 31
0.0
  0
LINE
  5
7E4C
  8
4
 10
-3196.1230080652308
 20
8862.0028274252545
 30
0.0
 11
-3196.1230080652308
 21
7662.0028274252527
 31
0.0
  0
TEXT
  5
7E4D
  8
4
 10
-2738.9710651906489
 20
7139.4671671144861
 30
0.0
 40
323.99999999999977
  1
右回転左横向
  0
TEXT
  5
7E4E
  8
4
 10
4684.8664753703124
 20
9081.9167908082782
 30
0.0
 40
336.0
  1
No.
  0
TEXT
  5
7E4F
  8
4
 10
3738.8254954746499
 20
7146.1233498315187
 30
0.0
 40
323.99999999999977
  1
縮尺：1/60
  0
LINE
  5
7E50
  8
4
 10
6971.0491198745731
 20
8862.0028274252545
 30
0.0
 11
6971.0491198745731
 21
7662.0028274252527
 31
0.0
  0
LINE
  5
7E51
  8
4
 10
8471.0491198745731
 20
10545.55030183642
 30
0.0
 11
8471.0491198745731
 21
10545.55030183642
 31
0.0
  0
LINE
  5
7E52
  8
4
 10
4514.7536540337596
 20
8933.1318005888297
 30
0.0
 11
4514.7536540337596
 21
9565.4638711349417
 31
0.0
  0
LINE
  5
7E53
  8
4
 10
4514.7536540337596
 20
9565.4638711349417
 30
0.0
 11
6971.0491198745731
 21
9565.4638711349417
 31
0.0
  0
LINE
  5
7E54
  8
4
 10
6971.0491198745731
 20
9565.4638711349417
 30
0.0
 11
6971.0491198745731
 21
8933.1318005888297
 31
0.0
  0
LINE
  5
7E55
  8
4
 10
6971.0491198745731
 20
8933.1318005888297
 30
0.0
 11
4514.7536540337596
 21
8933.1318005888297
 31
0.0
  0
LINE
  5
7E56
  8
4
 10
-4128.9508801254269
 20
-7154.4496981635739
 30
0.0
 11
-4128.9508801254269
 21
10545.55030183642
 31
0.0
  0
LINE
  5
7E57
  8
4
 10
-4128.9508801254269
 20
10545.55030183642
 30
0.0
 11
8471.0491198745731
 21
10545.55030183642
 31
0.0
  0
LINE
  5
7E58
  8
4
 10
8471.0491198745731
 20
10545.55030183642
 30
0.0
 11
8471.0491198745731
 21
-7154.4496981635739
 31
0.0
  0
LINE
  5
7E59
  8
4
 10
8471.0491198745731
 20
-7154.4496981635739
 30
0.0
 11
-4128.9508801254269
 21
-7154.4496981635739
 31
0.0
  0
LINE
  5
7E5A
  8
1
 10
5175.0871082668864
 20
-35.40717899617993
 30
0.0
 11
6813.0871082668828
 21
-35.40717899617993
 31
0.0
  0
LINE
  5
7E5B
  8
1
 10
5175.0871082668864
 20
-17.40717899617993
 30
0.0
 11
6813.0871082668828
 21
-17.40717899617902
 31
0.0
  0
LINE
  5
7E5C
  8
1
 10
5175.0871082668864
 20
-17.40717899617993
 30
0.0
 11
5175.0871082668864
 21
-35.40717899617993
 31
0.0
  0
LINE
  5
7E5D
  8
1
 10
5175.0871082668864
 20
-26.40717899617993
 30
0.0
 11
6813.0871082668828
 21
-26.40717899617902
 31
0.0
  0
LINE
  5
7E5E
  8
1
 10
6813.0871082668828
 20
-17.40717899617993
 30
0.0
 11
6813.0871082668828
 21
-35.40717899617993
 31
0.0
  0
DIMENSION
  5
7E61
  8
3
  2
*D1
 10
7709.8980415944388
 20
973.59282100382029
 30
0.0
 11
7559.8980415944397
 21
-26.407178996178061
 31
0.0
 70
     0
  1
%%c<>
 13
6898.0871082668837
 23
-1026.4071789961779
 33
0.0
 14
6892.0871082668846
 24
973.5928210038204
 34
0.0
 50
270.0
1001
ACAD
1000
DSTYLE
1002
{
1070
   287
1070
     3
1070
   287
1070
     3
1070
   287
1070
     3
1070
   287
1070
     3
1070
   287
1070
     3
1070
    40
1040
60.0
1070
   143
1040
0.039
1070
   172
1070
     1
1070
   173
1070
     0
1070
   271
1070
     4
1070
   272
1070
     4
1070
   279
1070
     0
1070
   284
1070
     0
1070
   285
1070
     0
1070
   286
1070
     0
1070
   341
1005
7DAC
1070
     5
1000
OPEN30
1002
}
  0
DIMENSION
  5
803C
  8
3
  2
*D2
 10
-2072.0235381864932
 20
-114.407178996179
 30
0.0
 11
-2222.0235381864932
 21
-1144.407178996179
 31
0.0
 70
     0
 13
-1334.762714332926
 23
-2174.407178996179
 33
0.0
 14
-1334.762714332926
 24
-114.4071789961792
 34
0.0
 50
90.000000000000028
1001
ACAD
1000
DSTYLE
1002
{
1070
   287
1070
     3
1070
   287
1070
     3
1070
   287
1070
     3
1070
   287
1070
     3
1070
   287
1070
     3
1070
    40
1040
60.0
1070
   143
1040
0.039
1070
   172
1070
     1
1070
   173
1070
     0
1070
   271
1070
     4
1070
   272
1070
     4
1070
   279
1070
     0
1070
   284
1070
     0
1070
   285
1070
     0
1070
   286
1070
     0
1070
   341
1005
7DAC
1070
     5
1000
OPEN30
1002
}
  0
DIMENSION
  5
8049
  8
3
  2
*D3
 10
-2529.3466731018648
 20
-26.407178996178999
 30
0.0
 11
-2679.3466731018648
 21
-1100.407178996179
 31
0.0
 70
     0
 13
-1334.762714332926
 23
-2174.407178996179
 33
0.0
 14
-1641.51278941995
 24
-26.407178996179251
 34
0.0
 50
90.000000000000028
1001
ACAD
1000
DSTYLE
1002
{
1070
   287
1070
     3
1070
   287
1070
     3
1070
   287
1070
     3
1070
   287
1070
     3
1070
   287
1070
     3
1070
    40
1040
60.0
1070
   143
1040
0.039
1070
   172
1070
     1
1070
   173
1070
     0
1070
   271
1070
     4
1070
   272
1070
     4
1070
   279
1070
     0
1070
   284
1070
     0
1070
   285
1070
     0
1070
   286
1070
     0
1070
   341
1005
7DAC
1070
     5
1000
OPEN30
1002
}
  0
LINE
  5
8312
  8
1
 10
1738.445607420555
 20
-35.40717899617993
 30
0.0
 11
1738.445607420555
 21
-17.40717899617993
 31
0.0
  0
LINE
  5
8313
  8
2
 10
1738.445607420555
 20
-26.40717899617993
 30
0.0
 11
2499.9872359278661
 21
-26.40717899617993
 31
0.0
  0
LINE
  5
8314
  8
1
 10
140.23728566707351
 20
-17.40717899617993
 30
0.0
 11
140.23728566707351
 21
-35.40717899617993
 31
0.0
  0
LINE
  5
8316
  8
1
 10
-1327.929603244083
 20
58.408750341396633
 30
0.0
 11
-259.31690613641319
 21
-13.06084865195043
 31
0.0
  0
LINE
  5
8317
  8
1
 10
-258.71632127092192
 20
-4.0809100207934534
 30
0.0
 11
-259.91749100190282
 21
-22.040787283107409
 31
0.0
  0
LINE
  5
8318
  8
1
 10
-1327.3290183785921
 20
67.388688972553609
 30
0.0
 11
-1328.5301881095729
 21
49.428811710240552
 31
0.0
  0
LINE
  5
8319
  8
1
 10
-1328.5301881095729
 20
49.428811710240552
 30
0.0
 11
-259.91749100190282
 21
-22.040787283107409
 31
0.0
  0
LINE
  5
831A
  8
1
 10
-1327.3290183785921
 20
67.388688972553609
 30
0.0
 11
-258.71632127092192
 21
-4.0809100207934534
 31
0.0
  0
LINE
  5
83B6
  8
1
 10
5165.0871082668837
 20
-35.407178996179141
 30
0.0
 11
5244.0871082668846
 21
-35.40717899617912
 31
0.0
  0
LINE
  5
83B7
  8
1
 10
6744.0871082668846
 20
-2174.4071789961781
 30
0.0
 11
5244.0871082668828
 21
-2174.407178996179
 31
0.0
  0
LINE
  5
83B9
  8
1
 10
5165.0871082668837
 20
-35.407178996179141
 30
0.0
 11
5165.0871082668837
 21
-2196.4071789961799
 31
0.0
  0
LINE
  5
83BA
  8
1
 10
6823.0871082668837
 20
-35.407178996179141
 30
0.0
 11
6823.0871082668837
 21
-2253.4071789961781
 31
0.0
  0
LINE
  5
844E
  8
1
 10
1676.2372856670729
 20
4030.7326331639651
 30
0.0
 11
1676.2372856670729
 21
5530.7326331639642
 31
0.0
  0
LINE
  5
8450
  8
1
 10
-1334.762714332926
 20
5609.7326331639606
 30
0.0
 11
-1334.7627143329271
 21
3951.7326331639651
 31
0.0
  0
LINE
  5
8451
  8
1
 10
-1259.762714332926
 20
5530.7326331639642
 30
0.0
 11
-1259.762714332926
 21
4030.7326331639651
 31
0.0
  0
LINE
  5
8452
  8
1
 10
-1328.762714332926
 20
5609.7326331639606
 30
0.0
 11
-1328.7627143329271
 21
3951.7326331639651
 31
0.0
  0
LINE
  5
854E
  8
1
 10
-1328.762714332926
 20
5609.7326331639606
 30
0.0
 11
-1334.762714332926
 21
5609.7326331639633
 31
0.0
  0
LINE
  5
854F
  8
1
 10
-1328.7627143329271
 20
3951.7326331639651
 30
0.0
 11
-1334.7627143329271
 21
3951.7326331639651
 31
0.0
  0
LINE
  5
8551
  8
1
 10
-1239.762714332926
 20
5530.7326331639642
 30
0.0
 11
-1239.762714332926
 21
5609.7326331639642
 31
0.0
  0
LINE
  5
8552
  8
1
 10
1120.2372856670729
 20
5530.7326331639642
 30
0.0
 11
1120.2372856670729
 21
5609.7326331639661
 31
0.0
  0
DIMENSION
  5
8553
  8
3
  2
*D4
 10
-1239.762714332926
 20
6211.2875301007589
 30
0.0
 11
-59.7627143329264
 21
6361.2875301007589
 31
0.0
 70
     0
 13
1120.2372856670729
 23
5609.7326331639642
 33
0.0
 14
-1239.762714332926
 24
5609.7326331639642
 34
0.0
 50
180.0
1001
ACAD
1000
DSTYLE
1002
{
1070
   287
1070
     3
1070
   287
1070
     3
1070
   287
1070
     3
1070
   287
1070
     3
1070
    40
1040
60.0
1070
   143
1040
0.039
1070
   172
1070
     1
1070
   173
1070
     0
1070
   271
1070
     4
1070
   272
1070
     4
1070
   279
1070
     0
1070
   284
1070
     0
1070
   285
1070
     0
1070
   286
1070
     0
1070
   341
1005
7DAC
1070
     5
1000
OPEN30
1002
}
  0
DIMENSION
  5
8569
  8
3
  2
*D5
 10
2460.2372856670731
 20
6211.2875301007589
 30
0.0
 11
1790.2372856670729
 21
6361.2875301007589
 31
0.0
 70
     0
 13
1120.2372856670729
 23
5609.7326331639642
 33
0.0
 14
2460.2372856670731
 24
4749.7326331639651
 34
0.0
 50
180.0
1001
ACAD
1000
DSTYLE
1002
{
1070
   287
1070
     3
1070
   287
1070
     3
1070
   287
1070
     3
1070
   287
1070
     3
1070
    40
1040
60.0
1070
   143
1040
0.039
1070
   172
1070
     1
1070
   173
1070
     0
1070
   271
1070
     4
1070
   272
1070
     4
1070
   279
1070
     0
1070
   284
1070
     0
1070
   285
1070
     0
1070
   286
1070
     0
1070
   341
1005
7DAC
1070
     5
1000
OPEN30
1002
}
  0
LINE
  5
85E8
  8
2
 10
2063.146414668709
 20
-1171.6412930698641
 30
0.0
 11
2063.1464146687099
 21
-2696.4071789961799
 31
0.0
  0
LINE
  5
85E9
  8
1
 10
2293.146414668709
 20
-1266.407178996179
 30
0.0
 11
2293.146414668709
 21
-1491.4071789961811
 31
0.0
  0
LINE
  5
85EA
  8
1
 10
1863.146414668709
 20
-1266.407178996179
 30
0.0
 11
1863.146414668709
 21
-1491.407178996182
 31
0.0
  0
ARC
  5
85EB
  8
1
 10
2063.146414668709
 20
-1836.4071789961799
 30
0.0
 40
310.0
 50
300.1023080683089
 51
239.8976919316911
  0
LINE
  5
85EC
  8
1
 10
2273.146414668709
 20
-1511.4071789961799
 30
0.0
 11
1883.146414668709
 21
-1511.4071789961811
 31
0.0
  0
LINE
  5
85ED
  8
1
 10
2218.6255469443149
 20
-2104.5978563636531
 30
0.0
 11
1907.667282393101
 21
-2104.5978563636522
 31
0.0
  0
LINE
  5
85EF
  8
2
 10
2400.6053788584668
 20
-1836.4071789961799
 30
0.0
 11
1719.869192475679
 21
-1836.4071789961799
 31
0.0
  0
LINE
  5
85F0
  8
1
 10
2343.1464146687172
 20
-1969.44852595271
 30
0.0
 11
2343.1464146687072
 21
-2116.407178996179
 31
0.0
  0
LINE
  5
85F1
  8
1
 10
2343.1464146687072
 20
-2116.407178996179
 30
0.0
 11
2233.1464146687072
 21
-2116.407178996179
 31
0.0
  0
LINE
  5
85F2
  8
1
 10
2343.146414668709
 20
-2086.4071789961799
 30
0.0
 11
2246.4494424669419
 21
-2086.4071789961799
 31
0.0
  0
LINE
  5
85F3
  8
1
 10
2233.146414668709
 20
-2095.636806932494
 30
0.0
 11
2233.146414668709
 21
-2116.4071789961808
 31
0.0
  0
LINE
  5
85F4
  8
1
 10
2291.646414668709
 20
-2071.2377305065352
 30
0.0
 11
2291.646414668709
 21
-2162.86329357879
 31
0.0
  0
ARC
  5
85F5
  8
1
 10
2273.146414668709
 20
-1491.4071789961811
 30
0.0
 40
20.0
 50
270.0
 51
0.000000000000007
  0
LINE
  5
85F6
  8
1
 10
1893.146414668709
 20
-2116.4071789961808
 30
0.0
 11
1783.146414668709
 21
-2116.4071789961808
 31
0.0
  0
LINE
  5
85F7
  8
1
 10
1893.146414668709
 20
-2095.636806932494
 30
0.0
 11
1893.146414668709
 21
-2116.4071789961808
 31
0.0
  0
LINE
  5
85F8
  8
1
 10
1783.146414668709
 20
-1969.448525952726
 30
0.0
 11
1783.146414668709
 21
-2116.4071789961808
 31
0.0
  0
LINE
  5
85F9
  8
1
 10
1879.8433868704769
 20
-2086.4071789961799
 30
0.0
 11
1783.146414668709
 21
-2086.4071789961799
 31
0.0
  0
LINE
  5
85FA
  8
1
 10
1834.646414668709
 20
-2071.2377305065352
 30
0.0
 11
1834.646414668709
 21
-2158.698495257323
 31
0.0
  0
ARC
  5
85FB
  8
1
 10
1883.146414668709
 20
-1491.407178996182
 30
0.0
 40
20.0
 50
180.0
 51
270.0
  0
LINE
  5
85FC
  8
1
 10
2273.146414668709
 20
-1246.4071789961799
 30
0.0
 11
1883.146414668709
 21
-1246.4071789961799
 31
0.0
  0
ARC
  5
85FD
  8
1
 10
2273.146414668709
 20
-1266.407178996179
 30
0.0
 40
20.0
 50
0.000000000000007
 51
90.0
  0
ARC
  5
85FE
  8
1
 10
1883.146414668709
 20
-1266.407178996179
 30
0.0
 40
20.0
 50
90.0
 51
180.0
  0
LINE
  5
85FF
  8
2
 10
2354.7209046835019
 20
-1386.4071789961799
 30
0.0
 11
2200.4239671638152
 21
-1386.4071789961799
 31
0.0
  0
LINE
  5
8600
  8
1
 10
2452.6113695612021
 20
-2116.407178996179
 30
0.0
 11
1673.681459776217
 21
-2116.407178996179
 31
0.0
  0
LINE
  5
8602
  8
1
 10
1673.681459776217
 20
-2116.407178996179
 30
0.0
 11
1663.146414668709
 21
-2196.407178996179
 31
0.0
  0
LINE
  5
8603
  8
1
 10
2452.6113695612021
 20
-2116.407178996179
 30
0.0
 11
2463.146414668709
 21
-2196.407178996179
 31
0.0
  0
LINE
  5
8604
  8
1
 10
2460.2372856670731
 20
-2196.407178996179
 30
0.0
 11
2463.146414668709
 21
-2196.407178996179
 31
0.0
  0
LINE
  5
8617
  8
1
 10
1753.146414668709
 20
4519.6470688482132
 30
0.0
 11
1753.146414668709
 21
3890.7326331639651
 31
0.0
  0
LINE
  5
8618
  8
2
 10
2063.146414668709
 20
4865.5087373097131
 30
0.0
 11
2063.146414668709
 21
3645.777026795548
 31
0.0
  0
LINE
  5
861B
  8
1
 10
1753.146414668709
 20
4541.0418950137837
 30
0.0
 11
2373.1464146687099
 21
4541.0418950137828
 31
0.0
  0
LINE
  5
861C
  8
1
 10
1803.146414668709
 20
4710.9258576349403
 30
0.0
 11
2323.1464146687099
 21
4710.9258576349384
 31
0.0
  0
LINE
  5
8625
  8
1
 10
1753.146414668709
 20
4660.9258576349403
 30
0.0
 11
1753.1464146687081
 21
4541.0418950137819
 31
0.0
  0
ARC
  5
8626
  8
1
 10
1803.146414668709
 20
4660.9258576349403
 30
0.0
 40
50.0
 50
90.0
 51
180.0
  0
LINE
  5
8627
  8
1
 10
1777.697545097456
 20
4541.0418950137837
 30
0.0
 11
1753.1464146687099
 21
4519.6470688482132
 31
0.0
  0
LINE
  5
8628
  8
1
 10
2343.146414668709
 20
3866.9258576349412
 30
0.0
 11
2373.1464146687081
 21
3866.9258576349412
 31
0.0
  0
LINE
  5
8629
  8
1
 10
1753.1464146687081
 20
3901.4258576349362
 30
0.0
 11
2373.1464146687081
 21
3901.4258576349371
 31
0.0
  0
LINE
  5
862A
  8
2
 10
1716.50704668207
 20
4215.9258576349384
 30
0.0
 11
2435.0949416857939
 21
4215.9258576349384
 31
0.0
  0
LINE
  5
8640
  8
1
 10
1663.146414668709
 20
3927.400798312447
 30
0.0
 11
1663.146414668709
 21
4030.7326331639638
 31
0.0
  0
LINE
  5
8642
  8
1
 10
2463.146414668709
 20
3927.400798312447
 30
0.0
 11
2463.1464146687081
 21
4474.5558672326943
 31
0.0
  0
LINE
  5
8643
  8
1
 10
2463.1464146687081
 20
4474.5558672326943
 30
0.0
 11
2373.146414668709
 21
4474.5558672326952
 31
0.0
  0
LINE
  5
8644
  8
1
 10
2463.146414668709
 20
3927.400798312447
 30
0.0
 11
2373.1464146687081
 21
3927.400798312447
 31
0.0
  0
LINE
  5
8645
  8
1
 10
1753.146414668709
 20
4474.5558672326952
 30
0.0
 11
1676.2372856670729
 21
4474.5558672326952
 31
0.0
  0
LINE
  5
8646
  8
1
 10
1753.146414668709
 20
3927.400798312447
 30
0.0
 11
1663.146414668709
 21
3927.4007983124461
 31
0.0
  0
DIMENSION
  5
8651
  8
3
  2
*D6
 10
-1239.762714332926
 20
2739.3151865753821
 30
0.0
 11
610.23728566707359
 21
2889.3151865753821
 31
0.0
 70
     0
 13
2460.2372856670731
 23
3549.7326331639638
 33
0.0
 14
-1239.762714332926
 24
3549.7326331639638
 34
0.0
 50
180.0
1001
ACAD
1000
DSTYLE
1002
{
1070
   287
1070
     3
1070
   287
1070
     3
1070
   287
1070
     3
1070
   287
1070
     3
1070
    40
1040
60.0
1070
   143
1040
0.039
1070
   172
1070
     1
1070
   173
1070
     0
1070
   271
1070
     4
1070
   272
1070
     4
1070
   279
1070
     0
1070
   284
1070
     0
1070
   285
1070
     0
1070
   286
1070
     0
1070
   341
1005
7DAC
1070
     5
1000
OPEN30
1002
}
  0
DIMENSION
  5
8667
  8
3
  2
*D7
 10
3315.1789233550949
 20
3549.7326331639638
 30
0.0
 11
3165.1789233550949
 21
4149.7326331639651
 31
0.0
 70
     0
 13
2460.2372856670731
 23
4749.7326331639651
 33
0.0
 14
2460.2372856670731
 24
3549.7326331639638
 34
0.0
 50
90.0
1001
ACAD
1000
DSTYLE
1002
{
1070
   287
1070
     3
1070
   287
1070
     3
1070
   287
1070
     3
1070
   287
1070
     3
1070
    40
1040
60.0
1070
   143
1040
0.039
1070
   172
1070
     1
1070
   173
1070
     0
1070
   271
1070
     4
1070
   272
1070
     4
1070
   279
1070
     0
1070
   284
1070
     0
1070
   285
1070
     0
1070
   286
1070
     0
1070
   341
1005
7DAC
1070
     5
1000
OPEN30
1002
}
  0
DIMENSION
  5
867D
  8
3
  2
*D8
 10
-2185.9818022332329
 20
5609.7326331639642
 30
0.0
 11
-2335.9818022332338
 21
4579.7326331639624
 31
0.0
 70
     0
 13
-1239.762714332926
 23
3549.7326331639638
 33
0.0
 14
-1239.762714332926
 24
5609.7326331639642
 34
0.0
 50
90.0
1001
ACAD
1000
DSTYLE
1002
{
1070
   287
1070
     3
1070
   287
1070
     3
1070
   287
1070
     3
1070
   287
1070
     3
1070
    40
1040
60.0
1070
   143
1040
0.039
1070
   172
1070
     1
1070
   173
1070
     0
1070
   271
1070
     4
1070
   272
1070
     4
1070
   279
1070
     0
1070
   284
1070
     0
1070
   285
1070
     0
1070
   286
1070
     0
1070
   341
1005
7DAC
1070
     5
1000
OPEN30
1002
}
  0
CIRCLE
  5
8794
  8
1
 10
2060.2372856670731
 20
-1836.4071789961799
 30
0.0
 40
150.0
  0
ARC
  5
8795
  8
1
 10
2060.2372856670731
 20
-1836.4071789961799
 30
0.0
 40
280.0
 50
235.06849280763851
 51
43.95185839738668
  0
LINE
  5
88E4
  8
1
 10
2373.146414668709
 20
4519.6470688482123
 30
0.0
 11
2373.1464146687081
 21
3866.9258576349412
 31
0.0
  0
LINE
  5
88E5
  8
1
 10
2348.595284239962
 20
4541.0418950137828
 30
0.0
 11
2373.1464146687081
 21
4519.6470688482123
 31
0.0
  0
ARC
  5
88E6
  8
1
 10
2323.146414668709
 20
4660.9258576349393
 30
0.0
 40
50.0
 50
359.99999999999977
 51
89.999999999999844
  0
LINE
  5
88E7
  8
1
 10
2373.146414668709
 20
4660.9258576349393
 30
0.0
 11
2373.1464146687099
 21
4541.0418950137819
 31
0.0
  0
LINE
  5
93C0
  8
1
 10
226.19852906643311
 20
253.28223316218589
 30
0.0
 11
2167.4727519418329
 21
-1731.5236494367921
 31
0.0
  0
LINE
  5
93C1
  8
1
 10
-291.15861444678319
 20
-352.6830399030174
 30
0.0
 11
1973.4638231243771
 21
-1958.760626836244
 31
0.0
  0
LINE
  5
93C2
  8
1
 10
336.19505599860889
 20
355.3223641545685
 30
0.0
 11
2261.8157869267638
 21
-1642.072138846708
 31
0.0
  0
LINE
  5
93C3
  8
1
 10
-374.69094988548977
 20
-477.31759853840902
 30
0.0
 11
1899.9101839312229
 21
-2065.9615743994959
 31
0.0
  0
DIMENSION
  5
93C4
  8
3
  2
*D9
 10
3082.4414448348398
 20
-26.4071789961801
 30
0.0
 11
2932.4414448348389
 21
-1201.407178996179
 31
0.0
 70
     0
 13
2460.2372856670731
 23
-2376.4071789961799
 33
0.0
 14
2499.9872359278661
 24
-26.40717899617993
 34
0.0
 50
90.0
1001
ACAD
1000
DSTYLE
1002
{
1070
   287
1070
     3
1070
   287
1070
     3
1070
    40
1040
60.0
1070
   143
1040
0.039
1070
   172
1070
     1
1070
   173
1070
     0
1070
   271
1070
     4
1070
   272
1070
     4
1070
   279
1070
     0
1070
   284
1070
     0
1070
   285
1070
     0
1070
   286
1070
     0
1070
   341
1005
7DAC
1070
     5
1000
OPEN30
1002
}
  0
DIMENSION
  5
93ED
  8
3
  2
*D10
 10
-2529.3466731018639
 20
1415.5928210038201
 30
0.0
 11
-2679.3466731018648
 21
694.5928210038204
 31
0.0
 70
     0
 13
-1641.51278941995
 23
-26.407178996179251
 33
0.0
 14
62.737285667073081
 24
1415.5928210038201
 34
0.0
 50
90.000000000000028
1001
ACAD
1000
DSTYLE
1002
{
1070
   287
1070
     4
1070
   287
1070
     4
1070
    40
1040
60.0
1070
   143
1040
0.039
1070
   172
1070
     1
1070
   173
1070
     0
1070
   271
1070
     4
1070
   272
1070
     4
1070
   279
1070
     1
1070
   284
1070
     0
1070
   285
1070
     0
1070
   286
1070
     0
1070
   341
1005
7DAC
1070
     5
1000
OPEN30
1002
}
  0
LINE
  5
93FB
  8
1
 10
5244.0871082668864
 20
1415.5928210038201
 30
0.0
 11
6744.0871082668864
 21
1415.5928210038201
 31
0.0
  0
DIMENSION
  5
93FC
  8
3
  2
*D11
 10
6744.0871082668864
 20
1850.7726709278941
 30
0.0
 11
5994.0871082668864
 21
2000.7726709278941
 31
0.0
 70
     0
 13
5244.0871082668864
 23
1415.5928210038201
 33
0.0
 14
6744.0871082668864
 24
1415.5928210038201
 34
0.0
1001
ACAD
1000
DSTYLE
1002
{
1070
   287
1070
     3
1070
   287
1070
     3
1070
    40
1040
60.0
1070
   143
1040
0.039
1070
   172
1070
     1
1070
   173
1070
     0
1070
   271
1070
     4
1070
   272
1070
     4
1070
   279
1070
     0
1070
   284
1070
     0
1070
   285
1070
     0
1070
   286
1070
     0
1070
   341
1005
7DAC
1070
     5
1000
OPEN30
1002
}
  0
DIMENSION
  5
9409
  8
3
  2
*D12
 10
5994.0871082668846
 20
2393.1028432939202
 30
0.0
 11
5369.0871082668846
 21
2590.245700436777
 31
0.0
 70
     0
  1
(<>)
 13
4744.0871082668837
 23
523.59282100381961
 33
0.0
 14
5994.0871082668846
 24
2446.6755532380048
 34
0.0
1001
ACAD
1000
DSTYLE
1002
{
1070
   287
1070
     3
1070
   287
1070
     3
1070
    40
1040
60.0
1070
   143
1040
0.039
1070
   172
1070
     1
1070
   173
1070
     0
1070
   271
1070
     4
1070
   272
1070
     4
1070
   279
1070
     0
1070
   284
1070
     0
1070
   285
1070
     0
1070
   286
1070
     0
1070
   341
1005
7DAC
1070
     5
1000
OPEN30
1002
}
  0
DIMENSION
  5
9416
  8
3
  2
*D13
 10
6898.0871082668837
 20
2393.1028432939202
 30
0.0
 11
6446.0871082668828
 21
2543.1028432939202
 31
0.0
 70
     0
 13
5994.0871082668846
 23
2446.6755532380048
 33
0.0
 14
6898.0871082668837
 24
1048.5928210038201
 34
0.0
1001
ACAD
1000
DSTYLE
1002
{
1070
   287
1070
     4
1070
   287
1070
     4
1070
    40
1040
60.0
1070
   143
1040
0.039
1070
   172
1070
     1
1070
   173
1070
     0
1070
   271
1070
     4
1070
   272
1070
     4
1070
   279
1070
     1
1070
   284
1070
     0
1070
   285
1070
     0
1070
   286
1070
     0
1070
   341
1005
7DAC
1070
     5
1000
OPEN30
1002
}
  0
LINE
  5
943F
  8
2
 10
5994.0871082668846
 20
1811.1737679982541
 30
0.0
 11
5994.0871082668818
 21
-2696.4071789961799
 31
0.0
  0
DIMENSION
  5
9521
  8
3
  2
*D14
 10
-59.762714332926379
 20
2114.9056025187961
 30
0.0
 11
-697.26271433292629
 21
2264.9056025187961
 31
0.0
 70
     0
 13
-1334.762714332926
 23
-35.40717899617902
 33
0.0
 14
-59.762714332926407
 24
1743.7726949824389
 34
0.0
1001
ACAD
1000
DSTYLE
1002
{
1070
   287
1070
     3
1070
   287
1070
     3
1070
    40
1040
60.0
1070
   143
1040
0.039
1070
   172
1070
     1
1070
   173
1070
     0
1070
   271
1070
     4
1070
   272
1070
     4
1070
   279
1070
     0
1070
   284
1070
     0
1070
   285
1070
     0
1070
   286
1070
     0
1070
   341
1005
7DAC
1070
     5
1000
OPEN30
1002
}
  0
LINE
  5
9825
  8
1
 10
6744.0871082668864
 20
-35.407178996178921
 30
0.0
 11
6823.0871082668837
 21
-35.407178996178907
 31
0.0
  0
LINE
  5
9827
  8
1
 10
2460.2372856670731
 20
-2696.4071789961799
 30
0.0
 11
-1239.762714332926
 21
-2696.4071789961799
 31
0.0
  0
LINE
  5
9828
  8
1
 10
-1239.762714332926
 20
-2696.4071789961799
 30
0.0
 11
-1239.762714332926
 21
-2516.4071789961799
 31
0.0
  0
LINE
  5
9829
  8
1
 10
2460.2372856670731
 20
-2516.4071789961799
 30
0.0
 11
-1239.762714332926
 21
-2516.4071789961799
 31
0.0
  0
LINE
  5
982A
  8
1
 10
2460.2372856670731
 20
-2696.4071789961799
 30
0.0
 11
2460.2372856670731
 21
-2516.4071789961799
 31
0.0
  0
LINE
  5
982B
  8
1
 10
4763.0871082668837
 20
-2516.4071789961799
 30
0.0
 11
6823.0871082668873
 21
-2516.4071789961799
 31
0.0
  0
LINE
  5
982C
  8
1
 10
4763.0871082668837
 20
-2696.4071789961799
 30
0.0
 11
6823.0871082668837
 21
-2696.4071789961799
 31
0.0
  0
LINE
  5
982D
  8
1
 10
4763.0871082668837
 20
-2696.4071789961799
 30
0.0
 11
4763.0871082668837
 21
-2516.4071789961799
 31
0.0
  0
LINE
  5
982E
  8
1
 10
6823.0871082668873
 20
-2696.4071789961799
 30
0.0
 11
6823.0871082668837
 21
-2516.4071789961799
 31
0.0
  0
DIMENSION
  5
9841
  8
3
  2
*D16
 10
-59.762714332926443
 20
-3104.9527387674239
 30
0.0
 11
-649.76271433292641
 21
-2954.9527387674239
 31
0.0
 70
     0
 13
-1239.762714332926
 23
-2696.4071789961799
 33
0.0
 14
-59.762714332926407
 24
-2696.4071789961799
 34
0.0
1001
ACAD
1000
DSTYLE
1002
{
1070
   287
1070
     3
1070
    40
1040
60.0
1070
   143
1040
0.039
1070
   172
1070
     1
1070
   271
1070
     4
1070
   272
1070
     4
1070
   279
1070
     0
1070
   284
1070
     0
1070
   285
1070
     0
1070
   286
1070
     0
1070
     6
1000
OPEN
1070
     7
1000
OPEN
1002
}
  0
DIMENSION
  5
984E
  8
3
  2
*D17
 10
2460.2372856670731
 20
-3104.9527387674239
 30
0.0
 11
1200.2372856670729
 21
-2954.9527387674239
 31
0.0
 70
     0
 13
-59.762714332926407
 23
-2696.4071789961799
 33
0.0
 14
2460.2372856670731
 24
-2696.4071789961799
 34
0.0
1001
ACAD
1000
DSTYLE
1002
{
1070
   287
1070
     3
1070
    40
1040
60.0
1070
   143
1040
0.039
1070
   172
1070
     1
1070
   271
1070
     4
1070
   272
1070
     4
1070
   279
1070
     0
1070
   284
1070
     0
1070
   285
1070
     0
1070
   286
1070
     0
1070
     6
1000
OPEN
1070
     7
1000
OPEN
1002
}
  0
DIMENSION
  5
985B
  8
3
  2
*D18
 10
2460.2372856670731
 20
-3529.3279561049349
 30
0.0
 11
610.23728566707359
 21
-3379.3279561049339
 31
0.0
 70
     0
 13
-1239.762714332926
 23
-2696.4071789961799
 33
0.0
 14
2460.2372856670731
 24
-2696.4071789961799
 34
0.0
1001
ACAD
1000
DSTYLE
1002
{
1070
   287
1070
     3
1070
    40
1040
60.0
1070
   143
1040
0.039
1070
   172
1070
     1
1070
   271
1070
     4
1070
   272
1070
     4
1070
   279
1070
     0
1070
   284
1070
     0
1070
   285
1070
     0
1070
   286
1070
     0
1070
     6
1000
OPEN
1070
     7
1000
OPEN
1002
}
  0
DIMENSION
  5
9868
  8
3
  2
*D19
 10
5994.0871082668828
 20
-3104.9527387674239
 30
0.0
 11
5378.5871082668837
 21
-2954.9527387674239
 31
0.0
 70
     0
 13
4763.0871082668837
 23
-2696.4071789961799
 33
0.0
 14
5994.0871082668828
 24
-2696.407178996179
 34
0.0
1001
ACAD
1000
DSTYLE
1002
{
1070
   287
1070
     3
1070
    40
1040
60.0
1070
   143
1040
0.039
1070
   172
1070
     1
1070
   271
1070
     4
1070
   272
1070
     4
1070
   279
1070
     0
1070
   284
1070
     0
1070
   285
1070
     0
1070
   286
1070
     0
1070
     6
1000
OPEN
1070
     7
1000
OPEN
1002
}
  0
DIMENSION
  5
9882
  8
3
  2
*D20
 10
6823.0871082668837
 20
-3104.9527387674239
 30
0.0
 11
6408.5871082668828
 21
-2954.9527387674239
 31
0.0
 70
     0
 13
5994.0871082668828
 23
-2696.407178996179
 33
0.0
 14
6823.0871082668837
 24
-2696.4071789961799
 34
0.0
1001
ACAD
1000
DSTYLE
1002
{
1070
   287
1070
     3
1070
    40
1040
60.0
1070
   143
1040
0.039
1070
   172
1070
     1
1070
   271
1070
     4
1070
   272
1070
     4
1070
   279
1070
     0
1070
   284
1070
     0
1070
   285
1070
     0
1070
   286
1070
     0
1070
     6
1000
OPEN
1070
     7
1000
OPEN
1002
}
  0
DIMENSION
  5
988F
  8
3
  2
*D21
 10
6823.0871082668873
 20
-3529.3279561049349
 30
0.0
 11
5793.0871082668846
 21
-3379.3279561049339
 31
0.0
 70
     0
 13
4763.0871082668837
 23
-2696.4071789961799
 33
0.0
 14
6823.0871082668873
 24
-2696.4071789961799
 34
0.0
1001
ACAD
1000
DSTYLE
1002
{
1070
   287
1070
     3
1070
    40
1040
60.0
1070
   143
1040
0.039
1070
   172
1070
     1
1070
   271
1070
     4
1070
   272
1070
     4
1070
   279
1070
     0
1070
   284
1070
     0
1070
   285
1070
     0
1070
   286
1070
     0
1070
     6
1000
OPEN
1070
     7
1000
OPEN
1002
}
  0
DIMENSION
  5
98B5
  8
3
  2
*D24
 10
3085.75488923378
 20
-2696.4071789961799
 30
0.0
 11
2935.75488923378
 21
-3210.6928932818942
 31
0.0
 70
     0
 13
2460.2372856670731
 23
-2516.4071789961799
 33
0.0
 14
2460.2372856670731
 24
-2696.4071789961799
 34
0.0
 50
90.0
1001
ACAD
1000
DSTYLE
1002
{
1070
   287
1070
     0
1070
    40
1040
60.0
1070
   143
1040
0.039
1070
   172
1070
     1
1070
   271
1070
     4
1070
   272
1070
     4
1070
   279
1070
     0
1070
   284
1070
     0
1070
   285
1070
     0
1070
   286
1070
     0
1070
   289
1070
     0
1070
     6
1000
DOT
1070
     7
1000
OPEN
1002
}
  0
DIMENSION
  5
98C3
  8
3
  2
*D25
 10
3077.069760223952
 20
-2376.4071789961799
 30
0.0
 11
3364.2126173668089
 21
-2446.4071789961799
 31
0.0
 70
     0
 13
2460.2372856670731
 23
-2516.4071789961799
 33
0.0
 14
2460.2372856670731
 24
-2376.4071789961799
 34
0.0
 50
90.0
1001
ACAD
1000
DSTYLE
1002
{
1070
   284
1070
     0
1070
   172
1070
     1
1070
   272
1070
     4
1070
    76
1070
     1
1070
    75
1070
     1
1070
    40
1040
60.0
1070
     3
1000
(<>)
1070
   271
1070
     4
1070
     7
1000
_NONE
1070
     6
1000
_NONE
1070
   285
1070
     0
1070
   286
1070
     0
1070
   143
1040
0.039
1002
}
  0
LINE
  5
98DF
  8
1
 10
1755.0904790364591
 20
4674.7326331639688
 30
0.0
 11
1676.2372856670729
 21
4674.7326331639697
 31
0.0
  0
ENDSEC
  0
EOF
