  0
SECTION
  2
HEADER
  9
$ACADVER
  1
AC1009
  9
$INSBASE
 10
0.0
 20
0.0
 30
0.0
  9
$EXTMIN
 10
-4128.9508801254269
 20
-7154.4496981635739
 30
0.0
  9
$EXTMAX
 10
8471.0491198745731
 20
10545.55030183642
 30
0.0
  9
$LIMMIN
 10
0.0
 20
0.0
  9
$LIMMAX
 10
297.0
 20
210.0
  9
$ORTHOMODE
 70
     1
  9
$REGENMODE
 70
     1
  9
$FILLMODE
 70
     0
  9
$QTEXTMODE
 70
     0
  9
$MIRRTEXT
 70
     1
  9
$DRAGMODE
 70
     2
  9
$LTSCALE
 40
360.0
  9
$OSMODE
 70
   545
  9
$ATTMODE
 70
     1
  9
$TEXTSIZE
 40
180.0
  9
$TRACEWID
 40
0.05
  9
$TEXTSTYLE
  7
STANDARD
  9
$CLAYER
  8
3
  9
$CELTYPE
  6
BYLAYER
  9
$CECOLOR
 62
   256
  9
$DIMSCALE
 40
60.0
  9
$DIMASZ
 40
2.0
  9
$DIMEXO
 40
0.5
  9
$DIMDLI
 40
10.0
  9
$DIMRND
 40
0.0
  9
$DIMDLE
 40
0.0
  9
$DIMEXE
 40
1.0
  9
$DIMTP
 40
1.0
  9
$DIMTM
 40
1.0
  9
$DIMTXT
 40
3.0
  9
$DIMCEN
 40
0.0
  9
$DIMTSZ
 40
0.0
  9
$DIMTOL
 70
     0
  9
$DIMLIM
 70
     0
  9
$DIMTIH
 70
     0
  9
$DIMTOH
 70
     0
  9
$DIMSE1
 70
     1
  9
$DIMSE2
 70
     1
  9
$DIMTAD
 70
     1
  9
$DIMZIN
 70
     8
  9
$DIMBLK
  1
OPEN30
  9
$DIMASO
 70
     1
  9
$DIMSHO
 70
     1
  9
$DIMPOST
  1
(<>)
  9
$DIMAPOST
  1

  9
$DIMALT
 70
     0
  9
$DIMALTD
 70
     2
  9
$DIMALTF
 40
0.039
  9
$DIMLFAC
 40
1.0
  9
$DIMTOFL
 70
     1
  9
$DIMTVP
 40
0.0
  9
$DIMTIX
 70
     0
  9
$DIMSOXD
 70
     0
  9
$DIMSAH
 70
     1
  9
$DIMBLK1
  1
NONE
  9
$DIMBLK2
  1
NONE
  9
$DIMSTYLE
  2
IGA
  9
$DIMCLRD
 70
     0
  9
$DIMCLRE
 70
     0
  9
$DIMCLRT
 70
     0
  9
$DIMTFAC
 40
10.0
  9
$DIMGAP
 40
1.0
  9
$LUNITS
 70
     2
  9
$LUPREC
 70
     3
  9
$SKETCHINC
 40
0.1
  9
$FILLETRAD
 40
50.0
  9
$AUNITS
 70
     0
  9
$AUPREC
 70
     0
  9
$MENU
  1
acad
  9
$ELEVATION
 40
0.0
  9
$PELEVATION
 40
0.0
  9
$THICKNESS
 40
0.0
  9
$LIMCHECK
 70
     0
  9
$BLIPMODE
 70
     0
  9
$CHAMFERA
 40
0.5
  9
$CHAMFERB
 40
0.5
  9
$SKPOLY
 70
     0
  9
$TDCREATE
 40
2453349.637759502
  9
$TDUPDATE
 40
2455009.6137883328
  9
$TDINDWG
 40
0.1935528588
  9
$TDUSRTIMER
 40
0.1935521412
  9
$USRTIMER
 70
     1
  9
$ANGBASE
 50
0.0
  9
$ANGDIR
 70
     0
  9
$PDMODE
 70
     0
  9
$PDSIZE
 40
0.0
  9
$PLINEWID
 40
0.0
  9
$COORDS
 70
     2
  9
$SPLFRAME
 70
     0
  9
$SPLINETYPE
 70
     6
  9
$SPLINESEGS
 70
     8
  9
$ATTDIA
 70
     0
  9
$ATTREQ
 70
     1
  9
$HANDLING
 70
 22529
  9
$HANDSEED
  5
944B
  9
$SURFTAB1
 70
     6
  9
$SURFTAB2
 70
     6
  9
$SURFTYPE
 70
     6
  9
$SURFU
 70
     6
  9
$SURFV
 70
     6
  9
$UCSNAME
  2

  9
$UCSORG
 10
0.0
 20
0.0
 30
0.0
  9
$UCSXDIR
 10
1.0
 20
0.0
 30
0.0
  9
$UCSYDIR
 10
0.0
 20
1.0
 30
0.0
  9
$PUCSNAME
  2

  9
$PUCSORG
 10
0.0
 20
0.0
 30
0.0
  9
$PUCSXDIR
 10
1.0
 20
0.0
 30
0.0
  9
$PUCSYDIR
 10
0.0
 20
1.0
 30
0.0
  9
$USERI1
 70
     0
  9
$USERI2
 70
     0
  9
$USERI3
 70
     0
  9
$USERI4
 70
     0
  9
$USERI5
 70
     0
  9
$USERR1
 40
0.0
  9
$USERR2
 40
0.0
  9
$USERR3
 40
0.0
  9
$USERR4
 40
0.0
  9
$USERR5
 40
0.0
  9
$WORLDVIEW
 70
     1
  9
$SHADEDGE
 70
     3
  9
$SHADEDIF
 70
    70
  9
$TILEMODE
 70
     1
  9
$MAXACTVP
 70
    16
  9
$PLIMCHECK
 70
     0
  9
$PEXTMIN
 10
1.0000000000000000E+020
 20
1.0000000000000000E+020
 30
1.0000000000000000E+020
  9
$PEXTMAX
 10
-1.0000000000000000E+020
 20
-1.0000000000000000E+020
 30
-1.0000000000000000E+020
  9
$PLIMMIN
 10
0.0
 20
0.0
  9
$PLIMMAX
 10
12.0
 20
9.0
  9
$UNITMODE
 70
     0
  9
$VISRETAIN
 70
     0
  9
$PLINEGEN
 70
     0
  9
$PSLTSCALE
 70
     1
  0
ENDSEC
  0
SECTION
  2
TABLES
  0
TABLE
  2
VPORT
 70
     2
  0
VPORT
  2
*ACTIVE
 70
     0
 10
0.0
 20
0.0
 11
1.0
 21
1.0
 12
3118.0830376887388
 22
1695.550343047445
 13
0.0
 23
0.0
 14
10.0
 24
10.0
 15
10.0
 25
10.0
 16
0.0
 26
0.0
 36
1.0
 17
0.0
 27
0.0
 37
0.0
 40
17838.47551234916
 41
1.6307901907356941
 42
50.0
 43
0.0
 44
0.0
 50
0.0
 51
0.0
 71
     0
 72
   100
 73
     1
 74
     0
 75
     0
 76
     0
 77
     0
 78
     0
  0
ENDTAB
  0
TABLE
  2
LTYPE
 70
     2
  0
LTYPE
  2
CONTINUOUS
 70
     0
  3
Solid line
 72
    65
 73
     0
 40
0.0
  0
LTYPE
  2
CENTER
 70
     0
  3
____ _ ____ _ ____ _ ____ _ ____ _ ____ _ ____ 
 72
    65
 73
     4
 40
2.0
 49
1.25
 49
-0.25
 49
0.25
 49
-0.25
  0
ENDTAB
  0
TABLE
  2
LAYER
 70
     6
  0
LAYER
  2
0
 70
     0
 62
     7
  6
CONTINUOUS
  0
LAYER
  2
1
 70
     0
 62
     4
  6
CONTINUOUS
  0
LAYER
  2
3
 70
     0
 62
     2
  6
CONTINUOUS
  0
LAYER
  2
2
 70
     0
 62
     3
  6
CENTER
  0
LAYER
  2
4
 70
     0
 62
     7
  6
CONTINUOUS
  0
LAYER
  2
DEFPOINTS
 70
     0
 62
     7
  6
CONTINUOUS
  0
ENDTAB
  0
TABLE
  2
STYLE
 70
     1
  0
STYLE
  2
STANDARD
 70
     0
 40
0.0
 41
1.0
 50
0.0
 71
     0
 42
180.0
  3
simplex.shx
  4
extfont.shx
  0
ENDTAB
  0
TABLE
  2
VIEW
 70
     0
  0
ENDTAB
  0
TABLE
  2
UCS
 70
     0
  0
ENDTAB
  0
TABLE
  2
APPID
 70
     1
  0
APPID
  2
ACAD
 70
     0
  0
ENDTAB
  0
TABLE
  2
DIMSTYLE
 70
     1
  0
DIMSTYLE
  2
IGA
 70
     0
  3

  4

  5

  6

  7

 40
2.0
 41
2.0
 42
0.5
 43
10.0
 44
1.0
 45
0.0
 46
0.0
 47
1.0
 48
1.0
140
3.0
141
0.0
142
0.0
143
0.03937
144
1.0
145
0.0
146
10.0
147
1.0
 71
     0
 72
     0
 73
     0
 74
     0
 75
     0
 76
     0
 77
     1
 78
     8
170
     0
171
     2
172
     0
173
     1
174
     0
175
     0
176
     0
177
     0
178
     0
  0
ENDTAB
  0
ENDSEC
  0
SECTION
  2
BLOCKS
  0
BLOCK
  8
0
  2
$MODEL_SPACE
 70
     0
 10
0.0
 20
0.0
 30
0.0
  3
$MODEL_SPACE
  1

  0
ENDBLK
  5
7D74
  8
0
  0
BLOCK
 67
     1
  8
0
  2
$PAPER_SPACE
 70
     0
 10
0.0
 20
0.0
 30
0.0
  3
$PAPER_SPACE
  1

  0
ENDBLK
  5
7D70
 67
     1
  8
0
  0
BLOCK
  8
0
  2
_OPEN30
 70
     0
 10
0.0
 20
0.0
 30
0.0
  3
_OPEN30
  1

  0
LINE
  5
7DAE
  8
1
 62
     0
 10
-1.0
 20
0.26794919
 30
0.0
 11
0.0
 21
0.0
 31
0.0
  0
LINE
  5
7DAF
  8
1
 62
     0
 10
0.0
 20
0.0
 30
0.0
 11
-1.0
 21
-0.26794919
 31
0.0
  0
LINE
  5
7DB0
  8
1
 62
     0
 10
0.0
 20
0.0
 30
0.0
 11
-1.0
 21
0.0
 31
0.0
  0
ENDBLK
  5
7DB1
  8
0
  0
BLOCK
  8
0
  2
*D1
 70
     1
 10
0.0
 20
0.0
 30
0.0
  3
*D1
  1

  0
LINE
  5
937E
  8
3
 62
     0
 10
6928.0871082668846
 20
47.599581659473863
 30
0.0
 11
7769.8980415944388
 21
47.599581659473621
 31
0.0
  0
LINE
  5
937F
  8
3
 62
     0
 10
6922.0871082668846
 20
-1952.400418340525
 30
0.0
 11
7769.8980415944388
 21
-1952.400418340525
 31
0.0
  0
LINE
  5
9380
  8
3
 62
     0
 10
7709.8980415944388
 20
-72.400418340526357
 30
0.0
 11
7709.8980415944388
 21
-1832.400418340525
 31
0.0
  0
INSERT
  5
9381
  8
3
 62
     0
  2
_OPEN30
 10
7709.8980415944388
 20
47.599581659473643
 30
0.0
 41
120.0
 42
120.0
 43
120.0
 50
90.0
  0
INSERT
  5
9382
  8
3
 62
     0
  2
_OPEN30
 10
7709.8980415944388
 20
-1952.400418340525
 30
0.0
 41
120.0
 42
120.0
 43
120.0
 50
270.0
  0
TEXT
  8
3
  40
180
  5
9437
  62
0
  72
0
  71
0
 10
7199.90
 20
-1271.00
 30
0.000000
  1
%%c2000
  0
POINT
  5
9384
  8
DEFPOINTS
 62
     0
 10
6898.0871082668837
 20
47.59958165947387
 30
0.0
  0
POINT
  5
9385
  8
DEFPOINTS
 62
     0
 10
6892.0871082668846
 20
-1952.400418340525
 30
0.0
  0
POINT
  5
9386
  8
DEFPOINTS
 62
     0
 10
7709.8980415944388
 20
-1952.400418340525
 30
0.0
  0
ENDBLK
  5
7E6D
  8
0
  0
BLOCK
  8
0
  2
*D2
 70
     1
 10
0.0
 20
0.0
 30
0.0
  3
*D2
  1

  0
LINE
  5
9387
  8
3
 62
     0
 10
-1095.4105870308231
 20
1195.5995816594741
 30
0.0
 11
-1862.6714108843889
 21
1195.5995816594741
 31
0.0
  0
LINE
  5
9388
  8
3
 62
     0
 10
-1095.4105870308219
 20
-864.40041834052556
 30
0.0
 11
-1862.6714108843901
 21
-864.40041834052545
 31
0.0
  0
LINE
  5
9389
  8
3
 62
     0
 10
-1802.6714108843889
 20
1075.5995816594741
 30
0.0
 11
-1802.6714108843889
 21
-744.40041834052545
 31
0.0
  0
INSERT
  5
938A
  8
3
 62
     0
  2
_OPEN30
 10
-1802.6714108843889
 20
1195.5995816594741
 30
0.0
 41
120.0
 42
120.0
 43
120.0
 50
90.0
  0
INSERT
  5
938B
  8
3
 62
     0
  2
_OPEN30
 10
-1802.6714108843889
 20
-864.40041834052545
 30
0.0
 41
120.0
 42
120.0
 43
120.0
 50
270.0
  0
TEXT
  8
3
  40
180
  5
9438
  62
0
  72
0
  71
0
 10
-2312.67
 20
-153.000
 30
0.000000
  1
2060
  0
POINT
  5
938D
  8
DEFPOINTS
 62
     0
 10
-1065.4105870308231
 20
1195.5995816594741
 30
0.0
  0
POINT
  5
938E
  8
DEFPOINTS
 62
     0
 10
-1065.4105870308219
 20
-864.40041834052556
 30
0.0
  0
POINT
  5
938F
  8
DEFPOINTS
 62
     0
 10
-1802.6714108843889
 20
-864.40041834052545
 30
0.0
  0
ENDBLK
  5
8048
  8
0
  0
BLOCK
  8
0
  2
*D3
 70
     1
 10
0.0
 20
0.0
 30
0.0
  3
*D3
  1

  0
LINE
  5
9390
  8
3
 62
     0
 10
-1095.4105870308231
 20
1195.5995816594741
 30
0.0
 11
-2319.994545799761
 21
1195.5995816594741
 31
0.0
  0
LINE
  5
9391
  8
3
 62
     0
 10
-1402.160662117846
 20
-952.40041834052556
 30
0.0
 11
-2319.994545799761
 21
-952.40041834052533
 31
0.0
  0
LINE
  5
9392
  8
3
 62
     0
 10
-2259.994545799761
 20
1075.5995816594741
 30
0.0
 11
-2259.9945457997619
 21
-832.40041834052545
 31
0.0
  0
INSERT
  5
9393
  8
3
 62
     0
  2
_OPEN30
 10
-2259.994545799761
 20
1195.5995816594741
 30
0.0
 41
120.0
 42
120.0
 43
120.0
 50
90.0
  0
INSERT
  5
9394
  8
3
 62
     0
  2
_OPEN30
 10
-2259.9945457997619
 20
-952.40041834052545
 30
0.0
 41
120.0
 42
120.0
 43
120.0
 50
270.0
  0
TEXT
  8
3
  40
180
  5
9439
  62
0
  72
0
  71
0
 10
-2769.99
 20
-197.000
 30
0.000000
  1
2148
  0
POINT
  5
9396
  8
DEFPOINTS
 62
     0
 10
-1065.4105870308231
 20
1195.5995816594741
 30
0.0
  0
POINT
  5
9397
  8
DEFPOINTS
 62
     0
 10
-1372.160662117846
 20
-952.40041834052556
 30
0.0
  0
POINT
  5
9398
  8
DEFPOINTS
 62
     0
 10
-2259.9945457997619
 20
-952.40041834052545
 30
0.0
  0
ENDBLK
  5
8055
  8
0
  0
BLOCK
  8
0
  2
*D4
 70
     1
 10
0.0
 20
0.0
 30
0.0
  3
*D4
  1

  0
LINE
  5
9399
  8
3
 62
     0
 10
1389.5894129691769
 20
5639.7326331639633
 30
0.0
 11
1389.5894129691769
 21
6271.2875301007589
 31
0.0
  0
LINE
  5
939A
  8
3
 62
     0
 10
-970.41058703082308
 20
5639.7326331639633
 30
0.0
 11
-970.41058703082308
 21
6271.2875301007589
 31
0.0
  0
LINE
  5
939B
  8
3
 62
     0
 10
1269.589412969176
 20
6211.2875301007589
 30
0.0
 11
-850.41058703082308
 21
6211.2875301007589
 31
0.0
  0
INSERT
  5
939C
  8
3
 62
     0
  2
_OPEN30
 10
1389.5894129691769
 20
6211.2875301007589
 30
0.0
 41
120.0
 42
120.0
 43
120.0
  0
INSERT
  5
939D
  8
3
 62
     0
  2
_OPEN30
 10
-970.41058703082308
 20
6211.2875301007589
 30
0.0
 41
120.0
 42
120.0
 43
120.0
 50
180.0
  0
TEXT
  8
3
  40
180
  5
943A
  62
0
  72
0
  71
0
 10
-150.411
 20
6042.69
 30
0.000000
  1
2360
  0
POINT
  5
939F
  8
DEFPOINTS
 62
     0
 10
1389.5894129691769
 20
5609.7326331639642
 30
0.0
  0
POINT
  5
93A0
  8
DEFPOINTS
 62
     0
 10
-970.41058703082308
 20
5609.7326331639642
 30
0.0
  0
POINT
  5
93A1
  8
DEFPOINTS
 62
     0
 10
-970.41058703082308
 20
6211.2875301007589
 30
0.0
  0
ENDBLK
  5
855F
  8
0
  0
BLOCK
  8
0
  2
*D5
 70
     1
 10
0.0
 20
0.0
 30
0.0
  3
*D5
  1

  0
LINE
  5
93A2
  8
3
 62
     0
 10
1389.5894129691769
 20
5639.7326331639633
 30
0.0
 11
1389.5894129691769
 21
6271.2875301007589
 31
0.0
  0
LINE
  5
93A3
  8
3
 62
     0
 10
2729.5894129691769
 20
4779.7326331639651
 30
0.0
 11
2729.5894129691769
 21
6271.2875301007589
 31
0.0
  0
LINE
  5
93A4
  8
3
 62
     0
 10
1509.5894129691769
 20
6211.2875301007589
 30
0.0
 11
2609.5894129691769
 21
6211.2875301007589
 31
0.0
  0
INSERT
  5
93A5
  8
3
 62
     0
  2
_OPEN30
 10
1389.5894129691769
 20
6211.2875301007589
 30
0.0
 41
120.0
 42
120.0
 43
120.0
 50
180.0
  0
INSERT
  5
93A6
  8
3
 62
     0
  2
_OPEN30
 10
2729.5894129691769
 20
6211.2875301007589
 30
0.0
 41
120.0
 42
120.0
 43
120.0
  0
TEXT
  8
3
  40
180
  5
943B
  62
0
  72
0
  71
0
 10
1699.59
 20
6042.69
 30
0.000000
  1
1340
  0
POINT
  5
93A8
  8
DEFPOINTS
 62
     0
 10
1389.5894129691769
 20
5609.7326331639642
 30
0.0
  0
POINT
  5
93A9
  8
DEFPOINTS
 62
     0
 10
2729.5894129691769
 20
4749.7326331639651
 30
0.0
  0
POINT
  5
93AA
  8
DEFPOINTS
 62
     0
 10
2729.5894129691769
 20
6211.2875301007589
 30
0.0
  0
ENDBLK
  5
8575
  8
0
  0
BLOCK
  8
0
  2
*D6
 70
     1
 10
0.0
 20
0.0
 30
0.0
  3
*D6
  1

  0
LINE
  5
93AB
  8
3
 62
     0
 10
2729.5894129691769
 20
3519.7326331639651
 30
0.0
 11
2729.5894129691769
 21
2679.315186575383
 31
0.0
  0
LINE
  5
93AC
  8
3
 62
     0
 10
-970.41058703082308
 20
3519.7326331639651
 30
0.0
 11
-970.41058703082308
 21
2679.315186575383
 31
0.0
  0
LINE
  5
93AD
  8
3
 62
     0
 10
2609.5894129691769
 20
2739.3151865753821
 30
0.0
 11
-850.41058703082308
 21
2739.3151865753821
 31
0.0
  0
INSERT
  5
93AE
  8
3
 62
     0
  2
_OPEN30
 10
2729.5894129691769
 20
2739.3151865753821
 30
0.0
 41
120.0
 42
120.0
 43
120.0
  0
INSERT
  5
93AF
  8
3
 62
     0
  2
_OPEN30
 10
-970.41058703082308
 20
2739.3151865753821
 30
0.0
 41
120.0
 42
120.0
 43
120.0
 50
180.0
  0
TEXT
  8
3
  40
180
  5
943C
  62
0
  72
0
  71
0
 10
519.589
 20
2570.72
 30
0.000000
  1
3700
  0
POINT
  5
93B1
  8
DEFPOINTS
 62
     0
 10
2729.5894129691769
 20
3549.7326331639638
 30
0.0
  0
POINT
  5
93B2
  8
DEFPOINTS
 62
     0
 10
-970.41058703082308
 20
3549.7326331639638
 30
0.0
  0
POINT
  5
93B3
  8
DEFPOINTS
 62
     0
 10
-970.41058703082308
 20
2739.3151865753821
 30
0.0
  0
ENDBLK
  5
865D
  8
0
  0
BLOCK
  8
0
  2
*D7
 70
     1
 10
0.0
 20
0.0
 30
0.0
  3
*D7
  1

  0
LINE
  5
93B4
  8
3
 62
     0
 10
2759.5894129691769
 20
4749.7326331639651
 30
0.0
 11
3644.5310506571982
 21
4749.7326331639651
 31
0.0
  0
LINE
  5
93B5
  8
3
 62
     0
 10
2759.5894129691769
 20
3549.7326331639638
 30
0.0
 11
3644.5310506571982
 21
3549.7326331639638
 31
0.0
  0
LINE
  5
93B6
  8
3
 62
     0
 10
3584.5310506571982
 20
4629.7326331639651
 30
0.0
 11
3584.5310506571982
 21
3669.7326331639638
 31
0.0
  0
INSERT
  5
93B7
  8
3
 62
     0
  2
_OPEN30
 10
3584.5310506571982
 20
4749.7326331639651
 30
0.0
 41
120.0
 42
120.0
 43
120.0
 50
90.0
  0
INSERT
  5
93B8
  8
3
 62
     0
  2
_OPEN30
 10
3584.5310506571982
 20
3549.7326331639638
 30
0.0
 41
120.0
 42
120.0
 43
120.0
 50
270.0
  0
TEXT
  8
3
  40
180
  5
943D
  62
0
  72
0
  71
0
 10
3074.53
 20
3831.13
 30
0.000000
  1
1200
  0
POINT
  5
93BA
  8
DEFPOINTS
 62
     0
 10
2729.5894129691769
 20
4749.7326331639651
 30
0.0
  0
POINT
  5
93BB
  8
DEFPOINTS
 62
     0
 10
2729.5894129691769
 20
3549.7326331639638
 30
0.0
  0
POINT
  5
93BC
  8
DEFPOINTS
 62
     0
 10
3584.5310506571982
 20
3549.7326331639638
 30
0.0
  0
ENDBLK
  5
8673
  8
0
  0
BLOCK
  8
0
  2
*D8
 70
     1
 10
0.0
 20
0.0
 30
0.0
  3
*D8
  1

  0
LINE
  5
93BD
  8
3
 62
     0
 10
-1000.410587030823
 20
3549.7326331639638
 30
0.0
 11
-1976.62967493113
 21
3549.7326331639651
 31
0.0
  0
LINE
  5
93BE
  8
3
 62
     0
 10
-1000.410587030823
 20
5609.7326331639642
 30
0.0
 11
-1976.62967493113
 21
5609.7326331639642
 31
0.0
  0
LINE
  5
93BF
  8
3
 62
     0
 10
-1916.62967493113
 20
3669.7326331639651
 30
0.0
 11
-1916.62967493113
 21
5489.7326331639633
 31
0.0
  0
INSERT
  5
93C0
  8
3
 62
     0
  2
_OPEN30
 10
-1916.62967493113
 20
3549.7326331639651
 30
0.0
 41
120.0
 42
120.0
 43
120.0
 50
270.0
  0
INSERT
  5
93C1
  8
3
 62
     0
  2
_OPEN30
 10
-1916.62967493113
 20
5609.7326331639642
 30
0.0
 41
120.0
 42
120.0
 43
120.0
 50
90.0
  0
TEXT
  8
3
  40
180
  5
943E
  62
0
  72
0
  71
0
 10
-2426.63
 20
4261.13
 30
0.000000
  1
2060
  0
POINT
  5
93C3
  8
DEFPOINTS
 62
     0
 10
-970.41058703082308
 20
3549.7326331639638
 30
0.0
  0
POINT
  5
93C4
  8
DEFPOINTS
 62
     0
 10
-970.41058703082308
 20
5609.7326331639642
 30
0.0
  0
POINT
  5
93C5
  8
DEFPOINTS
 62
     0
 10
-1916.62967493113
 20
5609.7326331639642
 30
0.0
  0
ENDBLK
  5
8689
  8
0
  0
BLOCK
  8
0
  2
*D9
 70
     1
 10
0.0
 20
0.0
 30
0.0
  3
*D9
  1

  0
LINE
  5
93C6
  8
3
 62
     0
 10
-1065.4105870308231
 20
1304.5995816594741
 30
0.0
 11
-1065.4105870308231
 21
1879.704708280645
 31
0.0
  0
LINE
  5
93C7
  8
3
 62
     0
 10
209.58941296917689
 20
1432.992304597595
 30
0.0
 11
209.58941296917689
 21
1879.704708280645
 31
0.0
  0
LINE
  5
93C8
  8
3
 62
     0
 10
-945.41058703082308
 20
1819.704708280645
 30
0.0
 11
89.589412969176948
 21
1819.704708280645
 31
0.0
  0
INSERT
  5
93C9
  8
3
 62
     0
  2
_OPEN30
 10
-1065.4105870308231
 20
1819.704708280645
 30
0.0
 41
120.0
 42
120.0
 43
120.0
 50
180.0
  0
INSERT
  5
93CA
  8
3
 62
     0
  2
_OPEN30
 10
209.58941296917689
 20
1819.704708280645
 30
0.0
 41
120.0
 42
120.0
 43
120.0
  0
TEXT
  8
3
  40
180
  5
943F
  62
0
  72
0
  71
0
 10
-787.911
 20
1651.10
 30
0.000000
  1
1275
  0
POINT
  5
93CC
  8
DEFPOINTS
 62
     0
 10
-1065.4105870308231
 20
1274.5995816594741
 30
0.0
  0
POINT
  5
93CD
  8
DEFPOINTS
 62
     0
 10
209.58941296917689
 20
1402.992304597595
 30
0.0
  0
POINT
  5
93CE
  8
DEFPOINTS
 62
     0
 10
209.58941296917689
 20
1819.704708280645
 30
0.0
  0
ENDBLK
  5
86BA
  8
0
  0
BLOCK
  8
0
  2
*D10
 70
     1
 10
0.0
 20
0.0
 30
0.0
  3
*D10
  1

  0
LINE
  5
93CF
  8
3
 62
     0
 10
-1402.160662117846
 20
-952.40041834052556
 30
0.0
 11
-2319.994545799761
 21
-952.40041834052533
 31
0.0
  0
LINE
  5
93D0
  8
3
 62
     0
 10
-1000.410587030823
 20
-2432.400418340525
 30
0.0
 11
-2319.994545799761
 21
-2432.4004183405241
 31
0.0
  0
LINE
  5
93D1
  8
3
 62
     0
 10
-2259.994545799761
 20
-1072.400418340525
 30
0.0
 11
-2259.994545799761
 21
-2312.4004183405241
 31
0.0
  0
INSERT
  5
93D2
  8
3
 62
     0
  2
_OPEN30
 10
-2259.994545799761
 20
-952.40041834052545
 30
0.0
 41
120.0
 42
120.0
 43
120.0
 50
90.0
  0
INSERT
  5
93D3
  8
3
 62
     0
  2
_OPEN30
 10
-2259.994545799761
 20
-2432.4004183405241
 30
0.0
 41
120.0
 42
120.0
 43
120.0
 50
270.0
  0
TEXT
  8
3
  40
180
  5
9440
  62
0
  72
0
  71
0
 10
-2769.99
 20
-2011.00
 30
0.000000
  1
1480
  0
POINT
  5
93D5
  8
DEFPOINTS
 62
     0
 10
-1372.160662117846
 20
-952.40041834052556
 30
0.0
  0
POINT
  5
93D6
  8
DEFPOINTS
 62
     0
 10
-970.41058703082308
 20
-2432.400418340525
 30
0.0
  0
POINT
  5
93D7
  8
DEFPOINTS
 62
     0
 10
-2259.994545799761
 20
-2432.4004183405241
 30
0.0
  0
ENDBLK
  5
87C1
  8
0
  0
BLOCK
  8
0
  2
*D11
 70
     1
 10
0.0
 20
0.0
 30
0.0
  3
*D11
  1

  0
LINE
  5
93D8
  8
3
 62
     0
 10
5244.0871082668828
 20
1225.5995816594741
 30
0.0
 11
5244.0871082668828
 21
1806.228386170056
 31
0.0
  0
LINE
  5
93D9
  8
3
 62
     0
 10
6744.0871082668846
 20
1225.599581659473
 30
0.0
 11
6744.0871082668846
 21
1806.228386170056
 31
0.0
  0
LINE
  5
93DA
  8
3
 62
     0
 10
5364.0871082668828
 20
1746.228386170056
 30
0.0
 11
6624.0871082668837
 21
1746.228386170056
 31
0.0
  0
INSERT
  5
93DB
  8
3
 62
     0
  2
_OPEN30
 10
5244.0871082668828
 20
1746.228386170056
 30
0.0
 41
120.0
 42
120.0
 43
120.0
 50
180.0
  0
INSERT
  5
93DC
  8
3
 62
     0
  2
_OPEN30
 10
6744.0871082668846
 20
1746.228386170056
 30
0.0
 41
120.0
 42
120.0
 43
120.0
  0
TEXT
  8
3
  40
180
  5
9441
  62
0
  72
0
  71
0
 10
5634.09
 20
1577.63
 30
0.000000
  1
1500
  0
POINT
  5
93DE
  8
DEFPOINTS
 62
     0
 10
5244.0871082668828
 20
1195.5995816594741
 30
0.0
  0
POINT
  5
93DF
  8
DEFPOINTS
 62
     0
 10
6744.0871082668846
 20
1195.599581659473
 30
0.0
  0
POINT
  5
93E0
  8
DEFPOINTS
 62
     0
 10
6744.0871082668846
 20
1746.228386170056
 30
0.0
  0
ENDBLK
  5
87D7
  8
0
  0
BLOCK
  8
0
  2
*D12
 70
     1
 10
0.0
 20
0.0
 30
0.0
  3
*D12
  1

  0
LINE
  5
93E1
  8
3
 62
     0
 10
4744.0871082668837
 20
-372.40041834052539
 30
0.0
 11
4744.0871082668837
 21
2270.4019307734702
 31
0.0
  0
LINE
  5
93E2
  8
3
 62
     0
 10
5994.0871082668846
 20
2220.387276049194
 30
0.0
 11
5994.0871082668846
 21
2270.4019307734702
 31
0.0
  0
LINE
  5
93E3
  8
3
 62
     0
 10
4864.0871082668837
 20
2210.4019307734702
 30
0.0
 11
5874.0871082668837
 21
2210.4019307734702
 31
0.0
  0
INSERT
  5
93E4
  8
3
 62
     0
  2
_OPEN30
 10
4744.0871082668837
 20
2210.4019307734702
 30
0.0
 41
120.0
 42
120.0
 43
120.0
 50
180.0
  0
INSERT
  5
93E5
  8
3
 62
     0
  2
_OPEN30
 10
5994.0871082668846
 20
2210.4019307734702
 30
0.0
 41
120.0
 42
120.0
 43
120.0
  0
TEXT
  8
3
  40
180
  5
9442
  62
0
  72
0
  71
0
 10
5009.09
 20
2088.94
 30
0.000000
  1
(1250)
  0
POINT
  5
93E7
  8
DEFPOINTS
 62
     0
 10
4744.0871082668837
 20
-402.40041834052539
 30
0.0
  0
POINT
  5
93E8
  8
DEFPOINTS
 62
     0
 10
5994.0871082668846
 20
2190.387276049194
 30
0.0
  0
POINT
  5
93E9
  8
DEFPOINTS
 62
     0
 10
5994.0871082668846
 20
2210.4019307734702
 30
0.0
  0
ENDBLK
  5
87E4
  8
0
  0
BLOCK
  8
0
  2
*D13
 70
     1
 10
0.0
 20
0.0
 30
0.0
  3
*D13
  1

  0
LINE
  5
93EA
  8
3
 62
     0
 10
5994.0871082668846
 20
2220.387276049194
 30
0.0
 11
5994.0871082668846
 21
2270.4019307734702
 31
0.0
  0
LINE
  5
93EB
  8
3
 62
     0
 10
6898.0871082668837
 20
152.5995816594731
 30
0.0
 11
6898.0871082668837
 21
2270.4019307734702
 31
0.0
  0
LINE
  5
93EC
  8
3
 62
     0
 10
6114.0871082668837
 20
2210.4019307734702
 30
0.0
 11
6778.0871082668846
 21
2210.4019307734702
 31
0.0
  0
INSERT
  5
93ED
  8
3
 62
     0
  2
_OPEN30
 10
5994.0871082668846
 20
2210.4019307734702
 30
0.0
 41
120.0
 42
120.0
 43
120.0
 50
180.0
  0
INSERT
  5
93EE
  8
3
 62
     0
  2
_OPEN30
 10
6898.0871082668837
 20
2210.4019307734702
 30
0.0
 41
120.0
 42
120.0
 43
120.0
  0
TEXT
  8
3
  40
180
  5
9443
  62
0
  72
0
  71
0
 10
6086.09
 20
2041.80
 30
0.000000
  1
904
  0
POINT
  5
93F0
  8
DEFPOINTS
 62
     0
 10
5994.0871082668846
 20
2190.387276049194
 30
0.0
  0
POINT
  5
93F1
  8
DEFPOINTS
 62
     0
 10
6898.0871082668837
 20
122.5995816594732
 30
0.0
  0
POINT
  5
93F2
  8
DEFPOINTS
 62
     0
 10
6898.0871082668837
 20
2210.4019307734702
 30
0.0
  0
ENDBLK
  5
87FA
  8
0
  0
BLOCK
  8
0
  2
_OPEN
 70
     0
 10
0.0
 20
0.0
 30
0.0
  3
_OPEN
  1

  0
LINE
  5
91DD
  8
0
  6
BYBLOCK
 62
     0
 10
-1.0
 20
0.1666666666666666
 30
0.0
 11
0.0
 21
0.0
 31
0.0
  0
LINE
  5
91DE
  8
0
  6
BYBLOCK
 62
     0
 10
0.0
 20
0.0
 30
0.0
 11
-1.0
 21
-0.1666666666666666
 31
0.0
  0
LINE
  5
91DF
  8
0
  6
BYBLOCK
 62
     0
 10
0.0
 20
0.0
 30
0.0
 11
-1.0
 21
0.0
 31
0.0
  0
ENDBLK
  5
91E0
  8
0
  0
BLOCK
  8
0
  2
*D15
 70
     1
 10
0.0
 20
0.0
 30
0.0
  3
*D15
  1

  0
LINE
  5
93F3
  8
3
 62
     0
 10
4763.0871082668837
 20
-2782.400418340525
 30
0.0
 11
4763.0871082668837
 21
-3234.333228475698
 31
0.0
  0
LINE
  5
93F4
  8
3
 62
     0
 10
5994.0871082668846
 20
-2782.4004183405241
 30
0.0
 11
5994.0871082668846
 21
-3234.333228475698
 31
0.0
  0
LINE
  5
93F5
  8
3
 62
     0
 10
4883.0871082668837
 20
-3174.333228475698
 30
0.0
 11
5874.0871082668837
 21
-3174.333228475698
 31
0.0
  0
INSERT
  5
93F6
  8
3
 62
     0
  2
_OPEN
 10
4763.0871082668837
 20
-3174.333228475698
 30
0.0
 41
120.0
 42
120.0
 43
120.0
 50
180.0
  0
INSERT
  5
93F7
  8
3
 62
     0
  2
_OPEN
 10
5994.0871082668846
 20
-3174.333228475698
 30
0.0
 41
120.0
 42
120.0
 43
120.0
  0
TEXT
  8
3
  40
180
  5
9444
  62
0
  72
0
  71
0
 10
5018.59
 20
-3342.93
 30
0.000000
  1
1231
  0
POINT
  5
93F9
  8
DEFPOINTS
 62
     0
 10
4763.0871082668837
 20
-2752.400418340525
 30
0.0
  0
POINT
  5
93FA
  8
DEFPOINTS
 62
     0
 10
5994.0871082668846
 20
-2752.4004183405241
 30
0.0
  0
POINT
  5
93FB
  8
DEFPOINTS
 62
     0
 10
5994.0871082668846
 20
-3174.333228475698
 30
0.0
  0
ENDBLK
  5
91EC
  8
0
  0
BLOCK
  8
0
  2
*D16
 70
     1
 10
0.0
 20
0.0
 30
0.0
  3
*D16
  1

  0
LINE
  5
93FC
  8
3
 62
     0
 10
5994.0871082668846
 20
-2782.4004183405241
 30
0.0
 11
5994.0871082668846
 21
-3234.333228475698
 31
0.0
  0
LINE
  5
93FD
  8
3
 62
     0
 10
6823.0871082668864
 20
-2782.400418340525
 30
0.0
 11
6823.0871082668864
 21
-3234.333228475698
 31
0.0
  0
LINE
  5
93FE
  8
3
 62
     0
 10
6114.0871082668837
 20
-3174.333228475698
 30
0.0
 11
6703.0871082668846
 21
-3174.333228475698
 31
0.0
  0
INSERT
  5
93FF
  8
3
 62
     0
  2
_OPEN
 10
5994.0871082668846
 20
-3174.333228475698
 30
0.0
 41
120.0
 42
120.0
 43
120.0
 50
180.0
  0
INSERT
  5
9400
  8
3
 62
     0
  2
_OPEN
 10
6823.0871082668864
 20
-3174.333228475698
 30
0.0
 41
120.0
 42
120.0
 43
120.0
  0
TEXT
  8
3
  40
180
  5
9445
  62
0
  72
0
  71
0
 10
6048.59
 20
-3342.93
 30
0.000000
  1
829
  0
POINT
  5
9402
  8
DEFPOINTS
 62
     0
 10
5994.0871082668846
 20
-2752.4004183405241
 30
0.0
  0
POINT
  5
9403
  8
DEFPOINTS
 62
     0
 10
6823.0871082668864
 20
-2752.400418340525
 30
0.0
  0
POINT
  5
9404
  8
DEFPOINTS
 62
     0
 10
6823.0871082668864
 20
-3174.333228475698
 30
0.0
  0
ENDBLK
  5
91F9
  8
0
  0
BLOCK
  8
0
  2
*D17
 70
     1
 10
0.0
 20
0.0
 30
0.0
  3
*D17
  1

  0
LINE
  5
9405
  8
3
 62
     0
 10
-970.41058703082308
 20
-2782.400418340525
 30
0.0
 11
-970.41058703082308
 21
-3234.333228475698
 31
0.0
  0
LINE
  5
9406
  8
3
 62
     0
 10
209.58941296917689
 20
-2782.400418340525
 30
0.0
 11
209.58941296917681
 21
-3234.333228475698
 31
0.0
  0
LINE
  5
9407
  8
3
 62
     0
 10
-850.41058703082308
 20
-3174.333228475698
 30
0.0
 11
89.589412969176891
 21
-3174.333228475698
 31
0.0
  0
INSERT
  5
9408
  8
3
 62
     0
  2
_OPEN
 10
-970.41058703082308
 20
-3174.333228475698
 30
0.0
 41
120.0
 42
120.0
 43
120.0
 50
180.0
  0
INSERT
  5
9409
  8
3
 62
     0
  2
_OPEN
 10
209.58941296917681
 20
-3174.333228475698
 30
0.0
 41
120.0
 42
120.0
 43
120.0
  0
TEXT
  8
3
  40
180
  5
9446
  62
0
  72
0
  71
0
 10
-740.411
 20
-3342.93
 30
0.000000
  1
1180
  0
POINT
  5
940B
  8
DEFPOINTS
 62
     0
 10
-970.41058703082308
 20
-2752.400418340525
 30
0.0
  0
POINT
  5
940C
  8
DEFPOINTS
 62
     0
 10
209.58941296917689
 20
-2752.400418340525
 30
0.0
  0
POINT
  5
940D
  8
DEFPOINTS
 62
     0
 10
209.58941296917681
 20
-3174.333228475698
 30
0.0
  0
ENDBLK
  5
9206
  8
0
  0
BLOCK
  8
0
  2
*D18
 70
     1
 10
0.0
 20
0.0
 30
0.0
  3
*D18
  1

  0
LINE
  5
940E
  8
3
 62
     0
 10
209.58941296917689
 20
-2782.400418340525
 30
0.0
 11
209.58941296917681
 21
-3234.333228475698
 31
0.0
  0
LINE
  5
940F
  8
3
 62
     0
 10
2729.5894129691769
 20
-2782.400418340525
 30
0.0
 11
2729.5894129691769
 21
-3234.333228475698
 31
0.0
  0
LINE
  5
9410
  8
3
 62
     0
 10
329.58941296917692
 20
-3174.333228475698
 30
0.0
 11
2609.5894129691769
 21
-3174.333228475698
 31
0.0
  0
INSERT
  5
9411
  8
3
 62
     0
  2
_OPEN
 10
209.58941296917681
 20
-3174.333228475698
 30
0.0
 41
120.0
 42
120.0
 43
120.0
 50
180.0
  0
INSERT
  5
9412
  8
3
 62
     0
  2
_OPEN
 10
2729.5894129691769
 20
-3174.333228475698
 30
0.0
 41
120.0
 42
120.0
 43
120.0
  0
TEXT
  8
3
  40
180
  5
9447
  62
0
  72
0
  71
0
 10
1109.59
 20
-3342.93
 30
0.000000
  1
2520
  0
POINT
  5
9414
  8
DEFPOINTS
 62
     0
 10
209.58941296917689
 20
-2752.400418340525
 30
0.0
  0
POINT
  5
9415
  8
DEFPOINTS
 62
     0
 10
2729.5894129691769
 20
-2752.400418340525
 30
0.0
  0
POINT
  5
9416
  8
DEFPOINTS
 62
     0
 10
2729.5894129691769
 20
-3174.333228475698
 30
0.0
  0
ENDBLK
  5
9213
  8
0
  0
BLOCK
  8
0
  2
*D19
 70
     1
 10
0.0
 20
0.0
 30
0.0
  3
*D19
  1

  0
LINE
  5
9417
  8
3
 62
     0
 10
-970.41058703082308
 20
-2782.400418340525
 30
0.0
 11
-970.41058703082308
 21
-3654.3425087233259
 31
0.0
  0
LINE
  5
9418
  8
3
 62
     0
 10
2729.5894129691769
 20
-2782.400418340525
 30
0.0
 11
2729.5894129691769
 21
-3654.3425087233259
 31
0.0
  0
LINE
  5
9419
  8
3
 62
     0
 10
-850.41058703082308
 20
-3594.3425087233259
 30
0.0
 11
2609.5894129691769
 21
-3594.3425087233259
 31
0.0
  0
INSERT
  5
941A
  8
3
 62
     0
  2
_OPEN
 10
-970.41058703082308
 20
-3594.3425087233259
 30
0.0
 41
120.0
 42
120.0
 43
120.0
 50
180.0
  0
INSERT
  5
941B
  8
3
 62
     0
  2
_OPEN
 10
2729.5894129691769
 20
-3594.3425087233259
 30
0.0
 41
120.0
 42
120.0
 43
120.0
  0
TEXT
  8
3
  40
180
  5
9448
  62
0
  72
0
  71
0
 10
519.589
 20
-3762.94
 30
0.000000
  1
3700
  0
POINT
  5
941D
  8
DEFPOINTS
 62
     0
 10
-970.41058703082308
 20
-2752.400418340525
 30
0.0
  0
POINT
  5
941E
  8
DEFPOINTS
 62
     0
 10
2729.5894129691769
 20
-2752.400418340525
 30
0.0
  0
POINT
  5
941F
  8
DEFPOINTS
 62
     0
 10
2729.5894129691769
 20
-3594.3425087233259
 30
0.0
  0
ENDBLK
  5
9220
  8
0
  0
BLOCK
  8
0
  2
*D20
 70
     1
 10
0.0
 20
0.0
 30
0.0
  3
*D20
  1

  0
LINE
  5
9420
  8
3
 62
     0
 10
4763.0871082668837
 20
-2782.400418340525
 30
0.0
 11
4763.0871082668837
 21
-3654.3425087233259
 31
0.0
  0
LINE
  5
9421
  8
3
 62
     0
 10
6823.0871082668837
 20
-2782.400418340525
 30
0.0
 11
6823.0871082668837
 21
-3654.3425087233259
 31
0.0
  0
LINE
  5
9422
  8
3
 62
     0
 10
4883.0871082668837
 20
-3594.3425087233259
 30
0.0
 11
6703.0871082668837
 21
-3594.3425087233259
 31
0.0
  0
INSERT
  5
9423
  8
3
 62
     0
  2
_OPEN
 10
4763.0871082668837
 20
-3594.3425087233259
 30
0.0
 41
120.0
 42
120.0
 43
120.0
 50
180.0
  0
INSERT
  5
9424
  8
3
 62
     0
  2
_OPEN
 10
6823.0871082668837
 20
-3594.3425087233259
 30
0.0
 41
120.0
 42
120.0
 43
120.0
  0
TEXT
  8
3
  40
180
  5
9449
  62
0
  72
0
  71
0
 10
5433.09
 20
-3762.94
 30
0.000000
  1
2060
  0
POINT
  5
9426
  8
DEFPOINTS
 62
     0
 10
4763.0871082668837
 20
-2752.400418340525
 30
0.0
  0
POINT
  5
9427
  8
DEFPOINTS
 62
     0
 10
6823.0871082668837
 20
-2752.400418340525
 30
0.0
  0
POINT
  5
9428
  8
DEFPOINTS
 62
     0
 10
6823.0871082668837
 20
-3594.3425087233259
 30
0.0
  0
ENDBLK
  5
922D
  8
0
  0
BLOCK
  8
0
  2
_DOT
 70
     0
 10
0.0
 20
0.0
 30
0.0
  3
_DOT
  1

  0
POLYLINE
  5
9231
  8
0
  6
BYBLOCK
 62
     0
 66
     1
 10
0.0
 20
0.0
 30
0.0
 70
     1
 40
0.5
 41
0.5
  0
VERTEX
  5
9429
  8
0
  6
BYBLOCK
 62
     0
 10
-0.25
 20
0.0
 30
0.0
 42
1.0
  0
VERTEX
  5
942A
  8
0
  6
BYBLOCK
 62
     0
 10
0.25
 20
0.0
 30
0.0
 42
1.0
  0
SEQEND
  5
942B
  8
0
  6
BYBLOCK
 62
     0
  0
LINE
  5
9235
  8
0
  6
BYBLOCK
 62
     0
 10
-0.5
 20
0.0
 30
0.0
 11
-1.0
 21
0.0
 31
0.0
  0
ENDBLK
  5
9236
  8
0
  0
BLOCK
  8
0
  2
*D22
 70
     1
 10
0.0
 20
0.0
 30
0.0
  3
*D22
  1

  0
LINE
  5
942C
  8
3
 62
     0
 10
-1000.410587030823
 20
-2572.4004183405241
 30
0.0
 11
-2325.0220761597152
 21
-2572.4004183405241
 31
0.0
  0
LINE
  5
942D
  8
3
 62
     0
 10
-1000.410587030823
 20
-2752.400418340525
 30
0.0
 11
-2325.0220761597152
 21
-2752.4004183405241
 31
0.0
  0
LINE
  5
942E
  8
3
 62
     0
 10
-2265.0220761597152
 20
-2452.4004183405241
 30
0.0
 11
-2265.0220761597152
 21
-2332.4004183405241
 31
0.0
  0
LINE
  5
942F
  8
3
 62
     0
 10
-2265.0220761597152
 20
-2872.4004183405241
 30
0.0
 11
-2265.0220761597161
 21
-3540.971846911953
 31
0.0
  0
LINE
  5
9430
  8
3
 62
     0
 10
-2265.0220761597152
 20
-2572.4004183405241
 30
0.0
 11
-2265.0220761597152
 21
-2752.4004183405241
 31
0.0
  0
INSERT
  5
9431
  8
3
 62
     0
  2
_DOT
 10
-2265.0220761597152
 20
-2572.4004183405241
 30
0.0
 41
120.0
 42
120.0
 43
120.0
 50
270.0
  0
INSERT
  5
9432
  8
3
 62
     0
  2
_OPEN
 10
-2265.0220761597152
 20
-2752.4004183405241
 30
0.0
 41
120.0
 42
120.0
 43
120.0
 50
90.0
  0
TEXT
  8
3
  40
180
  5
944A
  62
0
  72
0
  71
0
 10
-2775.02
 20
-3585.29
 30
0.000000
  1
180
  0
POINT
  5
9434
  8
DEFPOINTS
 62
     0
 10
-970.41058703082308
 20
-2572.4004183405241
 30
0.0
  0
POINT
  5
9435
  8
DEFPOINTS
 62
     0
 10
-970.41058703082308
 20
-2752.400418340525
 30
0.0
  0
POINT
  5
9436
  8
DEFPOINTS
 62
     0
 10
-2265.0220761597152
 20
-2752.4004183405241
 30
0.0
  0
ENDBLK
  5
9244
  8
0
  0
BLOCK
  8
0
  2
_NONE
 70
     0
 10
0.0
 20
0.0
 30
0.0
  3
_NONE
  1

  0
CIRCLE
  5
9248
  8
0
  6
BYBLOCK
 62
     0
 10
0.0
 20
0.0
 30
0.0
 40
0.25
  0
ENDBLK
  5
9249
  8
0
  0
BLOCK
  8
0
  2
*D24
 70
     1
 10
0.0
 20
0.0
 30
0.0
  3
*D24
  1

  0
LINE
  5
925B
  8
0
  6
BYBLOCK
 62
     0
 10
-2268.7339919914662
 20
-2572.4004183405241
 30
0.0
 11
-2268.7339919914662
 21
-2432.400418340525
 31
0.0
  0
TEXT
  5
925C
  8
3
 62
     0
 10
-2495.876849134323
 20
-2832.400418340525
 30
0.0
 40
180.0
  1
(140)
 50
90.0
  0
POINT
  5
925D
  8
DEFPOINTS
  6
BYBLOCK
 62
     0
 10
-970.41058703082308
 20
-2572.4004183405241
 30
0.0
  0
POINT
  5
925E
  8
DEFPOINTS
  6
BYBLOCK
 62
     0
 10
-970.41058703082308
 20
-2432.400418340525
 30
0.0
  0
POINT
  5
925F
  8
DEFPOINTS
  6
BYBLOCK
 62
     0
 10
-2268.7339919914662
 20
-2432.400418340525
 30
0.0
  0
ENDBLK
  5
9260
  8
0
  0
ENDSEC
  0
SECTION
  2
ENTITIES
  0
LINE
  5
7DB2
  8
2
 10
209.58941296917681
 20
-2752.400418340525
 30
0.0
 11
209.58941296917689
 21
1402.992304597595
 31
0.0
  0
LINE
  5
7DB3
  8
1
 10
2007.797734722659
 20
-952.40041834052488
 30
0.0
 11
409.58941296917692
 21
-952.40041834052488
 31
0.0
  0
ARC
  5
7DB4
  8
1
 10
62.589412969176919
 20
-805.40041834052499
 30
0.0
 40
1883.0
 50
0.000000000000007
 51
84.470644310753215
  0
ARC
  5
7DB5
  8
1
 10
356.58941296917692
 20
-805.40041834052499
 30
0.0
 40
1589.0
 50
270.0
 51
0.000000000000007
  0
ARC
  5
7DB6
  8
1
 10
332.08941296917692
 20
-1074.900418340525
 30
0.0
 40
1319.5
 50
180.0
 51
270.0
  0
ARC
  5
7DB7
  8
1
 10
87.089412969176905
 20
-1074.900418340525
 30
0.0
 40
1074.5
 50
168.70239976940189
 51
180.0
  0
LINE
  5
7DB8
  8
1
 10
-1065.4105870308231
 20
1274.5995816594741
 30
0.0
 11
-1065.4105870308231
 21
-943.40041834052579
 31
0.0
  0
LINE
  5
7DB9
  8
1
 10
-1065.4105870308231
 20
1195.5995816594741
 30
0.0
 11
244.0272611755062
 21
1068.837908884231
 31
0.0
  0
LINE
  5
7DBA
  8
1
 10
-966.58985511955143
 20
-864.4004183405259
 30
0.0
 11
-1065.4105870308231
 21
-864.4004183405259
 31
0.0
  0
LINE
  5
7DBB
  8
1
 10
356.58941296917692
 20
-2394.400418340525
 30
0.0
 11
332.08941296917692
 21
-2394.400418340525
 31
0.0
  0
LINE
  5
7DBC
  8
1
 10
2729.5894129691769
 20
-2432.400418340525
 30
0.0
 11
-970.41058703082308
 21
-2432.400418340525
 31
0.0
  0
LINE
  5
7DBD
  8
1
 10
2729.5894129691769
 20
-2252.400418340525
 30
0.0
 11
-970.41058703082308
 21
-2252.400418340525
 31
0.0
  0
LINE
  5
7DBE
  8
1
 10
-970.41058703082308
 20
-2432.400418340525
 30
0.0
 11
-970.41058703082308
 21
-2252.400418340525
 31
0.0
  0
LINE
  5
7DBF
  8
1
 10
2729.5894129691769
 20
-2432.400418340525
 30
0.0
 11
2729.5894129691769
 21
-2252.400418340525
 31
0.0
  0
LINE
  5
7DC0
  8
2
 10
-1353.6701203230621
 20
165.5995816594741
 30
0.0
 11
-471.85314630891838
 21
165.5995816594745
 31
0.0
  0
LINE
  5
7DC1
  8
1
 10
-990.41058703082297
 20
1274.5995816594741
 30
0.0
 11
-990.41058703082297
 21
-943.40041834052579
 31
0.0
  0
LINE
  5
7DC2
  8
1
 10
-1065.4105870308231
 20
1274.5995816594741
 30
0.0
 11
-990.41058703082297
 21
1274.5995816594741
 31
0.0
  0
LINE
  5
7DC3
  8
1
 10
-1065.4105870308231
 20
-943.40041834052579
 30
0.0
 11
-990.41058703082297
 21
-943.40041834052579
 31
0.0
  0
LINE
  5
7DC4
  8
1
 10
-1059.4105870308231
 20
1274.5995816594741
 30
0.0
 11
-1059.4105870308231
 21
-943.40041834052579
 31
0.0
  0
LINE
  5
7DC5
  8
2
 10
4433.3930178519813
 20
-952.40041834052488
 30
0.0
 11
7203.276995249239
 21
-952.40041834052579
 31
0.0
  0
LINE
  5
7DC6
  8
2
 10
5994.0871082668846
 20
-2752.400418340525
 30
0.0
 11
5994.0871082668846
 21
1709.4327322274539
 31
0.0
  0
LINE
  5
7DC7
  8
1
 10
4763.0871082668837
 20
-2432.400418340525
 30
0.0
 11
6823.0871082668837
 21
-2432.400418340525
 31
0.0
  0
LINE
  5
7DC8
  8
1
 10
4763.0871082668837
 20
-2252.400418340525
 30
0.0
 11
6823.0871082668873
 21
-2252.400418340525
 31
0.0
  0
LINE
  5
7DC9
  8
1
 10
6823.0871082668873
 20
-2432.400418340525
 30
0.0
 11
6823.0871082668837
 21
-2252.400418340525
 31
0.0
  0
LINE
  5
7DCA
  8
1
 10
4763.0871082668837
 20
-2432.400418340525
 30
0.0
 11
4763.0871082668837
 21
-2252.400418340525
 31
0.0
  0
LINE
  5
7DD4
  8
1
 10
6744.0871082668846
 20
-2252.400418340525
 30
0.0
 11
6744.0871082668846
 21
1195.599581659473
 31
0.0
  0
LINE
  5
7DD5
  8
1
 10
5244.0871082668864
 20
-2252.400418340525
 30
0.0
 11
5244.0871082668846
 21
1195.5995816594741
 31
0.0
  0
LINE
  5
7DDA
  8
1
 10
6898.0871082668837
 20
-2027.4004183405241
 30
0.0
 11
6898.0871082668837
 21
122.5995816594732
 31
0.0
  0
LINE
  5
7DDB
  8
1
 10
6744.0871082668846
 20
47.599581659473188
 30
0.0
 11
6898.0871082668837
 21
47.59958165947409
 31
0.0
  0
LINE
  5
7DDC
  8
1
 10
6744.0871082668846
 20
-1952.4004183405241
 30
0.0
 11
6898.0871082668837
 21
-1952.4004183405241
 31
0.0
  0
LINE
  5
7DDD
  8
1
 10
6892.0871082668846
 20
122.5995816594732
 30
0.0
 11
6898.0871082668837
 21
122.5995816594741
 31
0.0
  0
LINE
  5
7DDE
  8
1
 10
6892.0871082668846
 20
-2027.4004183405241
 30
0.0
 11
6898.0871082668837
 21
-2027.4004183405241
 31
0.0
  0
LINE
  5
7DDF
  8
1
 10
6892.0871082668846
 20
-2027.4004183405241
 30
0.0
 11
6892.0871082668846
 21
122.5995816594732
 31
0.0
  0
CIRCLE
  5
7DED
  8
1
 10
209.58941296917689
 20
-952.40041834052488
 30
0.0
 40
400.0
  0
ARC
  5
7DF0
  8
1
 10
209.58941296917689
 20
-952.40041834052488
 30
0.0
 40
550.0
 50
59.401748667663703
 51
252.77361622883441
  0
LINE
  5
7DF4
  8
1
 10
4824.5064816308659
 20
-552.40041834052488
 30
0.0
 11
5004.506481630865
 21
-552.40041834052488
 31
0.0
  0
LINE
  5
7DF5
  8
1
 10
4824.5064816308659
 20
-1352.400418340525
 30
0.0
 11
5004.506481630865
 21
-1352.400418340525
 31
0.0
  0
LINE
  5
7DF6
  8
1
 10
4744.0871082668837
 20
-402.40041834052539
 30
0.0
 11
5104.0871082668864
 21
-402.40041834052539
 31
0.0
  0
LINE
  5
7DF7
  8
2
 10
4597.2378386882738
 20
-1852.400418340525
 30
0.0
 11
5448.1738968458412
 21
-1852.400418340525
 31
0.0
  0
LINE
  5
7DF8
  8
1
 10
4824.5064816308659
 20
-1702.4004183405241
 30
0.0
 11
5004.506481630865
 21
-1702.4004183405241
 31
0.0
  0
LINE
  5
7DF9
  8
1
 10
4824.5064816308659
 20
-2002.400418340525
 30
0.0
 11
5004.506481630865
 21
-2002.400418340525
 31
0.0
  0
LINE
  5
7DFA
  8
1
 10
4744.0871082668837
 20
-2132.4004183405241
 30
0.0
 11
5104.0871082668846
 21
-2132.4004183405232
 31
0.0
  0
LINE
  5
7DFB
  8
1
 10
4744.0871082668837
 20
-2132.4004183405241
 30
0.0
 11
4744.0871082668837
 21
-402.40041834052539
 31
0.0
  0
LINE
  5
7DFC
  8
1
 10
5104.0871082668864
 20
-2132.4004183405241
 30
0.0
 11
5104.0871082668864
 21
-2073.2079718781151
 31
0.0
  0
LINE
  5
7DFD
  8
1
 10
5104.0871082668846
 20
-694.70086403370624
 30
0.0
 11
5104.0871082668846
 21
-402.40041834052539
 31
0.0
  0
LINE
  5
7DFE
  8
1
 10
4824.5064816308659
 20
-552.40041834052488
 30
0.0
 11
4824.5064816308659
 21
-2002.400418340525
 31
0.0
  0
LINE
  5
7DFF
  8
1
 10
5004.506481630865
 20
-552.40041834052488
 30
0.0
 11
5004.506481630865
 21
-2002.400418340525
 31
0.0
  0
LINE
  5
7E00
  8
2
 10
2113.6331237867548
 20
4780.7326331639651
 30
0.0
 11
-1304.898976998476
 21
4780.7326331639651
 31
0.0
  0
LINE
  5
7E01
  8
2
 10
209.58941296917689
 20
3337.505352115847
 30
0.0
 11
209.58941296917689
 21
5820.1555871955443
 31
0.0
  0
LINE
  5
7E02
  8
1
 10
1389.5894129691769
 20
5609.7326331639661
 30
0.0
 11
1299.5894129691769
 21
5609.7326331639661
 31
0.0
  0
LINE
  5
7E03
  8
1
 10
2729.5894129691769
 20
3549.7326331639638
 30
0.0
 11
2612.4985419708132
 21
3549.7326331639651
 31
0.0
  0
LINE
  5
7E04
  8
1
 10
-970.41058703082308
 20
3549.7326331639638
 30
0.0
 11
-970.41058703082308
 21
4030.7326331639638
 31
0.0
  0
LINE
  5
7E05
  8
1
 10
2729.5894129691769
 20
3549.7326331639638
 30
0.0
 11
2729.5894129691769
 21
3624.7326331639651
 31
0.0
  0
LINE
  5
7E06
  8
1
 10
1389.5894129691769
 20
3890.7326331639638
 30
0.0
 11
1389.5894129691769
 21
4030.7326331639651
 31
0.0
  0
LINE
  5
7E07
  8
1
 10
2729.5894129691769
 20
4749.7326331639651
 30
0.0
 11
1945.5894129691769
 21
4749.7326331639688
 31
0.0
  0
LINE
  5
7E08
  8
1
 10
2729.5894129691769
 20
3624.7326331639651
 30
0.0
 11
2612.4985419708132
 21
3624.7326331639651
 31
0.0
  0
LINE
  5
7E09
  8
1
 10
2729.5894129691769
 20
4674.7326331639661
 30
0.0
 11
2640.5544776030638
 21
4674.732633163967
 31
0.0
  0
LINE
  5
7E0A
  8
1
 10
1314.589412969176
 20
3890.7326331639638
 30
0.0
 11
1314.589412969176
 21
4030.7326331639651
 31
0.0
  0
LINE
  5
7E0B
  8
1
 10
-895.41058703082308
 20
3624.7326331639651
 30
0.0
 11
-895.41058703082308
 21
4030.7326331639629
 31
0.0
  0
LINE
  5
7E0C
  8
1
 10
2729.5894129691769
 20
4674.7326331639661
 30
0.0
 11
2729.5894129691769
 21
4749.7326331639651
 31
0.0
  0
LINE
  5
7E12
  8
2
 10
409.58941296917692
 20
-952.40041834052488
 30
0.0
 11
-1372.1606621178471
 21
-952.40041834052488
 31
0.0
  0
LINE
  5
7E13
  8
1
 10
2007.797734722659
 20
-943.40041834052488
 30
0.0
 11
409.58941296917692
 21
-943.40041834052488
 31
0.0
  0
LINE
  5
7E14
  8
1
 10
2007.797734722659
 20
-961.40041834052488
 30
0.0
 11
409.58941296917692
 21
-961.40041834052488
 31
0.0
  0
LINE
  5
7E19
  8
1
 10
1945.5894129691769
 20
5530.7326331639642
 30
0.0
 11
-1065.4105870308231
 21
5530.7326331639642
 31
0.0
  0
LINE
  5
7E1A
  8
1
 10
1945.5894129691769
 20
4030.7326331639651
 30
0.0
 11
-1065.4105870308231
 21
4030.7326331639638
 31
0.0
  0
LINE
  5
7E1D
  8
1
 10
1389.5894129691769
 20
5609.7326331639642
 30
0.0
 11
1209.5894129691769
 21
5609.7326331639642
 31
0.0
  0
LINE
  5
7E22
  8
1
 10
-790.41058703082308
 20
5609.7326331639633
 30
0.0
 11
-970.41058703082308
 21
5609.7326331639642
 31
0.0
  0
LINE
  5
7E24
  8
1
 10
1284.5894129691769
 20
5684.7326331639642
 30
0.0
 11
-865.41058703082297
 21
5684.7326331639642
 31
0.0
  0
LINE
  5
7E25
  8
1
 10
-790.41058703082308
 20
5530.7326331639642
 30
0.0
 11
-790.41058703082308
 21
5684.7326331639651
 31
0.0
  0
LINE
  5
7E26
  8
1
 10
1209.5894129691769
 20
5530.7326331639642
 30
0.0
 11
1209.5894129691769
 21
5684.7326331639651
 31
0.0
  0
LINE
  5
7E27
  8
1
 10
1284.5894129691769
 20
5678.7326331639651
 30
0.0
 11
-865.41058703082297
 21
5678.7326331639642
 31
0.0
  0
LINE
  5
7E28
  8
1
 10
-865.41058703082297
 20
5678.7326331639642
 30
0.0
 11
-865.41058703082297
 21
5684.7326331639651
 31
0.0
  0
LINE
  5
7E29
  8
1
 10
1284.5894129691769
 20
5678.7326331639651
 30
0.0
 11
1284.5894129691769
 21
5684.7326331639651
 31
0.0
  0
LINE
  5
7E2B
  8
1
 10
2612.4985419708132
 20
3530.7326331639651
 30
0.0
 11
-340.41058703082302
 21
3530.7326331639651
 31
0.0
  0
LINE
  5
7E2C
  8
1
 10
-340.41058703082302
 20
3530.7326331639651
 30
0.0
 11
-340.41058703082302
 21
3890.7326331639638
 31
0.0
  0
LINE
  5
7E2D
  8
1
 10
2612.4985419708132
 20
3530.7326331639651
 30
0.0
 11
2612.4985419708132
 21
3890.7326331639638
 31
0.0
  0
LINE
  5
7E2E
  8
1
 10
2612.4985419708132
 20
3890.7326331639651
 30
0.0
 11
-340.41058703082302
 21
3890.7326331639638
 31
0.0
  0
LINE
  5
7E2F
  8
1
 10
-190.410587030823
 20
3610.7326331639638
 30
0.0
 11
-190.410587030823
 21
3790.7326331639638
 31
0.0
  0
LINE
  5
7E30
  8
1
 10
609.58941296917692
 20
3610.7326331639638
 30
0.0
 11
609.58941296917692
 21
3790.7326331639638
 31
0.0
  0
LINE
  5
7E31
  8
1
 10
-340.41058703082302
 20
3624.7326331639638
 30
0.0
 11
-970.41058703082308
 21
3624.7326331639651
 31
0.0
  0
LINE
  5
7E32
  8
1
 10
-340.41058703082302
 20
3549.7326331639638
 30
0.0
 11
-970.41058703082308
 21
3549.7326331639638
 31
0.0
  0
LINE
  5
7E33
  8
1
 10
2482.4985419708119
 20
3610.7326331639651
 30
0.0
 11
-190.410587030823
 21
3610.7326331639638
 31
0.0
  0
LINE
  5
7E34
  8
1
 10
2482.4985419708119
 20
3790.7326331639651
 30
0.0
 11
-190.410587030823
 21
3790.7326331639638
 31
0.0
  0
LINE
  5
7E35
  8
1
 10
2482.4985419708119
 20
3610.7326331639638
 30
0.0
 11
2482.4985419708119
 21
3790.7326331639651
 31
0.0
  0
LINE
  5
7E36
  8
1
 10
2182.4985419708119
 20
3610.7326331639638
 30
0.0
 11
2182.4985419708119
 21
3790.7326331639651
 31
0.0
  0
LINE
  5
7E3B
  8
4
 10
6537.5888445345481
 20
-4506.8789504127108
 30
0.0
 11
6537.5888445345499
 21
-5706.8789504127108
 31
0.0
  0
LINE
  5
7E3C
  8
4
 10
1641.425359940142
 20
-4506.8789504127108
 30
0.0
 11
1641.425359940142
 21
-5706.8789504127108
 31
0.0
  0
LINE
  5
7E3D
  8
4
 10
-1358.574640059858
 20
-4506.8789504127108
 30
0.0
 11
-1358.574640059858
 21
-5706.8789504127108
 31
0.0
  0
LINE
  5
7E40
  8
4
 10
-1358.574640059858
 20
-5706.8789504127108
 30
0.0
 11
6537.5888445345481
 21
-5706.8789504127108
 31
0.0
  0
LINE
  5
7E41
  8
4
 10
-1358.574640059858
 20
-5106.8789504127126
 30
0.0
 11
6537.5888445345481
 21
-5106.8789504127126
 31
0.0
  0
TEXT
  5
7E42
  8
4
 10
-1127.562154978448
 20
-4917.6207952130362
 30
0.0
 40
300.0
  1
機器名称
  0
TEXT
  5
7E43
  8
4
 10
-1141.0260039110719
 20
-5577.0080100206469
 30
0.0
 40
300.0
  1
機器型番
  0
TEXT
  5
7E44
  8
4
 10
1807.4978328661309
 20
-4971.4483366673003
 30
0.0
 40
300.0
  1
ミツヤリミットロードファン
  0
TEXT
  5
7E45
  8
4
 10
1861.3523334530239
 20
-5603.9214447330523
 30
0.0
 40
300.0
  1
LLE＃12-4
  0
TEXT
  5
7E47
  8
4
 10
216.8386270284536
 20
7146.1233498315187
 30
0.0
 40
323.99999999999977
  1
床置防振ベット
  0
TEXT
  5
7E48
  8
4
 10
-2945.9438318095781
 20
8048.836159032212
 30
0.0
 40
432.0
  1
ベルト駆動式片吸込両持排煙ファン
 41
1.193982332750539
 72
     5
 11
6751.1030818572044
 21
8048.836159032212
 31
0.0
  0
LINE
  5
7E49
  8
4
 10
-3196.1230080652308
 20
7662.0028274252527
 30
0.0
 11
6971.0491198745731
 21
7662.0028274252527
 31
0.0
  0
LINE
  5
7E4A
  8
4
 10
-3196.1230080652308
 20
8862.0028274252545
 30
0.0
 11
6971.0491198745731
 21
8862.0028274252545
 31
0.0
  0
LINE
  5
7E4B
  8
4
 10
-1358.574640059858
 20
-4506.8789504127108
 30
0.0
 11
6537.5888445345481
 21
-4506.8789504127108
 31
0.0
  0
LINE
  5
7E4C
  8
4
 10
-3196.1230080652308
 20
8862.0028274252545
 30
0.0
 11
-3196.1230080652308
 21
7662.0028274252527
 31
0.0
  0
TEXT
  5
7E4D
  8
4
 10
-2738.9710651906489
 20
7139.4671671144861
 30
0.0
 40
323.99999999999977
  1
左回転左横向
  0
TEXT
  5
7E4E
  8
4
 10
4684.8664753703124
 20
9081.9167908082782
 30
0.0
 40
336.0
  1
No.
  0
TEXT
  5
7E4F
  8
4
 10
3738.8254954746499
 20
7146.1233498315187
 30
0.0
 40
323.99999999999977
  1
縮尺：1/60
  0
LINE
  5
7E50
  8
4
 10
6971.0491198745731
 20
8862.0028274252545
 30
0.0
 11
6971.0491198745731
 21
7662.0028274252527
 31
0.0
  0
LINE
  5
7E51
  8
4
 10
8471.0491198745731
 20
10545.55030183642
 30
0.0
 11
8471.0491198745731
 21
10545.55030183642
 31
0.0
  0
LINE
  5
7E52
  8
4
 10
4514.7536540337596
 20
8933.1318005888297
 30
0.0
 11
4514.7536540337596
 21
9565.4638711349417
 31
0.0
  0
LINE
  5
7E53
  8
4
 10
4514.7536540337596
 20
9565.4638711349417
 30
0.0
 11
6971.0491198745731
 21
9565.4638711349417
 31
0.0
  0
LINE
  5
7E54
  8
4
 10
6971.0491198745731
 20
9565.4638711349417
 30
0.0
 11
6971.0491198745731
 21
8933.1318005888297
 31
0.0
  0
LINE
  5
7E55
  8
4
 10
6971.0491198745731
 20
8933.1318005888297
 30
0.0
 11
4514.7536540337596
 21
8933.1318005888297
 31
0.0
  0
LINE
  5
7E56
  8
4
 10
-4128.9508801254269
 20
-7154.4496981635739
 30
0.0
 11
-4128.9508801254269
 21
10545.55030183642
 31
0.0
  0
LINE
  5
7E57
  8
4
 10
-4128.9508801254269
 20
10545.55030183642
 30
0.0
 11
8471.0491198745731
 21
10545.55030183642
 31
0.0
  0
LINE
  5
7E58
  8
4
 10
8471.0491198745731
 20
10545.55030183642
 30
0.0
 11
8471.0491198745731
 21
-7154.4496981635739
 31
0.0
  0
LINE
  5
7E59
  8
4
 10
8471.0491198745731
 20
-7154.4496981635739
 30
0.0
 11
-4128.9508801254269
 21
-7154.4496981635739
 31
0.0
  0
LINE
  5
7E5A
  8
1
 10
5175.0871082668864
 20
-943.40041834052477
 30
0.0
 11
6813.0871082668828
 21
-943.40041834052477
 31
0.0
  0
LINE
  5
7E5B
  8
1
 10
5175.0871082668864
 20
-961.40041834052488
 30
0.0
 11
6813.0871082668828
 21
-961.40041834052579
 31
0.0
  0
LINE
  5
7E5C
  8
1
 10
5175.0871082668864
 20
-961.40041834052488
 30
0.0
 11
5175.0871082668864
 21
-943.40041834052477
 31
0.0
  0
LINE
  5
7E5E
  8
1
 10
6813.0871082668828
 20
-961.40041834052488
 30
0.0
 11
6813.0871082668828
 21
-943.40041834052477
 31
0.0
  0
DIMENSION
  5
7E61
  8
3
  2
*D1
 10
7709.8980415944388
 20
-1952.400418340525
 30
0.0
 11
7559.8980415944397
 21
-952.40041834052477
 31
0.0
 70
     0
  1
%%c<>
 13
6898.0871082668837
 23
47.59958165947387
 33
0.0
 14
6892.0871082668846
 24
-1952.400418340525
 34
0.0
 50
90.0
1001
ACAD
1000
DSTYLE
1002
{
1070
   287
1070
     3
1070
   287
1070
     3
1070
   287
1070
     3
1070
   287
1070
     3
1070
   287
1070
     3
1070
    40
1040
60.0
1070
   143
1040
0.039
1070
   172
1070
     1
1070
   173
1070
     0
1070
   271
1070
     4
1070
   272
1070
     4
1070
   279
1070
     0
1070
   284
1070
     0
1070
   285
1070
     0
1070
   286
1070
     0
1070
   341
1005
7DAC
1070
     5
1000
OPEN30
1002
}
  0
DIMENSION
  5
803C
  8
3
  2
*D2
 10
-1802.6714108843889
 20
-864.40041834052545
 30
0.0
 11
-1952.6714108843889
 21
165.5995816594741
 31
0.0
 70
     0
 13
-1065.4105870308231
 23
1195.5995816594741
 33
0.0
 14
-1065.4105870308219
 24
-864.40041834052556
 34
0.0
 50
270.0
1001
ACAD
1000
DSTYLE
1002
{
1070
   287
1070
     3
1070
   287
1070
     3
1070
   287
1070
     3
1070
   287
1070
     3
1070
   287
1070
     3
1070
    40
1040
60.0
1070
   143
1040
0.039
1070
   172
1070
     1
1070
   173
1070
     0
1070
   271
1070
     4
1070
   272
1070
     4
1070
   279
1070
     0
1070
   284
1070
     0
1070
   285
1070
     0
1070
   286
1070
     0
1070
   341
1005
7DAC
1070
     5
1000
OPEN30
1002
}
  0
DIMENSION
  5
8049
  8
3
  2
*D3
 10
-2259.9945457997619
 20
-952.40041834052545
 30
0.0
 11
-2409.9945457997619
 21
121.599581659474
 31
0.0
 70
     0
 13
-1065.4105870308231
 23
1195.5995816594741
 33
0.0
 14
-1372.160662117846
 24
-952.40041834052556
 34
0.0
 50
270.0
1001
ACAD
1000
DSTYLE
1002
{
1070
   287
1070
     3
1070
   287
1070
     3
1070
   287
1070
     3
1070
   287
1070
     3
1070
   287
1070
     3
1070
    40
1040
60.0
1070
   143
1040
0.039
1070
   172
1070
     1
1070
   173
1070
     0
1070
   271
1070
     4
1070
   272
1070
     4
1070
   279
1070
     0
1070
   284
1070
     0
1070
   285
1070
     0
1070
   286
1070
     0
1070
   341
1005
7DAC
1070
     5
1000
OPEN30
1002
}
  0
LINE
  5
8312
  8
1
 10
2007.797734722659
 20
-943.40041834052488
 30
0.0
 11
2007.797734722659
 21
-961.40041834052488
 31
0.0
  0
LINE
  5
8313
  8
2
 10
2007.797734722659
 20
-952.40041834052488
 30
0.0
 11
2769.3393632299699
 21
-952.40041834052488
 31
0.0
  0
LINE
  5
8314
  8
1
 10
409.58941296917692
 20
-961.40041834052488
 30
0.0
 11
409.58941296917692
 21
-943.40041834052488
 31
0.0
  0
LINE
  5
8316
  8
1
 10
-1058.5774759419801
 20
-1037.2163476781011
 30
0.0
 11
10.035221165690009
 21
-965.74674868475449
 31
0.0
  0
LINE
  5
8317
  8
1
 10
10.635806031181341
 20
-974.72668731591136
 30
0.0
 11
9.4346363002005091
 21
-956.76681005359751
 31
0.0
  0
LINE
  5
8318
  8
1
 10
-1057.9768910764881
 20
-1046.1962863092581
 30
0.0
 11
-1059.1780608074689
 21
-1028.236409046945
 31
0.0
  0
LINE
  5
8319
  8
1
 10
-1059.1780608074689
 20
-1028.236409046945
 30
0.0
 11
9.4346363002005091
 21
-956.76681005359751
 31
0.0
  0
LINE
  5
831A
  8
1
 10
-1057.9768910764881
 20
-1046.1962863092581
 30
0.0
 11
10.635806031181341
 21
-974.72668731591136
 31
0.0
  0
LINE
  5
8360
  8
1
 10
5165.0871082668837
 20
1274.5995816594741
 30
0.0
 11
6823.0871082668837
 21
1274.5995816594741
 31
0.0
  0
LINE
  5
83B6
  8
1
 10
5165.0871082668837
 20
-943.40041834052579
 30
0.0
 11
5244.0871082668846
 21
-943.40041834052579
 31
0.0
  0
LINE
  5
83B7
  8
1
 10
6744.0871082668846
 20
1195.599581659473
 30
0.0
 11
5244.0871082668828
 21
1195.5995816594741
 31
0.0
  0
LINE
  5
83B9
  8
1
 10
5165.0871082668837
 20
-943.40041834052579
 30
0.0
 11
5165.0871082668837
 21
1274.5995816594741
 31
0.0
  0
LINE
  5
83BA
  8
1
 10
6823.0871082668837
 20
-943.40041834052579
 30
0.0
 11
6823.0871082668837
 21
1274.5995816594741
 31
0.0
  0
LINE
  5
844E
  8
1
 10
1945.5894129691769
 20
4030.7326331639651
 30
0.0
 11
1945.5894129691769
 21
5530.7326331639642
 31
0.0
  0
LINE
  5
8450
  8
1
 10
-1065.4105870308231
 20
5609.7326331639606
 30
0.0
 11
-1065.4105870308231
 21
3951.7326331639651
 31
0.0
  0
LINE
  5
8451
  8
1
 10
-990.41058703082297
 20
5530.7326331639642
 30
0.0
 11
-990.41058703082297
 21
4030.7326331639651
 31
0.0
  0
LINE
  5
8452
  8
1
 10
-1059.4105870308231
 20
5609.7326331639606
 30
0.0
 11
-1059.4105870308231
 21
3951.7326331639651
 31
0.0
  0
LINE
  5
854E
  8
1
 10
-1059.4105870308231
 20
5609.7326331639606
 30
0.0
 11
-1065.4105870308231
 21
5609.7326331639633
 31
0.0
  0
LINE
  5
854F
  8
1
 10
-1059.4105870308231
 20
3951.7326331639651
 30
0.0
 11
-1065.4105870308231
 21
3951.7326331639651
 31
0.0
  0
LINE
  5
8551
  8
1
 10
-970.41058703082308
 20
5530.7326331639642
 30
0.0
 11
-970.41058703082308
 21
5609.7326331639642
 31
0.0
  0
LINE
  5
8552
  8
1
 10
1389.5894129691769
 20
5530.7326331639642
 30
0.0
 11
1389.5894129691769
 21
5609.7326331639661
 31
0.0
  0
DIMENSION
  5
8553
  8
3
  2
*D4
 10
-970.41058703082308
 20
6211.2875301007589
 30
0.0
 11
209.58941296917689
 21
6361.2875301007589
 31
0.0
 70
     0
 13
1389.5894129691769
 23
5609.7326331639642
 33
0.0
 14
-970.41058703082308
 24
5609.7326331639642
 34
0.0
 50
180.0
1001
ACAD
1000
DSTYLE
1002
{
1070
   287
1070
     3
1070
   287
1070
     3
1070
   287
1070
     3
1070
   287
1070
     3
1070
    40
1040
60.0
1070
   143
1040
0.039
1070
   172
1070
     1
1070
   173
1070
     0
1070
   271
1070
     4
1070
   272
1070
     4
1070
   279
1070
     0
1070
   284
1070
     0
1070
   285
1070
     0
1070
   286
1070
     0
1070
   341
1005
7DAC
1070
     5
1000
OPEN30
1002
}
  0
DIMENSION
  5
8569
  8
3
  2
*D5
 10
2729.5894129691769
 20
6211.2875301007589
 30
0.0
 11
2059.589412969176
 21
6361.2875301007589
 31
0.0
 70
     0
 13
1389.5894129691769
 23
5609.7326331639642
 33
0.0
 14
2729.5894129691769
 24
4749.7326331639651
 34
0.0
 50
180.0
1001
ACAD
1000
DSTYLE
1002
{
1070
   287
1070
     3
1070
   287
1070
     3
1070
   287
1070
     3
1070
   287
1070
     3
1070
    40
1040
60.0
1070
   143
1040
0.039
1070
   172
1070
     1
1070
   173
1070
     0
1070
   271
1070
     4
1070
   272
1070
     4
1070
   279
1070
     0
1070
   284
1070
     0
1070
   285
1070
     0
1070
   286
1070
     0
1070
   341
1005
7DAC
1070
     5
1000
OPEN30
1002
}
  0
LINE
  5
85E8
  8
2
 10
2332.4985419708119
 20
-1227.6345324142089
 30
0.0
 11
2332.4985419708119
 21
-2752.400418340525
 31
0.0
  0
LINE
  5
85E9
  8
1
 10
2562.4985419708119
 20
-1322.400418340525
 30
0.0
 11
2562.4985419708119
 21
-1547.4004183405259
 31
0.0
  0
LINE
  5
85EA
  8
1
 10
2132.4985419708119
 20
-1322.400418340525
 30
0.0
 11
2132.4985419708119
 21
-1547.400418340527
 31
0.0
  0
ARC
  5
85EB
  8
1
 10
2332.4985419708119
 20
-1892.400418340525
 30
0.0
 40
310.0
 50
300.1023080683089
 51
239.8976919316911
  0
LINE
  5
85EC
  8
1
 10
2542.4985419708132
 20
-1567.400418340525
 30
0.0
 11
2152.4985419708119
 21
-1567.4004183405259
 31
0.0
  0
LINE
  5
85ED
  8
1
 10
2487.9776742464192
 20
-2160.5910957079991
 30
0.0
 11
2177.0194096952041
 21
-2160.5910957079968
 31
0.0
  0
LINE
  5
85EF
  8
2
 10
2669.957506160571
 20
-1892.400418340525
 30
0.0
 11
1989.2213197777819
 21
-1892.400418340525
 31
0.0
  0
LINE
  5
85F0
  8
1
 10
2612.49854197082
 20
-2025.441765297056
 30
0.0
 11
2612.4985419708109
 21
-2172.4004183405241
 31
0.0
  0
LINE
  5
85F1
  8
1
 10
2612.4985419708109
 20
-2172.4004183405241
 30
0.0
 11
2502.4985419708109
 21
-2172.4004183405241
 31
0.0
  0
LINE
  5
85F2
  8
1
 10
2612.4985419708132
 20
-2142.4004183405259
 30
0.0
 11
2515.8015697690448
 21
-2142.4004183405259
 31
0.0
  0
LINE
  5
85F3
  8
1
 10
2502.4985419708119
 20
-2151.630046276839
 30
0.0
 11
2502.4985419708119
 21
-2172.400418340525
 31
0.0
  0
LINE
  5
85F4
  8
1
 10
2560.9985419708119
 20
-2127.2309698508798
 30
0.0
 11
2560.9985419708119
 21
-2218.8565329231351
 31
0.0
  0
ARC
  5
85F5
  8
1
 10
2542.4985419708132
 20
-1547.4004183405259
 30
0.0
 40
20.0
 50
270.0
 51
0.000000000000007
  0
LINE
  5
85F6
  8
1
 10
2162.4985419708119
 20
-2172.400418340525
 30
0.0
 11
2052.4985419708119
 21
-2172.400418340525
 31
0.0
  0
LINE
  5
85F7
  8
1
 10
2162.4985419708119
 20
-2151.630046276839
 30
0.0
 11
2162.4985419708119
 21
-2172.400418340525
 31
0.0
  0
LINE
  5
85F8
  8
1
 10
2052.4985419708119
 20
-2025.441765297071
 30
0.0
 11
2052.4985419708119
 21
-2172.400418340525
 31
0.0
  0
LINE
  5
85F9
  8
1
 10
2149.1955141725798
 20
-2142.4004183405259
 30
0.0
 11
2052.4985419708119
 21
-2142.4004183405259
 31
0.0
  0
LINE
  5
85FA
  8
1
 10
2103.9985419708119
 20
-2127.2309698508798
 30
0.0
 11
2103.9985419708119
 21
-2214.6917346016689
 31
0.0
  0
ARC
  5
85FB
  8
1
 10
2152.4985419708119
 20
-1547.400418340527
 30
0.0
 40
20.0
 50
180.0
 51
270.0
  0
LINE
  5
85FC
  8
1
 10
2542.4985419708132
 20
-1302.400418340525
 30
0.0
 11
2152.4985419708119
 21
-1302.400418340525
 31
0.0
  0
ARC
  5
85FD
  8
1
 10
2542.4985419708132
 20
-1322.400418340525
 30
0.0
 40
20.0
 50
0.000000000000007
 51
90.0
  0
ARC
  5
85FE
  8
1
 10
2152.4985419708119
 20
-1322.400418340525
 30
0.0
 40
20.0
 50
90.0
 51
180.0
  0
LINE
  5
85FF
  8
1
 10
2230.792127346544
 20
-1442.400418340525
 30
0.0
 11
2076.4951898268582
 21
-1442.400418340525
 31
0.0
  0
LINE
  5
8600
  8
1
 10
2721.9634968633059
 20
-2172.4004183405241
 30
0.0
 11
1943.033587078319
 21
-2172.4004183405241
 31
0.0
  0
LINE
  5
8602
  8
1
 10
1943.033587078319
 20
-2172.4004183405241
 30
0.0
 11
1932.4985419708121
 21
-2252.400418340525
 31
0.0
  0
LINE
  5
8603
  8
1
 10
2721.9634968633059
 20
-2172.4004183405241
 30
0.0
 11
2732.4985419708119
 21
-2252.400418340525
 31
0.0
  0
LINE
  5
8604
  8
1
 10
2729.5894129691769
 20
-2252.400418340525
 30
0.0
 11
2732.4985419708119
 21
-2252.400418340525
 31
0.0
  0
LINE
  5
8617
  8
1
 10
2022.498541970813
 20
4519.6470688482132
 30
0.0
 11
2022.498541970813
 21
3890.7326331639651
 31
0.0
  0
LINE
  5
8618
  8
2
 10
2332.4985419708119
 20
4865.5087373097131
 30
0.0
 11
2332.4985419708119
 21
3645.777026795548
 31
0.0
  0
LINE
  5
861B
  8
1
 10
2022.498541970813
 20
4541.0418950137837
 30
0.0
 11
2642.4985419708132
 21
4541.0418950137828
 31
0.0
  0
LINE
  5
861C
  8
1
 10
2072.4985419708132
 20
4710.9258576349403
 30
0.0
 11
2592.4985419708132
 21
4710.9258576349384
 31
0.0
  0
LINE
  5
8625
  8
1
 10
2022.498541970813
 20
4660.9258576349403
 30
0.0
 11
2022.4985419708109
 21
4541.0418950137819
 31
0.0
  0
ARC
  5
8626
  8
1
 10
2072.4985419708132
 20
4660.9258576349403
 30
0.0
 40
50.0
 50
90.0
 51
180.0
  0
LINE
  5
8627
  8
1
 10
2047.04967239956
 20
4541.0418950137837
 30
0.0
 11
2022.498541970813
 21
4519.6470688482132
 31
0.0
  0
LINE
  5
8628
  8
1
 10
2612.4985419708132
 20
3866.9258576349412
 30
0.0
 11
2642.4985419708109
 21
3866.9258576349412
 31
0.0
  0
LINE
  5
8629
  8
1
 10
2022.4985419708109
 20
3901.4258576349362
 30
0.0
 11
2642.4985419708109
 21
3901.4258576349371
 31
0.0
  0
LINE
  5
862A
  8
2
 10
1985.859173984174
 20
4215.9258576349384
 30
0.0
 11
2704.4470689878981
 21
4215.9258576349384
 31
0.0
  0
LINE
  5
8640
  8
1
 10
1932.4985419708121
 20
3927.400798312447
 30
0.0
 11
1932.4985419708121
 21
4030.7326331639638
 31
0.0
  0
LINE
  5
8642
  8
1
 10
2732.4985419708119
 20
3927.400798312447
 30
0.0
 11
2732.4985419708119
 21
4474.5558672326943
 31
0.0
  0
LINE
  5
8643
  8
1
 10
2732.4985419708119
 20
4474.5558672326943
 30
0.0
 11
2642.4985419708119
 21
4474.5558672326952
 31
0.0
  0
LINE
  5
8644
  8
1
 10
2732.4985419708119
 20
3927.400798312447
 30
0.0
 11
2642.4985419708109
 21
3927.400798312447
 31
0.0
  0
LINE
  5
8645
  8
1
 10
2022.498541970813
 20
4474.5558672326952
 30
0.0
 11
1945.5894129691769
 21
4474.5558672326952
 31
0.0
  0
LINE
  5
8646
  8
1
 10
2022.498541970813
 20
3927.400798312447
 30
0.0
 11
1932.4985419708121
 21
3927.4007983124461
 31
0.0
  0
DIMENSION
  5
8651
  8
3
  2
*D6
 10
-970.41058703082308
 20
2739.3151865753821
 30
0.0
 11
879.58941296917681
 21
2889.3151865753821
 31
0.0
 70
     0
 13
2729.5894129691769
 23
3549.7326331639638
 33
0.0
 14
-970.41058703082308
 24
3549.7326331639638
 34
0.0
 50
180.0
1001
ACAD
1000
DSTYLE
1002
{
1070
   287
1070
     3
1070
   287
1070
     3
1070
   287
1070
     3
1070
   287
1070
     3
1070
    40
1040
60.0
1070
   143
1040
0.039
1070
   172
1070
     1
1070
   173
1070
     0
1070
   271
1070
     4
1070
   272
1070
     4
1070
   279
1070
     0
1070
   284
1070
     0
1070
   285
1070
     0
1070
   286
1070
     0
1070
   341
1005
7DAC
1070
     5
1000
OPEN30
1002
}
  0
DIMENSION
  5
8667
  8
3
  2
*D7
 10
3584.5310506571982
 20
3549.7326331639638
 30
0.0
 11
3434.5310506571982
 21
4149.7326331639651
 31
0.0
 70
     0
 13
2729.5894129691769
 23
4749.7326331639651
 33
0.0
 14
2729.5894129691769
 24
3549.7326331639638
 34
0.0
 50
90.0
1001
ACAD
1000
DSTYLE
1002
{
1070
   287
1070
     3
1070
   287
1070
     3
1070
   287
1070
     3
1070
   287
1070
     3
1070
    40
1040
60.0
1070
   143
1040
0.039
1070
   172
1070
     1
1070
   173
1070
     0
1070
   271
1070
     4
1070
   272
1070
     4
1070
   279
1070
     0
1070
   284
1070
     0
1070
   285
1070
     0
1070
   286
1070
     0
1070
   341
1005
7DAC
1070
     5
1000
OPEN30
1002
}
  0
DIMENSION
  5
867D
  8
3
  2
*D8
 10
-1916.62967493113
 20
5609.7326331639642
 30
0.0
 11
-2066.6296749311309
 21
4579.7326331639642
 31
0.0
 70
     0
 13
-970.41058703082308
 23
3549.7326331639638
 33
0.0
 14
-970.41058703082308
 24
5609.7326331639642
 34
0.0
 50
90.0
1001
ACAD
1000
DSTYLE
1002
{
1070
   287
1070
     3
1070
   287
1070
     3
1070
   287
1070
     3
1070
   287
1070
     3
1070
    40
1040
60.0
1070
   143
1040
0.039
1070
   172
1070
     1
1070
   173
1070
     0
1070
   271
1070
     4
1070
   272
1070
     4
1070
   279
1070
     0
1070
   284
1070
     0
1070
   285
1070
     0
1070
   286
1070
     0
1070
   341
1005
7DAC
1070
     5
1000
OPEN30
1002
}
  0
DIMENSION
  5
86AE
  8
3
  2
*D9
 10
209.58941296917689
 20
1819.704708280645
 30
0.0
 11
-427.91058703082308
 21
1969.704708280645
 31
0.0
 70
     0
 13
-1065.4105870308231
 23
1274.5995816594741
 33
0.0
 14
209.58941296917689
 24
1402.992304597595
 34
0.0
 50
180.0
1001
ACAD
1000
DSTYLE
1002
{
1070
   287
1070
     3
1070
   287
1070
     3
1070
   287
1070
     3
1070
   287
1070
     3
1070
    40
1040
60.0
1070
   143
1040
0.039
1070
   172
1070
     1
1070
   173
1070
     0
1070
   271
1070
     4
1070
   272
1070
     4
1070
   279
1070
     0
1070
   284
1070
     0
1070
   285
1070
     0
1070
   286
1070
     0
1070
   341
1005
7DAC
1070
     5
1000
OPEN30
1002
}
  0
CIRCLE
  5
8794
  8
1
 10
2329.589412969176
 20
-1892.400418340525
 30
0.0
 40
150.0
  0
ARC
  5
8795
  8
1
 10
2329.589412969176
 20
-1892.400418340525
 30
0.0
 40
280.0
 50
252.77361622883441
 51
59.401748667663703
  0
LINE
  5
8796
  8
1
 10
2404.8182509670032
 20
-1762.628996473085
 30
0.0
 11
410.19964763004771
 21
-606.34329336068822
 31
0.0
  0
LINE
  5
8797
  8
1
 10
2283.9254689839941
 20
-2035.280802647532
 30
0.0
 11
87.818895675356544
 21
-1333.414776492544
 31
0.0
  0
LINE
  5
8798
  8
1
 10
2472.1136537538441
 20
-1651.388300826168
 30
0.0
 11
489.54774308191639
 21
-478.98375893732458
 31
0.0
  0
LINE
  5
8799
  8
1
 10
2246.6679985139999
 20
-2159.8402041330519
 30
0.0
 11
46.708063146507811
 21
-1477.7285690044171
 31
0.0
  0
DIMENSION
  5
87B5
  8
3
  2
*D10
 10
-2259.994545799761
 20
-2432.4004183405241
 30
0.0
 11
-2409.994545799761
 21
-1692.400418340525
 31
0.0
 70
     0
 13
-1372.160662117846
 23
-952.40041834052556
 33
0.0
 14
-970.41058703082308
 24
-2432.400418340525
 34
0.0
 50
270.0
1001
ACAD
1000
DSTYLE
1002
{
1070
   287
1070
     3
1070
   287
1070
     3
1070
   287
1070
     3
1070
   287
1070
     3
1070
    40
1040
60.0
1070
   143
1040
0.039
1070
   172
1070
     1
1070
   173
1070
     0
1070
   271
1070
     4
1070
   272
1070
     4
1070
   279
1070
     0
1070
   284
1070
     0
1070
   285
1070
     0
1070
   286
1070
     0
1070
   341
1005
7DAC
1070
     5
1000
OPEN30
1002
}
  0
DIMENSION
  5
87CB
  8
3
  2
*D11
 10
6744.0871082668846
 20
1746.228386170056
 30
0.0
 11
5994.0871082668828
 21
1896.228386170056
 31
0.0
 70
     0
 13
5244.0871082668828
 23
1195.5995816594741
 33
0.0
 14
6744.0871082668846
 24
1195.599581659473
 34
0.0
1001
ACAD
1000
DSTYLE
1002
{
1070
   287
1070
     3
1070
   287
1070
     3
1070
   287
1070
     3
1070
   287
1070
     3
1070
    40
1040
60.0
1070
   143
1040
0.039
1070
   172
1070
     1
1070
   173
1070
     0
1070
   271
1070
     4
1070
   272
1070
     4
1070
   279
1070
     0
1070
   284
1070
     0
1070
   285
1070
     0
1070
   286
1070
     0
1070
   341
1005
7DAC
1070
     5
1000
OPEN30
1002
}
  0
DIMENSION
  5
87D8
  8
3
  2
*D12
 10
5994.0871082668846
 20
2210.4019307734702
 30
0.0
 11
5369.0871082668846
 21
2407.544787916328
 31
0.0
 70
     0
  1
(<>)
 13
4744.0871082668837
 23
-402.40041834052539
 33
0.0
 14
5994.0871082668846
 24
2190.387276049194
 34
0.0
1001
ACAD
1000
DSTYLE
1002
{
1070
   287
1070
     3
1070
   287
1070
     3
1070
   287
1070
     3
1070
   287
1070
     3
1070
    40
1040
60.0
1070
   143
1040
0.039
1070
   172
1070
     1
1070
   173
1070
     0
1070
   271
1070
     4
1070
   272
1070
     4
1070
   279
1070
     0
1070
   284
1070
     0
1070
   285
1070
     0
1070
   286
1070
     0
1070
   341
1005
7DAC
1070
     5
1000
OPEN30
1002
}
  0
DIMENSION
  5
87EE
  8
3
  2
*D13
 10
6898.0871082668837
 20
2210.4019307734702
 30
0.0
 11
6446.0871082668837
 21
2360.4019307734702
 31
0.0
 70
     0
 13
5994.0871082668846
 23
2190.387276049194
 33
0.0
 14
6898.0871082668837
 24
122.5995816594732
 34
0.0
1001
ACAD
1000
DSTYLE
1002
{
1070
   287
1070
     4
1070
   287
1070
     4
1070
   287
1070
     4
1070
   287
1070
     4
1070
    40
1040
60.0
1070
   143
1040
0.039
1070
   172
1070
     1
1070
   173
1070
     0
1070
   271
1070
     4
1070
   272
1070
     4
1070
   279
1070
     1
1070
   284
1070
     0
1070
   285
1070
     0
1070
   286
1070
     0
1070
   341
1005
7DAC
1070
     5
1000
OPEN30
1002
}
  0
LINE
  5
88E3
  8
2
 10
5994.0871082668846
 20
2029.0658610641251
 30
0.0
 11
5994.0871082668846
 21
2380.526805031353
 31
0.0
  0
LINE
  5
88E4
  8
1
 10
2642.4985419708119
 20
4519.6470688482123
 30
0.0
 11
2642.4985419708109
 21
3866.9258576349412
 31
0.0
  0
LINE
  5
88E5
  8
1
 10
2617.9474115420649
 20
4541.0418950137828
 30
0.0
 11
2642.4985419708119
 21
4519.6470688482123
 31
0.0
  0
ARC
  5
88E6
  8
1
 10
2592.4985419708132
 20
4660.9258576349393
 30
0.0
 40
50.0
 50
359.99999999999977
 51
89.999999999999844
  0
LINE
  5
88E7
  8
1
 10
2642.4985419708132
 20
4660.9258576349393
 30
0.0
 11
2642.4985419708132
 21
4541.0418950137819
 31
0.0
  0
LINE
  5
91D2
  8
1
 10
6744.0871082668846
 20
-943.40041834052602
 30
0.0
 11
6823.0871082668837
 21
-943.40041834052602
 31
0.0
  0
LINE
  5
91D3
  8
1
 10
2729.5894129691769
 20
-2572.4004183405241
 30
0.0
 11
-970.41058703082308
 21
-2572.4004183405241
 31
0.0
  0
LINE
  5
91D4
  8
1
 10
2729.5894129691769
 20
-2752.400418340525
 30
0.0
 11
-970.41058703082308
 21
-2752.400418340525
 31
0.0
  0
LINE
  5
91D5
  8
1
 10
-970.41058703082308
 20
-2752.400418340525
 30
0.0
 11
-970.41058703082308
 21
-2572.4004183405241
 31
0.0
  0
LINE
  5
91D6
  8
1
 10
2729.5894129691769
 20
-2752.400418340525
 30
0.0
 11
2729.5894129691769
 21
-2572.4004183405241
 31
0.0
  0
LINE
  5
91D7
  8
1
 10
4763.0871082668837
 20
-2752.400418340525
 30
0.0
 11
6823.0871082668837
 21
-2752.400418340525
 31
0.0
  0
LINE
  5
91D8
  8
1
 10
4763.0871082668837
 20
-2752.400418340525
 30
0.0
 11
4763.0871082668837
 21
-2572.4004183405241
 31
0.0
  0
LINE
  5
91D9
  8
1
 10
4763.0871082668837
 20
-2572.4004183405241
 30
0.0
 11
6823.0871082668864
 21
-2572.4004183405241
 31
0.0
  0
LINE
  5
91DA
  8
1
 10
6823.0871082668864
 20
-2752.400418340525
 30
0.0
 11
6823.0871082668837
 21
-2572.4004183405241
 31
0.0
  0
DIMENSION
  5
91ED
  8
3
  2
*D15
 10
5994.0871082668846
 20
-3174.333228475698
 30
0.0
 11
5378.5871082668837
 21
-3024.333228475698
 31
0.0
 70
     0
 13
4763.0871082668837
 23
-2752.400418340525
 33
0.0
 14
5994.0871082668846
 24
-2752.4004183405241
 34
0.0
1001
ACAD
1000
DSTYLE
1002
{
1070
   287
1070
     3
1070
   287
1070
     3
1070
    40
1040
60.0
1070
   143
1040
0.039
1070
   172
1070
     1
1070
   271
1070
     4
1070
   272
1070
     4
1070
   279
1070
     0
1070
   284
1070
     0
1070
   285
1070
     0
1070
   286
1070
     0
1070
     6
1000
OPEN
1070
     7
1000
OPEN
1002
}
  0
DIMENSION
  5
91FA
  8
3
  2
*D16
 10
6823.0871082668864
 20
-3174.333228475698
 30
0.0
 11
6408.5871082668846
 21
-3024.333228475698
 31
0.0
 70
     0
 13
5994.0871082668846
 23
-2752.4004183405241
 33
0.0
 14
6823.0871082668864
 24
-2752.400418340525
 34
0.0
1001
ACAD
1000
DSTYLE
1002
{
1070
   287
1070
     3
1070
   287
1070
     3
1070
    40
1040
60.0
1070
   143
1040
0.039
1070
   172
1070
     1
1070
   271
1070
     4
1070
   272
1070
     4
1070
   279
1070
     0
1070
   284
1070
     0
1070
   285
1070
     0
1070
   286
1070
     0
1070
     6
1000
OPEN
1070
     7
1000
OPEN
1002
}
  0
DIMENSION
  5
9207
  8
3
  2
*D17
 10
209.58941296917681
 20
-3174.333228475698
 30
0.0
 11
-380.41058703082302
 21
-3024.333228475698
 31
0.0
 70
     0
 13
-970.41058703082308
 23
-2752.400418340525
 33
0.0
 14
209.58941296917689
 24
-2752.400418340525
 34
0.0
1001
ACAD
1000
DSTYLE
1002
{
1070
   287
1070
     3
1070
   287
1070
     3
1070
    40
1040
60.0
1070
   143
1040
0.039
1070
   172
1070
     1
1070
   271
1070
     4
1070
   272
1070
     4
1070
   279
1070
     0
1070
   284
1070
     0
1070
   285
1070
     0
1070
   286
1070
     0
1070
     6
1000
OPEN
1070
     7
1000
OPEN
1002
}
  0
DIMENSION
  5
9214
  8
3
  2
*D18
 10
2729.5894129691769
 20
-3174.333228475698
 30
0.0
 11
1469.5894129691769
 21
-3024.333228475698
 31
0.0
 70
     0
 13
209.58941296917689
 23
-2752.400418340525
 33
0.0
 14
2729.5894129691769
 24
-2752.400418340525
 34
0.0
1001
ACAD
1000
DSTYLE
1002
{
1070
   287
1070
     3
1070
   287
1070
     3
1070
    40
1040
60.0
1070
   143
1040
0.039
1070
   172
1070
     1
1070
   271
1070
     4
1070
   272
1070
     4
1070
   279
1070
     0
1070
   284
1070
     0
1070
   285
1070
     0
1070
   286
1070
     0
1070
     6
1000
OPEN
1070
     7
1000
OPEN
1002
}
  0
DIMENSION
  5
9221
  8
3
  2
*D19
 10
2729.5894129691769
 20
-3594.3425087233259
 30
0.0
 11
879.58941296917681
 21
-3444.3425087233259
 31
0.0
 70
     0
 13
-970.41058703082308
 23
-2752.400418340525
 33
0.0
 14
2729.5894129691769
 24
-2752.400418340525
 34
0.0
1001
ACAD
1000
DSTYLE
1002
{
1070
   287
1070
     3
1070
   287
1070
     3
1070
    40
1040
60.0
1070
   143
1040
0.039
1070
   172
1070
     1
1070
   271
1070
     4
1070
   272
1070
     4
1070
   279
1070
     0
1070
   284
1070
     0
1070
   285
1070
     0
1070
   286
1070
     0
1070
     6
1000
OPEN
1070
     7
1000
OPEN
1002
}
  0
DIMENSION
  5
922E
  8
3
  2
*D20
 10
6823.0871082668837
 20
-3594.3425087233259
 30
0.0
 11
5793.0871082668837
 21
-3444.3425087233259
 31
0.0
 70
     0
 13
4763.0871082668837
 23
-2752.400418340525
 33
0.0
 14
6823.0871082668837
 24
-2752.400418340525
 34
0.0
1001
ACAD
1000
DSTYLE
1002
{
1070
   287
1070
     3
1070
   287
1070
     3
1070
    40
1040
60.0
1070
   143
1040
0.039
1070
   172
1070
     1
1070
   271
1070
     4
1070
   272
1070
     4
1070
   279
1070
     0
1070
   284
1070
     0
1070
   285
1070
     0
1070
   286
1070
     0
1070
     6
1000
OPEN
1070
     7
1000
OPEN
1002
}
  0
DIMENSION
  5
9245
  8
3
  2
*D22
 10
-2265.0220761597152
 20
-2752.4004183405241
 30
0.0
 11
-2415.0220761597152
 21
-3266.6861326262392
 31
0.0
 70
     0
 13
-970.41058703082308
 23
-2572.4004183405241
 33
0.0
 14
-970.41058703082308
 24
-2752.400418340525
 34
0.0
 50
90.0
1001
ACAD
1000
DSTYLE
1002
{
1070
   287
1070
     3
1070
   287
1070
     3
1070
    40
1040
60.0
1070
   143
1040
0.039
1070
   172
1070
     1
1070
   271
1070
     4
1070
   272
1070
     4
1070
   279
1070
     0
1070
   284
1070
     0
1070
   285
1070
     0
1070
   286
1070
     0
1070
     6
1000
DOT
1070
     7
1000
OPEN
1002
}
  0
DIMENSION
  5
9261
  8
3
  2
*D24
 10
-2268.7339919914662
 20
-2432.400418340525
 30
0.0
 11
-2555.876849134323
 21
-2502.400418340525
 31
0.0
 70
     0
 13
-970.41058703082308
 23
-2572.4004183405241
 33
0.0
 14
-970.41058703082308
 24
-2432.400418340525
 34
0.0
 50
90.0
1001
ACAD
1000
DSTYLE
1002
{
1070
   284
1070
     0
1070
   172
1070
     1
1070
   272
1070
     4
1070
    76
1070
     1
1070
    75
1070
     1
1070
    40
1040
60.0
1070
     3
1000
(<>)
1070
   271
1070
     4
1070
     7
1000
_NONE
1070
     6
1000
_NONE
1070
   285
1070
     0
1070
   286
1070
     0
1070
   143
1040
0.039
1002
}
  0
LINE
  5
927D
  8
1
 10
2024.442606338562
 20
4674.7326331639697
 30
0.0
 11
1945.5894129691769
 21
4674.7326331639697
 31
0.0
  0
ENDSEC
  0
EOF
