  0
SECTION
  2
HEADER
  9
$ACADVER
  1
AC1009
  9
$INSBASE
 10
0.0
 20
0.0
 30
0.0
  9
$EXTMIN
 10
-4128.9508801254269
 20
-7154.4496981635739
 30
0.0
  9
$EXTMAX
 10
8471.0491198745731
 20
10545.55030183642
 30
0.0
  9
$LIMMIN
 10
0.0
 20
0.0
  9
$LIMMAX
 10
297.0
 20
210.0
  9
$ORTHOMODE
 70
     0
  9
$REGENMODE
 70
     1
  9
$FILLMODE
 70
     0
  9
$QTEXTMODE
 70
     0
  9
$MIRRTEXT
 70
     1
  9
$DRAGMODE
 70
     2
  9
$LTSCALE
 40
360.0
  9
$OSMODE
 70
    37
  9
$ATTMODE
 70
     1
  9
$TEXTSIZE
 40
180.0
  9
$TRACEWID
 40
0.05
  9
$TEXTSTYLE
  7
STANDARD
  9
$CLAYER
  8
3
  9
$CELTYPE
  6
BYLAYER
  9
$CECOLOR
 62
   256
  9
$DIMSCALE
 40
60.0
  9
$DIMASZ
 40
2.0
  9
$DIMEXO
 40
0.5
  9
$DIMDLI
 40
10.0
  9
$DIMRND
 40
0.0
  9
$DIMDLE
 40
0.0
  9
$DIMEXE
 40
1.0
  9
$DIMTP
 40
1.0
  9
$DIMTM
 40
1.0
  9
$DIMTXT
 40
3.0
  9
$DIMCEN
 40
0.0
  9
$DIMTSZ
 40
0.0
  9
$DIMTOL
 70
     0
  9
$DIMLIM
 70
     0
  9
$DIMTIH
 70
     0
  9
$DIMTOH
 70
     0
  9
$DIMSE1
 70
     1
  9
$DIMSE2
 70
     1
  9
$DIMTAD
 70
     1
  9
$DIMZIN
 70
     8
  9
$DIMBLK
  1
OPEN30
  9
$DIMASO
 70
     1
  9
$DIMSHO
 70
     1
  9
$DIMPOST
  1
(<>)
  9
$DIMAPOST
  1

  9
$DIMALT
 70
     0
  9
$DIMALTD
 70
     2
  9
$DIMALTF
 40
0.039
  9
$DIMLFAC
 40
1.0
  9
$DIMTOFL
 70
     1
  9
$DIMTVP
 40
0.0
  9
$DIMTIX
 70
     0
  9
$DIMSOXD
 70
     0
  9
$DIMSAH
 70
     1
  9
$DIMBLK1
  1
NONE
  9
$DIMBLK2
  1
NONE
  9
$DIMSTYLE
  2
IGA
  9
$DIMCLRD
 70
     0
  9
$DIMCLRE
 70
     0
  9
$DIMCLRT
 70
     0
  9
$DIMTFAC
 40
10.0
  9
$DIMGAP
 40
1.0
  9
$LUNITS
 70
     2
  9
$LUPREC
 70
     3
  9
$SKETCHINC
 40
0.1
  9
$FILLETRAD
 40
50.0
  9
$AUNITS
 70
     0
  9
$AUPREC
 70
     0
  9
$MENU
  1
acad
  9
$ELEVATION
 40
0.0
  9
$PELEVATION
 40
0.0
  9
$THICKNESS
 40
0.0
  9
$LIMCHECK
 70
     0
  9
$BLIPMODE
 70
     0
  9
$CHAMFERA
 40
0.5
  9
$CHAMFERB
 40
0.5
  9
$SKPOLY
 70
     0
  9
$TDCREATE
 40
2453349.637759502
  9
$TDUPDATE
 40
2454953.680715601
  9
$TDINDWG
 40
0.2114344676
  9
$TDUSRTIMER
 40
0.21143375
  9
$USRTIMER
 70
     1
  9
$ANGBASE
 50
0.0
  9
$ANGDIR
 70
     0
  9
$PDMODE
 70
     0
  9
$PDSIZE
 40
0.0
  9
$PLINEWID
 40
0.0
  9
$COORDS
 70
     1
  9
$SPLFRAME
 70
     0
  9
$SPLINETYPE
 70
     6
  9
$SPLINESEGS
 70
     8
  9
$ATTDIA
 70
     0
  9
$ATTREQ
 70
     1
  9
$HANDLING
 70
 10241
  9
$HANDSEED
  5
9A45
  9
$SURFTAB1
 70
     6
  9
$SURFTAB2
 70
     6
  9
$SURFTYPE
 70
     6
  9
$SURFU
 70
     6
  9
$SURFV
 70
     6
  9
$UCSNAME
  2

  9
$UCSORG
 10
0.0
 20
0.0
 30
0.0
  9
$UCSXDIR
 10
1.0
 20
0.0
 30
0.0
  9
$UCSYDIR
 10
0.0
 20
1.0
 30
0.0
  9
$PUCSNAME
  2

  9
$PUCSORG
 10
0.0
 20
0.0
 30
0.0
  9
$PUCSXDIR
 10
1.0
 20
0.0
 30
0.0
  9
$PUCSYDIR
 10
0.0
 20
1.0
 30
0.0
  9
$USERI1
 70
     0
  9
$USERI2
 70
     0
  9
$USERI3
 70
     0
  9
$USERI4
 70
     0
  9
$USERI5
 70
     0
  9
$USERR1
 40
0.0
  9
$USERR2
 40
0.0
  9
$USERR3
 40
0.0
  9
$USERR4
 40
0.0
  9
$USERR5
 40
0.0
  9
$WORLDVIEW
 70
     1
  9
$SHADEDGE
 70
     3
  9
$SHADEDIF
 70
    70
  9
$TILEMODE
 70
     1
  9
$MAXACTVP
 70
    16
  9
$PLIMCHECK
 70
     0
  9
$PEXTMIN
 10
1.0000000000000000E+020
 20
1.0000000000000000E+020
 30
1.0000000000000000E+020
  9
$PEXTMAX
 10
-1.0000000000000000E+020
 20
-1.0000000000000000E+020
 30
-1.0000000000000000E+020
  9
$PLIMMIN
 10
0.0
 20
0.0
  9
$PLIMMAX
 10
12.0
 20
9.0
  9
$UNITMODE
 70
     0
  9
$VISRETAIN
 70
     0
  9
$PLINEGEN
 70
     0
  9
$PSLTSCALE
 70
     1
  0
ENDSEC
  0
SECTION
  2
TABLES
  0
TABLE
  2
VPORT
 70
     2
  0
VPORT
  2
*ACTIVE
 70
     0
 10
0.0
 20
0.0
 11
1.0
 21
1.0
 12
16816.930490632622
 22
1695.550343047445
 13
0.0
 23
0.0
 14
10.0
 24
10.0
 15
10.0
 25
10.0
 16
0.0
 26
0.0
 36
1.0
 17
0.0
 27
0.0
 37
0.0
 40
17838.47551234916
 41
3.1666666666666661
 42
50.0
 43
0.0
 44
0.0
 50
0.0
 51
0.0
 71
     0
 72
   100
 73
     1
 74
     0
 75
     0
 76
     0
 77
     0
 78
     0
  0
ENDTAB
  0
TABLE
  2
LTYPE
 70
     2
  0
LTYPE
  2
CONTINUOUS
 70
     0
  3
Solid line
 72
    65
 73
     0
 40
0.0
  0
LTYPE
  2
CENTER
 70
     0
  3
____ _ ____ _ ____ _ ____ _ ____ _ ____ _ ____ 
 72
    65
 73
     4
 40
2.0
 49
1.25
 49
-0.25
 49
0.25
 49
-0.25
  0
ENDTAB
  0
TABLE
  2
LAYER
 70
     6
  0
LAYER
  2
0
 70
     0
 62
     7
  6
CONTINUOUS
  0
LAYER
  2
1
 70
     0
 62
     4
  6
CONTINUOUS
  0
LAYER
  2
3
 70
     0
 62
     2
  6
CONTINUOUS
  0
LAYER
  2
2
 70
     0
 62
     3
  6
CENTER
  0
LAYER
  2
4
 70
     0
 62
     7
  6
CONTINUOUS
  0
LAYER
  2
DEFPOINTS
 70
     0
 62
     7
  6
CONTINUOUS
  0
ENDTAB
  0
TABLE
  2
STYLE
 70
     1
  0
STYLE
  2
STANDARD
 70
     0
 40
0.0
 41
1.0
 50
0.0
 71
     0
 42
180.0
  3
simplex.shx
  4
extfont.shx
  0
ENDTAB
  0
TABLE
  2
VIEW
 70
     0
  0
ENDTAB
  0
TABLE
  2
UCS
 70
     0
  0
ENDTAB
  0
TABLE
  2
APPID
 70
     1
  0
APPID
  2
ACAD
 70
     0
  0
ENDTAB
  0
TABLE
  2
DIMSTYLE
 70
     1
  0
DIMSTYLE
  2
IGA
 70
     0
  3

  4

  5

  6

  7

 40
2.0
 41
2.0
 42
0.5
 43
10.0
 44
1.0
 45
0.0
 46
0.0
 47
1.0
 48
1.0
140
3.0
141
0.0
142
0.0
143
0.03937
144
1.0
145
0.0
146
10.0
147
1.0
 71
     0
 72
     0
 73
     0
 74
     0
 75
     0
 76
     0
 77
     1
 78
     8
170
     0
171
     2
172
     0
173
     1
174
     0
175
     0
176
     0
177
     0
178
     0
  0
ENDTAB
  0
ENDSEC
  0
SECTION
  2
BLOCKS
  0
BLOCK
  8
0
  2
$MODEL_SPACE
 70
     0
 10
0.0
 20
0.0
 30
0.0
  3
$MODEL_SPACE
  1

  0
ENDBLK
  5
7D74
  8
0
  0
BLOCK
 67
     1
  8
0
  2
$PAPER_SPACE
 70
     0
 10
0.0
 20
0.0
 30
0.0
  3
$PAPER_SPACE
  1

  0
ENDBLK
  5
7D70
 67
     1
  8
0
  0
BLOCK
  8
0
  2
_OPEN30
 70
     0
 10
0.0
 20
0.0
 30
0.0
  3
_OPEN30
  1

  0
LINE
  5
7DAE
  8
1
 62
     0
 10
-1.0
 20
0.26794919
 30
0.0
 11
0.0
 21
0.0
 31
0.0
  0
LINE
  5
7DAF
  8
1
 62
     0
 10
0.0
 20
0.0
 30
0.0
 11
-1.0
 21
-0.26794919
 31
0.0
  0
LINE
  5
7DB0
  8
1
 62
     0
 10
0.0
 20
0.0
 30
0.0
 11
-1.0
 21
0.0
 31
0.0
  0
ENDBLK
  5
7DB1
  8
0
  0
BLOCK
  8
0
  2
*D1
 70
     1
 10
0.0
 20
0.0
 30
0.0
  3
*D1
  1

  0
LINE
  5
996E
  8
3
 62
     0
 10
6928.0871082668846
 20
-1026.4071789961779
 30
0.0
 11
7769.8980415944388
 21
-1026.407178996179
 31
0.0
  0
LINE
  5
996F
  8
3
 62
     0
 10
6922.0871082668846
 20
973.5928210038204
 30
0.0
 11
7769.8980415944388
 21
973.59282100382029
 31
0.0
  0
LINE
  5
9970
  8
3
 62
     0
 10
7709.8980415944388
 20
-906.4071789961788
 30
0.0
 11
7709.8980415944388
 21
853.59282100382029
 31
0.0
  0
INSERT
  5
9971
  8
3
 62
     0
  2
_OPEN30
 10
7709.8980415944388
 20
-1026.407178996179
 30
0.0
 41
120.0
 42
120.0
 43
120.0
 50
270.0
  0
INSERT
  5
9972
  8
3
 62
     0
  2
_OPEN30
 10
7709.8980415944388
 20
973.59282100382029
 30
0.0
 41
120.0
 42
120.0
 43
120.0
 50
90.0
  0
TEXT
  8
3
  40
180
  5
9A30
  62
0
  72
0
  71
0
 10
7199.90
 20
-345.007
 30
0.000000
  1
%%c2000
  0
POINT
  5
9974
  8
DEFPOINTS
 62
     0
 10
6898.0871082668837
 20
-1026.4071789961779
 30
0.0
  0
POINT
  5
9975
  8
DEFPOINTS
 62
     0
 10
6892.0871082668846
 20
973.5928210038204
 30
0.0
  0
POINT
  5
9976
  8
DEFPOINTS
 62
     0
 10
7709.8980415944388
 20
973.59282100382029
 30
0.0
  0
ENDBLK
  5
7E6D
  8
0
  0
BLOCK
  8
0
  2
*D2
 70
     1
 10
0.0
 20
0.0
 30
0.0
  3
*D2
  1

  0
LINE
  5
9977
  8
3
 62
     0
 10
1846.3722864185499
 20
-2174.407178996179
 30
0.0
 11
2613.6331102721169
 21
-2174.407178996179
 31
0.0
  0
LINE
  5
9978
  8
3
 62
     0
 10
1846.3722864185499
 20
-114.407178996179
 30
0.0
 11
2613.6331102721178
 21
-114.4071789961792
 31
0.0
  0
LINE
  5
9979
  8
3
 62
     0
 10
2553.6331102721169
 20
-2054.407178996179
 30
0.0
 11
2553.6331102721178
 21
-234.4071789961792
 31
0.0
  0
INSERT
  5
997A
  8
3
 62
     0
  2
_OPEN30
 10
2553.6331102721169
 20
-2174.407178996179
 30
0.0
 41
120.0
 42
120.0
 43
120.0
 50
270.0
  0
INSERT
  5
997B
  8
3
 62
     0
  2
_OPEN30
 10
2553.6331102721178
 20
-114.4071789961792
 30
0.0
 41
120.0
 42
120.0
 43
120.0
 50
90.0
  0
TEXT
  8
3
  40
180
  5
9A31
  62
0
  72
0
  71
0
 10
2043.63
 20
-1463.01
 30
0.000000
  1
2060
  0
POINT
  5
997D
  8
DEFPOINTS
 62
     0
 10
1816.3722864185511
 20
-2174.407178996179
 30
0.0
  0
POINT
  5
997E
  8
DEFPOINTS
 62
     0
 10
1816.3722864185511
 20
-114.407178996179
 30
0.0
  0
POINT
  5
997F
  8
DEFPOINTS
 62
     0
 10
2553.6331102721178
 20
-114.4071789961792
 30
0.0
  0
ENDBLK
  5
9881
  8
0
  0
BLOCK
  8
0
  2
*D3
 70
     1
 10
0.0
 20
0.0
 30
0.0
  3
*D3
  1

  0
LINE
  5
9980
  8
3
 62
     0
 10
1846.3722864185499
 20
-2174.407178996179
 30
0.0
 11
3070.956245187489
 21
-2174.407178996179
 31
0.0
  0
LINE
  5
9981
  8
3
 62
     0
 10
2153.1223615055751
 20
-26.407178996179042
 30
0.0
 11
3070.9562451874899
 21
-26.40717899617929
 31
0.0
  0
LINE
  5
9982
  8
3
 62
     0
 10
3010.956245187489
 20
-2054.407178996179
 30
0.0
 11
3010.9562451874899
 21
-146.4071789961792
 31
0.0
  0
INSERT
  5
9983
  8
3
 62
     0
  2
_OPEN30
 10
3010.956245187489
 20
-2174.407178996179
 30
0.0
 41
120.0
 42
120.0
 43
120.0
 50
270.0
  0
INSERT
  5
9984
  8
3
 62
     0
  2
_OPEN30
 10
3010.9562451874899
 20
-26.407178996179269
 30
0.0
 41
120.0
 42
120.0
 43
120.0
 50
90.0
  0
TEXT
  8
3
  40
180
  5
9A32
  62
0
  72
0
  71
0
 10
2500.96
 20
-1419.01
 30
0.000000
  1
2148
  0
POINT
  5
9986
  8
DEFPOINTS
 62
     0
 10
1816.3722864185511
 20
-2174.407178996179
 30
0.0
  0
POINT
  5
9987
  8
DEFPOINTS
 62
     0
 10
2123.1223615055751
 20
-26.40717899617902
 30
0.0
  0
POINT
  5
9988
  8
DEFPOINTS
 62
     0
 10
3010.9562451874899
 20
-26.407178996179269
 30
0.0
  0
ENDBLK
  5
9876
  8
0
  0
BLOCK
  8
0
  2
*D4
 70
     1
 10
0.0
 20
0.0
 30
0.0
  3
*D4
  1

  0
LINE
  5
9989
  8
3
 62
     0
 10
-638.62771358144892
 20
5639.7326331639633
 30
0.0
 11
-638.62771358144892
 21
6271.2875301007589
 31
0.0
  0
LINE
  5
998A
  8
3
 62
     0
 10
1721.3722864185499
 20
5639.7326331639633
 30
0.0
 11
1721.3722864185499
 21
6271.2875301007589
 31
0.0
  0
LINE
  5
998B
  8
3
 62
     0
 10
-518.62771358144892
 20
6211.2875301007589
 30
0.0
 11
1601.3722864185511
 21
6211.2875301007589
 31
0.0
  0
INSERT
  5
998C
  8
3
 62
     0
  2
_OPEN30
 10
-638.62771358144892
 20
6211.2875301007589
 30
0.0
 41
120.0
 42
120.0
 43
120.0
 50
180.0
  0
INSERT
  5
998D
  8
3
 62
     0
  2
_OPEN30
 10
1721.3722864185499
 20
6211.2875301007589
 30
0.0
 41
120.0
 42
120.0
 43
120.0
  0
TEXT
  8
3
  40
180
  5
9A33
  62
0
  72
0
  71
0
 10
181.372
 20
6042.69
 30
0.000000
  1
2360
  0
POINT
  5
998F
  8
DEFPOINTS
 62
     0
 10
-638.62771358144892
 20
5609.7326331639642
 30
0.0
  0
POINT
  5
9990
  8
DEFPOINTS
 62
     0
 10
1721.3722864185499
 20
5609.7326331639642
 30
0.0
  0
POINT
  5
9991
  8
DEFPOINTS
 62
     0
 10
1721.3722864185499
 20
6211.2875301007589
 30
0.0
  0
ENDBLK
  5
98A2
  8
0
  0
BLOCK
  8
0
  2
*D5
 70
     1
 10
0.0
 20
0.0
 30
0.0
  3
*D5
  1

  0
LINE
  5
9992
  8
3
 62
     0
 10
-638.62771358144892
 20
5639.7326331639633
 30
0.0
 11
-638.62771358144892
 21
6271.2875301007589
 31
0.0
  0
LINE
  5
9993
  8
3
 62
     0
 10
-1978.6277135814489
 20
4779.7326331639651
 30
0.0
 11
-1978.6277135814489
 21
6271.2875301007589
 31
0.0
  0
LINE
  5
9994
  8
3
 62
     0
 10
-758.62771358144892
 20
6211.2875301007589
 30
0.0
 11
-1858.6277135814489
 21
6211.2875301007589
 31
0.0
  0
INSERT
  5
9995
  8
3
 62
     0
  2
_OPEN30
 10
-638.62771358144892
 20
6211.2875301007589
 30
0.0
 41
120.0
 42
120.0
 43
120.0
  0
INSERT
  5
9996
  8
3
 62
     0
  2
_OPEN30
 10
-1978.6277135814489
 20
6211.2875301007589
 30
0.0
 41
120.0
 42
120.0
 43
120.0
 50
180.0
  0
TEXT
  8
3
  40
180
  5
9A34
  62
0
  72
0
  71
0
 10
-1668.63
 20
6042.69
 30
0.000000
  1
1340
  0
POINT
  5
9998
  8
DEFPOINTS
 62
     0
 10
-638.62771358144892
 20
5609.7326331639642
 30
0.0
  0
POINT
  5
9999
  8
DEFPOINTS
 62
     0
 10
-1978.6277135814489
 20
4749.7326331639651
 30
0.0
  0
POINT
  5
999A
  8
DEFPOINTS
 62
     0
 10
-1978.6277135814489
 20
6211.2875301007589
 30
0.0
  0
ENDBLK
  5
983F
  8
0
  0
BLOCK
  8
0
  2
*D6
 70
     1
 10
0.0
 20
0.0
 30
0.0
  3
*D6
  1

  0
LINE
  5
999B
  8
3
 62
     0
 10
-1978.6277135814489
 20
3519.7326331639651
 30
0.0
 11
-1978.6277135814489
 21
2679.315186575383
 31
0.0
  0
LINE
  5
999C
  8
3
 62
     0
 10
1721.3722864185499
 20
3519.7326331639651
 30
0.0
 11
1721.3722864185499
 21
2679.315186575383
 31
0.0
  0
LINE
  5
999D
  8
3
 62
     0
 10
-1858.6277135814489
 20
2739.3151865753821
 30
0.0
 11
1601.3722864185511
 21
2739.3151865753821
 31
0.0
  0
INSERT
  5
999E
  8
3
 62
     0
  2
_OPEN30
 10
-1978.6277135814489
 20
2739.3151865753821
 30
0.0
 41
120.0
 42
120.0
 43
120.0
 50
180.0
  0
INSERT
  5
999F
  8
3
 62
     0
  2
_OPEN30
 10
1721.3722864185499
 20
2739.3151865753821
 30
0.0
 41
120.0
 42
120.0
 43
120.0
  0
TEXT
  8
3
  40
180
  5
9A35
  62
0
  72
0
  71
0
 10
-488.628
 20
2570.72
 30
0.000000
  1
3700
  0
POINT
  5
99A1
  8
DEFPOINTS
 62
     0
 10
-1978.6277135814489
 20
3549.7326331639638
 30
0.0
  0
POINT
  5
99A2
  8
DEFPOINTS
 62
     0
 10
1721.3722864185499
 20
3549.7326331639638
 30
0.0
  0
POINT
  5
99A3
  8
DEFPOINTS
 62
     0
 10
1721.3722864185499
 20
2739.3151865753821
 30
0.0
  0
ENDBLK
  5
9834
  8
0
  0
BLOCK
  8
0
  2
*D7
 70
     1
 10
0.0
 20
0.0
 30
0.0
  3
*D7
  1

  0
LINE
  5
99A4
  8
3
 62
     0
 10
-2008.6277135814489
 20
4749.7326331639651
 30
0.0
 11
-2893.5693512694711
 21
4749.7326331639661
 31
0.0
  0
LINE
  5
99A5
  8
3
 62
     0
 10
-2008.6277135814489
 20
3549.7326331639638
 30
0.0
 11
-2893.5693512694711
 21
3549.7326331639638
 31
0.0
  0
LINE
  5
99A6
  8
3
 62
     0
 10
-2833.5693512694711
 20
4629.7326331639661
 30
0.0
 11
-2833.5693512694711
 21
3669.7326331639651
 31
0.0
  0
INSERT
  5
99A7
  8
3
 62
     0
  2
_OPEN30
 10
-2833.5693512694711
 20
4749.7326331639661
 30
0.0
 41
120.0
 42
120.0
 43
120.0
 50
90.0
  0
INSERT
  5
99A8
  8
3
 62
     0
  2
_OPEN30
 10
-2833.5693512694711
 20
3549.7326331639638
 30
0.0
 41
120.0
 42
120.0
 43
120.0
 50
270.0
  0
TEXT
  8
3
  40
180
  5
9A36
  62
0
  72
0
  71
0
 10
-3343.57
 20
3831.13
 30
0.000000
  1
1200
  0
POINT
  5
99AA
  8
DEFPOINTS
 62
     0
 10
-1978.6277135814489
 20
4749.7326331639651
 30
0.0
  0
POINT
  5
99AB
  8
DEFPOINTS
 62
     0
 10
-1978.6277135814489
 20
3549.7326331639638
 30
0.0
  0
POINT
  5
99AC
  8
DEFPOINTS
 62
     0
 10
-2833.5693512694711
 20
3549.7326331639638
 30
0.0
  0
ENDBLK
  5
98B8
  8
0
  0
BLOCK
  8
0
  2
*D8
 70
     1
 10
0.0
 20
0.0
 30
0.0
  3
*D8
  1

  0
LINE
  5
99AD
  8
3
 62
     0
 10
1751.3722864185511
 20
3549.7326331639638
 30
0.0
 11
2727.5913743188571
 21
3549.7326331639638
 31
0.0
  0
LINE
  5
99AE
  8
3
 62
     0
 10
1751.3722864185511
 20
5609.7326331639642
 30
0.0
 11
2727.5913743188571
 21
5609.7326331639633
 31
0.0
  0
LINE
  5
99AF
  8
3
 62
     0
 10
2667.5913743188571
 20
3669.7326331639651
 30
0.0
 11
2667.5913743188571
 21
5489.7326331639633
 31
0.0
  0
INSERT
  5
99B0
  8
3
 62
     0
  2
_OPEN30
 10
2667.5913743188571
 20
3549.7326331639638
 30
0.0
 41
120.0
 42
120.0
 43
120.0
 50
270.0
  0
INSERT
  5
99B1
  8
3
 62
     0
  2
_OPEN30
 10
2667.5913743188571
 20
5609.7326331639633
 30
0.0
 41
120.0
 42
120.0
 43
120.0
 50
90.0
  0
TEXT
  8
3
  40
180
  5
9A37
  62
0
  72
0
  71
0
 10
2157.59
 20
4261.13
 30
0.000000
  1
2060
  0
POINT
  5
99B3
  8
DEFPOINTS
 62
     0
 10
1721.3722864185499
 20
3549.7326331639638
 30
0.0
  0
POINT
  5
99B4
  8
DEFPOINTS
 62
     0
 10
1721.3722864185499
 20
5609.7326331639642
 30
0.0
  0
POINT
  5
99B5
  8
DEFPOINTS
 62
     0
 10
2667.5913743188571
 20
5609.7326331639633
 30
0.0
  0
ENDBLK
  5
9897
  8
0
  0
BLOCK
  8
0
  2
*D9
 70
     1
 10
0.0
 20
0.0
 30
0.0
  3
*D9
  1

  0
LINE
  5
99B6
  8
3
 62
     0
 10
-2008.6277135814489
 20
-2376.4071789961799
 30
0.0
 11
-2660.8318727492151
 21
-2376.4071789961799
 31
0.0
  0
LINE
  5
99B7
  8
3
 62
     0
 10
-2048.3776638422419
 20
-26.407178996179919
 30
0.0
 11
-2660.8318727492151
 21
-26.407178996179749
 31
0.0
  0
LINE
  5
99B8
  8
3
 62
     0
 10
-2600.8318727492151
 20
-2256.4071789961799
 30
0.0
 11
-2600.8318727492151
 21
-146.40717899617971
 31
0.0
  0
INSERT
  5
99B9
  8
3
 62
     0
  2
_OPEN30
 10
-2600.8318727492151
 20
-2376.4071789961799
 30
0.0
 41
120.0
 42
120.0
 43
120.0
 50
270.0
  0
INSERT
  5
99BA
  8
3
 62
     0
  2
_OPEN30
 10
-2600.8318727492151
 20
-26.407178996179759
 30
0.0
 41
120.0
 42
120.0
 43
120.0
 50
90.0
  0
TEXT
  8
3
  40
180
  5
9A38
  62
0
  72
0
  71
0
 10
-3110.83
 20
-1520.01
 30
0.000000
  1
2350
  0
POINT
  5
99BC
  8
DEFPOINTS
 62
     0
 10
-1978.6277135814489
 20
-2376.4071789961799
 30
0.0
  0
POINT
  5
99BD
  8
DEFPOINTS
 62
     0
 10
-2018.3776638422421
 20
-26.40717899617993
 30
0.0
  0
POINT
  5
99BE
  8
DEFPOINTS
 62
     0
 10
-2600.8318727492151
 20
-26.407178996179759
 30
0.0
  0
ENDBLK
  5
98AD
  8
0
  0
BLOCK
  8
0
  2
*D10
 70
     1
 10
0.0
 20
0.0
 30
0.0
  3
*D10
  1

  0
LINE
  5
99BF
  8
3
 62
     0
 10
2153.1223615055751
 20
-26.407178996179042
 30
0.0
 11
3070.956245187489
 21
-26.40717899617929
 31
0.0
  0
LINE
  5
99C0
  8
3
 62
     0
 10
448.87228641855148
 20
1415.5928210038201
 30
0.0
 11
3070.9562451874899
 21
1415.5928210038189
 31
0.0
  0
LINE
  5
99C1
  8
3
 62
     0
 10
3010.956245187489
 20
93.592821003820717
 30
0.0
 11
3010.9562451874899
 21
1295.5928210038189
 31
0.0
  0
INSERT
  5
99C2
  8
3
 62
     0
  2
_OPEN30
 10
3010.956245187489
 20
-26.407178996179269
 30
0.0
 41
120.0
 42
120.0
 43
120.0
 50
270.0
  0
INSERT
  5
99C3
  8
3
 62
     0
  2
_OPEN30
 10
3010.9562451874899
 20
1415.5928210038189
 30
0.0
 41
120.0
 42
120.0
 43
120.0
 50
90.0
  0
TEXT
  8
3
  40
180
  5
9A39
  62
0
  72
0
  71
0
 10
2500.96
 20
375.993
 30
0.000000
  1
1442
  0
POINT
  5
99C5
  8
DEFPOINTS
 62
     0
 10
2123.1223615055751
 20
-26.40717899617902
 30
0.0
  0
POINT
  5
99C6
  8
DEFPOINTS
 62
     0
 10
418.87228641855148
 20
1415.5928210038201
 30
0.0
  0
POINT
  5
99C7
  8
DEFPOINTS
 62
     0
 10
3010.9562451874899
 20
1415.5928210038189
 30
0.0
  0
ENDBLK
  5
986B
  8
0
  0
BLOCK
  8
0
  2
*D11
 70
     1
 10
0.0
 20
0.0
 30
0.0
  3
*D11
  1

  0
LINE
  5
99C8
  8
3
 62
     0
 10
5244.0871082668864
 20
1445.5928210038201
 30
0.0
 11
5244.0871082668864
 21
1910.7726709278941
 31
0.0
  0
LINE
  5
99C9
  8
3
 62
     0
 10
6744.0871082668864
 20
1445.5928210038201
 30
0.0
 11
6744.0871082668864
 21
1910.7726709278941
 31
0.0
  0
LINE
  5
99CA
  8
3
 62
     0
 10
5364.0871082668864
 20
1850.7726709278941
 30
0.0
 11
6624.0871082668864
 21
1850.7726709278941
 31
0.0
  0
INSERT
  5
99CB
  8
3
 62
     0
  2
_OPEN30
 10
5244.0871082668864
 20
1850.7726709278941
 30
0.0
 41
120.0
 42
120.0
 43
120.0
 50
180.0
  0
INSERT
  5
99CC
  8
3
 62
     0
  2
_OPEN30
 10
6744.0871082668864
 20
1850.7726709278941
 30
0.0
 41
120.0
 42
120.0
 43
120.0
  0
TEXT
  8
3
  40
180
  5
9A3A
  62
0
  72
0
  71
0
 10
5634.09
 20
1682.17
 30
0.000000
  1
1500
  0
POINT
  5
99CE
  8
DEFPOINTS
 62
     0
 10
5244.0871082668864
 20
1415.5928210038201
 30
0.0
  0
POINT
  5
99CF
  8
DEFPOINTS
 62
     0
 10
6744.0871082668864
 20
1415.5928210038201
 30
0.0
  0
POINT
  5
99D0
  8
DEFPOINTS
 62
     0
 10
6744.0871082668864
 20
1850.7726709278941
 30
0.0
  0
ENDBLK
  5
9408
  8
0
  0
BLOCK
  8
0
  2
*D12
 70
     1
 10
0.0
 20
0.0
 30
0.0
  3
*D12
  1

  0
LINE
  5
99D1
  8
3
 62
     0
 10
4744.0871082668837
 20
553.59282100381972
 30
0.0
 11
4744.0871082668837
 21
2453.1028432939202
 31
0.0
  0
LINE
  5
99D2
  8
3
 62
     0
 10
5994.0871082668846
 20
2416.6755532380039
 30
0.0
 11
5994.0871082668846
 21
2333.1028432939202
 31
0.0
  0
LINE
  5
99D3
  8
3
 62
     0
 10
4864.0871082668837
 20
2393.1028432939202
 30
0.0
 11
5874.0871082668837
 21
2393.1028432939202
 31
0.0
  0
INSERT
  5
99D4
  8
3
 62
     0
  2
_OPEN30
 10
4744.0871082668837
 20
2393.1028432939202
 30
0.0
 41
120.0
 42
120.0
 43
120.0
 50
180.0
  0
INSERT
  5
99D5
  8
3
 62
     0
  2
_OPEN30
 10
5994.0871082668846
 20
2393.1028432939202
 30
0.0
 41
120.0
 42
120.0
 43
120.0
  0
TEXT
  8
3
  40
180
  5
9A3B
  62
0
  72
0
  71
0
 10
5009.09
 20
2271.65
 30
0.000000
  1
(1250)
  0
POINT
  5
99D7
  8
DEFPOINTS
 62
     0
 10
4744.0871082668837
 20
523.59282100381961
 30
0.0
  0
POINT
  5
99D8
  8
DEFPOINTS
 62
     0
 10
5994.0871082668846
 20
2446.6755532380048
 30
0.0
  0
POINT
  5
99D9
  8
DEFPOINTS
 62
     0
 10
5994.0871082668846
 20
2393.1028432939202
 30
0.0
  0
ENDBLK
  5
9415
  8
0
  0
BLOCK
  8
0
  2
*D13
 70
     1
 10
0.0
 20
0.0
 30
0.0
  3
*D13
  1

  0
LINE
  5
99DA
  8
3
 62
     0
 10
5994.0871082668846
 20
2416.6755532380039
 30
0.0
 11
5994.0871082668846
 21
2333.1028432939202
 31
0.0
  0
LINE
  5
99DB
  8
3
 62
     0
 10
6898.0871082668837
 20
1078.5928210038201
 30
0.0
 11
6898.0871082668837
 21
2453.1028432939202
 31
0.0
  0
LINE
  5
99DC
  8
3
 62
     0
 10
6114.0871082668837
 20
2393.1028432939202
 30
0.0
 11
6778.0871082668837
 21
2393.1028432939202
 31
0.0
  0
INSERT
  5
99DD
  8
3
 62
     0
  2
_OPEN30
 10
5994.0871082668846
 20
2393.1028432939202
 30
0.0
 41
120.0
 42
120.0
 43
120.0
 50
180.0
  0
INSERT
  5
99DE
  8
3
 62
     0
  2
_OPEN30
 10
6898.0871082668837
 20
2393.1028432939202
 30
0.0
 41
120.0
 42
120.0
 43
120.0
  0
TEXT
  8
3
  40
180
  5
9A3C
  62
0
  72
0
  71
0
 10
6086.09
 20
2224.50
 30
0.000000
  1
904
  0
POINT
  5
99E0
  8
DEFPOINTS
 62
     0
 10
5994.0871082668846
 20
2446.6755532380048
 30
0.0
  0
POINT
  5
99E1
  8
DEFPOINTS
 62
     0
 10
6898.0871082668837
 20
1048.5928210038201
 30
0.0
  0
POINT
  5
99E2
  8
DEFPOINTS
 62
     0
 10
6898.0871082668837
 20
2393.1028432939202
 30
0.0
  0
ENDBLK
  5
9422
  8
0
  0
BLOCK
  8
0
  2
*D14
 70
     1
 10
0.0
 20
0.0
 30
0.0
  3
*D14
  1

  0
LINE
  5
99E3
  8
3
 62
     0
 10
1816.3722864185511
 20
-5.4071789961790273
 30
0.0
 11
1816.3722864185511
 21
2174.9056025187961
 31
0.0
  0
LINE
  5
99E4
  8
3
 62
     0
 10
541.37228641855097
 20
1773.7726949824389
 30
0.0
 11
541.37228641855097
 21
2174.9056025187961
 31
0.0
  0
LINE
  5
99E5
  8
3
 62
     0
 10
1696.3722864185511
 20
2114.9056025187961
 30
0.0
 11
661.37228641855097
 21
2114.9056025187961
 31
0.0
  0
INSERT
  5
99E6
  8
3
 62
     0
  2
_OPEN30
 10
1816.3722864185511
 20
2114.9056025187961
 30
0.0
 41
120.0
 42
120.0
 43
120.0
  0
INSERT
  5
99E7
  8
3
 62
     0
  2
_OPEN30
 10
541.37228641855097
 20
2114.9056025187961
 30
0.0
 41
120.0
 42
120.0
 43
120.0
 50
180.0
  0
TEXT
  8
3
  40
180
  5
9A3D
  62
0
  72
0
  71
0
 10
818.872
 20
1946.31
 30
0.000000
  1
1275
  0
POINT
  5
99E9
  8
DEFPOINTS
 62
     0
 10
1816.3722864185511
 20
-35.40717899617902
 30
0.0
  0
POINT
  5
99EA
  8
DEFPOINTS
 62
     0
 10
541.37228641855097
 20
1743.7726949824389
 30
0.0
  0
POINT
  5
99EB
  8
DEFPOINTS
 62
     0
 10
541.37228641855097
 20
2114.9056025187961
 30
0.0
  0
ENDBLK
  5
9860
  8
0
  0
BLOCK
  8
0
  2
_OPEN
 70
     0
 10
0.0
 20
0.0
 30
0.0
  3
_OPEN
  1

  0
LINE
  5
98CD
  8
0
  6
BYBLOCK
 62
     0
 10
-1.0
 20
0.1666666666666666
 30
0.0
 11
0.0
 21
0.0
 31
0.0
  0
LINE
  5
98CE
  8
0
  6
BYBLOCK
 62
     0
 10
0.0
 20
0.0
 30
0.0
 11
-1.0
 21
-0.1666666666666666
 31
0.0
  0
LINE
  5
98CF
  8
0
  6
BYBLOCK
 62
     0
 10
0.0
 20
0.0
 30
0.0
 11
-1.0
 21
0.0
 31
0.0
  0
ENDBLK
  5
98D0
  8
0
  0
BLOCK
  8
0
  2
*D16
 70
     1
 10
0.0
 20
0.0
 30
0.0
  3
*D16
  1

  0
LINE
  5
99EC
  8
3
 62
     0
 10
-1978.6277135814489
 20
-2606.4071789961799
 30
0.0
 11
-1978.6277135814489
 21
-3084.8986667188578
 31
0.0
  0
LINE
  5
99ED
  8
3
 62
     0
 10
541.37228641855097
 20
-2606.4071789961799
 30
0.0
 11
541.37228641855097
 21
-3084.8986667188578
 31
0.0
  0
LINE
  5
99EE
  8
3
 62
     0
 10
-1858.6277135814489
 20
-3024.8986667188578
 30
0.0
 11
421.37228641855108
 21
-3024.8986667188578
 31
0.0
  0
INSERT
  5
99EF
  8
3
 62
     0
  2
_OPEN
 10
-1978.6277135814489
 20
-3024.8986667188578
 30
0.0
 41
120.0
 42
120.0
 43
120.0
 50
180.0
  0
INSERT
  5
99F0
  8
3
 62
     0
  2
_OPEN
 10
541.37228641855097
 20
-3024.8986667188578
 30
0.0
 41
120.0
 42
120.0
 43
120.0
  0
TEXT
  8
3
  40
180
  5
9A3E
  62
0
  72
0
  71
0
 10
-1078.63
 20
-3193.50
 30
0.000000
  1
2520
  0
POINT
  5
99F2
  8
DEFPOINTS
 62
     0
 10
-1978.6277135814489
 20
-2576.4071789961799
 30
0.0
  0
POINT
  5
99F3
  8
DEFPOINTS
 62
     0
 10
541.37228641855097
 20
-2576.4071789961799
 30
0.0
  0
POINT
  5
99F4
  8
DEFPOINTS
 62
     0
 10
541.37228641855097
 20
-3024.8986667188578
 30
0.0
  0
ENDBLK
  5
98DC
  8
0
  0
BLOCK
  8
0
  2
*D17
 70
     1
 10
0.0
 20
0.0
 30
0.0
  3
*D17
  1

  0
LINE
  5
99F5
  8
3
 62
     0
 10
541.37228641855097
 20
-2606.4071789961799
 30
0.0
 11
541.37228641855097
 21
-3084.8986667188578
 31
0.0
  0
LINE
  5
99F6
  8
3
 62
     0
 10
1721.3722864185499
 20
-2606.4071789961799
 30
0.0
 11
1721.3722864185499
 21
-3084.8986667188578
 31
0.0
  0
LINE
  5
99F7
  8
3
 62
     0
 10
661.37228641855097
 20
-3024.8986667188578
 30
0.0
 11
1601.3722864185511
 21
-3024.8986667188578
 31
0.0
  0
INSERT
  5
99F8
  8
3
 62
     0
  2
_OPEN
 10
541.37228641855097
 20
-3024.8986667188578
 30
0.0
 41
120.0
 42
120.0
 43
120.0
 50
180.0
  0
INSERT
  5
99F9
  8
3
 62
     0
  2
_OPEN
 10
1721.3722864185499
 20
-3024.8986667188578
 30
0.0
 41
120.0
 42
120.0
 43
120.0
  0
TEXT
  8
3
  40
180
  5
9A3F
  62
0
  72
0
  71
0
 10
771.372
 20
-3193.50
 30
0.000000
  1
1180
  0
POINT
  5
99FB
  8
DEFPOINTS
 62
     0
 10
541.37228641855097
 20
-2576.4071789961799
 30
0.0
  0
POINT
  5
99FC
  8
DEFPOINTS
 62
     0
 10
1721.3722864185499
 20
-2576.4071789961799
 30
0.0
  0
POINT
  5
99FD
  8
DEFPOINTS
 62
     0
 10
1721.3722864185499
 20
-3024.8986667188578
 30
0.0
  0
ENDBLK
  5
98E9
  8
0
  0
BLOCK
  8
0
  2
*D18
 70
     1
 10
0.0
 20
0.0
 30
0.0
  3
*D18
  1

  0
LINE
  5
99FE
  8
3
 62
     0
 10
-1978.6277135814489
 20
-2606.4071789961799
 30
0.0
 11
-1978.6277135814489
 21
-3531.6879418256349
 31
0.0
  0
LINE
  5
99FF
  8
3
 62
     0
 10
1721.3722864185499
 20
-2606.4071789961799
 30
0.0
 11
1721.3722864185499
 21
-3531.6879418256349
 31
0.0
  0
LINE
  5
9A00
  8
3
 62
     0
 10
-1858.6277135814489
 20
-3471.6879418256358
 30
0.0
 11
1601.3722864185511
 21
-3471.6879418256358
 31
0.0
  0
INSERT
  5
9A01
  8
3
 62
     0
  2
_OPEN
 10
-1978.6277135814489
 20
-3471.6879418256358
 30
0.0
 41
120.0
 42
120.0
 43
120.0
 50
180.0
  0
INSERT
  5
9A02
  8
3
 62
     0
  2
_OPEN
 10
1721.3722864185499
 20
-3471.6879418256358
 30
0.0
 41
120.0
 42
120.0
 43
120.0
  0
TEXT
  8
3
  40
180
  5
9A40
  62
0
  72
0
  71
0
 10
-488.628
 20
-3640.29
 30
0.000000
  1
3700
  0
POINT
  5
9A04
  8
DEFPOINTS
 62
     0
 10
-1978.6277135814489
 20
-2576.4071789961799
 30
0.0
  0
POINT
  5
9A05
  8
DEFPOINTS
 62
     0
 10
1721.3722864185499
 20
-2576.4071789961799
 30
0.0
  0
POINT
  5
9A06
  8
DEFPOINTS
 62
     0
 10
1721.3722864185499
 20
-3471.6879418256358
 30
0.0
  0
ENDBLK
  5
98F6
  8
0
  0
BLOCK
  8
0
  2
*D19
 70
     1
 10
0.0
 20
0.0
 30
0.0
  3
*D19
  1

  0
LINE
  5
9A07
  8
3
 62
     0
 10
4763.0871082668837
 20
-2606.4071789961799
 30
0.0
 11
4763.0871082668837
 21
-3084.8986667188578
 31
0.0
  0
LINE
  5
9A08
  8
3
 62
     0
 10
5994.0871082668828
 20
-2606.407178996179
 30
0.0
 11
5994.0871082668828
 21
-3084.8986667188578
 31
0.0
  0
LINE
  5
9A09
  8
3
 62
     0
 10
4883.0871082668837
 20
-3024.8986667188578
 30
0.0
 11
5874.0871082668837
 21
-3024.8986667188578
 31
0.0
  0
INSERT
  5
9A0A
  8
3
 62
     0
  2
_OPEN
 10
4763.0871082668837
 20
-3024.8986667188578
 30
0.0
 41
120.0
 42
120.0
 43
120.0
 50
180.0
  0
INSERT
  5
9A0B
  8
3
 62
     0
  2
_OPEN
 10
5994.0871082668828
 20
-3024.8986667188578
 30
0.0
 41
120.0
 42
120.0
 43
120.0
  0
TEXT
  8
3
  40
180
  5
9A41
  62
0
  72
0
  71
0
 10
5018.59
 20
-3193.50
 30
0.000000
  1
1231
  0
POINT
  5
9A0D
  8
DEFPOINTS
 62
     0
 10
4763.0871082668837
 20
-2576.4071789961799
 30
0.0
  0
POINT
  5
9A0E
  8
DEFPOINTS
 62
     0
 10
5994.0871082668828
 20
-2576.407178996179
 30
0.0
  0
POINT
  5
9A0F
  8
DEFPOINTS
 62
     0
 10
5994.0871082668828
 20
-3024.8986667188578
 30
0.0
  0
ENDBLK
  5
9903
  8
0
  0
BLOCK
  8
0
  2
*D20
 70
     1
 10
0.0
 20
0.0
 30
0.0
  3
*D20
  1

  0
LINE
  5
9A10
  8
3
 62
     0
 10
5994.0871082668828
 20
-2606.407178996179
 30
0.0
 11
5994.0871082668828
 21
-3084.8986667188578
 31
0.0
  0
LINE
  5
9A11
  8
3
 62
     0
 10
6823.0871082668873
 20
-2606.4071789961799
 30
0.0
 11
6823.0871082668873
 21
-3084.8986667188578
 31
0.0
  0
LINE
  5
9A12
  8
3
 62
     0
 10
6114.0871082668828
 20
-3024.8986667188578
 30
0.0
 11
6703.0871082668873
 21
-3024.8986667188578
 31
0.0
  0
INSERT
  5
9A13
  8
3
 62
     0
  2
_OPEN
 10
5994.0871082668828
 20
-3024.8986667188578
 30
0.0
 41
120.0
 42
120.0
 43
120.0
 50
180.0
  0
INSERT
  5
9A14
  8
3
 62
     0
  2
_OPEN
 10
6823.0871082668873
 20
-3024.8986667188578
 30
0.0
 41
120.0
 42
120.0
 43
120.0
  0
TEXT
  8
3
  40
180
  5
9A42
  62
0
  72
0
  71
0
 10
6048.59
 20
-3193.50
 30
0.000000
  1
829
  0
POINT
  5
9A16
  8
DEFPOINTS
 62
     0
 10
5994.0871082668828
 20
-2576.407178996179
 30
0.0
  0
POINT
  5
9A17
  8
DEFPOINTS
 62
     0
 10
6823.0871082668873
 20
-2576.4071789961799
 30
0.0
  0
POINT
  5
9A18
  8
DEFPOINTS
 62
     0
 10
6823.0871082668873
 20
-3024.8986667188578
 30
0.0
  0
ENDBLK
  5
9910
  8
0
  0
BLOCK
  8
0
  2
*D21
 70
     1
 10
0.0
 20
0.0
 30
0.0
  3
*D21
  1

  0
LINE
  5
9A19
  8
3
 62
     0
 10
4763.0871082668837
 20
-2606.4071789961799
 30
0.0
 11
4763.0871082668837
 21
-3531.6879418256349
 31
0.0
  0
LINE
  5
9A1A
  8
3
 62
     0
 10
6823.0871082668873
 20
-2606.4071789961799
 30
0.0
 11
6823.0871082668873
 21
-3531.6879418256349
 31
0.0
  0
LINE
  5
9A1B
  8
3
 62
     0
 10
4883.0871082668837
 20
-3471.6879418256358
 30
0.0
 11
6703.0871082668873
 21
-3471.6879418256358
 31
0.0
  0
INSERT
  5
9A1C
  8
3
 62
     0
  2
_OPEN
 10
4763.0871082668837
 20
-3471.6879418256358
 30
0.0
 41
120.0
 42
120.0
 43
120.0
 50
180.0
  0
INSERT
  5
9A1D
  8
3
 62
     0
  2
_OPEN
 10
6823.0871082668873
 20
-3471.6879418256358
 30
0.0
 41
120.0
 42
120.0
 43
120.0
  0
TEXT
  8
3
  40
180
  5
9A43
  62
0
  72
0
  71
0
 10
5433.09
 20
-3640.29
 30
0.000000
  1
2060
  0
POINT
  5
9A1F
  8
DEFPOINTS
 62
     0
 10
4763.0871082668837
 20
-2576.4071789961799
 30
0.0
  0
POINT
  5
9A20
  8
DEFPOINTS
 62
     0
 10
6823.0871082668873
 20
-2576.4071789961799
 30
0.0
  0
POINT
  5
9A21
  8
DEFPOINTS
 62
     0
 10
6823.0871082668873
 20
-3471.6879418256358
 30
0.0
  0
ENDBLK
  5
991D
  8
0
  0
BLOCK
  8
0
  2
_DOT
 70
     0
 10
0.0
 20
0.0
 30
0.0
  3
_DOT
  1

  0
POLYLINE
  5
9921
  8
0
  6
BYBLOCK
 62
     0
 66
     1
 10
0.0
 20
0.0
 30
0.0
 70
     1
 40
0.5
 41
0.5
  0
VERTEX
  5
9A22
  8
0
  6
BYBLOCK
 62
     0
 10
-0.25
 20
0.0
 30
0.0
 42
1.0
  0
VERTEX
  5
9A23
  8
0
  6
BYBLOCK
 62
     0
 10
0.25
 20
0.0
 30
0.0
 42
1.0
  0
SEQEND
  5
9A24
  8
0
  6
BYBLOCK
 62
     0
  0
LINE
  5
9925
  8
0
  6
BYBLOCK
 62
     0
 10
-0.5
 20
0.0
 30
0.0
 11
-1.0
 21
0.0
 31
0.0
  0
ENDBLK
  5
9926
  8
0
  0
BLOCK
  8
0
  2
*D23
 70
     1
 10
0.0
 20
0.0
 30
0.0
  3
*D23
  1

  0
LINE
  5
9A25
  8
3
 62
     0
 10
-2008.6277135814489
 20
-2396.4071789961799
 30
0.0
 11
-2655.9687516679551
 21
-2396.4071789961799
 31
0.0
  0
LINE
  5
9A26
  8
3
 62
     0
 10
-2008.6277135814489
 20
-2576.4071789961799
 30
0.0
 11
-2655.9687516679551
 21
-2576.4071789961799
 31
0.0
  0
LINE
  5
9A27
  8
3
 62
     0
 10
-2595.9687516679551
 20
-2276.407178996179
 30
0.0
 11
-2595.9687516679551
 21
-2156.4071789961799
 31
0.0
  0
LINE
  5
9A28
  8
3
 62
     0
 10
-2595.9687516679551
 20
-2696.4071789961799
 30
0.0
 11
-2595.9687516679551
 21
-3364.9786075676079
 31
0.0
  0
LINE
  5
9A29
  8
3
 62
     0
 10
-2595.9687516679551
 20
-2396.4071789961799
 30
0.0
 11
-2595.9687516679551
 21
-2576.4071789961799
 31
0.0
  0
INSERT
  5
9A2A
  8
3
 62
     0
  2
_DOT
 10
-2595.9687516679551
 20
-2396.4071789961799
 30
0.0
 41
120.0
 42
120.0
 43
120.0
 50
270.0
  0
INSERT
  5
9A2B
  8
3
 62
     0
  2
_OPEN
 10
-2595.9687516679551
 20
-2576.4071789961799
 30
0.0
 41
120.0
 42
120.0
 43
120.0
 50
90.0
  0
TEXT
  8
3
  40
180
  5
9A44
  62
0
  72
0
  71
0
 10
-3105.97
 20
-3409.29
 30
0.000000
  1
180
  0
POINT
  5
9A2D
  8
DEFPOINTS
 62
     0
 10
-1978.6277135814489
 20
-2396.4071789961799
 30
0.0
  0
POINT
  5
9A2E
  8
DEFPOINTS
 62
     0
 10
-1978.6277135814489
 20
-2576.4071789961799
 30
0.0
  0
POINT
  5
9A2F
  8
DEFPOINTS
 62
     0
 10
-2595.9687516679551
 20
-2576.4071789961799
 30
0.0
  0
ENDBLK
  5
9934
  8
0
  0
BLOCK
  8
0
  2
_NONE
 70
     0
 10
0.0
 20
0.0
 30
0.0
  3
_NONE
  1

  0
CIRCLE
  5
9938
  8
0
  6
BYBLOCK
 62
     0
 10
0.0
 20
0.0
 30
0.0
 40
0.25
  0
ENDBLK
  5
9939
  8
0
  0
BLOCK
  8
0
  2
*D25
 70
     1
 10
0.0
 20
0.0
 30
0.0
  3
*D25
  1

  0
LINE
  5
993C
  8
0
  6
BYBLOCK
 62
     0
 10
-2597.2407038772649
 20
-2396.4071789961799
 30
0.0
 11
-2597.2407038772649
 21
-2396.4071789961799
 31
0.0
  0
LINE
  5
993D
  8
0
  6
BYBLOCK
 62
     0
 10
-2597.2407038772649
 20
-2376.4071789961799
 30
0.0
 11
-2597.2407038772649
 21
-2136.407178996179
 31
0.0
  0
TEXT
  5
993E
  8
3
 62
     0
 10
-2824.3835610201222
 20
-2647.835750424751
 30
0.0
 40
180.0
  1
(20)
 50
90.0
  0
LINE
  5
993F
  8
0
  6
BYBLOCK
 62
     0
 10
-2597.2407038772649
 20
-2396.4071789961799
 30
0.0
 11
-2597.2407038772649
 21
-2376.4071789961799
 31
0.0
  0
POINT
  5
9940
  8
DEFPOINTS
  6
BYBLOCK
 62
     0
 10
-1978.6277135814489
 20
-2396.4071789961799
 30
0.0
  0
POINT
  5
9941
  8
DEFPOINTS
  6
BYBLOCK
 62
     0
 10
-1978.6277135814489
 20
-2376.4071789961799
 30
0.0
  0
POINT
  5
9942
  8
DEFPOINTS
  6
BYBLOCK
 62
     0
 10
-2597.2407038772649
 20
-2376.4071789961799
 30
0.0
  0
ENDBLK
  5
9943
  8
0
  0
ENDSEC
  0
SECTION
  2
ENTITIES
  0
LINE
  5
7DB2
  8
2
 10
541.37228641855097
 20
1743.7726949824389
 30
0.0
 11
541.37228641855097
 21
-2576.4071789961799
 31
0.0
  0
LINE
  5
7DB3
  8
1
 10
-1256.8360353349301
 20
-26.40717899617993
 30
0.0
 11
341.37228641855108
 21
-26.40717899617993
 31
0.0
  0
ARC
  5
7DB4
  8
1
 10
688.37228641855108
 20
-173.40717899617991
 30
0.0
 40
1883.0
 50
180.0
 51
264.47064431075307
  0
ARC
  5
7DB5
  8
1
 10
394.37228641855103
 20
-173.40717899617991
 30
0.0
 40
1589.0
 50
89.999999999999986
 51
180.0
  0
ARC
  5
7DB6
  8
1
 10
418.87228641855103
 20
96.092821003820063
 30
0.0
 40
1319.5
 50
0.0
 51
89.999999999999986
  0
ARC
  5
7DB7
  8
1
 10
663.87228641855108
 20
96.092821003820063
 30
0.0
 40
1074.5
 50
348.70239976940201
 51
0.0
  0
LINE
  5
7DB8
  8
1
 10
1816.3722864185511
 20
-2253.4071789961781
 30
0.0
 11
1816.3722864185511
 21
-35.40717899617902
 31
0.0
  0
LINE
  5
7DB9
  8
1
 10
1816.3722864185511
 20
-2174.407178996179
 30
0.0
 11
506.93443821222172
 21
-2047.645506220937
 31
0.0
  0
LINE
  5
7DBA
  8
1
 10
1717.551554507279
 20
-114.407178996179
 30
0.0
 11
1816.3722864185511
 21
-114.407178996179
 31
0.0
  0
LINE
  5
7DBB
  8
1
 10
394.37228641855103
 20
1415.5928210038201
 30
0.0
 11
418.87228641855103
 21
1415.5928210038201
 31
0.0
  0
LINE
  5
7DBC
  8
1
 10
-1978.6277135814489
 20
-2376.4071789961799
 30
0.0
 11
1721.3722864185499
 21
-2376.4071789961799
 31
0.0
  0
LINE
  5
7DBD
  8
1
 10
-1978.6277135814489
 20
-2196.407178996179
 30
0.0
 11
1721.3722864185499
 21
-2196.407178996179
 31
0.0
  0
LINE
  5
7DBE
  8
1
 10
1721.3722864185499
 20
-2376.4071789961799
 30
0.0
 11
1721.3722864185499
 21
-2196.407178996179
 31
0.0
  0
LINE
  5
7DBF
  8
1
 10
-1978.6277135814489
 20
-2376.4071789961799
 30
0.0
 11
-1978.6277135814489
 21
-2196.407178996179
 31
0.0
  0
LINE
  5
7DC0
  8
2
 10
2104.6318197107898
 20
-1144.407178996179
 30
0.0
 11
1222.814845696646
 21
-1144.4071789961799
 31
0.0
  0
LINE
  5
7DC1
  8
1
 10
1741.3722864185511
 20
-2253.4071789961781
 30
0.0
 11
1741.3722864185511
 21
-35.40717899617902
 31
0.0
  0
LINE
  5
7DC2
  8
1
 10
1816.3722864185511
 20
-2253.4071789961781
 30
0.0
 11
1741.3722864185511
 21
-2253.4071789961781
 31
0.0
  0
LINE
  5
7DC3
  8
1
 10
1816.3722864185511
 20
-35.40717899617902
 30
0.0
 11
1741.3722864185511
 21
-35.40717899617902
 31
0.0
  0
LINE
  5
7DC4
  8
1
 10
1810.3722864185511
 20
-2253.4071789961781
 30
0.0
 11
1810.3722864185511
 21
-35.40717899617902
 31
0.0
  0
LINE
  5
7DC5
  8
2
 10
4433.3930178519813
 20
-26.40717899617993
 30
0.0
 11
7203.276995249239
 21
-26.40717899617902
 31
0.0
  0
LINE
  5
7DC6
  8
2
 10
5994.0871082668846
 20
2446.6755532380048
 30
0.0
 11
5994.0871082668846
 21
2139.8796680259829
 31
0.0
  0
LINE
  5
7DC7
  8
1
 10
4763.0871082668837
 20
-2376.4071789961799
 30
0.0
 11
6823.0871082668837
 21
-2376.4071789961799
 31
0.0
  0
LINE
  5
7DC8
  8
1
 10
4763.0871082668837
 20
-2196.407178996179
 30
0.0
 11
5165.0871082668837
 21
-2196.4071789961799
 31
0.0
  0
LINE
  5
7DC9
  8
1
 10
6823.0871082668873
 20
-2376.4071789961799
 30
0.0
 11
6823.0871082668837
 21
-2196.407178996179
 31
0.0
  0
LINE
  5
7DCA
  8
1
 10
4763.0871082668837
 20
-2376.4071789961799
 30
0.0
 11
4763.0871082668837
 21
-2196.407178996179
 31
0.0
  0
LINE
  5
7DD4
  8
1
 10
6744.0871082668864
 20
1415.5928210038201
 30
0.0
 11
6744.0871082668846
 21
-35.407178996178857
 31
0.0
  0
LINE
  5
7DD5
  8
1
 10
5244.0871082668864
 20
1415.5928210038201
 30
0.0
 11
5244.0871082668846
 21
-35.40717899617912
 31
0.0
  0
LINE
  5
7DDA
  8
1
 10
6898.0871082668837
 20
1048.5928210038201
 30
0.0
 11
6898.0871082668837
 21
-1101.4071789961779
 31
0.0
  0
LINE
  5
7DDB
  8
1
 10
6744.0871082668846
 20
-1026.4071789961779
 30
0.0
 11
6898.0871082668837
 21
-1026.407178996179
 31
0.0
  0
LINE
  5
7DDC
  8
1
 10
6744.0871082668846
 20
973.59282100382006
 30
0.0
 11
6898.0871082668837
 21
973.59282100382006
 31
0.0
  0
LINE
  5
7DDD
  8
1
 10
6892.0871082668846
 20
-1101.4071789961779
 30
0.0
 11
6898.0871082668837
 21
-1101.407178996179
 31
0.0
  0
LINE
  5
7DDE
  8
1
 10
6892.0871082668846
 20
1048.5928210038201
 30
0.0
 11
6898.0871082668837
 21
1048.5928210038201
 31
0.0
  0
LINE
  5
7DDF
  8
1
 10
6892.0871082668846
 20
1048.5928210038201
 30
0.0
 11
6892.0871082668846
 21
-1101.4071789961779
 31
0.0
  0
CIRCLE
  5
7DED
  8
1
 10
541.37228641855097
 20
-26.40717899617993
 30
0.0
 40
400.0
  0
ARC
  5
7DF0
  8
1
 10
541.37228641855097
 20
-26.40717899617993
 30
0.0
 40
550.0
 50
304.93150719236149
 51
136.0481416026133
  0
LINE
  5
7DF4
  8
1
 10
4824.5064816308659
 20
373.59282100382012
 30
0.0
 11
5004.506481630865
 21
373.59282100382012
 31
0.0
  0
LINE
  5
7DF5
  8
1
 10
4824.5064816308659
 20
-426.40717899617982
 30
0.0
 11
5004.506481630865
 21
-426.40717899617982
 31
0.0
  0
LINE
  5
7DF6
  8
1
 10
4744.0871082668837
 20
523.59282100381961
 30
0.0
 11
5104.0871082668864
 21
523.59282100381961
 31
0.0
  0
LINE
  5
7DF7
  8
2
 10
4597.2378386882738
 20
-1836.4071789961799
 30
0.0
 11
5448.1738968458412
 21
-1836.4071789961799
 31
0.0
  0
LINE
  5
7DF8
  8
1
 10
4824.5064816308659
 20
-1686.407178996179
 30
0.0
 11
5004.506481630865
 21
-1686.407178996179
 31
0.0
  0
LINE
  5
7DF9
  8
1
 10
4824.5064816308659
 20
-1986.407178996179
 30
0.0
 11
5004.506481630865
 21
-1986.407178996179
 31
0.0
  0
LINE
  5
7DFA
  8
1
 10
4744.0871082668837
 20
-2116.407178996179
 30
0.0
 11
5104.0871082668846
 21
-2116.4071789961781
 31
0.0
  0
LINE
  5
7DFB
  8
1
 10
4744.0871082668828
 20
-2116.407178996179
 30
0.0
 11
4744.0871082668837
 21
523.59282100381961
 31
0.0
  0
LINE
  5
7DFC
  8
1
 10
5104.0871082668864
 20
-2116.407178996179
 30
0.0
 11
5104.0871082668864
 21
-2057.2147325337701
 31
0.0
  0
LINE
  5
7DFD
  8
1
 10
5104.0871082668846
 20
231.29237531063879
 30
0.0
 11
5104.0871082668846
 21
523.59282100381961
 31
0.0
  0
LINE
  5
7DFE
  8
1
 10
4824.5064816308659
 20
373.59282100382012
 30
0.0
 11
4824.506481630865
 21
-1986.407178996179
 31
0.0
  0
LINE
  5
7DFF
  8
1
 10
5004.506481630865
 20
373.59282100382012
 30
0.0
 11
5004.5064816308641
 21
-1986.407178996179
 31
0.0
  0
LINE
  5
7E00
  8
2
 10
-1362.671424399027
 20
4780.7326331639651
 30
0.0
 11
2055.860676386204
 21
4780.7326331639651
 31
0.0
  0
LINE
  5
7E01
  8
2
 10
541.37228641855097
 20
3337.505352115847
 30
0.0
 11
541.37228641855097
 21
5820.1555871955443
 31
0.0
  0
LINE
  5
7E02
  8
1
 10
-638.62771358144892
 20
5609.7326331639661
 30
0.0
 11
-548.6277135814488
 21
5609.7326331639661
 31
0.0
  0
LINE
  5
7E03
  8
1
 10
-1978.6277135814489
 20
3549.7326331639638
 30
0.0
 11
-1861.5368425830841
 21
3549.7326331639651
 31
0.0
  0
LINE
  5
7E04
  8
1
 10
1721.3722864185499
 20
3549.7326331639638
 30
0.0
 11
1721.3722864185499
 21
4030.7326331639638
 31
0.0
  0
LINE
  5
7E05
  8
1
 10
-1978.6277135814489
 20
3549.7326331639638
 30
0.0
 11
-1978.6277135814489
 21
3624.7326331639651
 31
0.0
  0
LINE
  5
7E06
  8
1
 10
-638.62771358144892
 20
3890.7326331639638
 30
0.0
 11
-638.62771358144892
 21
4030.7326331639651
 31
0.0
  0
LINE
  5
7E07
  8
1
 10
-1978.6277135814489
 20
4749.7326331639651
 30
0.0
 11
-1194.627713581448
 21
4749.7326331639688
 31
0.0
  0
LINE
  5
7E08
  8
1
 10
-1978.6277135814489
 20
3624.7326331639651
 30
0.0
 11
-1861.5368425830841
 21
3624.7326331639651
 31
0.0
  0
LINE
  5
7E09
  8
1
 10
-1978.6277135814489
 20
4674.7326331639661
 30
0.0
 11
-1889.592778215336
 21
4674.7326331639661
 31
0.0
  0
LINE
  5
7E0A
  8
1
 10
-563.62771358144892
 20
3890.7326331639638
 30
0.0
 11
-563.62771358144892
 21
4030.7326331639651
 31
0.0
  0
LINE
  5
7E0B
  8
1
 10
1646.3722864185511
 20
3624.7326331639651
 30
0.0
 11
1646.3722864185511
 21
4030.7326331639629
 31
0.0
  0
LINE
  5
7E0C
  8
1
 10
-1978.6277135814489
 20
4674.7326331639661
 30
0.0
 11
-1978.6277135814489
 21
4749.7326331639651
 31
0.0
  0
LINE
  5
7E12
  8
2
 10
341.37228641855108
 20
-26.40717899617993
 30
0.0
 11
2123.1223615055751
 21
-26.40717899617993
 31
0.0
  0
LINE
  5
7E13
  8
1
 10
-1256.8360353349301
 20
-35.40717899617993
 30
0.0
 11
341.37228641855108
 21
-35.40717899617993
 31
0.0
  0
LINE
  5
7E14
  8
1
 10
-1256.8360353349301
 20
-17.40717899617993
 30
0.0
 11
341.37228641855108
 21
-17.40717899617993
 31
0.0
  0
LINE
  5
7E19
  8
1
 10
-1194.627713581448
 20
5530.7326331639642
 30
0.0
 11
1816.3722864185511
 21
5530.7326331639642
 31
0.0
  0
LINE
  5
7E1A
  8
1
 10
-1194.627713581448
 20
4030.7326331639651
 30
0.0
 11
1816.3722864185511
 21
4030.7326331639638
 31
0.0
  0
LINE
  5
7E1D
  8
1
 10
-638.62771358144892
 20
5609.7326331639642
 30
0.0
 11
-458.62771358144892
 21
5609.7326331639642
 31
0.0
  0
LINE
  5
7E22
  8
1
 10
1541.3722864185511
 20
5609.7326331639633
 30
0.0
 11
1721.3722864185499
 21
5609.7326331639642
 31
0.0
  0
LINE
  5
7E24
  8
1
 10
-533.62771358144892
 20
5684.7326331639642
 30
0.0
 11
1616.3722864185511
 21
5684.7326331639642
 31
0.0
  0
LINE
  5
7E25
  8
1
 10
1541.3722864185511
 20
5530.7326331639642
 30
0.0
 11
1541.3722864185511
 21
5684.7326331639651
 31
0.0
  0
LINE
  5
7E26
  8
1
 10
-458.62771358144892
 20
5530.7326331639642
 30
0.0
 11
-458.62771358144892
 21
5684.7326331639651
 31
0.0
  0
LINE
  5
7E27
  8
1
 10
-533.62771358144892
 20
5678.7326331639651
 30
0.0
 11
1616.3722864185511
 21
5678.7326331639642
 31
0.0
  0
LINE
  5
7E28
  8
1
 10
1616.3722864185511
 20
5678.7326331639642
 30
0.0
 11
1616.3722864185511
 21
5684.7326331639651
 31
0.0
  0
LINE
  5
7E29
  8
1
 10
-533.62771358144892
 20
5678.7326331639651
 30
0.0
 11
-533.62771358144892
 21
5684.7326331639651
 31
0.0
  0
LINE
  5
7E2B
  8
1
 10
-1861.5368425830841
 20
3530.7326331639651
 30
0.0
 11
1091.3722864185511
 21
3530.7326331639651
 31
0.0
  0
LINE
  5
7E2C
  8
1
 10
1091.3722864185511
 20
3530.7326331639651
 30
0.0
 11
1091.3722864185511
 21
3890.7326331639638
 31
0.0
  0
LINE
  5
7E2D
  8
1
 10
-1861.5368425830841
 20
3530.7326331639651
 30
0.0
 11
-1861.5368425830841
 21
3890.7326331639638
 31
0.0
  0
LINE
  5
7E2E
  8
1
 10
-1861.5368425830841
 20
3890.7326331639651
 30
0.0
 11
1091.3722864185511
 21
3890.7326331639638
 31
0.0
  0
LINE
  5
7E2F
  8
1
 10
941.37228641855097
 20
3610.7326331639638
 30
0.0
 11
941.37228641855097
 21
3790.7326331639638
 31
0.0
  0
LINE
  5
7E30
  8
1
 10
141.372286418551
 20
3610.7326331639638
 30
0.0
 11
141.372286418551
 21
3790.7326331639638
 31
0.0
  0
LINE
  5
7E31
  8
1
 10
1091.3722864185511
 20
3624.7326331639638
 30
0.0
 11
1721.3722864185499
 21
3624.7326331639651
 31
0.0
  0
LINE
  5
7E32
  8
1
 10
1091.3722864185511
 20
3549.7326331639638
 30
0.0
 11
1721.3722864185499
 21
3549.7326331639638
 31
0.0
  0
LINE
  5
7E33
  8
1
 10
-1731.5368425830841
 20
3610.7326331639651
 30
0.0
 11
941.37228641855097
 21
3610.7326331639638
 31
0.0
  0
LINE
  5
7E34
  8
1
 10
-1731.5368425830841
 20
3790.7326331639651
 30
0.0
 11
941.37228641855097
 21
3790.7326331639638
 31
0.0
  0
LINE
  5
7E35
  8
1
 10
-1731.5368425830841
 20
3610.7326331639638
 30
0.0
 11
-1731.5368425830841
 21
3790.7326331639651
 31
0.0
  0
LINE
  5
7E36
  8
1
 10
-1431.5368425830841
 20
3610.7326331639638
 30
0.0
 11
-1431.5368425830841
 21
3790.7326331639651
 31
0.0
  0
LINE
  5
7E3B
  8
4
 10
6537.5888445345481
 20
-4837.3672664056203
 30
0.0
 11
6537.5888445345499
 21
-6037.3672664056203
 31
0.0
  0
LINE
  5
7E3C
  8
4
 10
1641.425359940142
 20
-4837.3672664056203
 30
0.0
 11
1641.425359940142
 21
-6037.3672664056203
 31
0.0
  0
LINE
  5
7E3D
  8
4
 10
-1358.574640059858
 20
-4837.3672664056203
 30
0.0
 11
-1358.574640059858
 21
-6037.3672664056203
 31
0.0
  0
LINE
  5
7E40
  8
4
 10
-1358.574640059858
 20
-6037.3672664056203
 30
0.0
 11
6537.5888445345481
 21
-6037.3672664056203
 31
0.0
  0
LINE
  5
7E41
  8
4
 10
-1358.574640059858
 20
-5437.3672664056221
 30
0.0
 11
6537.5888445345481
 21
-5437.3672664056221
 31
0.0
  0
TEXT
  5
7E42
  8
4
 10
-1127.562154978448
 20
-5248.1091112059439
 30
0.0
 40
300.0
  1
機器名称
  0
TEXT
  5
7E43
  8
4
 10
-1141.0260039110719
 20
-5907.4963260135546
 30
0.0
 40
300.0
  1
機器型番
  0
TEXT
  5
7E44
  8
4
 10
1807.4978328661309
 20
-5301.9366526602089
 30
0.0
 40
300.0
  1
ミツヤリミットロードファン
  0
TEXT
  5
7E45
  8
4
 10
1861.3523334530239
 20
-5934.409760725961
 30
0.0
 40
300.0
  1
LLE＃12-4
  0
TEXT
  5
7E47
  8
4
 10
216.8386270284536
 20
7146.1233498315187
 30
0.0
 40
323.99999999999977
  1
床置防振ベット
  0
TEXT
  5
7E48
  8
4
 10
-2945.9438318095781
 20
8048.836159032212
 30
0.0
 40
432.0
  1
ベルト駆動式片吸込両持排煙ファン
 41
1.193982332750539
 72
     5
 11
6751.1030818572044
 21
8048.836159032212
 31
0.0
  0
LINE
  5
7E49
  8
4
 10
-3196.1230080652308
 20
7662.0028274252527
 30
0.0
 11
6971.0491198745731
 21
7662.0028274252527
 31
0.0
  0
LINE
  5
7E4A
  8
4
 10
-3196.1230080652308
 20
8862.0028274252545
 30
0.0
 11
6971.0491198745731
 21
8862.0028274252545
 31
0.0
  0
LINE
  5
7E4B
  8
4
 10
-1358.574640059858
 20
-4837.3672664056203
 30
0.0
 11
6537.5888445345481
 21
-4837.3672664056203
 31
0.0
  0
LINE
  5
7E4C
  8
4
 10
-3196.1230080652308
 20
8862.0028274252545
 30
0.0
 11
-3196.1230080652308
 21
7662.0028274252527
 31
0.0
  0
TEXT
  5
7E4D
  8
4
 10
-2738.9710651906489
 20
7139.4671671144861
 30
0.0
 40
323.99999999999977
  1
左回転右横向
  0
TEXT
  5
7E4E
  8
4
 10
4684.8664753703124
 20
9081.9167908082782
 30
0.0
 40
336.0
  1
No.
  0
TEXT
  5
7E4F
  8
4
 10
3738.8254954746499
 20
7146.1233498315187
 30
0.0
 40
323.99999999999977
  1
縮尺：1/60
  0
LINE
  5
7E50
  8
4
 10
6971.0491198745731
 20
8862.0028274252545
 30
0.0
 11
6971.0491198745731
 21
7662.0028274252527
 31
0.0
  0
LINE
  5
7E51
  8
4
 10
8471.0491198745731
 20
10545.55030183642
 30
0.0
 11
8471.0491198745731
 21
10545.55030183642
 31
0.0
  0
LINE
  5
7E52
  8
4
 10
4514.7536540337596
 20
8933.1318005888297
 30
0.0
 11
4514.7536540337596
 21
9565.4638711349417
 31
0.0
  0
LINE
  5
7E53
  8
4
 10
4514.7536540337596
 20
9565.4638711349417
 30
0.0
 11
6971.0491198745731
 21
9565.4638711349417
 31
0.0
  0
LINE
  5
7E54
  8
4
 10
6971.0491198745731
 20
9565.4638711349417
 30
0.0
 11
6971.0491198745731
 21
8933.1318005888297
 31
0.0
  0
LINE
  5
7E55
  8
4
 10
6971.0491198745731
 20
8933.1318005888297
 30
0.0
 11
4514.7536540337596
 21
8933.1318005888297
 31
0.0
  0
LINE
  5
7E56
  8
4
 10
-4128.9508801254269
 20
-7154.4496981635739
 30
0.0
 11
-4128.9508801254269
 21
10545.55030183642
 31
0.0
  0
LINE
  5
7E57
  8
4
 10
-4128.9508801254269
 20
10545.55030183642
 30
0.0
 11
8471.0491198745731
 21
10545.55030183642
 31
0.0
  0
LINE
  5
7E58
  8
4
 10
8471.0491198745731
 20
10545.55030183642
 30
0.0
 11
8471.0491198745731
 21
-7154.4496981635739
 31
0.0
  0
LINE
  5
7E59
  8
4
 10
8471.0491198745731
 20
-7154.4496981635739
 30
0.0
 11
-4128.9508801254269
 21
-7154.4496981635739
 31
0.0
  0
LINE
  5
7E5A
  8
1
 10
5175.0871082668864
 20
44.592821003819473
 30
0.0
 11
6813.0871082668828
 21
44.592821003819473
 31
0.0
  0
LINE
  5
7E5B
  8
1
 10
5175.0871082668864
 20
62.592821003819459
 30
0.0
 11
6813.0871082668828
 21
62.592821003820369
 31
0.0
  0
LINE
  5
7E5C
  8
1
 10
5175.0871082668864
 20
62.592821003819459
 30
0.0
 11
5175.0871082668864
 21
44.592821003819473
 31
0.0
  0
LINE
  5
7E5D
  8
1
 10
5175.0871082668864
 20
53.592821003819459
 30
0.0
 11
6813.0871082668828
 21
53.592821003820383
 31
0.0
  0
LINE
  5
7E5E
  8
1
 10
6813.0871082668828
 20
62.592821003819459
 30
0.0
 11
6813.0871082668828
 21
44.592821003819473
 31
0.0
  0
DIMENSION
  5
7E61
  8
3
  2
*D1
 10
7709.8980415944388
 20
973.59282100382029
 30
0.0
 11
7559.8980415944397
 21
-26.407178996178061
 31
0.0
 70
     0
  1
%%c<>
 13
6898.0871082668837
 23
-1026.4071789961779
 33
0.0
 14
6892.0871082668846
 24
973.5928210038204
 34
0.0
 50
270.0
1001
ACAD
1000
DSTYLE
1002
{
1070
   287
1070
     3
1070
   287
1070
     3
1070
   287
1070
     3
1070
   287
1070
     3
1070
   287
1070
     3
1070
    40
1040
60.0
1070
   143
1040
0.039
1070
   172
1070
     1
1070
   173
1070
     0
1070
   271
1070
     4
1070
   272
1070
     4
1070
   279
1070
     0
1070
   284
1070
     0
1070
   285
1070
     0
1070
   286
1070
     0
1070
   341
1005
7DAC
1070
     5
1000
OPEN30
1002
}
  0
DIMENSION
  5
803C
  8
3
  2
*D2
 10
2553.6331102721178
 20
-114.4071789961792
 30
0.0
 11
2403.6331102721169
 21
-1144.4071789961779
 31
0.0
 70
     0
 13
1816.3722864185511
 23
-2174.407178996179
 33
0.0
 14
1816.3722864185511
 24
-114.407178996179
 34
0.0
 50
270.0
1001
ACAD
1000
DSTYLE
1002
{
1070
   287
1070
     3
1070
   287
1070
     3
1070
   287
1070
     3
1070
   287
1070
     3
1070
   287
1070
     3
1070
    40
1040
60.0
1070
   143
1040
0.039
1070
   172
1070
     1
1070
   173
1070
     0
1070
   271
1070
     4
1070
   272
1070
     4
1070
   279
1070
     0
1070
   284
1070
     0
1070
   285
1070
     0
1070
   286
1070
     0
1070
   341
1005
7DAC
1070
     5
1000
OPEN30
1002
}
  0
DIMENSION
  5
8049
  8
3
  2
*D3
 10
3010.9562451874899
 20
-26.407178996179269
 30
0.0
 11
2860.9562451874899
 21
-1100.4071789961779
 31
0.0
 70
     0
 13
1816.3722864185511
 23
-2174.407178996179
 33
0.0
 14
2123.1223615055751
 24
-26.40717899617902
 34
0.0
 50
270.0
1001
ACAD
1000
DSTYLE
1002
{
1070
   287
1070
     3
1070
   287
1070
     3
1070
   287
1070
     3
1070
   287
1070
     3
1070
   287
1070
     3
1070
    40
1040
60.0
1070
   143
1040
0.039
1070
   172
1070
     1
1070
   173
1070
     0
1070
   271
1070
     4
1070
   272
1070
     4
1070
   279
1070
     0
1070
   284
1070
     0
1070
   285
1070
     0
1070
   286
1070
     0
1070
   341
1005
7DAC
1070
     5
1000
OPEN30
1002
}
  0
LINE
  5
8312
  8
1
 10
-1256.8360353349301
 20
-35.40717899617993
 30
0.0
 11
-1256.8360353349301
 21
-17.40717899617993
 31
0.0
  0
LINE
  5
8313
  8
2
 10
-1256.8360353349301
 20
-26.40717899617993
 30
0.0
 11
-2018.3776638422421
 21
-26.40717899617993
 31
0.0
  0
LINE
  5
8314
  8
1
 10
341.37228641855108
 20
-17.40717899617993
 30
0.0
 11
341.37228641855108
 21
-35.40717899617993
 31
0.0
  0
LINE
  5
8316
  8
1
 10
1809.5391753297081
 20
58.408750341396633
 30
0.0
 11
740.92647822203799
 21
-13.06084865195043
 31
0.0
  0
LINE
  5
8317
  8
1
 10
740.32589335654654
 20
-4.0809100207934534
 30
0.0
 11
741.52706308752749
 21
-22.040787283107409
 31
0.0
  0
LINE
  5
8318
  8
1
 10
1808.9385904642161
 20
67.388688972553609
 30
0.0
 11
1810.1397601951969
 21
49.428811710240552
 31
0.0
  0
LINE
  5
8319
  8
1
 10
1810.1397601951969
 20
49.428811710240552
 30
0.0
 11
741.52706308752749
 21
-22.040787283107409
 31
0.0
  0
LINE
  5
831A
  8
1
 10
1808.9385904642161
 20
67.388688972553609
 30
0.0
 11
740.32589335654654
 21
-4.0809100207934534
 31
0.0
  0
LINE
  5
8360
  8
1
 10
5165.0871082668837
 20
-2253.4071789961781
 30
0.0
 11
6823.0871082668837
 21
-2253.4071789961781
 31
0.0
  0
LINE
  5
83B6
  8
1
 10
5165.0871082668837
 20
-35.407178996179141
 30
0.0
 11
6823.0871082668837
 21
-35.407178996178843
 31
0.0
  0
LINE
  5
83B7
  8
1
 10
6744.0871082668846
 20
-2174.4071789961781
 30
0.0
 11
5244.0871082668828
 21
-2174.407178996179
 31
0.0
  0
LINE
  5
83B9
  8
1
 10
5165.0871082668837
 20
-35.407178996179141
 30
0.0
 11
5165.0871082668837
 21
-2253.4071789961781
 31
0.0
  0
LINE
  5
83BA
  8
1
 10
6823.0871082668837
 20
-35.407178996179141
 30
0.0
 11
6823.0871082668837
 21
-2253.4071789961781
 31
0.0
  0
LINE
  5
844E
  8
1
 10
-1194.627713581448
 20
4030.7326331639651
 30
0.0
 11
-1194.627713581448
 21
5530.7326331639642
 31
0.0
  0
LINE
  5
8450
  8
1
 10
1816.3722864185511
 20
5609.7326331639606
 30
0.0
 11
1816.3722864185511
 21
3951.7326331639651
 31
0.0
  0
LINE
  5
8451
  8
1
 10
1741.3722864185511
 20
5530.7326331639642
 30
0.0
 11
1741.3722864185511
 21
4030.7326331639651
 31
0.0
  0
LINE
  5
8452
  8
1
 10
1810.3722864185511
 20
5609.7326331639606
 30
0.0
 11
1810.3722864185511
 21
3951.7326331639651
 31
0.0
  0
LINE
  5
854E
  8
1
 10
1810.3722864185511
 20
5609.7326331639606
 30
0.0
 11
1816.3722864185511
 21
5609.7326331639633
 31
0.0
  0
LINE
  5
854F
  8
1
 10
1810.3722864185511
 20
3951.7326331639651
 30
0.0
 11
1816.3722864185511
 21
3951.7326331639651
 31
0.0
  0
LINE
  5
8551
  8
1
 10
1721.3722864185499
 20
5530.7326331639642
 30
0.0
 11
1721.3722864185499
 21
5609.7326331639642
 31
0.0
  0
LINE
  5
8552
  8
1
 10
-638.62771358144892
 20
5530.7326331639642
 30
0.0
 11
-638.62771358144892
 21
5609.7326331639661
 31
0.0
  0
DIMENSION
  5
8553
  8
3
  2
*D4
 10
1721.3722864185499
 20
6211.2875301007589
 30
0.0
 11
541.37228641855097
 21
6361.2875301007589
 31
0.0
 70
     0
 13
-638.62771358144892
 23
5609.7326331639642
 33
0.0
 14
1721.3722864185499
 24
5609.7326331639642
 34
0.0
 50
180.0
1001
ACAD
1000
DSTYLE
1002
{
1070
   287
1070
     3
1070
   287
1070
     3
1070
   287
1070
     3
1070
   287
1070
     3
1070
    40
1040
60.0
1070
   143
1040
0.039
1070
   172
1070
     1
1070
   173
1070
     0
1070
   271
1070
     4
1070
   272
1070
     4
1070
   279
1070
     0
1070
   284
1070
     0
1070
   285
1070
     0
1070
   286
1070
     0
1070
   341
1005
7DAC
1070
     5
1000
OPEN30
1002
}
  0
DIMENSION
  5
8569
  8
3
  2
*D5
 10
-1978.6277135814489
 20
6211.2875301007589
 30
0.0
 11
-1308.6277135814489
 21
6361.2875301007589
 31
0.0
 70
     0
 13
-638.62771358144892
 23
5609.7326331639642
 33
0.0
 14
-1978.6277135814489
 24
4749.7326331639651
 34
0.0
 50
180.0
1001
ACAD
1000
DSTYLE
1002
{
1070
   287
1070
     3
1070
   287
1070
     3
1070
   287
1070
     3
1070
   287
1070
     3
1070
    40
1040
60.0
1070
   143
1040
0.039
1070
   172
1070
     1
1070
   173
1070
     0
1070
   271
1070
     4
1070
   272
1070
     4
1070
   279
1070
     0
1070
   284
1070
     0
1070
   285
1070
     0
1070
   286
1070
     0
1070
   341
1005
7DAC
1070
     5
1000
OPEN30
1002
}
  0
LINE
  5
85E8
  8
2
 10
-1581.5368425830841
 20
-1171.6412930698641
 30
0.0
 11
-1581.536842583085
 21
-2576.4071789961799
 31
0.0
  0
LINE
  5
85E9
  8
1
 10
-1811.5368425830841
 20
-1266.407178996179
 30
0.0
 11
-1811.5368425830841
 21
-1491.4071789961811
 31
0.0
  0
LINE
  5
85EA
  8
1
 10
-1381.5368425830841
 20
-1266.407178996179
 30
0.0
 11
-1381.5368425830841
 21
-1491.407178996182
 31
0.0
  0
ARC
  5
85EB
  8
1
 10
-1581.5368425830841
 20
-1836.4071789961799
 30
0.0
 40
310.0
 50
300.1023080683089
 51
239.89769193169101
  0
LINE
  5
85EC
  8
1
 10
-1791.5368425830841
 20
-1511.4071789961799
 30
0.0
 11
-1401.536842583085
 21
-1511.4071789961811
 31
0.0
  0
LINE
  5
85ED
  8
1
 10
-1737.0159748586909
 20
-2104.5978563636531
 30
0.0
 11
-1426.0577103074761
 21
-2104.5978563636522
 31
0.0
  0
LINE
  5
85EF
  8
2
 10
-1918.9958067728419
 20
-1836.4071789961799
 30
0.0
 11
-1238.2596203900539
 21
-1836.4071789961799
 31
0.0
  0
LINE
  5
85F0
  8
1
 10
-1861.536842583092
 20
-1969.44852595271
 30
0.0
 11
-1861.5368425830829
 21
-2116.407178996179
 31
0.0
  0
LINE
  5
85F1
  8
1
 10
-1861.5368425830829
 20
-2116.407178996179
 30
0.0
 11
-1751.5368425830829
 21
-2116.407178996179
 31
0.0
  0
LINE
  5
85F2
  8
1
 10
-1861.5368425830841
 20
-2086.4071789961799
 30
0.0
 11
-1764.839870381317
 21
-2086.4071789961799
 31
0.0
  0
LINE
  5
85F3
  8
1
 10
-1751.5368425830841
 20
-2095.636806932494
 30
0.0
 11
-1751.5368425830841
 21
-2116.4071789961808
 31
0.0
  0
LINE
  5
85F4
  8
1
 10
-1810.0368425830841
 20
-2071.2377305065352
 30
0.0
 11
-1810.0368425830841
 21
-2162.86329357879
 31
0.0
  0
ARC
  5
85F5
  8
1
 10
-1791.5368425830841
 20
-1491.4071789961811
 30
0.0
 40
20.0
 50
180.0
 51
270.0
  0
LINE
  5
85F6
  8
1
 10
-1411.5368425830841
 20
-2116.4071789961808
 30
0.0
 11
-1301.5368425830841
 21
-2116.4071789961808
 31
0.0
  0
LINE
  5
85F7
  8
1
 10
-1411.5368425830841
 20
-2095.636806932494
 30
0.0
 11
-1411.5368425830841
 21
-2116.4071789961808
 31
0.0
  0
LINE
  5
85F8
  8
1
 10
-1301.5368425830841
 20
-1969.448525952726
 30
0.0
 11
-1301.5368425830841
 21
-2116.4071789961808
 31
0.0
  0
LINE
  5
85F9
  8
1
 10
-1398.233814784852
 20
-2086.4071789961799
 30
0.0
 11
-1301.5368425830841
 21
-2086.4071789961799
 31
0.0
  0
LINE
  5
85FA
  8
1
 10
-1353.0368425830841
 20
-2071.2377305065352
 30
0.0
 11
-1353.0368425830841
 21
-2158.698495257323
 31
0.0
  0
ARC
  5
85FB
  8
1
 10
-1401.536842583085
 20
-1491.407178996182
 30
0.0
 40
20.0
 50
270.0
 51
0.0
  0
LINE
  5
85FC
  8
1
 10
-1791.5368425830841
 20
-1246.4071789961799
 30
0.0
 11
-1401.536842583085
 21
-1246.4071789961799
 31
0.0
  0
ARC
  5
85FD
  8
1
 10
-1791.5368425830841
 20
-1266.407178996179
 30
0.0
 40
20.0
 50
90.0
 51
180.0
  0
ARC
  5
85FE
  8
1
 10
-1401.536842583085
 20
-1266.407178996179
 30
0.0
 40
20.0
 50
0.0
 51
90.0
  0
LINE
  5
85FF
  8
2
 10
-1873.111332597877
 20
-1386.4071789961799
 30
0.0
 11
-1718.814395078191
 21
-1386.4071789961799
 31
0.0
  0
LINE
  5
8600
  8
1
 10
-1971.001797475577
 20
-2116.407178996179
 30
0.0
 11
-1192.0718876905919
 21
-2116.407178996179
 31
0.0
  0
LINE
  5
8602
  8
1
 10
-1192.0718876905919
 20
-2116.407178996179
 30
0.0
 11
-1181.5368425830841
 21
-2196.407178996179
 31
0.0
  0
LINE
  5
8603
  8
1
 10
-1971.001797475577
 20
-2116.407178996179
 30
0.0
 11
-1981.5368425830841
 21
-2196.407178996179
 31
0.0
  0
LINE
  5
8604
  8
1
 10
-1978.6277135814489
 20
-2196.407178996179
 30
0.0
 11
-1981.5368425830841
 21
-2196.407178996179
 31
0.0
  0
LINE
  5
8617
  8
1
 10
-1271.5368425830841
 20
4519.6470688482132
 30
0.0
 11
-1271.5368425830841
 21
3890.7326331639651
 31
0.0
  0
LINE
  5
8618
  8
2
 10
-1581.5368425830841
 20
4865.5087373097131
 30
0.0
 11
-1581.5368425830841
 21
3645.777026795548
 31
0.0
  0
LINE
  5
861B
  8
1
 10
-1271.5368425830841
 20
4541.0418950137837
 30
0.0
 11
-1891.536842583085
 21
4541.0418950137828
 31
0.0
  0
LINE
  5
861C
  8
1
 10
-1321.5368425830841
 20
4710.9258576349403
 30
0.0
 11
-1841.536842583085
 21
4710.9258576349384
 31
0.0
  0
LINE
  5
8625
  8
1
 10
-1271.5368425830841
 20
4660.9258576349403
 30
0.0
 11
-1271.5368425830829
 21
4541.0418950137819
 31
0.0
  0
ARC
  5
8626
  8
1
 10
-1321.5368425830841
 20
4660.9258576349403
 30
0.0
 40
50.0
 50
0.0
 51
90.0
  0
LINE
  5
8627
  8
1
 10
-1296.0879730118311
 20
4541.0418950137837
 30
0.0
 11
-1271.536842583085
 21
4519.6470688482132
 31
0.0
  0
LINE
  5
8628
  8
1
 10
-1861.5368425830841
 20
3866.9258576349412
 30
0.0
 11
-1891.5368425830829
 21
3866.9258576349412
 31
0.0
  0
LINE
  5
8629
  8
1
 10
-1271.5368425830829
 20
3901.4258576349362
 30
0.0
 11
-1891.5368425830829
 21
3901.4258576349371
 31
0.0
  0
LINE
  5
862A
  8
2
 10
-1234.897474596446
 20
4215.9258576349384
 30
0.0
 11
-1953.4853696001701
 21
4215.9258576349384
 31
0.0
  0
LINE
  5
8640
  8
1
 10
-1181.5368425830841
 20
3927.400798312447
 30
0.0
 11
-1181.5368425830841
 21
4030.7326331639638
 31
0.0
  0
LINE
  5
8642
  8
1
 10
-1981.5368425830841
 20
3927.400798312447
 30
0.0
 11
-1981.5368425830841
 21
4474.5558672326943
 31
0.0
  0
LINE
  5
8643
  8
1
 10
-1981.5368425830841
 20
4474.5558672326943
 30
0.0
 11
-1891.5368425830841
 21
4474.5558672326952
 31
0.0
  0
LINE
  5
8644
  8
1
 10
-1981.5368425830841
 20
3927.400798312447
 30
0.0
 11
-1891.5368425830829
 21
3927.400798312447
 31
0.0
  0
LINE
  5
8645
  8
1
 10
-1271.5368425830841
 20
4474.5558672326952
 30
0.0
 11
-1194.627713581448
 21
4474.5558672326952
 31
0.0
  0
LINE
  5
8646
  8
1
 10
-1271.5368425830841
 20
3927.400798312447
 30
0.0
 11
-1181.5368425830841
 21
3927.4007983124461
 31
0.0
  0
DIMENSION
  5
8651
  8
3
  2
*D6
 10
1721.3722864185499
 20
2739.3151865753821
 30
0.0
 11
-128.62771358144889
 21
2889.3151865753821
 31
0.0
 70
     0
 13
-1978.6277135814489
 23
3549.7326331639638
 33
0.0
 14
1721.3722864185499
 24
3549.7326331639638
 34
0.0
 50
180.0
1001
ACAD
1000
DSTYLE
1002
{
1070
   287
1070
     3
1070
   287
1070
     3
1070
   287
1070
     3
1070
   287
1070
     3
1070
    40
1040
60.0
1070
   143
1040
0.039
1070
   172
1070
     1
1070
   173
1070
     0
1070
   271
1070
     4
1070
   272
1070
     4
1070
   279
1070
     0
1070
   284
1070
     0
1070
   285
1070
     0
1070
   286
1070
     0
1070
   341
1005
7DAC
1070
     5
1000
OPEN30
1002
}
  0
DIMENSION
  5
8667
  8
3
  2
*D7
 10
-2833.5693512694711
 20
3549.7326331639638
 30
0.0
 11
-2983.5693512694711
 21
4149.7326331639651
 31
0.0
 70
     0
 13
-1978.6277135814489
 23
4749.7326331639651
 33
0.0
 14
-1978.6277135814489
 24
3549.7326331639638
 34
0.0
 50
270.0
1001
ACAD
1000
DSTYLE
1002
{
1070
   287
1070
     3
1070
   287
1070
     3
1070
   287
1070
     3
1070
   287
1070
     3
1070
    40
1040
60.0
1070
   143
1040
0.039
1070
   172
1070
     1
1070
   173
1070
     0
1070
   271
1070
     4
1070
   272
1070
     4
1070
   279
1070
     0
1070
   284
1070
     0
1070
   285
1070
     0
1070
   286
1070
     0
1070
   341
1005
7DAC
1070
     5
1000
OPEN30
1002
}
  0
DIMENSION
  5
867D
  8
3
  2
*D8
 10
2667.5913743188571
 20
5609.7326331639633
 30
0.0
 11
2517.5913743188562
 21
4579.7326331639642
 31
0.0
 70
     0
 13
1721.3722864185499
 23
3549.7326331639638
 33
0.0
 14
1721.3722864185499
 24
5609.7326331639642
 34
0.0
 50
270.0
1001
ACAD
1000
DSTYLE
1002
{
1070
   287
1070
     3
1070
   287
1070
     3
1070
   287
1070
     3
1070
   287
1070
     3
1070
    40
1040
60.0
1070
   143
1040
0.039
1070
   172
1070
     1
1070
   173
1070
     0
1070
   271
1070
     4
1070
   272
1070
     4
1070
   279
1070
     0
1070
   284
1070
     0
1070
   285
1070
     0
1070
   286
1070
     0
1070
   341
1005
7DAC
1070
     5
1000
OPEN30
1002
}
  0
CIRCLE
  5
8794
  8
1
 10
-1578.6277135814489
 20
-1836.4071789961799
 30
0.0
 40
150.0
  0
ARC
  5
8795
  8
1
 10
-1578.6277135814489
 20
-1836.4071789961799
 30
0.0
 40
280.0
 50
136.0481416026133
 51
304.93150719236149
  0
LINE
  5
88E4
  8
1
 10
-1891.5368425830841
 20
4519.6470688482123
 30
0.0
 11
-1891.5368425830829
 21
3866.9258576349412
 31
0.0
  0
LINE
  5
88E5
  8
1
 10
-1866.9857121543371
 20
4541.0418950137828
 30
0.0
 11
-1891.5368425830829
 21
4519.6470688482123
 31
0.0
  0
ARC
  5
88E6
  8
1
 10
-1841.536842583085
 20
4660.9258576349393
 30
0.0
 40
50.0
 50
90.000000000000171
 51
180.00000000000011
  0
LINE
  5
88E7
  8
1
 10
-1891.536842583085
 20
4660.9258576349393
 30
0.0
 11
-1891.536842583085
 21
4541.0418950137819
 31
0.0
  0
LINE
  5
93C0
  8
1
 10
255.41104301919131
 20
253.28223316218549
 30
0.0
 11
-1685.863179856208
 21
-1731.5236494367921
 31
0.0
  0
LINE
  5
93C1
  8
1
 10
772.76818653240798
 20
-352.68303990301769
 30
0.0
 11
-1491.854251038752
 21
-1958.760626836244
 31
0.0
  0
LINE
  5
93C2
  8
1
 10
145.4145160870157
 20
355.32236415456822
 30
0.0
 11
-1780.2062148411389
 21
-1642.072138846708
 31
0.0
  0
LINE
  5
93C3
  8
1
 10
856.30052197111434
 20
-477.31759853840862
 30
0.0
 11
-1418.300611845598
 21
-2065.9615743994959
 31
0.0
  0
DIMENSION
  5
93C4
  8
3
  2
*D9
 10
-2600.8318727492151
 20
-26.407178996179759
 30
0.0
 11
-2750.8318727492151
 21
-1201.4071789961799
 31
0.0
 70
     0
 13
-1978.6277135814489
 23
-2376.4071789961799
 33
0.0
 14
-2018.3776638422421
 24
-26.40717899617993
 34
0.0
 50
270.0
1001
ACAD
1000
DSTYLE
1002
{
1070
   287
1070
     3
1070
   287
1070
     3
1070
    40
1040
60.0
1070
   143
1040
0.039
1070
   172
1070
     1
1070
   173
1070
     0
1070
   271
1070
     4
1070
   272
1070
     4
1070
   279
1070
     0
1070
   284
1070
     0
1070
   285
1070
     0
1070
   286
1070
     0
1070
   341
1005
7DAC
1070
     5
1000
OPEN30
1002
}
  0
DIMENSION
  5
93ED
  8
3
  2
*D10
 10
3010.9562451874899
 20
1415.5928210038189
 30
0.0
 11
2860.956245187489
 21
694.5928210038204
 31
0.0
 70
     0
 13
2123.1223615055751
 23
-26.40717899617902
 33
0.0
 14
418.87228641855148
 24
1415.5928210038201
 34
0.0
 50
270.0
1001
ACAD
1000
DSTYLE
1002
{
1070
   287
1070
     4
1070
   287
1070
     4
1070
    40
1040
60.0
1070
   143
1040
0.039
1070
   172
1070
     1
1070
   173
1070
     0
1070
   271
1070
     4
1070
   272
1070
     4
1070
   279
1070
     1
1070
   284
1070
     0
1070
   285
1070
     0
1070
   286
1070
     0
1070
   341
1005
7DAC
1070
     5
1000
OPEN30
1002
}
  0
LINE
  5
93FB
  8
1
 10
5244.0871082668864
 20
1415.5928210038201
 30
0.0
 11
6744.0871082668864
 21
1415.5928210038201
 31
0.0
  0
DIMENSION
  5
93FC
  8
3
  2
*D11
 10
6744.0871082668864
 20
1850.7726709278941
 30
0.0
 11
5994.0871082668864
 21
2000.7726709278941
 31
0.0
 70
     0
 13
5244.0871082668864
 23
1415.5928210038201
 33
0.0
 14
6744.0871082668864
 24
1415.5928210038201
 34
0.0
1001
ACAD
1000
DSTYLE
1002
{
1070
   287
1070
     3
1070
   287
1070
     3
1070
    40
1040
60.0
1070
   143
1040
0.039
1070
   172
1070
     1
1070
   173
1070
     0
1070
   271
1070
     4
1070
   272
1070
     4
1070
   279
1070
     0
1070
   284
1070
     0
1070
   285
1070
     0
1070
   286
1070
     0
1070
   341
1005
7DAC
1070
     5
1000
OPEN30
1002
}
  0
DIMENSION
  5
9409
  8
3
  2
*D12
 10
5994.0871082668846
 20
2393.1028432939202
 30
0.0
 11
5369.0871082668846
 21
2590.245700436777
 31
0.0
 70
     0
  1
(<>)
 13
4744.0871082668837
 23
523.59282100381961
 33
0.0
 14
5994.0871082668846
 24
2446.6755532380048
 34
0.0
1001
ACAD
1000
DSTYLE
1002
{
1070
   287
1070
     3
1070
   287
1070
     3
1070
    40
1040
60.0
1070
   143
1040
0.039
1070
   172
1070
     1
1070
   173
1070
     0
1070
   271
1070
     4
1070
   272
1070
     4
1070
   279
1070
     0
1070
   284
1070
     0
1070
   285
1070
     0
1070
   286
1070
     0
1070
   341
1005
7DAC
1070
     5
1000
OPEN30
1002
}
  0
DIMENSION
  5
9416
  8
3
  2
*D13
 10
6898.0871082668837
 20
2393.1028432939202
 30
0.0
 11
6446.0871082668828
 21
2543.1028432939202
 31
0.0
 70
     0
 13
5994.0871082668846
 23
2446.6755532380048
 33
0.0
 14
6898.0871082668837
 24
1048.5928210038201
 34
0.0
1001
ACAD
1000
DSTYLE
1002
{
1070
   287
1070
     4
1070
   287
1070
     4
1070
    40
1040
60.0
1070
   143
1040
0.039
1070
   172
1070
     1
1070
   173
1070
     0
1070
   271
1070
     4
1070
   272
1070
     4
1070
   279
1070
     1
1070
   284
1070
     0
1070
   285
1070
     0
1070
   286
1070
     0
1070
   341
1005
7DAC
1070
     5
1000
OPEN30
1002
}
  0
LINE
  5
943F
  8
2
 10
5994.0871082668846
 20
1811.1737679982541
 30
0.0
 11
5994.0871082668828
 21
-2576.407178996179
 31
0.0
  0
DIMENSION
  5
9521
  8
3
  2
*D14
 10
541.37228641855097
 20
2114.9056025187961
 30
0.0
 11
1178.8722864185511
 21
2264.9056025187961
 31
0.0
 70
     0
 13
1816.3722864185511
 23
-35.40717899617902
 33
0.0
 14
541.37228641855097
 24
1743.7726949824389
 34
0.0
1001
ACAD
1000
DSTYLE
1002
{
1070
   287
1070
     3
1070
   287
1070
     3
1070
    40
1040
60.0
1070
   143
1040
0.039
1070
   172
1070
     1
1070
   173
1070
     0
1070
   271
1070
     4
1070
   272
1070
     4
1070
   279
1070
     0
1070
   284
1070
     0
1070
   285
1070
     0
1070
   286
1070
     0
1070
   341
1005
7DAC
1070
     5
1000
OPEN30
1002
}
  0
LINE
  5
98BC
  8
1
 10
5244.0871082668864
 20
-114.407178996179
 30
0.0
 11
6744.0871082668846
 21
-114.407178996179
 31
0.0
  0
LINE
  5
98BD
  8
1
 10
5244.0871082668864
 20
-114.407178996179
 30
0.0
 11
5244.0871082668846
 21
-2174.407178996179
 31
0.0
  0
LINE
  5
98BE
  8
1
 10
6744.0871082668846
 20
-114.407178996179
 30
0.0
 11
6744.0871082668846
 21
-2174.4071789961781
 31
0.0
  0
LINE
  5
98BF
  8
1
 10
5244.0871082668864
 20
-114.407178996179
 30
0.0
 11
6744.0871082668846
 21
-2174.4071789961781
 31
0.0
  0
LINE
  5
98C0
  8
1
 10
6744.0871082668846
 20
-114.407178996179
 30
0.0
 11
5244.0871082668846
 21
-2174.407178996179
 31
0.0
  0
LINE
  5
98C3
  8
1
 10
-1978.6277135814489
 20
-2576.4071789961799
 30
0.0
 11
-1978.6277135814489
 21
-2396.4071789961799
 31
0.0
  0
LINE
  5
98C4
  8
1
 10
-1978.6277135814489
 20
-2396.4071789961799
 30
0.0
 11
1721.3722864185499
 21
-2396.4071789961799
 31
0.0
  0
LINE
  5
98C5
  8
1
 10
-1978.6277135814489
 20
-2576.4071789961799
 30
0.0
 11
1721.3722864185499
 21
-2576.4071789961799
 31
0.0
  0
LINE
  5
98C6
  8
1
 10
1721.3722864185499
 20
-2576.4071789961799
 30
0.0
 11
1721.3722864185499
 21
-2396.4071789961799
 31
0.0
  0
LINE
  5
98C7
  8
1
 10
4763.0871082668837
 20
-2576.4071789961799
 30
0.0
 11
6823.0871082668837
 21
-2576.4071789961799
 31
0.0
  0
LINE
  5
98C8
  8
1
 10
4763.0871082668837
 20
-2396.4071789961799
 30
0.0
 11
6823.0871082668837
 21
-2396.4071789961822
 31
0.0
  0
LINE
  5
98C9
  8
1
 10
4763.0871082668837
 20
-2576.4071789961799
 30
0.0
 11
4763.0871082668837
 21
-2396.4071789961799
 31
0.0
  0
LINE
  5
98CA
  8
1
 10
6823.0871082668873
 20
-2576.4071789961799
 30
0.0
 11
6823.0871082668837
 21
-2396.4071789961799
 31
0.0
  0
DIMENSION
  5
98DD
  8
3
  2
*D16
 10
541.37228641855097
 20
-3024.8986667188578
 30
0.0
 11
-718.62771358144892
 21
-2874.8986667188578
 31
0.0
 70
     0
 13
-1978.6277135814489
 23
-2576.4071789961799
 33
0.0
 14
541.37228641855097
 24
-2576.4071789961799
 34
0.0
1001
ACAD
1000
DSTYLE
1002
{
1070
   287
1070
     3
1070
    40
1040
60.0
1070
   143
1040
0.039
1070
   172
1070
     1
1070
   271
1070
     4
1070
   272
1070
     4
1070
   279
1070
     0
1070
   284
1070
     0
1070
   285
1070
     0
1070
   286
1070
     0
1070
     6
1000
OPEN
1070
     7
1000
OPEN
1002
}
  0
DIMENSION
  5
98EA
  8
3
  2
*D17
 10
1721.3722864185499
 20
-3024.8986667188578
 30
0.0
 11
1131.3722864185511
 21
-2874.8986667188578
 31
0.0
 70
     0
 13
541.37228641855097
 23
-2576.4071789961799
 33
0.0
 14
1721.3722864185499
 24
-2576.4071789961799
 34
0.0
1001
ACAD
1000
DSTYLE
1002
{
1070
   287
1070
     3
1070
    40
1040
60.0
1070
   143
1040
0.039
1070
   172
1070
     1
1070
   271
1070
     4
1070
   272
1070
     4
1070
   279
1070
     0
1070
   284
1070
     0
1070
   285
1070
     0
1070
   286
1070
     0
1070
     6
1000
OPEN
1070
     7
1000
OPEN
1002
}
  0
DIMENSION
  5
98F7
  8
3
  2
*D18
 10
1721.3722864185499
 20
-3471.6879418256358
 30
0.0
 11
-128.62771358144889
 21
-3321.6879418256358
 31
0.0
 70
     0
 13
-1978.6277135814489
 23
-2576.4071789961799
 33
0.0
 14
1721.3722864185499
 24
-2576.4071789961799
 34
0.0
1001
ACAD
1000
DSTYLE
1002
{
1070
   287
1070
     3
1070
    40
1040
60.0
1070
   143
1040
0.039
1070
   172
1070
     1
1070
   271
1070
     4
1070
   272
1070
     4
1070
   279
1070
     0
1070
   284
1070
     0
1070
   285
1070
     0
1070
   286
1070
     0
1070
     6
1000
OPEN
1070
     7
1000
OPEN
1002
}
  0
DIMENSION
  5
9904
  8
3
  2
*D19
 10
5994.0871082668828
 20
-3024.8986667188578
 30
0.0
 11
5378.5871082668837
 21
-2874.8986667188578
 31
0.0
 70
     0
 13
4763.0871082668837
 23
-2576.4071789961799
 33
0.0
 14
5994.0871082668828
 24
-2576.407178996179
 34
0.0
1001
ACAD
1000
DSTYLE
1002
{
1070
   287
1070
     3
1070
    40
1040
60.0
1070
   143
1040
0.039
1070
   172
1070
     1
1070
   271
1070
     4
1070
   272
1070
     4
1070
   279
1070
     0
1070
   284
1070
     0
1070
   285
1070
     0
1070
   286
1070
     0
1070
     6
1000
OPEN
1070
     7
1000
OPEN
1002
}
  0
DIMENSION
  5
9911
  8
3
  2
*D20
 10
6823.0871082668873
 20
-3024.8986667188578
 30
0.0
 11
6408.5871082668846
 21
-2874.8986667188578
 31
0.0
 70
     0
 13
5994.0871082668828
 23
-2576.407178996179
 33
0.0
 14
6823.0871082668873
 24
-2576.4071789961799
 34
0.0
1001
ACAD
1000
DSTYLE
1002
{
1070
   287
1070
     3
1070
    40
1040
60.0
1070
   143
1040
0.039
1070
   172
1070
     1
1070
   271
1070
     4
1070
   272
1070
     4
1070
   279
1070
     0
1070
   284
1070
     0
1070
   285
1070
     0
1070
   286
1070
     0
1070
     6
1000
OPEN
1070
     7
1000
OPEN
1002
}
  0
DIMENSION
  5
991E
  8
3
  2
*D21
 10
6823.0871082668873
 20
-3471.6879418256358
 30
0.0
 11
5793.0871082668846
 21
-3321.6879418256358
 31
0.0
 70
     0
 13
4763.0871082668837
 23
-2576.4071789961799
 33
0.0
 14
6823.0871082668873
 24
-2576.4071789961799
 34
0.0
1001
ACAD
1000
DSTYLE
1002
{
1070
   287
1070
     3
1070
    40
1040
60.0
1070
   143
1040
0.039
1070
   172
1070
     1
1070
   271
1070
     4
1070
   272
1070
     4
1070
   279
1070
     0
1070
   284
1070
     0
1070
   285
1070
     0
1070
   286
1070
     0
1070
     6
1000
OPEN
1070
     7
1000
OPEN
1002
}
  0
DIMENSION
  5
9935
  8
3
  2
*D23
 10
-2595.9687516679551
 20
-2576.4071789961799
 30
0.0
 11
-2745.9687516679542
 21
-3090.6928932818942
 31
0.0
 70
     0
 13
-1978.6277135814489
 23
-2396.4071789961799
 33
0.0
 14
-1978.6277135814489
 24
-2576.4071789961799
 34
0.0
 50
90.0
1001
ACAD
1000
DSTYLE
1002
{
1070
   287
1070
     3
1070
    40
1040
60.0
1070
   143
1040
0.039
1070
   172
1070
     1
1070
   271
1070
     4
1070
   272
1070
     4
1070
   279
1070
     0
1070
   284
1070
     0
1070
   285
1070
     0
1070
   286
1070
     0
1070
     6
1000
DOT
1070
     7
1000
OPEN
1002
}
  0
DIMENSION
  5
9944
  8
3
  2
*D25
 10
-2597.2407038772649
 20
-2376.4071789961799
 30
0.0
 11
-2884.3835610201222
 21
-2386.407178996179
 31
0.0
 70
     0
 13
-1978.6277135814489
 23
-2396.4071789961799
 33
0.0
 14
-1978.6277135814489
 24
-2376.4071789961799
 34
0.0
 50
90.0
1001
ACAD
1000
DSTYLE
1002
{
1070
   284
1070
     0
1070
   172
1070
     1
1070
   272
1070
     4
1070
    76
1070
     1
1070
    75
1070
     1
1070
    40
1040
60.0
1070
     3
1000
(<>)
1070
   271
1070
     4
1070
     7
1000
_NONE
1070
     6
1000
_NONE
1070
   285
1070
     0
1070
   286
1070
     0
1070
   143
1040
0.039
1002
}
  0
LINE
  5
9960
  8
1
 10
-1273.480906950834
 20
4674.7326331639688
 30
0.0
 11
-1194.627713581448
 21
4674.7326331639697
 31
0.0
  0
ENDSEC
  0
EOF
