  0
SECTION
  2
HEADER
  9
$ACADVER
  1
AC1009
  9
$INSBASE
 10
0.0
 20
0.0
 30
0.0
  9
$EXTMIN
 10
0.0
 20
0.0
 30
0.0
  9
$EXTMAX
 10
9450.0
 20
13275.0
 30
0.0
  9
$LIMMIN
 10
0.0
 20
0.0
  9
$LIMMAX
 10
297.0
 20
210.0
  9
$ORTHOMODE
 70
     1
  9
$REGENMODE
 70
     1
  9
$FILLMODE
 70
     0
  9
$QTEXTMODE
 70
     0
  9
$MIRRTEXT
 70
     1
  9
$DRAGMODE
 70
     2
  9
$LTSCALE
 40
100.0
  9
$OSMODE
 70
   545
  9
$ATTMODE
 70
     1
  9
$TEXTSIZE
 40
180.0
  9
$TRACEWID
 40
0.05
  9
$TEXTSTYLE
  7
STANDARD
  9
$CLAYER
  8
3
  9
$CELTYPE
  6
BYLAYER
  9
$CECOLOR
 62
   256
  9
$DIMSCALE
 40
45.0
  9
$DIMASZ
 40
2.0
  9
$DIMEXO
 40
0.5
  9
$DIMDLI
 40
10.0
  9
$DIMRND
 40
0.0
  9
$DIMDLE
 40
0.0
  9
$DIMEXE
 40
1.0
  9
$DIMTP
 40
1.0
  9
$DIMTM
 40
1.0
  9
$DIMTXT
 40
3.0
  9
$DIMCEN
 40
0.0
  9
$DIMTSZ
 40
0.0
  9
$DIMTOL
 70
     0
  9
$DIMLIM
 70
     0
  9
$DIMTIH
 70
     0
  9
$DIMTOH
 70
     0
  9
$DIMSE1
 70
     0
  9
$DIMSE2
 70
     0
  9
$DIMTAD
 70
     1
  9
$DIMZIN
 70
     8
  9
$DIMBLK
  1

  9
$DIMASO
 70
     1
  9
$DIMSHO
 70
     1
  9
$DIMPOST
  1

  9
$DIMAPOST
  1

  9
$DIMALT
 70
     0
  9
$DIMALTD
 70
     2
  9
$DIMALTF
 40
0.039
  9
$DIMLFAC
 40
1.0
  9
$DIMTOFL
 70
     0
  9
$DIMTVP
 40
0.0
  9
$DIMTIX
 70
     0
  9
$DIMSOXD
 70
     0
  9
$DIMSAH
 70
     1
  9
$DIMBLK1
  1
OPEN
  9
$DIMBLK2
  1
OPEN
  9
$DIMSTYLE
  2
IGA
  9
$DIMCLRD
 70
     0
  9
$DIMCLRE
 70
     0
  9
$DIMCLRT
 70
     0
  9
$DIMTFAC
 40
10.0
  9
$DIMGAP
 40
1.0
  9
$LUNITS
 70
     2
  9
$LUPREC
 70
     3
  9
$SKETCHINC
 40
0.1
  9
$FILLETRAD
 40
50.0
  9
$AUNITS
 70
     0
  9
$AUPREC
 70
     0
  9
$MENU
  1
acad
  9
$ELEVATION
 40
0.0
  9
$PELEVATION
 40
0.0
  9
$THICKNESS
 40
0.0
  9
$LIMCHECK
 70
     0
  9
$BLIPMODE
 70
     0
  9
$CHAMFERA
 40
0.5
  9
$CHAMFERB
 40
0.5
  9
$SKPOLY
 70
     0
  9
$TDCREATE
 40
2451845.4205035879
  9
$TDUPDATE
 40
2455009.6138729742
  9
$TDINDWG
 40
0.0587302546
  9
$TDUSRTIMER
 40
0.0587302546
  9
$USRTIMER
 70
     1
  9
$ANGBASE
 50
0.0
  9
$ANGDIR
 70
     0
  9
$PDMODE
 70
     0
  9
$PDSIZE
 40
0.0
  9
$PLINEWID
 40
0.0
  9
$COORDS
 70
     2
  9
$SPLFRAME
 70
     0
  9
$SPLINETYPE
 70
     6
  9
$SPLINESEGS
 70
     8
  9
$ATTDIA
 70
     0
  9
$ATTREQ
 70
     1
  9
$HANDLING
 70
 22529
  9
$HANDSEED
  5
90D9
  9
$SURFTAB1
 70
     6
  9
$SURFTAB2
 70
     6
  9
$SURFTYPE
 70
     6
  9
$SURFU
 70
     6
  9
$SURFV
 70
     6
  9
$UCSNAME
  2

  9
$UCSORG
 10
0.0
 20
0.0
 30
0.0
  9
$UCSXDIR
 10
1.0
 20
0.0
 30
0.0
  9
$UCSYDIR
 10
0.0
 20
1.0
 30
0.0
  9
$PUCSNAME
  2

  9
$PUCSORG
 10
0.0
 20
0.0
 30
0.0
  9
$PUCSXDIR
 10
1.0
 20
0.0
 30
0.0
  9
$PUCSYDIR
 10
0.0
 20
1.0
 30
0.0
  9
$USERI1
 70
     0
  9
$USERI2
 70
     0
  9
$USERI3
 70
     0
  9
$USERI4
 70
     0
  9
$USERI5
 70
     0
  9
$USERR1
 40
0.0
  9
$USERR2
 40
0.0
  9
$USERR3
 40
0.0
  9
$USERR4
 40
0.0
  9
$USERR5
 40
0.0
  9
$WORLDVIEW
 70
     1
  9
$SHADEDGE
 70
     3
  9
$SHADEDIF
 70
    70
  9
$TILEMODE
 70
     1
  9
$MAXACTVP
 70
    16
  9
$PLIMCHECK
 70
     0
  9
$PEXTMIN
 10
1.0000000000000000E+020
 20
1.0000000000000000E+020
 30
1.0000000000000000E+020
  9
$PEXTMAX
 10
-1.0000000000000000E+020
 20
-1.0000000000000000E+020
 30
-1.0000000000000000E+020
  9
$PLIMMIN
 10
0.0
 20
0.0
  9
$PLIMMAX
 10
12.0
 20
9.0
  9
$UNITMODE
 70
     0
  9
$VISRETAIN
 70
     0
  9
$PLINEGEN
 70
     0
  9
$PSLTSCALE
 70
     1
  0
ENDSEC
  0
SECTION
  2
TABLES
  0
TABLE
  2
VPORT
 70
     2
  0
VPORT
  2
*ACTIVE
 70
     0
 10
0.0
 20
0.0
 11
1.0
 21
1.0
 12
4725.0000220024922
 22
6637.5000309082689
 13
0.0
 23
0.0
 14
10.0
 24
10.0
 15
10.0
 25
10.0
 16
0.0
 26
0.0
 36
1.0
 17
0.0
 27
0.0
 37
0.0
 40
13384.18420285689
 41
1.6307901907356941
 42
50.0
 43
0.0
 44
0.0
 50
0.0
 51
0.0
 71
     0
 72
   100
 73
     1
 74
     0
 75
     0
 76
     0
 77
     0
 78
     0
  0
ENDTAB
  0
TABLE
  2
LTYPE
 70
     2
  0
LTYPE
  2
CONTINUOUS
 70
     0
  3
Solid line
 72
    65
 73
     0
 40
0.0
  0
LTYPE
  2
CENTER
 70
     0
  3
____ _ ____ _ ____ _ ____ _ ____ _ ____ _ ____ 
 72
    65
 73
     4
 40
2.0
 49
1.25
 49
-0.25
 49
0.25
 49
-0.25
  0
ENDTAB
  0
TABLE
  2
LAYER
 70
     6
  0
LAYER
  2
0
 70
     0
 62
     7
  6
CONTINUOUS
  0
LAYER
  2
3
 70
     0
 62
     2
  6
CONTINUOUS
  0
LAYER
  2
2
 70
     0
 62
     3
  6
CENTER
  0
LAYER
  2
1
 70
     0
 62
     4
  6
CONTINUOUS
  0
LAYER
  2
4
 70
     0
 62
     7
  6
CONTINUOUS
  0
LAYER
  2
DEFPOINTS
 70
     0
 62
     7
  6
CONTINUOUS
  0
ENDTAB
  0
TABLE
  2
STYLE
 70
     1
  0
STYLE
  2
STANDARD
 70
     0
 40
0.0
 41
1.0
 50
0.0
 71
     0
 42
180.0
  3
simplex.shx
  4
extfont.shx
  0
ENDTAB
  0
TABLE
  2
VIEW
 70
     0
  0
ENDTAB
  0
TABLE
  2
UCS
 70
     0
  0
ENDTAB
  0
TABLE
  2
APPID
 70
     1
  0
APPID
  2
ACAD
 70
     0
  0
ENDTAB
  0
TABLE
  2
DIMSTYLE
 70
     1
  0
DIMSTYLE
  2
IGA
 70
     0
  3

  4

  5

  6
OPEN
  7
OPEN
 40
2.0
 41
2.0
 42
0.5
 43
10.0
 44
1.0
 45
0.0
 46
0.0
 47
1.0
 48
1.0
140
3.0
141
0.0
142
0.0
143
0.03937
144
1.0
145
0.0
146
10.0
147
1.0
 71
     0
 72
     0
 73
     0
 74
     0
 75
     0
 76
     0
 77
     1
 78
     8
170
     0
171
     2
172
     0
173
     1
174
     0
175
     0
176
     0
177
     0
178
     0
  0
ENDTAB
  0
ENDSEC
  0
SECTION
  2
BLOCKS
  0
BLOCK
  8
0
  2
$MODEL_SPACE
 70
     0
 10
0.0
 20
0.0
 30
0.0
  3
$MODEL_SPACE
  1

  0
ENDBLK
  5
1B
  8
0
  0
BLOCK
 67
     1
  8
0
  2
$PAPER_SPACE
 70
     0
 10
0.0
 20
0.0
 30
0.0
  3
$PAPER_SPACE
  1

  0
ENDBLK
  5
18
 67
     1
  8
0
  0
BLOCK
  8
0
  2
YA_N
 70
     0
 10
0.0
 20
0.0
 30
0.0
  3
YA_N
  1

  0
ENDBLK
  5
79FE
  8
0
  0
BLOCK
  8
0
  2
_OPEN
 70
     0
 10
0.0
 20
0.0
 30
0.0
  3
_OPEN
  1

  0
LINE
  5
7B50
  8
0
  6
BYBLOCK
 62
     0
 10
-1.0
 20
0.166667
 30
0.0
 11
0.0
 21
0.0
 31
0.0
  0
LINE
  5
7B51
  8
0
  6
BYBLOCK
 62
     0
 10
0.0
 20
0.0
 30
0.0
 11
-1.0
 21
-0.166667
 31
0.0
  0
LINE
  5
7B52
  8
0
  6
BYBLOCK
 62
     0
 10
0.0
 20
0.0
 30
0.0
 11
-1.0
 21
0.0
 31
0.0
  0
ENDBLK
  5
7B53
  8
0
  0
BLOCK
  8
0
  2
_DOT
 70
     0
 10
0.0
 20
0.0
 30
0.0
  3
_DOT
  1

  0
LINE
  5
7D69
  8
0
  6
BYBLOCK
 62
     0
 10
0.0
 20
0.0
 30
0.0
 11
-1.0
 21
0.0
 31
0.0
  0
POLYLINE
  5
7D6A
  8
0
  6
BYBLOCK
 62
     0
 66
     1
 10
0.0
 20
0.0
 30
0.0
 70
     1
 40
0.166667
 41
0.166667
  0
VERTEX
  5
8FE9
  8
0
  6
BYBLOCK
 62
     0
 10
-0.083333
 20
0.0
 30
0.0
 42
1.0
  0
VERTEX
  5
8FEA
  8
0
  6
BYBLOCK
 62
     0
 10
0.083333
 20
0.0
 30
0.0
 42
1.0
  0
SEQEND
  5
8FEB
  8
0
  6
BYBLOCK
 62
     0
  0
ENDBLK
  5
7D3B
  8
0
  0
BLOCK
  8
0
  2
*D3
 70
     1
 10
0.0
 20
0.0
 30
0.0
  3
*D3
  1

  0
LINE
  5
8FEC
  8
3
 62
     0
 10
6778.1474376553479
 20
3053.554669227151
 30
0.0
 11
6778.1474376553479
 21
2578.4288962645528
 31
0.0
  0
LINE
  5
8FED
  8
3
 62
     0
 10
7889.1474376553469
 20
2998.9124062271499
 30
0.0
 11
7889.1474376553469
 21
2578.4288962645528
 31
0.0
  0
LINE
  5
8FEE
  8
3
 62
     0
 10
6868.1474376553479
 20
2623.4288962645528
 30
0.0
 11
7799.1474376553479
 21
2623.4288962645528
 31
0.0
  0
INSERT
  5
8FEF
  8
3
 62
     0
  2
_OPEN
 10
6778.1474376553479
 20
2623.4288962645528
 30
0.0
 41
90.0
 42
90.0
 43
90.0
 50
180.0
  0
INSERT
  5
8FF0
  8
3
 62
     0
  2
_OPEN
 10
7889.1474376553469
 20
2623.4288962645528
 30
0.0
 41
90.0
 42
90.0
 43
90.0
  0
TEXT
  8
3
  40
135
  5
90C1
  62
0
  72
0
  71
0
 10
7086.15
 20
2496.98
 30
0.000000
  1
1111
  0
POINT
  5
8FF2
  8
DEFPOINTS
 62
     0
 10
6778.1474376553479
 20
3076.054669227151
 30
0.0
  0
POINT
  5
8FF3
  8
DEFPOINTS
 62
     0
 10
7889.1474376553469
 20
3021.4124062271512
 30
0.0
  0
POINT
  5
8FF4
  8
DEFPOINTS
 62
     0
 10
7889.1474376553469
 20
2623.4288962645528
 30
0.0
  0
ENDBLK
  5
85EA
  8
0
  0
BLOCK
  8
0
  2
*D4
 70
     1
 10
0.0
 20
0.0
 30
0.0
  3
*D4
  1

  0
LINE
  5
8FF5
  8
3
 62
     0
 10
8628.1474376553488
 20
3053.554669227151
 30
0.0
 11
8628.1474376553488
 21
2578.4288962645528
 31
0.0
  0
LINE
  5
8FF6
  8
3
 62
     0
 10
7979.1474376553479
 20
2623.4288962645528
 30
0.0
 11
8538.1474376553488
 21
2623.4288962645528
 31
0.0
  0
INSERT
  5
8FF7
  8
3
 62
     0
  2
_OPEN
 10
7889.1474376553469
 20
2623.4288962645528
 30
0.0
 41
90.0
 42
90.0
 43
90.0
 50
180.0
  0
INSERT
  5
8FF8
  8
3
 62
     0
  2
_OPEN
 10
8628.1474376553488
 20
2623.4288962645528
 30
0.0
 41
90.0
 42
90.0
 43
90.0
  0
TEXT
  8
3
  40
135
  5
90C2
  62
0
  72
0
  71
0
 10
7988.65
 20
2496.98
 30
0.000000
  1
739
  0
POINT
  5
8FFA
  8
DEFPOINTS
 62
     0
 10
7889.1474376553469
 20
3021.4124062271512
 30
0.0
  0
POINT
  5
8FFB
  8
DEFPOINTS
 62
     0
 10
8628.1474376553488
 20
3076.054669227151
 30
0.0
  0
POINT
  5
8FFC
  8
DEFPOINTS
 62
     0
 10
8628.1474376553488
 20
2623.4288962645528
 30
0.0
  0
ENDBLK
  5
85DF
  8
0
  0
BLOCK
  8
0
  2
*D5
 70
     1
 10
0.0
 20
0.0
 30
0.0
  3
*D5
  1

  0
LINE
  5
8FFD
  8
3
 62
     0
 10
6778.1474376553479
 20
3053.554669227151
 30
0.0
 11
6778.1474376553479
 21
2250.0718941813898
 31
0.0
  0
LINE
  5
8FFE
  8
3
 62
     0
 10
8628.1474376553488
 20
3053.554669227151
 30
0.0
 11
8628.1474376553488
 21
2250.0718941813898
 31
0.0
  0
LINE
  5
8FFF
  8
3
 62
     0
 10
6868.1474376553479
 20
2295.0718941813898
 30
0.0
 11
8538.1474376553488
 21
2295.0718941813898
 31
0.0
  0
INSERT
  5
9000
  8
3
 62
     0
  2
_OPEN
 10
6778.1474376553479
 20
2295.0718941813898
 30
0.0
 41
90.0
 42
90.0
 43
90.0
 50
180.0
  0
INSERT
  5
9001
  8
3
 62
     0
  2
_OPEN
 10
8628.1474376553488
 20
2295.0718941813898
 30
0.0
 41
90.0
 42
90.0
 43
90.0
  0
TEXT
  8
3
  40
135
  5
90C3
  62
0
  72
0
  71
0
 10
7508.34
 20
2168.62
 30
0.000000
  1
1850
  0
POINT
  5
9003
  8
DEFPOINTS
 62
     0
 10
6778.1474376553479
 20
3076.054669227151
 30
0.0
  0
POINT
  5
9004
  8
DEFPOINTS
 62
     0
 10
8628.1474376553488
 20
3076.054669227151
 30
0.0
  0
POINT
  5
9005
  8
DEFPOINTS
 62
     0
 10
8628.1474376553488
 20
2295.0718941813898
 30
0.0
  0
ENDBLK
  5
85F5
  8
0
  0
BLOCK
  8
0
  2
*D6
 70
     1
 10
0.0
 20
0.0
 30
0.0
  3
*D6
  1

  0
LINE
  5
9006
  8
3
 62
     0
 10
8706.6474376553488
 20
5596.11824922715
 30
0.0
 11
9114.0616956553495
 21
5596.11824922715
 31
0.0
  0
LINE
  5
9007
  8
3
 62
     0
 10
8706.6474376553488
 20
3796.11824922715
 30
0.0
 11
9114.0616956553476
 21
3796.11824922715
 31
0.0
  0
LINE
  5
9008
  8
3
 62
     0
 10
9069.0616956553495
 20
5506.1182492271491
 30
0.0
 11
9069.0616956553476
 21
3886.11824922715
 31
0.0
  0
INSERT
  5
9009
  8
3
 62
     0
  2
_OPEN
 10
9069.0616956553495
 20
5596.11824922715
 30
0.0
 41
90.0
 42
90.0
 43
90.0
 50
90.0
  0
INSERT
  5
900A
  8
3
 62
     0
  2
_OPEN
 10
9069.0616956553476
 20
3796.11824922715
 30
0.0
 41
90.0
 42
90.0
 43
90.0
 50
270.0
  0
TEXT
  8
3
  40
135
  5
90C4
  62
0
  72
0
  71
0
 10
8686.56
 20
4402.88
 30
0.000000
  1
φ1800
  0
POINT
  5
900C
  8
DEFPOINTS
 62
     0
 10
8684.1474376553488
 20
5596.11824922715
 30
0.0
  0
POINT
  5
900D
  8
DEFPOINTS
 62
     0
 10
8684.1474376553488
 20
3796.11824922715
 30
0.0
  0
POINT
  5
900E
  8
DEFPOINTS
 62
     0
 10
9069.0616956553476
 20
3796.11824922715
 30
0.0
  0
ENDBLK
  5
825D
  8
0
  0
BLOCK
  8
0
  2
*D7
 70
     1
 10
0.0
 20
0.0
 30
0.0
  3
*D7
  1

  0
LINE
  5
900F
  8
3
 62
     0
 10
8684.1474376553488
 20
5683.61824922715
 30
0.0
 11
8684.1474376553488
 21
7211.2087289752171
 31
0.0
  0
LINE
  5
9010
  8
3
 62
     0
 10
7889.1474376553469
 20
7047.555187372549
 30
0.0
 11
7889.1474376553469
 21
7211.2087289752171
 31
0.0
  0
LINE
  5
9011
  8
3
 62
     0
 10
8594.1474376553488
 20
7166.2087289752171
 30
0.0
 11
7979.1474376553479
 21
7166.2087289752171
 31
0.0
  0
INSERT
  5
9012
  8
3
 62
     0
  2
_OPEN
 10
8684.1474376553488
 20
7166.2087289752171
 30
0.0
 41
90.0
 42
90.0
 43
90.0
  0
INSERT
  5
9013
  8
3
 62
     0
  2
_OPEN
 10
7889.1474376553469
 20
7166.2087289752171
 30
0.0
 41
90.0
 42
90.0
 43
90.0
 50
180.0
  0
TEXT
  8
3
  40
135
  5
90C5
  62
0
  72
0
  71
0
 10
8027.04
 20
7039.76
 30
0.000000
  1
795
  0
POINT
  5
9015
  8
DEFPOINTS
 62
     0
 10
8684.1474376553488
 20
5661.118249227151
 30
0.0
  0
POINT
  5
9016
  8
DEFPOINTS
 62
     0
 10
7889.1474376553469
 20
7025.0551873725481
 30
0.0
  0
POINT
  5
9017
  8
DEFPOINTS
 62
     0
 10
7889.1474376553469
 20
7166.2087289752171
 30
0.0
  0
ENDBLK
  5
8670
  8
0
  0
BLOCK
  8
0
  2
*D8
 70
     1
 10
0.0
 20
0.0
 30
0.0
  3
*D8
  1

  0
LINE
  5
9018
  8
3
 62
     0
 10
6789.1474376553479
 20
5198.61824922715
 30
0.0
 11
6789.1474376553479
 21
7211.2087289752171
 31
0.0
  0
LINE
  5
9019
  8
3
 62
     0
 10
7799.1474376553479
 20
7166.2087289752171
 30
0.0
 11
6879.1474376553479
 21
7166.2087289752171
 31
0.0
  0
INSERT
  5
901A
  8
3
 62
     0
  2
_OPEN
 10
7889.1474376553469
 20
7166.2087289752171
 30
0.0
 41
90.0
 42
90.0
 43
90.0
  0
INSERT
  5
901B
  8
3
 62
     0
  2
_OPEN
 10
6789.1474376553479
 20
7166.2087289752171
 30
0.0
 41
90.0
 42
90.0
 43
90.0
 50
180.0
  0
TEXT
  8
3
  40
135
  5
90C6
  62
0
  72
0
  71
0
 10
7069.15
 20
7075.12
 30
0.000000
  1
(1150)
  0
POINT
  5
901D
  8
DEFPOINTS
 62
     0
 10
7889.1474376553469
 20
6855.407678258558
 30
0.0
  0
POINT
  5
901E
  8
DEFPOINTS
 62
     0
 10
6789.1474376553479
 20
5176.11824922715
 30
0.0
  0
POINT
  5
901F
  8
DEFPOINTS
 62
     0
 10
6789.1474376553479
 20
7166.2087289752171
 30
0.0
  0
ENDBLK
  5
865A
  8
0
  0
BLOCK
  8
0
  2
*D9
 70
     1
 10
0.0
 20
0.0
 30
0.0
  3
*D9
  1

  0
LINE
  5
9029
  8
3
 62
     0
 10
675.46575102905354
 20
3053.554669227151
 30
0.0
 11
675.46575102905354
 21
2628.4187662583299
 31
0.0
  0
LINE
  5
902A
  8
3
 62
     0
 10
3515.4657510290531
 20
2945.9689980150679
 30
0.0
 11
3515.4657510290531
 21
2628.4187662583299
 31
0.0
  0
LINE
  5
902B
  8
3
 62
     0
 10
765.46575102905354
 20
2673.418766258329
 30
0.0
 11
3425.4657510290531
 21
2673.418766258329
 31
0.0
  0
INSERT
  5
902C
  8
3
 62
     0
  2
_OPEN
 10
675.46575102905354
 20
2673.418766258329
 30
0.0
 41
90.0
 42
90.0
 43
90.0
 50
180.0
  0
INSERT
  5
902D
  8
3
 62
     0
  2
_OPEN
 10
3515.4657510290531
 20
2673.418766258329
 30
0.0
 41
90.0
 42
90.0
 43
90.0
  0
TEXT
  8
3
  40
135
  5
90C7
  62
0
  72
0
  71
0
 10
1907.54
 20
2546.97
 30
0.000000
  1
2840
  0
POINT
  5
902F
  8
DEFPOINTS
 62
     0
 10
675.46575102905354
 20
3076.054669227151
 30
0.0
  0
POINT
  5
9030
  8
DEFPOINTS
 62
     0
 10
3515.4657510290531
 20
2968.468998015067
 30
0.0
  0
POINT
  5
9031
  8
DEFPOINTS
 62
     0
 10
3515.4657510290531
 20
2673.418766258329
 30
0.0
  0
ENDBLK
  5
86AD
  8
0
  0
BLOCK
  8
0
  2
*D10
 70
     1
 10
0.0
 20
0.0
 30
0.0
  3
*D10
  1

  0
LINE
  5
9032
  8
3
 62
     0
 10
4575.4657510290517
 20
3053.554669227151
 30
0.0
 11
4575.4657510290517
 21
2628.4187662583299
 31
0.0
  0
LINE
  5
9033
  8
3
 62
     0
 10
3605.4657510290522
 20
2673.418766258329
 30
0.0
 11
4485.4657510290517
 21
2673.418766258329
 31
0.0
  0
INSERT
  5
9034
  8
3
 62
     0
  2
_OPEN
 10
3515.4657510290531
 20
2673.418766258329
 30
0.0
 41
90.0
 42
90.0
 43
90.0
 50
180.0
  0
INSERT
  5
9035
  8
3
 62
     0
  2
_OPEN
 10
4575.4657510290517
 20
2673.418766258329
 30
0.0
 41
90.0
 42
90.0
 43
90.0
  0
TEXT
  8
3
  40
135
  5
90C8
  62
0
  72
0
  71
0
 10
3775.47
 20
2546.97
 30
0.000000
  1
1060
  0
POINT
  5
9037
  8
DEFPOINTS
 62
     0
 10
3515.4657510290531
 20
2968.468998015067
 30
0.0
  0
POINT
  5
9038
  8
DEFPOINTS
 62
     0
 10
4575.4657510290517
 20
3076.054669227151
 30
0.0
  0
POINT
  5
9039
  8
DEFPOINTS
 62
     0
 10
4575.4657510290517
 20
2673.418766258329
 30
0.0
  0
ENDBLK
  5
86E5
  8
0
  0
BLOCK
  8
0
  2
*D11
 70
     1
 10
0.0
 20
0.0
 30
0.0
  3
*D11
  1

  0
LINE
  5
9020
  8
3
 62
     0
 10
675.46575102905354
 20
3053.554669227151
 30
0.0
 11
675.46575102905354
 21
2222.717789878232
 31
0.0
  0
LINE
  5
9021
  8
3
 62
     0
 10
4575.4657510290517
 20
3053.554669227151
 30
0.0
 11
4575.4657510290517
 21
2222.717789878232
 31
0.0
  0
LINE
  5
9022
  8
3
 62
     0
 10
765.46575102905354
 20
2267.717789878232
 30
0.0
 11
4485.4657510290517
 21
2267.717789878232
 31
0.0
  0
INSERT
  5
9023
  8
3
 62
     0
  2
_OPEN
 10
675.46575102905354
 20
2267.717789878232
 30
0.0
 41
90.0
 42
90.0
 43
90.0
 50
180.0
  0
INSERT
  5
9024
  8
3
 62
     0
  2
_OPEN
 10
4575.4657510290517
 20
2267.717789878232
 30
0.0
 41
90.0
 42
90.0
 43
90.0
  0
TEXT
  8
3
  40
135
  5
90C9
  62
0
  72
0
  71
0
 10
2510.68
 20
2141.27
 30
0.000000
  1
3900
  0
POINT
  5
9026
  8
DEFPOINTS
 62
     0
 10
675.46575102905354
 20
3076.054669227151
 30
0.0
  0
POINT
  5
9027
  8
DEFPOINTS
 62
     0
 10
4575.4657510290517
 20
3076.054669227151
 30
0.0
  0
POINT
  5
9028
  8
DEFPOINTS
 62
     0
 10
4575.4657510290517
 20
2267.717789878232
 30
0.0
  0
ENDBLK
  5
86B8
  8
0
  0
BLOCK
  8
0
  2
*D12
 70
     1
 10
0.0
 20
0.0
 30
0.0
  3
*D12
  1

  0
LINE
  5
903A
  8
3
 62
     0
 10
675.46575102905354
 20
3538.61824922715
 30
0.0
 11
675.46575102905365
 21
7102.8734099349231
 31
0.0
  0
LINE
  5
903B
  8
3
 62
     0
 10
4680.4657510290526
 20
6701.6182492271491
 30
0.0
 11
4680.4657510290526
 21
7102.8734099349231
 31
0.0
  0
LINE
  5
903C
  8
3
 62
     0
 10
765.46575102905376
 20
7057.873409934924
 30
0.0
 11
4590.4657510290526
 21
7057.873409934924
 31
0.0
  0
INSERT
  5
903D
  8
3
 62
     0
  2
_OPEN
 10
675.46575102905365
 20
7057.873409934924
 30
0.0
 41
90.0
 42
90.0
 43
90.0
 50
180.0
  0
INSERT
  5
903E
  8
3
 62
     0
  2
_OPEN
 10
4680.4657510290526
 20
7057.873409934924
 30
0.0
 41
90.0
 42
90.0
 43
90.0
  0
TEXT
  8
3
  40
135
  5
90CA
  62
0
  72
0
  71
0
 10
2407.97
 20
6931.42
 30
0.000000
  1
4005
  0
POINT
  5
9040
  8
DEFPOINTS
 62
     0
 10
675.46575102905354
 20
3516.11824922715
 30
0.0
  0
POINT
  5
9041
  8
DEFPOINTS
 62
     0
 10
4680.4657510290526
 20
6679.1182492271491
 30
0.0
  0
POINT
  5
9042
  8
DEFPOINTS
 62
     0
 10
4680.4657510290526
 20
7057.873409934924
 30
0.0
  0
ENDBLK
  5
86A2
  8
0
  0
BLOCK
  8
0
  2
*D13
 70
     1
 10
0.0
 20
0.0
 30
0.0
  3
*D13
  1

  0
LINE
  5
9043
  8
3
 62
     0
 10
4680.4657510290526
 20
6724.1182492271491
 30
0.0
 11
4680.4657510290526
 21
6848.9506352395547
 31
0.0
  0
LINE
  5
9044
  8
3
 62
     0
 10
3515.4657510290531
 20
6627.6196802527547
 30
0.0
 11
3515.4657510290531
 21
6848.9506352395547
 31
0.0
  0
LINE
  5
9045
  8
3
 62
     0
 10
4590.4657510290526
 20
6803.9506352395547
 30
0.0
 11
3605.4657510290522
 21
6803.9506352395547
 31
0.0
  0
INSERT
  5
9046
  8
3
 62
     0
  2
_OPEN
 10
4680.4657510290526
 20
6803.9506352395547
 30
0.0
 41
90.0
 42
90.0
 43
90.0
  0
INSERT
  5
9047
  8
3
 62
     0
  2
_OPEN
 10
3515.4657510290531
 20
6803.9506352395547
 30
0.0
 41
90.0
 42
90.0
 43
90.0
 50
180.0
  0
TEXT
  8
3
  40
135
  5
90CB
  62
0
  72
0
  71
0
 10
3827.97
 20
6677.50
 30
0.000000
  1
1165
  0
POINT
  5
9049
  8
DEFPOINTS
 62
     0
 10
4680.4657510290526
 20
6701.6182492271491
 30
0.0
  0
POINT
  5
904A
  8
DEFPOINTS
 62
     0
 10
3515.4657510290531
 20
6605.1196802527547
 30
0.0
  0
POINT
  5
904B
  8
DEFPOINTS
 62
     0
 10
3515.4657510290531
 20
6803.9506352395547
 30
0.0
  0
ENDBLK
  5
86FA
  8
0
  0
BLOCK
  8
0
  2
*D14
 70
     1
 10
0.0
 20
0.0
 30
0.0
  3
*D14
  1

  0
LINE
  5
904C
  8
3
 62
     0
 10
1961.4657510290519
 20
4849.6182492271491
 30
0.0
 11
1961.4657510290519
 21
6848.9506352395547
 31
0.0
  0
LINE
  5
904D
  8
3
 62
     0
 10
3425.4657510290531
 20
6803.9506352395547
 30
0.0
 11
2051.4657510290522
 21
6803.9506352395547
 31
0.0
  0
INSERT
  5
904E
  8
3
 62
     0
  2
_OPEN
 10
3515.4657510290531
 20
6803.9506352395547
 30
0.0
 41
90.0
 42
90.0
 43
90.0
  0
INSERT
  5
904F
  8
3
 62
     0
  2
_OPEN
 10
1961.4657510290519
 20
6803.9506352395547
 30
0.0
 41
90.0
 42
90.0
 43
90.0
 50
180.0
  0
TEXT
  8
3
  40
135
  5
90CC
  62
0
  72
0
  71
0
 10
2468.47
 20
6677.50
 30
0.000000
  1
1554
  0
POINT
  5
9051
  8
DEFPOINTS
 62
     0
 10
3515.4657510290531
 20
6605.1196802527547
 30
0.0
  0
POINT
  5
9052
  8
DEFPOINTS
 62
     0
 10
1961.4657510290519
 20
4827.1182492271491
 30
0.0
  0
POINT
  5
9053
  8
DEFPOINTS
 62
     0
 10
1961.4657510290519
 20
6803.9506352395547
 30
0.0
  0
ENDBLK
  5
86EF
  8
0
  0
BLOCK
  8
0
  2
*D15
 70
     1
 10
0.0
 20
0.0
 30
0.0
  3
*D15
  1

  0
LINE
  5
9054
  8
3
 62
     0
 10
4702.7497840290534
 20
6617.4080872271506
 30
0.0
 11
5344.0011884950673
 21
6617.4080872271506
 31
0.0
  0
LINE
  5
9055
  8
3
 62
     0
 10
4702.9657510290526
 20
4767.1182492271491
 30
0.0
 11
5344.0011884950663
 21
4767.1182492271491
 31
0.0
  0
LINE
  5
9056
  8
3
 62
     0
 10
5299.0011884950663
 20
6527.4080872271497
 30
0.0
 11
5299.0011884950654
 21
4857.1182492271482
 31
0.0
  0
INSERT
  5
9057
  8
3
 62
     0
  2
_OPEN
 10
5299.0011884950663
 20
6617.4080872271506
 30
0.0
 41
90.0
 42
90.0
 43
90.0
 50
90.0
  0
INSERT
  5
9058
  8
3
 62
     0
  2
_OPEN
 10
5299.0011884950654
 20
4767.1182492271491
 30
0.0
 41
90.0
 42
90.0
 43
90.0
 50
270.0
  0
TEXT
  8
3
  40
135
  5
90CD
  62
0
  72
0
  71
0
 10
4916.50
 20
5453.31
 30
0.000000
  1
1850
  0
POINT
  5
905A
  8
DEFPOINTS
 62
     0
 10
4680.2497840290534
 20
6617.4080872271506
 30
0.0
  0
POINT
  5
905B
  8
DEFPOINTS
 62
     0
 10
4680.4657510290526
 20
4767.1182492271491
 30
0.0
  0
POINT
  5
905C
  8
DEFPOINTS
 62
     0
 10
5299.0011884950654
 20
4767.1182492271491
 30
0.0
  0
ENDBLK
  5
868C
  8
0
  0
BLOCK
  8
0
  2
*D16
 70
     1
 10
0.0
 20
0.0
 30
0.0
  3
*D16
  1

  0
LINE
  5
905D
  8
3
 62
     0
 10
5321.5011884950663
 20
6617.4080872271506
 30
0.0
 11
5701.4882844578842
 21
6617.4080872271506
 31
0.0
  0
LINE
  5
905E
  8
3
 62
     0
 10
4794.2496629828092
 20
4696.11824922715
 30
0.0
 11
5701.4882844578833
 21
4696.11824922715
 31
0.0
  0
LINE
  5
905F
  8
3
 62
     0
 10
5656.4882844578833
 20
6527.4080872271497
 30
0.0
 11
5656.4882844578824
 21
4786.11824922715
 31
0.0
  0
INSERT
  5
9060
  8
3
 62
     0
  2
_OPEN
 10
5656.4882844578833
 20
6617.4080872271506
 30
0.0
 41
90.0
 42
90.0
 43
90.0
 50
90.0
  0
INSERT
  5
9061
  8
3
 62
     0
  2
_OPEN
 10
5656.4882844578824
 20
4696.11824922715
 30
0.0
 41
90.0
 42
90.0
 43
90.0
 50
270.0
  0
TEXT
  8
3
  40
135
  5
90CE
  62
0
  72
0
  71
0
 10
5273.99
 20
5417.81
 30
0.000000
  1
1921
  0
POINT
  5
9063
  8
DEFPOINTS
 62
     0
 10
5299.0011884950654
 20
6617.4080872271506
 30
0.0
  0
POINT
  5
9064
  8
DEFPOINTS
 62
     0
 10
4771.7496629828083
 20
4696.11824922715
 30
0.0
  0
POINT
  5
9065
  8
DEFPOINTS
 62
     0
 10
5656.4882844578824
 20
4696.11824922715
 30
0.0
  0
ENDBLK
  5
8697
  8
0
  0
BLOCK
  8
0
  2
*D17
 70
     1
 10
0.0
 20
0.0
 30
0.0
  3
*D17
  1

  0
LINE
  5
9066
  8
3
 62
     0
 10
4597.9657510290526
 20
3366.11824922715
 30
0.0
 11
5701.4882844578833
 21
3366.1182492271491
 31
0.0
  0
LINE
  5
9067
  8
3
 62
     0
 10
5656.4882844578824
 20
4606.11824922715
 30
0.0
 11
5656.4882844578824
 21
3456.11824922715
 31
0.0
  0
INSERT
  5
9068
  8
3
 62
     0
  2
_OPEN
 10
5656.4882844578824
 20
4696.11824922715
 30
0.0
 41
90.0
 42
90.0
 43
90.0
 50
90.0
  0
INSERT
  5
9069
  8
3
 62
     0
  2
_OPEN
 10
5656.4882844578824
 20
3366.1182492271491
 30
0.0
 41
90.0
 42
90.0
 43
90.0
 50
270.0
  0
TEXT
  8
3
  40
135
  5
90CF
  62
0
  72
0
  71
0
 10
5273.99
 20
3792.17
 30
0.000000
  1
1330
  0
POINT
  5
906B
  8
DEFPOINTS
 62
     0
 10
4771.7496629828083
 20
4696.11824922715
 30
0.0
  0
POINT
  5
906C
  8
DEFPOINTS
 62
     0
 10
4575.4657510290517
 20
3366.11824922715
 30
0.0
  0
POINT
  5
906D
  8
DEFPOINTS
 62
     0
 10
5656.4882844578824
 20
3366.1182492271491
 30
0.0
  0
ENDBLK
  5
86C2
  8
0
  0
BLOCK
  8
0
  2
*D18
 70
     1
 10
0.0
 20
0.0
 30
0.0
  3
*D18
  1

  0
LINE
  5
906E
  8
3
 62
     0
 10
4597.9657510290526
 20
3226.054669227151
 30
0.0
 11
5701.4882844578833
 21
3226.05466922715
 31
0.0
  0
LINE
  5
906F
  8
3
 62
     0
 10
5656.4882844578824
 20
3456.11824922715
 30
0.0
 11
5656.4882844578824
 21
3546.1182492271491
 31
0.0
  0
LINE
  5
9070
  8
3
 62
     0
 10
5656.4882844578824
 20
3136.05466922715
 30
0.0
 11
5656.4882844578824
 21
3046.05466922715
 31
0.0
  0
LINE
  5
9071
  8
3
 62
     0
 10
5656.4882844578824
 20
3296.0864592271491
 30
0.0
 11
5971.4882844578824
 21
3390.5864592271491
 31
0.0
  0
LINE
  5
9072
  8
3
 62
     0
 10
5971.4882844578824
 20
3390.5864592271491
 30
0.0
 11
5971.4882844578824
 21
3802.0150306557221
 31
0.0
  0
TEXT
  8
3
  40
135
  5
90D0
  62
0
  72
0
  71
0
 10
5588.99
 20
3357.35
 30
0.000000
  1
140
  0
LINE
  5
9074
  8
3
 62
     0
 10
5656.4882844578824
 20
3366.1182492271491
 30
0.0
 11
5656.4882844578824
 21
3226.05466922715
 31
0.0
  0
INSERT
  5
9075
  8
3
 62
     0
  2
_OPEN
 10
5656.4882844578824
 20
3366.1182492271491
 30
0.0
 41
90.0
 42
90.0
 43
90.0
 50
270.0
  0
INSERT
  5
9076
  8
3
 62
     0
  2
_OPEN
 10
5656.4882844578824
 20
3226.05466922715
 30
0.0
 41
90.0
 42
90.0
 43
90.0
 50
90.0
  0
POINT
  5
9077
  8
DEFPOINTS
 62
     0
 10
4575.4657510290517
 20
3366.11824922715
 30
0.0
  0
POINT
  5
9078
  8
DEFPOINTS
 62
     0
 10
4575.4657510290517
 20
3226.054669227151
 30
0.0
  0
POINT
  5
9079
  8
DEFPOINTS
 62
     0
 10
5656.4882844578824
 20
3226.05466922715
 30
0.0
  0
ENDBLK
  5
86D0
  8
0
  0
BLOCK
  8
0
  2
*D19
 70
     1
 10
0.0
 20
0.0
 30
0.0
  3
*D19
  1

  0
LINE
  5
907A
  8
3
 62
     0
 10
4597.9657510290526
 20
3076.054669227151
 30
0.0
 11
5701.4882844578833
 21
3076.054669227151
 31
0.0
  0
LINE
  5
907B
  8
3
 62
     0
 10
5656.4882844578824
 20
3316.05466922715
 30
0.0
 11
5656.4882844578824
 21
3406.054669227151
 31
0.0
  0
LINE
  5
907C
  8
3
 62
     0
 10
5656.4882844578824
 20
2986.05466922715
 30
0.0
 11
5656.4882844578824
 21
2484.6260977985789
 31
0.0
  0
INSERT
  5
907D
  8
3
 62
     0
  2
_OPEN
 10
5656.4882844578824
 20
3226.05466922715
 30
0.0
 41
90.0
 42
90.0
 43
90.0
 50
270.0
  0
INSERT
  5
907E
  8
3
 62
     0
  2
_OPEN
 10
5656.4882844578824
 20
3076.054669227151
 30
0.0
 41
90.0
 42
90.0
 43
90.0
 50
90.0
  0
TEXT
  8
3
  40
135
  5
90D1
  62
0
  72
0
  71
0
 10
5273.99
 20
2451.39
 30
0.000000
  1
150
  0
POINT
  5
9080
  8
DEFPOINTS
 62
     0
 10
4575.4657510290517
 20
3226.054669227151
 30
0.0
  0
POINT
  5
9081
  8
DEFPOINTS
 62
     0
 10
4575.4657510290517
 20
3076.054669227151
 30
0.0
  0
POINT
  5
9082
  8
DEFPOINTS
 62
     0
 10
5656.4882844578824
 20
3076.054669227151
 30
0.0
  0
ENDBLK
  5
86DB
  8
0
  0
BLOCK
  8
0
  2
*D20
 70
     1
 10
0.0
 20
0.0
 30
0.0
  3
*D20
  1

  0
LINE
  5
9083
  8
3
 62
     0
 10
5678.9882844578833
 20
3076.054669227151
 30
0.0
 11
6142.9753094567559
 21
3076.054669227151
 31
0.0
  0
LINE
  5
9084
  8
3
 62
     0
 10
5678.9882844578833
 20
6617.4080872271506
 30
0.0
 11
6142.9753094567559
 21
6617.4080872271506
 31
0.0
  0
LINE
  5
9085
  8
3
 62
     0
 10
6097.9753094567568
 20
3166.05466922715
 30
0.0
 11
6097.9753094567568
 21
6527.4080872271497
 31
0.0
  0
INSERT
  5
9086
  8
3
 62
     0
  2
_OPEN
 10
6097.9753094567568
 20
3076.054669227151
 30
0.0
 41
90.0
 42
90.0
 43
90.0
 50
270.0
  0
INSERT
  5
9087
  8
3
 62
     0
  2
_OPEN
 10
6097.9753094567568
 20
6617.4080872271506
 30
0.0
 41
90.0
 42
90.0
 43
90.0
 50
90.0
  0
TEXT
  8
3
  40
135
  5
90D2
  62
0
  72
0
  71
0
 10
5715.48
 20
4607.78
 30
0.000000
  1
3541
  0
POINT
  5
9089
  8
DEFPOINTS
 62
     0
 10
5656.4882844578824
 20
3076.054669227151
 30
0.0
  0
POINT
  5
908A
  8
DEFPOINTS
 62
     0
 10
5656.4882844578824
 20
6617.4080872271506
 30
0.0
  0
POINT
  5
908B
  8
DEFPOINTS
 62
     0
 10
6097.9753094567568
 20
6617.4080872271506
 30
0.0
  0
ENDBLK
  5
8705
  8
0
  0
BLOCK
  8
0
  2
*D21
 70
     1
 10
0.0
 20
0.0
 30
0.0
  3
*D21
  1

  0
LINE
  5
908C
  8
3
 62
     0
 10
7229.1474376553479
 20
6701.6182492271491
 30
0.0
 11
7229.1474376553479
 21
6898.7585537930527
 31
0.0
  0
LINE
  5
908D
  8
3
 62
     0
 10
8549.1474376553488
 20
6701.618249227151
 30
0.0
 11
8549.1474376553488
 21
6898.7585537930527
 31
0.0
  0
LINE
  5
908E
  8
3
 62
     0
 10
7319.1474376553488
 20
6853.7585537930527
 30
0.0
 11
8459.1474376553488
 21
6853.7585537930527
 31
0.0
  0
INSERT
  5
908F
  8
3
 62
     0
  2
_OPEN
 10
7229.1474376553479
 20
6853.7585537930527
 30
0.0
 41
90.0
 42
90.0
 43
90.0
 50
180.0
  0
INSERT
  5
9090
  8
3
 62
     0
  2
_OPEN
 10
8549.1474376553488
 20
6853.7585537930527
 30
0.0
 41
90.0
 42
90.0
 43
90.0
  0
TEXT
  8
3
  40
135
  5
90D3
  62
0
  72
0
  71
0
 10
7619.15
 20
6727.31
 30
0.000000
  1
1320
  0
POINT
  5
9092
  8
DEFPOINTS
 62
     0
 10
7229.1474376553479
 20
6679.11824922715
 30
0.0
  0
POINT
  5
9093
  8
DEFPOINTS
 62
     0
 10
8549.1474376553488
 20
6679.118249227151
 30
0.0
  0
POINT
  5
9094
  8
DEFPOINTS
 62
     0
 10
8549.1474376553488
 20
6853.7585537930527
 30
0.0
  0
ENDBLK
  5
864F
  8
0
  0
BLOCK
  8
0
  2
*D22
 70
     1
 10
0.0
 20
0.0
 30
0.0
  3
*D22
  1

  0
LINE
  5
9095
  8
3
 62
     0
 10
4597.9657510290499
 20
7839.0635380000012
 30
0.0
 11
5481.9488171270332
 21
7839.0635380000012
 31
0.0
  0
LINE
  5
9096
  8
3
 62
     0
 10
4597.9657510290499
 20
9689.0635380000003
 30
0.0
 11
5481.9488171270332
 21
9689.0635380000003
 31
0.0
  0
LINE
  5
9097
  8
3
 62
     0
 10
5436.9488171270332
 20
7929.0635380000012
 30
0.0
 11
5436.9488171270332
 21
9599.0635380000003
 31
0.0
  0
INSERT
  5
9098
  8
3
 62
     0
  2
_OPEN
 10
5436.9488171270332
 20
7839.0635380000012
 30
0.0
 41
90.0
 42
90.0
 43
90.0
 50
270.0
  0
INSERT
  5
9099
  8
3
 62
     0
  2
_OPEN
 10
5436.9488171270332
 20
9689.0635380000003
 30
0.0
 41
90.0
 42
90.0
 43
90.0
 50
90.0
  0
TEXT
  8
3
  40
135
  5
90D4
  62
0
  72
0
  71
0
 10
5054.45
 20
8525.11
 30
0.000000
  1
1850
  0
POINT
  5
909B
  8
DEFPOINTS
 62
     0
 10
4575.4657510290499
 20
7839.0635380000012
 30
0.0
  0
POINT
  5
909C
  8
DEFPOINTS
 62
     0
 10
4575.4657510290499
 20
9689.0635380000003
 30
0.0
  0
POINT
  5
909D
  8
DEFPOINTS
 62
     0
 10
5436.9488171270332
 20
9689.0635380000003
 30
0.0
  0
ENDBLK
  5
881D
  8
0
  0
BLOCK
  8
0
  2
*D23
 70
     1
 10
0.0
 20
0.0
 30
0.0
  3
*D23
  1

  0
LINE
  5
909E
  8
3
 62
     0
 10
675.46575102905081
 20
7816.5635380000012
 30
0.0
 11
675.46575102905081
 21
7312.77823410162
 31
0.0
  0
LINE
  5
909F
  8
3
 62
     0
 10
4575.4657510290499
 20
7816.5635380000012
 30
0.0
 11
4575.4657510290499
 21
7312.77823410162
 31
0.0
  0
LINE
  5
90A0
  8
3
 62
     0
 10
765.46575102905069
 20
7357.77823410162
 30
0.0
 11
4485.4657510290499
 21
7357.77823410162
 31
0.0
  0
INSERT
  5
90A1
  8
3
 62
     0
  2
_OPEN
 10
675.46575102905081
 20
7357.77823410162
 30
0.0
 41
90.0
 42
90.0
 43
90.0
 50
180.0
  0
INSERT
  5
90A2
  8
3
 62
     0
  2
_OPEN
 10
4575.4657510290499
 20
7357.77823410162
 30
0.0
 41
90.0
 42
90.0
 43
90.0
  0
TEXT
  8
3
  40
135
  5
90D5
  62
0
  72
0
  71
0
 10
2445.48
 20
7231.33
 30
0.000000
  1
3900
  0
POINT
  5
90A4
  8
DEFPOINTS
 62
     0
 10
675.46575102905081
 20
7839.0635380000012
 30
0.0
  0
POINT
  5
90A5
  8
DEFPOINTS
 62
     0
 10
4575.4657510290499
 20
7839.0635380000012
 30
0.0
  0
POINT
  5
90A6
  8
DEFPOINTS
 62
     0
 10
4575.4657510290499
 20
7357.77823410162
 30
0.0
  0
ENDBLK
  5
8829
  8
0
  0
BLOCK
  8
0
  2
*D24
 70
     1
 10
0.0
 20
0.0
 30
0.0
  3
*D24
  1

  0
LINE
  5
90A7
  8
3
 62
     0
 10
675.46575102905081
 20
9061.5635379999985
 30
0.0
 11
675.46575102905092
 21
10041.31577435536
 31
0.0
  0
LINE
  5
90A8
  8
3
 62
     0
 10
2365.4657510290499
 20
9996.3157743553602
 30
0.0
 11
765.46575102905092
 21
9996.3157743553602
 31
0.0
  0
INSERT
  5
90A9
  8
3
 62
     0
  2
_OPEN
 10
2455.4657510290499
 20
9996.3157743553602
 30
0.0
 41
90.0
 42
90.0
 43
90.0
  0
INSERT
  5
90AA
  8
3
 62
     0
  2
_OPEN
 10
675.46575102905092
 20
9996.3157743553602
 30
0.0
 41
90.0
 42
90.0
 43
90.0
 50
180.0
  0
TEXT
  8
3
  40
135
  5
90D6
  62
0
  72
0
  71
0
 10
1295.47
 20
9869.87
 30
0.000000
  1
1780
  0
POINT
  5
90AC
  8
DEFPOINTS
 62
     0
 10
2455.4657510290499
 20
9689.0635380000003
 30
0.0
  0
POINT
  5
90AD
  8
DEFPOINTS
 62
     0
 10
675.46575102905081
 20
9039.0635380000003
 30
0.0
  0
POINT
  5
90AE
  8
DEFPOINTS
 62
     0
 10
675.46575102905092
 20
9996.3157743553602
 30
0.0
  0
ENDBLK
  5
8834
  8
0
  0
BLOCK
  8
0
  2
*D25
 70
     1
 10
0.0
 20
0.0
 30
0.0
  3
*D25
  1

  0
LINE
  5
90AF
  8
3
 62
     0
 10
652.96575102905069
 20
9039.0635380000003
 30
0.0
 11
388.33370302905269
 21
9039.0635380000003
 31
0.0
  0
LINE
  5
90B0
  8
3
 62
     0
 10
652.96575102905069
 20
7839.0635380000012
 30
0.0
 11
388.33370302905251
 21
7839.0635380000012
 31
0.0
  0
LINE
  5
90B1
  8
3
 62
     0
 10
433.3337030290528
 20
8949.0635380000003
 30
0.0
 11
433.33370302905251
 21
7929.0635380000012
 31
0.0
  0
INSERT
  5
90B2
  8
3
 62
     0
  2
_OPEN
 10
433.3337030290528
 20
9039.0635380000003
 30
0.0
 41
90.0
 42
90.0
 43
90.0
 50
90.0
  0
INSERT
  5
90B3
  8
3
 62
     0
  2
_OPEN
 10
433.33370302905251
 20
7839.0635380000012
 30
0.0
 41
90.0
 42
90.0
 43
90.0
 50
270.0
  0
TEXT
  8
3
  40
135
  5
90D7
  62
0
  72
0
  71
0
 10
50.8337
 20
8193.83
 30
0.000000
  1
1200
  0
POINT
  5
90B5
  8
DEFPOINTS
 62
     0
 10
675.46575102905081
 20
9039.0635380000003
 30
0.0
  0
POINT
  5
90B6
  8
DEFPOINTS
 62
     0
 10
675.46575102905081
 20
7839.0635380000012
 30
0.0
  0
POINT
  5
90B7
  8
DEFPOINTS
 62
     0
 10
433.33370302905251
 20
7839.0635380000012
 30
0.0
  0
ENDBLK
  5
8840
  8
0
  0
BLOCK
  8
0
  2
*D26
 70
     1
 10
0.0
 20
0.0
 30
0.0
  3
*D26
  1

  0
LINE
  5
90B8
  8
3
 62
     0
 10
4575.4657510290499
 20
9711.5635380000003
 30
0.0
 11
4575.4657510290499
 21
10041.31577435536
 31
0.0
  0
LINE
  5
90B9
  8
3
 62
     0
 10
2455.4657510290499
 20
9711.5635380000003
 30
0.0
 11
2455.4657510290499
 21
10041.31577435536
 31
0.0
  0
LINE
  5
90BA
  8
3
 62
     0
 10
4485.4657510290499
 20
9996.3157743553602
 30
0.0
 11
2545.4657510290508
 21
9996.3157743553602
 31
0.0
  0
INSERT
  5
90BB
  8
3
 62
     0
  2
_OPEN
 10
4575.4657510290499
 20
9996.3157743553602
 30
0.0
 41
90.0
 42
90.0
 43
90.0
  0
INSERT
  5
90BC
  8
3
 62
     0
  2
_OPEN
 10
2455.4657510290499
 20
9996.3157743553602
 30
0.0
 41
90.0
 42
90.0
 43
90.0
 50
180.0
  0
TEXT
  8
3
  40
135
  5
90D8
  62
0
  72
0
  71
0
 10
3238.39
 20
9869.87
 30
0.000000
  1
2120
  0
POINT
  5
90BE
  8
DEFPOINTS
 62
     0
 10
4575.4657510290499
 20
9689.0635380000003
 30
0.0
  0
POINT
  5
90BF
  8
DEFPOINTS
 62
     0
 10
2455.4657510290499
 20
9689.0635380000003
 30
0.0
  0
POINT
  5
90C0
  8
DEFPOINTS
 62
     0
 10
2455.4657510290499
 20
9996.3157743553602
 30
0.0
  0
ENDBLK
  5
884C
  8
0
  0
ENDSEC
  0
SECTION
  2
ENTITIES
  0
INSERT
  5
7ADD
  8
0
  2
YA_N
 10
12518.736613999999
 20
-6524.6833909999987
 30
0.0
  0
INSERT
  5
7AF5
  8
0
  2
YA_N
 10
18386.038918999999
 20
2975.8020809999989
 30
0.0
  0
INSERT
  5
7DA2
  8
0
  2
YA_N
 10
12518.736613999999
 20
-6524.6833909999987
 30
0.0
  0
INSERT
  5
7DB4
  8
0
  2
YA_N
 10
18386.038918999999
 20
2975.8020809999989
 30
0.0
  0
LINE
  5
80D9
  8
1
 10
6778.1474376553479
 20
3516.11824922715
 30
0.0
 11
8628.1474376553488
 21
3516.11824922715
 31
0.0
  0
LINE
  5
80DA
  8
1
 10
6778.1474376553479
 20
3366.11824922715
 30
0.0
 11
8628.1474376553488
 21
3366.11824922715
 31
0.0
  0
LINE
  5
80E7
  8
1
 10
6853.1474376553479
 20
3516.11824922715
 30
0.0
 11
6778.1474376553479
 21
3516.11824922715
 31
0.0
  0
LINE
  5
80E8
  8
1
 10
6853.1474376553479
 20
3366.11824922715
 30
0.0
 11
6778.1474376553479
 21
3366.11824922715
 31
0.0
  0
LINE
  5
80EA
  8
2
 10
7889.1474376553469
 20
3021.4124062271512
 30
0.0
 11
7889.1474376553469
 21
6773.0185956053756
 31
0.0
  0
LINE
  5
80EB
  8
1
 10
8549.1474376553506
 20
3516.11824922715
 30
0.0
 11
8549.1474376553488
 21
6619.2122550463964
 31
0.0
  0
LINE
  5
80EC
  8
1
 10
8684.1474376553488
 20
3731.1182492271491
 30
0.0
 11
8684.1474376553488
 21
5661.118249227151
 31
0.0
  0
LINE
  5
80EE
  8
1
 10
8553.1474376553488
 20
3366.11824922715
 30
0.0
 11
8628.1474376553488
 21
3366.11824922715
 31
0.0
  0
LINE
  5
80EF
  8
1
 10
8553.1474376553488
 20
3516.11824922715
 30
0.0
 11
8628.1474376553488
 21
3516.11824922715
 31
0.0
  0
LINE
  5
80F0
  8
1
 10
8549.1474376553488
 20
3796.11824922715
 30
0.0
 11
8684.1474376553488
 21
3796.11824922715
 31
0.0
  0
LINE
  5
80F1
  8
1
 10
8549.1474376553488
 20
5596.11824922715
 30
0.0
 11
8684.1474376553488
 21
5596.11824922715
 31
0.0
  0
INSERT
  5
8103
  8
0
  2
YA_N
 10
12518.736613999999
 20
-6524.6833909999987
 30
0.0
  0
LINE
  5
8105
  8
2
 10
6689.1474376553469
 20
4696.11824922715
 30
0.0
 11
8789.9005086553479
 21
4696.11824922715
 31
0.0
  0
LINE
  5
8106
  8
1
 10
6789.1474376553479
 20
3581.11824922715
 30
0.0
 11
6789.1474376553479
 21
5176.11824922715
 31
0.0
  0
LINE
  5
8107
  8
1
 10
6989.1474376553469
 20
5176.11824922715
 30
0.0
 11
6989.1474376553469
 21
3581.11824922715
 31
0.0
  0
LINE
  5
8108
  8
1
 10
6989.1474376553469
 20
3581.11824922715
 30
0.0
 11
6789.1474376553479
 21
3581.11824922715
 31
0.0
  0
LINE
  5
8109
  8
1
 10
6949.1474376553469
 20
3716.11824922715
 30
0.0
 11
6949.1474376553469
 21
4046.11824922715
 31
0.0
  0
LINE
  5
810A
  8
1
 10
6829.1474376553469
 20
3716.11824922715
 30
0.0
 11
6829.1474376553469
 21
4046.11824922715
 31
0.0
  0
LINE
  5
810B
  8
1
 10
6829.1474376553479
 20
5096.11824922715
 30
0.0
 11
6949.1474376553479
 21
5096.11824922715
 31
0.0
  0
LINE
  5
810C
  8
1
 10
6949.1474376553479
 20
4296.11824922715
 30
0.0
 11
6829.1474376553479
 21
4296.11824922715
 31
0.0
  0
LINE
  5
810D
  8
1
 10
6829.1474376553469
 20
4046.11824922715
 30
0.0
 11
6829.1474376553479
 21
5096.11824922715
 31
0.0
  0
LINE
  5
810E
  8
1
 10
6949.1474376553469
 20
4046.11824922715
 30
0.0
 11
6949.1474376553479
 21
5096.11824922715
 31
0.0
  0
LINE
  5
810F
  8
2
 10
6889.1474376553469
 20
5141.96624922715
 30
0.0
 11
6889.1474376553469
 21
3480.81417422715
 31
0.0
  0
LINE
  5
8110
  8
1
 10
6989.1474376553469
 20
5176.11824922715
 30
0.0
 11
6789.1474376553479
 21
5176.11824922715
 31
0.0
  0
LINE
  5
8112
  8
2
 10
6754.8464376553484
 20
3866.11824922715
 30
0.0
 11
7984.7256083801176
 21
3866.1182492271491
 31
0.0
  0
LINE
  5
8113
  8
1
 10
6829.1474376553469
 20
4016.11824922715
 30
0.0
 11
6949.1474376553469
 21
4016.11824922715
 31
0.0
  0
LINE
  5
8114
  8
1
 10
6829.1474376553469
 20
3716.11824922715
 30
0.0
 11
6949.1474376553469
 21
3716.11824922715
 31
0.0
  0
INSERT
  5
8115
  8
0
  2
YA_N
 10
18386.038918999999
 20
2975.8020809999989
 30
0.0
  0
LINE
  5
8124
  8
1
 10
6778.1474376553479
 20
3516.11824922715
 30
0.0
 11
6778.1474376553479
 21
3366.11824922715
 31
0.0
  0
LINE
  5
8125
  8
1
 10
8628.1474376553488
 20
3516.11824922715
 30
0.0
 11
8628.1474376553488
 21
3366.11824922715
 31
0.0
  0
LINE
  5
8126
  8
1
 10
6778.1474376553479
 20
3076.054669227151
 30
0.0
 11
8628.1474376553488
 21
3076.054669227151
 31
0.0
  0
LINE
  5
8127
  8
1
 10
6778.1474376553479
 20
3226.054669227151
 30
0.0
 11
8628.1474376553488
 21
3226.054669227151
 31
0.0
  0
LINE
  5
8128
  8
1
 10
6853.1474376553479
 20
3076.054669227151
 30
0.0
 11
6778.1474376553479
 21
3076.054669227151
 31
0.0
  0
LINE
  5
8129
  8
1
 10
6853.1474376553479
 20
3226.054669227151
 30
0.0
 11
6778.1474376553479
 21
3226.054669227151
 31
0.0
  0
LINE
  5
812A
  8
1
 10
6778.1474376553479
 20
3226.054669227151
 30
0.0
 11
6778.1474376553479
 21
3076.054669227151
 31
0.0
  0
LINE
  5
812B
  8
1
 10
8628.1474376553488
 20
3226.054669227151
 30
0.0
 11
8628.1474376553488
 21
3076.054669227151
 31
0.0
  0
LINE
  5
8146
  8
1
 10
6949.1474376553479
 20
4741.11824922715
 30
0.0
 11
7229.1474376553479
 21
4741.11824922715
 31
0.0
  0
LINE
  5
8147
  8
1
 10
6949.1474376553479
 20
4651.11824922715
 30
0.0
 11
7229.1474376553479
 21
4651.11824922715
 31
0.0
  0
LINE
  5
815A
  8
1
 10
7928.147437655346
 20
4144.86824922715
 30
0.0
 11
7075.6474376553469
 21
4144.86824922715
 31
0.0
  0
LINE
  5
815B
  8
1
 10
7075.6474376553469
 20
3587.36824922715
 30
0.0
 11
7928.147437655346
 21
3587.36824922715
 31
0.0
  0
LINE
  5
815C
  8
1
 10
7075.6474376553469
 20
3587.36824922715
 30
0.0
 11
7075.6474376553469
 21
4144.86824922715
 31
0.0
  0
LINE
  5
815D
  8
1
 10
7069.1474376553469
 20
3951.61824922715
 30
0.0
 11
7069.1474376553469
 21
3780.61824922715
 31
0.0
  0
LINE
  5
815E
  8
1
 10
7075.9958126553474
 20
3953.61824922715
 30
0.0
 11
7071.1474376553469
 21
3953.61824922715
 31
0.0
  0
ARC
  5
815F
  8
1
 10
7071.1474376553469
 20
3951.61824922715
 30
0.0
 40
2.0
 50
90.0
 51
180.0
  0
LINE
  5
8160
  8
1
 10
6889.1474376553469
 20
3823.61824922715
 30
0.0
 11
7053.6474376553469
 21
3823.61824922715
 31
0.0
  0
LINE
  5
8162
  8
1
 10
6889.1474376553469
 20
3908.61824922715
 30
0.0
 11
7059.1474376553469
 21
3908.61824922715
 31
0.0
  0
LINE
  5
8164
  8
1
 10
7075.6474376553469
 20
3778.61824922715
 30
0.0
 11
7071.1474376553469
 21
3778.61824922715
 31
0.0
  0
ARC
  5
8165
  8
1
 10
7071.1474376553469
 20
3780.61824922715
 30
0.0
 40
2.0
 50
180.0
 51
270.0
  0
LINE
  5
8166
  8
1
 10
7059.1474376553469
 20
3816.11824922715
 30
0.0
 11
7069.1474376553469
 21
3816.11824922715
 31
0.0
  0
LINE
  5
8167
  8
1
 10
7059.1474376553469
 20
3916.11824922715
 30
0.0
 11
7069.1474376553469
 21
3916.11824922715
 31
0.0
  0
LINE
  5
8168
  8
1
 10
7059.1474376553469
 20
3916.11824922715
 30
0.0
 11
7059.1474376553469
 21
3816.11824922715
 31
0.0
  0
DIMENSION
  5
8238
  8
3
  2
*D3
 10
7889.1474376553469
 20
2623.4288962645528
 30
0.0
 11
7356.1472316553482
 21
2623.4288962645528
 31
0.0
 70
   128
 13
6778.1474376553479
 23
3076.054669227151
 33
0.0
 14
7889.1474376553469
 24
3021.4124062271512
 34
0.0
1001
ACAD
1000
DSTYLE
1002
{
1070
   287
1070
     3
1070
   287
1070
     3
1070
   287
1070
     3
1070
    40
1040
45.0
1070
   143
1040
0.039
1070
   172
1070
     1
1070
   271
1070
     0
1070
   279
1070
     0
1070
   288
1070
     1
1002
}
  0
DIMENSION
  5
8244
  8
3
  2
*D4
 10
8628.1474376553488
 20
2623.4288962645528
 30
0.0
 11
8258.6474376553488
 21
2735.9288962645528
 31
0.0
 70
     0
 13
7889.1474376553469
 23
3021.4124062271512
 33
0.0
 14
8628.1474376553488
 24
3076.054669227151
 34
0.0
1001
ACAD
1000
DSTYLE
1002
{
1070
   287
1070
     4
1070
   287
1070
     4
1070
   287
1070
     4
1070
    40
1040
45.0
1070
    75
1070
     1
1070
   143
1040
0.039
1070
   172
1070
     1
1070
   271
1070
     0
1070
   279
1070
     1
1070
   288
1070
     1
1002
}
  0
DIMENSION
  5
8251
  8
3
  2
*D5
 10
8628.1474376553488
 20
2295.0718941813898
 30
0.0
 11
7778.3444466553492
 21
2295.0718941813898
 31
0.0
 70
   128
 13
6778.1474376553479
 23
3076.054669227151
 33
0.0
 14
8628.1474376553488
 24
3076.054669227151
 34
0.0
1001
ACAD
1000
DSTYLE
1002
{
1070
   287
1070
     3
1070
   287
1070
     3
1070
   287
1070
     3
1070
    40
1040
45.0
1070
   143
1040
0.039
1070
   172
1070
     1
1070
   271
1070
     0
1070
   279
1070
     0
1070
   288
1070
     1
1002
}
  0
DIMENSION
  5
825E
  8
3
  2
*D6
 10
9069.0616956553476
 20
3796.11824922715
 30
0.0
 11
9069.0616956553476
 21
4641.8280002271504
 31
0.0
 70
   128
 13
8684.1474376553488
 23
5596.11824922715
 33
0.0
 14
8684.1474376553488
 24
3796.11824922715
 34
0.0
 50
90.0
1001
ACAD
1000
DSTYLE
1002
{
1070
   287
1070
     3
1070
   287
1070
     3
1070
   287
1070
     3
1070
     3
1000
φ<>
1070
    40
1040
45.0
1070
   143
1040
0.039
1070
   172
1070
     1
1070
   271
1070
     0
1070
   279
1070
     0
1070
   288
1070
     1
1002
}
  0
DIMENSION
  5
8278
  8
3
  2
*D7
 10
7889.1474376553469
 20
7166.2087289752171
 30
0.0
 11
8297.0439036553471
 21
7166.2087289752171
 31
0.0
 70
   128
 13
8684.1474376553488
 23
5661.118249227151
 33
0.0
 14
7889.1474376553469
 24
7025.0551873725481
 34
0.0
1001
ACAD
1000
DSTYLE
1002
{
1070
   287
1070
     3
1070
   287
1070
     3
1070
   287
1070
     3
1070
    40
1040
45.0
1070
   143
1040
0.039
1070
   172
1070
     1
1070
   271
1070
     0
1070
   279
1070
     0
1070
   288
1070
     1
1002
}
  0
DIMENSION
  5
8284
  8
3
  2
*D8
 10
6789.1474376553479
 20
7166.2087289752171
 30
0.0
 11
7339.1474376553479
 21
7314.0658718323593
 31
0.0
 70
     0
  1
(1150)
 13
7889.1474376553469
 23
6855.407678258558
 33
0.0
 14
6789.1474376553479
 24
5176.11824922715
 34
0.0
1001
ACAD
1000
DSTYLE
1002
{
1070
   287
1070
     4
1070
   287
1070
     4
1070
   287
1070
     4
1070
    40
1040
45.0
1070
    75
1070
     1
1070
   143
1040
0.039
1070
   172
1070
     1
1070
   271
1070
     0
1070
   279
1070
     1
1070
   288
1070
     1
1002
}
  0
LINE
  5
8285
  8
4
 10
8325.0
 20
1888.8800944790089
 30
0.0
 11
8325.0
 21
988.8800944790089
 31
0.0
  0
LINE
  5
8286
  8
4
 10
5175.0
 20
1888.8800944790089
 30
0.0
 11
5175.0
 21
988.8800944790089
 31
0.0
  0
LINE
  5
8287
  8
4
 10
2925.0
 20
1888.8800944790089
 30
0.0
 11
2925.0
 21
988.8800944790089
 31
0.0
  0
LINE
  5
828A
  8
4
 10
2925.0
 20
988.88009447900913
 30
0.0
 11
8325.0
 21
988.88009447900913
 31
0.0
  0
LINE
  5
828B
  8
4
 10
2925.0
 20
1438.8800944790089
 30
0.0
 11
8325.0
 21
1438.8800944790089
 31
0.0
  0
TEXT
  5
828C
  8
4
 10
3098.259364
 20
1580.8237104790089
 30
0.0
 40
225.0
  1
機器名称
  0
TEXT
  5
828D
  8
4
 10
3088.1614769999992
 20
1086.283299479009
 30
0.0
 40
225.0
  1
機器型番
  0
TEXT
  5
828E
  8
4
 10
5197.1468829999994
 20
1542.2688194790089
 30
0.0
 40
202.49999999999989
  1
ミツヤリミットロードファン
  0
TEXT
  5
828F
  8
4
 10
5339.9452299999994
 20
1066.098223479009
 30
0.0
 40
225.0
  1
LLE#11-4
  0
TEXT
  5
8291
  8
4
 10
3619.4975020000002
 20
10725.429786000001
 30
0.0
 40
243.0
  1
床置防振ベット
  0
TEXT
  5
8292
  8
4
 10
1258.0479374325371
 20
11402.464393
 30
0.0
 40
324.0
  1
ベルト駆動式片吸込両持排煙ファン
 41
1.143750671685607
 72
     5
 11
8224.8620288039092
 21
11402.464393
 31
0.0
  0
LINE
  5
8293
  8
4
 10
1125.0
 20
11112.339394000001
 30
0.0
 11
8325.0
 21
11112.339394000001
 31
0.0
  0
LINE
  5
8294
  8
4
 10
1125.0
 20
12012.339394000001
 30
0.0
 11
8325.0
 21
12012.339394000001
 31
0.0
  0
LINE
  5
8295
  8
4
 10
2925.0
 20
1888.8800944790089
 30
0.0
 11
8325.0
 21
1888.8800944790089
 31
0.0
  0
LINE
  5
8296
  8
4
 10
1125.0
 20
12012.339394000001
 30
0.0
 11
1125.0
 21
11112.339394000001
 31
0.0
  0
TEXT
  5
8297
  8
4
 10
1658.1327570000001
 20
10720.437649
 30
0.0
 40
243.0
  1
左回転左横向
  0
TEXT
  5
8298
  8
4
 10
6610.3630169999997
 20
12177.274867
 30
0.0
 40
252.0
  1
No.
  0
TEXT
  5
8299
  8
4
 10
5900.8322820000003
 20
10725.429786000001
 30
0.0
 40
243.0
  1
縮尺：1/45
  0
LINE
  5
829A
  8
4
 10
8325.0
 20
12012.339394000001
 30
0.0
 11
8325.0
 21
11112.339394000001
 31
0.0
  0
LINE
  5
829B
  8
4
 10
9450.0
 20
13275.0
 30
0.0
 11
9450.0
 21
13275.0
 31
0.0
  0
LINE
  5
829C
  8
4
 10
6482.7784009999996
 20
12065.686124
 30
0.0
 11
6482.7784009999996
 21
12539.93517699999
 31
0.0
  0
LINE
  5
829D
  8
4
 10
6482.7784009999996
 20
12539.93517699999
 30
0.0
 11
8325.0
 21
12539.93517699999
 31
0.0
  0
LINE
  5
829E
  8
4
 10
8325.0
 20
12539.93517699999
 30
0.0
 11
8325.0
 21
12065.686124
 31
0.0
  0
LINE
  5
829F
  8
4
 10
8325.0
 20
12065.686124
 30
0.0
 11
6482.7784009999996
 21
12065.686124
 31
0.0
  0
LINE
  5
82A0
  8
4
 10
0.0
 20
0.0
 30
0.0
 11
0.0
 21
13275.0
 31
0.0
  0
LINE
  5
82A1
  8
4
 10
0.0
 20
13275.0
 30
0.0
 11
9450.0
 21
13275.0
 31
0.0
  0
LINE
  5
82A2
  8
4
 10
9450.0
 20
13275.0
 30
0.0
 11
9450.0
 21
0.0
 31
0.0
  0
LINE
  5
82A3
  8
4
 10
9450.0
 20
0.0
 30
0.0
 11
0.0
 21
0.0
 31
0.0
  0
LINE
  5
82B1
  8
1
 10
7229.1474376553479
 20
3516.11824922715
 30
0.0
 11
7229.1474376553479
 21
3587.36824922715
 31
0.0
  0
DIMENSION
  5
831C
  8
3
  2
*D11
 10
4575.4657510290517
 20
2267.717789878232
 30
0.0
 11
2780.6793890290528
 21
2267.717789878232
 31
0.0
 70
   128
 13
675.46575102905354
 23
3076.054669227151
 33
0.0
 14
4575.4657510290517
 24
3076.054669227151
 34
0.0
 50
180.0
1001
ACAD
1000
DSTYLE
1002
{
1070
   287
1070
     3
1070
   287
1070
     3
1070
   287
1070
     3
1070
    40
1040
45.0
1070
   143
1040
0.039
1070
   172
1070
     1
1070
   271
1070
     0
1070
   279
1070
     0
1070
   288
1070
     1
1002
}
  0
DIMENSION
  5
831D
  8
3
  2
*D9
 10
3515.4657510290531
 20
2673.418766258329
 30
0.0
 11
2177.540476029053
 21
2673.418766258329
 31
0.0
 70
   128
 13
675.46575102905354
 23
3076.054669227151
 33
0.0
 14
3515.4657510290531
 24
2968.468998015067
 34
0.0
 50
180.0
1001
ACAD
1000
DSTYLE
1002
{
1070
   287
1070
     3
1070
   287
1070
     3
1070
   287
1070
     3
1070
    40
1040
45.0
1070
   143
1040
0.039
1070
   172
1070
     1
1070
   271
1070
     0
1070
   279
1070
     0
1070
   288
1070
     1
1002
}
  0
LINE
  5
8320
  8
1
 10
3662.945560029053
 20
4324.29879622715
 30
0.0
 11
1200.7706790290531
 21
3726.68595422715
 31
0.0
  0
LINE
  5
8321
  8
1
 10
3292.341871029053
 20
5028.1058012271506
 30
0.0
 11
1061.7942960290529
 21
3990.6135812271509
 31
0.0
  0
LINE
  5
8322
  8
1
 10
3701.9797600290531
 20
4253.8376242271488
 30
0.0
 11
1254.2661730290531
 21
3608.1212182271502
 31
0.0
  0
LINE
  5
8323
  8
1
 10
3256.3314140290531
 20
5100.1602202271497
 30
0.0
 11
994.30463802905342
 21
4101.8093992271488
 31
0.0
  0
LINE
  5
8324
  8
1
 10
4575.4657510290517
 20
3516.11824922715
 30
0.0
 11
675.46575102905354
 21
3516.11824922715
 31
0.0
  0
LINE
  5
8325
  8
1
 10
4575.4657510290517
 20
3366.11824922715
 30
0.0
 11
675.46575102905354
 21
3366.11824922715
 31
0.0
  0
LINE
  5
8326
  8
1
 10
4575.4657510290517
 20
3076.054669227151
 30
0.0
 11
675.46575102905354
 21
3076.054669227151
 31
0.0
  0
LINE
  5
8327
  8
1
 10
4575.4657510290517
 20
3226.054669227151
 30
0.0
 11
675.46575102905354
 21
3226.054669227151
 31
0.0
  0
LINE
  5
8328
  8
2
 10
1878.987107710695
 20
4696.11824922715
 30
0.0
 11
4771.7496629828083
 21
4696.11824922715
 31
0.0
  0
ARC
  5
8329
  8
1
 10
3646.4657510290531
 20
4827.1182492271491
 30
0.0
 40
1685.0
 50
95.387940999999998
 51
180.0
  0
LINE
  5
832A
  8
1
 10
4615.4657510290517
 20
4767.1182492271491
 30
0.0
 11
4615.4657510290517
 21
6611.2979502271501
 31
0.0
  0
LINE
  5
832B
  8
1
 10
4680.4657510290526
 20
4703.11824922715
 30
0.0
 11
4680.4657510290526
 21
6679.1182492271491
 31
0.0
  0
LINE
  5
832F
  8
1
 10
4680.2497840290534
 20
6617.4080872271506
 30
0.0
 11
3488.0303500290529
 21
6506.9633352271494
 31
0.0
  0
LINE
  5
8331
  8
1
 10
989.98661902905314
 20
3597.92757222715
 30
0.0
 11
1300.944883029053
 21
3597.92757222715
 31
0.0
  0
LINE
  5
8332
  8
2
 10
808.00678702905304
 20
3866.11824922715
 30
0.0
 11
1488.742973029053
 21
3866.11824922715
 31
0.0
  0
LINE
  5
8333
  8
1
 10
795.46575102905354
 20
3586.11824922715
 30
0.0
 11
1495.4657510290531
 21
3586.11824922715
 31
0.0
  0
ARC
  5
8334
  8
1
 10
1145.4657510290531
 20
3866.11824922715
 30
0.0
 40
310.0
 50
300.10230799999988
 51
239.89769200000001
  0
CIRCLE
  5
8335
  8
1
 10
1145.4657510290531
 20
3866.11824922715
 30
0.0
 40
150.0
  0
ARC
  5
8336
  8
1
 10
1145.4657510290531
 20
3866.11824922715
 30
0.0
 40
280.0
 50
122.67418499999999
 51
292.86573199999992
  0
LINE
  5
8338
  8
1
 10
865.46575102905354
 20
3733.0769022271502
 30
0.0
 11
865.46575102905354
 21
3586.11824922715
 31
0.0
  0
LINE
  5
8339
  8
1
 10
675.46575102905354
 20
3226.054669227151
 30
0.0
 11
675.46575102905354
 21
3076.054669227151
 31
0.0
  0
LINE
  5
833A
  8
1
 10
675.46575102905354
 20
3516.11824922715
 30
0.0
 11
675.46575102905354
 21
3366.11824922715
 31
0.0
  0
LINE
  5
833B
  8
1
 10
795.46575102905354
 20
3586.11824922715
 30
0.0
 11
975.46575102905354
 21
3586.11824922715
 31
0.0
  0
LINE
  5
833C
  8
1
 10
795.46575102905354
 20
3586.11824922715
 30
0.0
 11
795.46575102905354
 21
3516.11824922715
 31
0.0
  0
LINE
  5
833D
  8
1
 10
1425.4657510290531
 20
3733.0769022271502
 30
0.0
 11
1425.4657510290531
 21
3586.11824922715
 31
0.0
  0
LINE
  5
833E
  8
2
 10
1145.4657510290531
 20
3443.3203192271499
 30
0.0
 11
1145.4657510290531
 21
4348.1171012271507
 31
0.0
  0
LINE
  5
833F
  8
1
 10
1495.4657510290531
 20
3586.11824922715
 30
0.0
 11
1495.4657510290531
 21
3516.11824922715
 31
0.0
  0
DIMENSION
  5
8340
  8
3
  2
*D10
 10
4575.4657510290517
 20
2673.418766258329
 30
0.0
 11
4045.4657510290522
 21
2785.9187662583299
 31
0.0
 70
     0
 13
3515.4657510290531
 23
2968.468998015067
 33
0.0
 14
4575.4657510290517
 24
3076.054669227151
 34
0.0
 50
180.0
1001
ACAD
1000
DSTYLE
1002
{
1070
   287
1070
     4
1070
   287
1070
     4
1070
   287
1070
     4
1070
    40
1040
45.0
1070
    75
1070
     1
1070
   143
1040
0.039
1070
   172
1070
     1
1070
   271
1070
     0
1070
   279
1070
     1
1070
   288
1070
     1
1002
}
  0
ARC
  5
8344
  8
1
 10
3404.9657510290522
 20
4585.61824922715
 30
0.0
 40
1181.4999999999991
 50
295.14905934509642
 51
0.000000000000007
  0
ARC
  5
8345
  8
1
 10
3384.4657510290522
 20
4827.1182492271491
 30
0.0
 40
1423.0
 50
180.0
 51
247.11585403247039
  0
LINE
  5
8346
  8
2
 10
3515.4657510290531
 20
2968.468998015067
 30
0.0
 11
3515.4657510290531
 21
6605.1196802527547
 31
0.0
  0
LINE
  5
8347
  8
1
 10
4569.1613830290507
 20
4767.1182492271491
 30
0.0
 11
4680.4657510290526
 21
4767.1182492271491
 31
0.0
  0
ARC
  5
8348
  8
1
 10
3515.4647510290529
 20
4696.11824922715
 30
0.0
 40
480.0
 50
292.86573199999992
 51
122.67418499999999
  0
CIRCLE
  5
8349
  8
1
 10
3515.4657510290531
 20
4696.11824922715
 30
0.0
 40
400.0
  0
ARC
  5
834A
  8
1
 10
3515.4657510290531
 20
4696.11824922715
 30
0.0
 40
965.0
 50
180.0
 51
180.5343729999999
  0
ARC
  5
834B
  8
1
 10
3625.9657510290531
 20
4585.61824922715
 30
0.0
 40
960.5
 50
0.000000000000007
 51
10.89233500000001
  0
LINE
  5
834C
  8
1
 10
4575.4657510290517
 20
3226.054669227151
 30
0.0
 11
4575.4657510290517
 21
3076.054669227151
 31
0.0
  0
LINE
  5
834D
  8
1
 10
4575.4657510290517
 20
3516.11824922715
 30
0.0
 11
4575.4657510290517
 21
3366.11824922715
 31
0.0
  0
DIMENSION
  5
8428
  8
3
  2
*D12
 10
4680.4657510290526
 20
7057.873409934924
 30
0.0
 11
2677.9657510290531
 21
7170.373409934924
 31
0.0
 70
     0
 13
675.46575102905354
 23
3516.11824922715
 33
0.0
 14
4680.4657510290526
 24
6679.1182492271491
 34
0.0
 50
180.0
1001
ACAD
1000
DSTYLE
1002
{
1070
   287
1070
     3
1070
   287
1070
     3
1070
   287
1070
     3
1070
    40
1040
45.0
1070
   143
1040
0.039
1070
   271
1070
     0
1070
   279
1070
     0
1002
}
  0
DIMENSION
  5
8435
  8
3
  2
*D13
 10
3515.4657510290531
 20
6803.9506352395547
 30
0.0
 11
4097.9657510290526
 21
6916.4506352395547
 31
0.0
 70
     0
 13
4680.4657510290526
 23
6701.6182492271491
 33
0.0
 14
3515.4657510290531
 24
6605.1196802527547
 34
0.0
 50
180.0
1001
ACAD
1000
DSTYLE
1002
{
1070
   287
1070
     3
1070
   287
1070
     3
1070
   287
1070
     3
1070
    40
1040
45.0
1070
   143
1040
0.039
1070
   271
1070
     0
1070
   279
1070
     0
1002
}
  0
DIMENSION
  5
8441
  8
3
  2
*D14
 10
1961.4657510290519
 20
6803.9506352395547
 30
0.0
 11
2738.4657510290522
 21
6916.4506352395547
 31
0.0
 70
     0
 13
3515.4657510290531
 23
6605.1196802527547
 33
0.0
 14
1961.4657510290519
 24
4827.1182492271491
 34
0.0
 50
180.0
1001
ACAD
1000
DSTYLE
1002
{
1070
   287
1070
     4
1070
   287
1070
     4
1070
   287
1070
     4
1070
    40
1040
45.0
1070
    75
1070
     1
1070
   143
1040
0.039
1070
   271
1070
     0
1070
   279
1070
     1
1002
}
  0
DIMENSION
  5
844E
  8
3
  2
*D15
 10
5299.0011884950654
 20
4767.1182492271491
 30
0.0
 11
5186.5011884950636
 21
5692.2631682271503
 31
0.0
 70
     0
 13
4680.2497840290534
 23
6617.4080872271506
 33
0.0
 14
4680.4657510290526
 24
4767.1182492271491
 34
0.0
 50
270.0
1001
ACAD
1000
DSTYLE
1002
{
1070
   287
1070
     3
1070
   287
1070
     3
1070
   287
1070
     3
1070
    40
1040
45.0
1070
   143
1040
0.039
1070
   271
1070
     0
1070
   279
1070
     0
1002
}
  0
DIMENSION
  5
845B
  8
3
  2
*D16
 10
5656.4882844578824
 20
4696.11824922715
 30
0.0
 11
5543.9882844578806
 21
5656.7631682271513
 31
0.0
 70
     0
 13
5299.0011884950654
 23
6617.4080872271506
 33
0.0
 14
4771.7496629828083
 24
4696.11824922715
 34
0.0
 50
270.0
1001
ACAD
1000
DSTYLE
1002
{
1070
   287
1070
     3
1070
   287
1070
     3
1070
   287
1070
     3
1070
    40
1040
45.0
1070
   143
1040
0.039
1070
   271
1070
     0
1070
   279
1070
     0
1002
}
  0
DIMENSION
  5
8467
  8
3
  2
*D17
 10
5656.4882844578824
 20
3366.1182492271491
 30
0.0
 11
5543.9882844578806
 21
4031.118249227151
 31
0.0
 70
     0
 13
4771.7496629828083
 23
4696.11824922715
 33
0.0
 14
4575.4657510290517
 24
3366.11824922715
 34
0.0
 50
270.0
1001
ACAD
1000
DSTYLE
1002
{
1070
   287
1070
     4
1070
   287
1070
     4
1070
   287
1070
     4
1070
    40
1040
45.0
1070
    75
1070
     1
1070
   143
1040
0.039
1070
   271
1070
     0
1070
   279
1070
     1
1002
}
  0
DIMENSION
  5
8477
  8
3
  2
*D18
 10
5656.4882844578824
 20
3226.05466922715
 30
0.0
 11
5858.9882844578824
 21
3435.586459227151
 31
0.0
 70
     0
 13
4575.4657510290517
 23
3366.11824922715
 33
0.0
 14
4575.4657510290517
 24
3226.054669227151
 34
0.0
 50
270.0
1001
ACAD
1000
DSTYLE
1002
{
1070
   287
1070
     4
1070
   287
1070
     4
1070
   287
1070
     4
1070
    40
1040
45.0
1070
    75
1070
     1
1070
   143
1040
0.039
1070
   271
1070
     0
1070
   279
1070
     1
1002
}
  0
DIMENSION
  5
8487
  8
3
  2
*D19
 10
5656.4882844578824
 20
3076.054669227151
 30
0.0
 11
5543.9882844578806
 21
2690.3403835128652
 31
0.0
 70
     0
 13
4575.4657510290517
 23
3226.054669227151
 33
0.0
 14
4575.4657510290517
 24
3076.054669227151
 34
0.0
 50
270.0
1001
ACAD
1000
DSTYLE
1002
{
1070
   287
1070
     1
1070
   287
1070
     1
1070
   287
1070
     1
1070
    40
1040
45.0
1070
    75
1070
     1
1070
   143
1040
0.039
1070
   271
1070
     0
1070
   279
1070
     0
1070
   289
1070
     1
1002
}
  0
DIMENSION
  5
8526
  8
3
  2
*D20
 10
6097.9753094567568
 20
6617.4080872271506
 30
0.0
 11
5985.475309456755
 21
4846.7313782271513
 31
0.0
 70
     0
 13
5656.4882844578824
 23
3076.054669227151
 33
0.0
 14
5656.4882844578824
 24
6617.4080872271506
 34
0.0
 50
270.0
1001
ACAD
1000
DSTYLE
1002
{
1070
   287
1070
     4
1070
   287
1070
     4
1070
   287
1070
     4
1070
    40
1040
45.0
1070
   143
1040
0.039
1070
   271
1070
     0
1070
   279
1070
     1
1002
}
  0
LINE
  5
85A7
  8
1
 10
7229.1474376553479
 20
6619.2122550463982
 30
0.0
 11
8549.1474376553488
 21
6619.2122550463982
 31
0.0
  0
DIMENSION
  5
8650
  8
3
  2
*D21
 10
8549.1474376553488
 20
6853.7585537930527
 30
0.0
 11
7889.1474376553488
 21
6966.2585537930527
 31
0.0
 70
     0
 13
7229.1474376553479
 23
6679.11824922715
 33
0.0
 14
8549.1474376553488
 24
6679.118249227151
 34
0.0
1001
ACAD
1000
DSTYLE
1002
{
1070
   287
1070
     4
1070
   287
1070
     4
1070
   287
1070
     4
1070
    40
1040
45.0
1070
   143
1040
0.039
1070
   271
1070
     0
1070
   279
1070
     1
1002
}
  0
DIMENSION
  5
87D3
  8
3
  2
*D22
 10
5436.9488171270332
 20
9689.0635380000003
 30
0.0
 11
5324.4488171270323
 21
8764.0635380000022
 31
0.0
 70
     0
 13
4575.4657510290499
 23
7839.0635380000012
 33
0.0
 14
4575.4657510290499
 24
9689.0635380000003
 34
0.0
 50
90.0
1001
ACAD
1000
DSTYLE
1002
{
1070
   287
1070
     4
1070
   287
1070
     4
1070
   287
1070
     4
1070
   287
1070
     4
1070
    40
1040
45.0
1070
   143
1040
0.039
1070
   271
1070
     0
1070
   279
1070
     1
1002
}
  0
LINE
  5
87D4
  8
2
 10
5045.6096880290524
 20
8950.0635380000003
 30
0.0
 11
2087.0603985034518
 21
8950.0635380000003
 31
0.0
  0
LINE
  5
87D5
  8
1
 10
1961.4657510290499
 20
8964.0635380000003
 30
0.0
 11
675.46575102905081
 21
8964.0635380000003
 31
0.0
  0
DIMENSION
  5
87D6
  8
3
  2
*D23
 10
4575.4657510290499
 20
7357.77823410162
 30
0.0
 11
2715.484407029051
 21
7357.77823410162
 31
0.0
 70
   128
 13
675.46575102905081
 23
7839.0635380000012
 33
0.0
 14
4575.4657510290499
 24
7839.0635380000012
 34
0.0
 50
0.000000000000007
1001
ACAD
1000
DSTYLE
1002
{
1070
   287
1070
     3
1070
   287
1070
     3
1070
   287
1070
     3
1070
   287
1070
     3
1070
    40
1040
45.0
1070
   143
1040
0.039
1070
   172
1070
     1
1070
   271
1070
     0
1070
   279
1070
     0
1070
   288
1070
     1
1002
}
  0
DIMENSION
  5
87D7
  8
3
  2
*D24
 10
675.46575102905092
 20
9996.3157743553602
 30
0.0
 11
1565.465751029051
 21
10108.815774355349
 31
0.0
 70
     0
 13
2455.4657510290499
 23
9689.0635380000003
 33
0.0
 14
675.46575102905081
 24
9039.0635380000003
 34
0.0
 50
0.000000000000007
1001
ACAD
1000
DSTYLE
1002
{
1070
   287
1070
     4
1070
   287
1070
     4
1070
   287
1070
     4
1070
   287
1070
     4
1070
    40
1040
45.0
1070
    75
1070
     1
1070
   143
1040
0.039
1070
   172
1070
     1
1070
   271
1070
     0
1070
   279
1070
     1
1070
   288
1070
     1
1002
}
  0
LINE
  5
87D8
  8
1
 10
3995.4657510290508
 20
8050.0635379999994
 30
0.0
 11
860.46575102905081
 21
8050.0635379999994
 31
0.0
  0
LINE
  5
87D9
  8
2
 10
3961.3137510290512
 20
7950.0635379999994
 30
0.0
 11
939.01470702904953
 21
7950.0635379999994
 31
0.0
  0
LINE
  5
87DA
  8
1
 10
860.46575102905081
 20
7850.0635380000003
 30
0.0
 11
3995.4657510290508
 21
7850.0635379999994
 31
0.0
  0
LINE
  5
87DB
  8
1
 10
4575.4657510290499
 20
7839.0635380000012
 30
0.0
 11
675.46575102905081
 21
7839.0635380000012
 31
0.0
  0
LINE
  5
87DC
  8
1
 10
1961.4657510290499
 20
9039.0635380000003
 30
0.0
 11
675.46575102905081
 21
9039.0635380000003
 31
0.0
  0
DIMENSION
  5
87DD
  8
3
  2
*D25
 10
433.33370302905251
 20
7839.0635380000012
 30
0.0
 11
433.33370302905132
 21
8432.7754170000007
 31
0.0
 70
   128
 13
675.46575102905081
 23
9039.0635380000003
 33
0.0
 14
675.46575102905081
 24
7839.0635380000012
 34
0.0
 50
90.0
1001
ACAD
1000
DSTYLE
1002
{
1070
   287
1070
     3
1070
   287
1070
     3
1070
   287
1070
     3
1070
   287
1070
     3
1070
    40
1040
45.0
1070
   143
1040
0.039
1070
   172
1070
     1
1070
   271
1070
     0
1070
   279
1070
     0
1070
   288
1070
     1
1002
}
  0
LINE
  5
87DE
  8
2
 10
1145.4657510290499
 20
7930.5669569999991
 30
0.0
 11
1145.4657510290499
 21
9008.3548540000029
 31
0.0
  0
LINE
  5
87DF
  8
1
 10
1432.9657510290499
 20
8136.5635379999976
 30
0.0
 11
1432.9657510290499
 21
8989.0635380000003
 31
0.0
  0
LINE
  5
87E0
  8
1
 10
875.46575102905081
 20
8989.0635380000003
 30
0.0
 11
875.46575102905081
 21
8136.5635379999976
 31
0.0
  0
LINE
  5
87E1
  8
1
 10
675.46575102905081
 20
7839.0635380000012
 30
0.0
 11
675.46575102905081
 21
9039.0635380000003
 31
0.0
  0
LINE
  5
87E2
  8
1
 10
1059.9657510290499
 20
8130.0635379999994
 30
0.0
 11
1230.9657510290499
 21
8130.0635379999994
 31
0.0
  0
LINE
  5
87E3
  8
1
 10
1432.9657510290499
 20
8136.5635379999976
 30
0.0
 11
875.46575102905081
 21
8136.5635379999976
 31
0.0
  0
LINE
  5
87E4
  8
1
 10
995.46575102905069
 20
8010.0635379999976
 30
0.0
 11
1295.4657510290499
 21
8010.0635379999976
 31
0.0
  0
LINE
  5
87E5
  8
1
 10
995.46575102905069
 20
7890.0635379999976
 30
0.0
 11
1295.4657510290499
 21
7890.0635379999976
 31
0.0
  0
LINE
  5
87E6
  8
1
 10
860.46575102905081
 20
7914.0635380000003
 30
0.0
 11
675.46575102905081
 21
7914.0635380000003
 31
0.0
  0
LINE
  5
87E7
  8
1
 10
860.46575102905081
 20
8050.0635379999994
 30
0.0
 11
860.46575102905081
 21
7850.0635379999994
 31
0.0
  0
LINE
  5
87E8
  8
1
 10
995.46575102905069
 20
7890.0635379999976
 30
0.0
 11
995.46575102905069
 21
8010.0635379999976
 31
0.0
  0
LINE
  5
87E9
  8
1
 10
1057.9657510290499
 20
8136.9119129999999
 30
0.0
 11
1057.9657510290499
 21
8132.0635379999976
 31
0.0
  0
ARC
  5
87EA
  8
1
 10
1059.9657510290499
 20
8132.0635379999976
 30
0.0
 40
2.0
 50
180.0
 51
270.0
  0
LINE
  5
87EB
  8
1
 10
1145.4657510290499
 20
7815.7625379999999
 30
0.0
 11
1145.4657510290499
 21
8163.5635379999976
 31
0.0
  0
LINE
  5
87EC
  8
1
 10
1195.4657510290499
 20
8120.0635379999976
 30
0.0
 11
1195.4657510290499
 21
8130.0635379999994
 31
0.0
  0
LINE
  5
87ED
  8
1
 10
1095.4657510290499
 20
8120.0635379999976
 30
0.0
 11
1095.4657510290499
 21
8130.0635379999994
 31
0.0
  0
LINE
  5
87EE
  8
1
 10
1095.4657510290499
 20
8120.0635379999976
 30
0.0
 11
1195.4657510290499
 21
8120.0635379999976
 31
0.0
  0
LINE
  5
87EF
  8
1
 10
1102.9657510290499
 20
7950.0635379999994
 30
0.0
 11
1192.965751029051
 21
7950.0635379999994
 31
0.0
  0
LINE
  5
87F0
  8
1
 10
1102.9657510290499
 20
7950.0635379999994
 30
0.0
 11
1102.9657510290499
 21
8120.0635379999976
 31
0.0
  0
LINE
  5
87F1
  8
1
 10
1187.9657510290499
 20
8090.0635379999976
 30
0.0
 11
1192.965751029051
 21
8090.0635379999976
 31
0.0
  0
LINE
  5
87F2
  8
1
 10
1187.9657510290499
 20
7950.0635379999994
 30
0.0
 11
1187.9657510290499
 21
8114.5635379999976
 31
0.0
  0
LINE
  5
87F3
  8
1
 10
1192.965751029051
 20
7950.0635379999994
 30
0.0
 11
1192.965751029051
 21
8090.0635379999976
 31
0.0
  0
LINE
  5
87F4
  8
1
 10
1232.9657510290499
 20
8136.5635379999976
 30
0.0
 11
1232.9657510290499
 21
8132.0635379999976
 31
0.0
  0
ARC
  5
87F5
  8
1
 10
1230.9657510290499
 20
8132.0635379999976
 30
0.0
 40
2.0
 50
270.0
 51
0.000000000000007
  0
LINE
  5
87F6
  8
1
 10
1295.4657510290499
 20
7890.0635379999976
 30
0.0
 11
1295.4657510290499
 21
8010.0635379999976
 31
0.0
  0
LINE
  5
87F7
  8
1
 10
875.46575102905081
 20
8989.0635380000003
 30
0.0
 11
1432.9657510290499
 21
8989.0635380000003
 31
0.0
  0
LINE
  5
87F8
  8
1
 10
4575.4657510290499
 20
9614.0635380000003
 30
0.0
 11
2455.4657510290499
 21
9614.0635380000003
 31
0.0
  0
LINE
  5
87F9
  8
1
 10
4480.4657510290508
 20
9745.0635380000003
 30
0.0
 11
2550.4657510290508
 21
9745.0635380000003
 31
0.0
  0
DIMENSION
  5
87FA
  8
3
  2
*D26
 10
2455.4657510290499
 20
9996.3157743553602
 30
0.0
 11
3508.39446502905
 21
9996.3157743553602
 31
0.0
 70
   128
 13
4575.4657510290499
 23
9689.0635380000003
 33
0.0
 14
2455.4657510290499
 24
9689.0635380000003
 34
0.0
 50
0.000000000000007
1001
ACAD
1000
DSTYLE
1002
{
1070
   287
1070
     3
1070
   287
1070
     3
1070
   287
1070
     3
1070
   287
1070
     3
1070
    40
1040
45.0
1070
   143
1040
0.039
1070
   172
1070
     1
1070
   271
1070
     0
1070
   279
1070
     0
1070
   288
1070
     1
1002
}
  0
LINE
  5
87FB
  8
1
 10
3115.4657510290499
 20
8010.0635379999976
 30
0.0
 11
3915.4657510290508
 21
8010.0635379999976
 31
0.0
  0
LINE
  5
87FC
  8
1
 10
3115.4657510290499
 20
7890.0635379999976
 30
0.0
 11
3915.4657510290508
 21
7890.0635379999976
 31
0.0
  0
LINE
  5
87FD
  8
1
 10
4680.4657510290508
 20
8290.0635380000003
 30
0.0
 11
1961.4657510290499
 21
8290.0635380000003
 31
0.0
  0
LINE
  5
87FE
  8
1
 10
4680.4657510290508
 20
9610.0635380000003
 30
0.0
 11
1961.4657510290499
 21
9610.0635380000022
 31
0.0
  0
LINE
  5
87FF
  8
1
 10
1961.4657510290499
 20
8290.0635380000003
 30
0.0
 11
1961.4657510290499
 21
9610.0635380000022
 31
0.0
  0
LINE
  5
8800
  8
1
 10
2530.4657510290499
 20
8050.0635379999994
 30
0.0
 11
2530.4657510290499
 21
8290.0635379999985
 31
0.0
  0
LINE
  5
8801
  8
1
 10
2455.4657510290499
 20
8050.0635380000012
 30
0.0
 11
2455.4657510290499
 21
8290.0635380000003
 31
0.0
  0
LINE
  5
8802
  8
1
 10
3115.4657510290499
 20
8010.0635379999976
 30
0.0
 11
3115.4657510290499
 21
7890.0635379999976
 31
0.0
  0
LINE
  5
8803
  8
1
 10
2615.4657510290499
 20
9689.0635380000003
 30
0.0
 11
2455.4657510290499
 21
9689.0635380000003
 31
0.0
  0
LINE
  5
8804
  8
1
 10
2455.4657510290499
 20
9610.0635380000022
 30
0.0
 11
2455.4657510290499
 21
9689.0635380000003
 31
0.0
  0
LINE
  5
8805
  8
1
 10
2530.4657510290499
 20
9610.0635380000003
 30
0.0
 11
2530.4657510290499
 21
9614.0635380000022
 31
0.0
  0
LINE
  5
8806
  8
1
 10
2615.4657510290499
 20
9610.0635380000022
 30
0.0
 11
2615.4657510290499
 21
9745.0635380000003
 31
0.0
  0
LINE
  5
8807
  8
1
 10
4680.4657510290508
 20
8221.0635380000022
 30
0.0
 11
4680.4657510290508
 21
9679.0635380000003
 31
0.0
  0
LINE
  5
8808
  8
2
 10
3515.4657510290508
 20
7784.9977922113176
 30
0.0
 11
3515.4657510290508
 21
9859.5168784776179
 31
0.0
  0
LINE
  5
8809
  8
1
 10
4575.4657510290499
 20
7914.0635380000003
 30
0.0
 11
3995.4657510290508
 21
7914.0635380000003
 31
0.0
  0
LINE
  5
880A
  8
1
 10
3995.4657510290508
 20
8050.0635379999994
 30
0.0
 11
3995.4657510290508
 21
7850.0635379999994
 31
0.0
  0
LINE
  5
880B
  8
1
 10
3915.4657510290508
 20
7890.0635379999976
 30
0.0
 11
3915.4657510290508
 21
8010.0635379999976
 31
0.0
  0
LINE
  5
880C
  8
1
 10
4575.4657510290499
 20
7839.0635380000012
 30
0.0
 11
4575.4657510290499
 21
8290.0635380000003
 31
0.0
  0
LINE
  5
880D
  8
1
 10
4500.4657510290499
 20
7914.0635380000003
 30
0.0
 11
4500.4657510290499
 21
8290.0635380000003
 31
0.0
  0
LINE
  5
880E
  8
1
 10
4575.4657510290499
 20
9610.0635380000003
 30
0.0
 11
4575.4657510290499
 21
9689.0635380000003
 31
0.0
  0
LINE
  5
880F
  8
1
 10
4415.4657510290481
 20
9610.0635380000003
 30
0.0
 11
4415.4657510290508
 21
9745.0635380000003
 31
0.0
  0
LINE
  5
8810
  8
1
 10
4500.4657510290499
 20
9610.0635380000003
 30
0.0
 11
4500.4657510290499
 21
9614.0635380000022
 31
0.0
  0
LINE
  5
8811
  8
1
 10
4575.4657510290499
 20
9689.0635380000003
 30
0.0
 11
4415.4657510290481
 21
9689.0635380000003
 31
0.0
  0
LINE
  5
8B26
  8
1
 10
7160.147437655346
 20
6679.1182492271491
 30
0.0
 11
8618.1474376553469
 21
6679.1182492271491
 31
0.0
  0
LINE
  5
8B27
  8
1
 10
7160.1474376553479
 20
4703.1182492271491
 30
0.0
 11
7160.147437655346
 21
6679.1182492271491
 31
0.0
  0
LINE
  5
8B28
  8
1
 10
8618.1474376553506
 20
4703.1182492271491
 30
0.0
 11
8618.1474376553506
 21
6679.1182492271491
 31
0.0
  0
LINE
  5
8B29
  8
1
 10
7928.1474376553469
 20
3587.36824922715
 30
0.0
 11
7928.1474376553469
 21
4144.86824922715
 31
0.0
  0
LINE
  5
8B2B
  8
1
 10
7229.1474376553479
 20
4144.86824922715
 30
0.0
 11
7229.1474376553479
 21
6619.2122550463982
 31
0.0
  0
LINE
  5
8E42
  8
1
 10
7229.1474376553479
 20
4767.1182492271482
 30
0.0
 11
8549.1474376553506
 21
4767.1182492271491
 31
0.0
  0
LINE
  5
8E43
  8
1
 10
7160.1474376553479
 20
4703.1182492271491
 30
0.0
 11
8618.1474376553506
 21
4703.1182492271491
 31
0.0
  0
ENDSEC
  0
EOF
