  0
SECTION
  2
HEADER
  9
$ACADVER
  1
AC1009
  9
$INSBASE
 10
0.0
 20
0.0
 30
0.0
  9
$EXTMIN
 10
0.0
 20
0.0
 30
0.0
  9
$EXTMAX
 10
9450.0
 20
13275.0
 30
0.0
  9
$LIMMIN
 10
0.0
 20
0.0
  9
$LIMMAX
 10
297.0
 20
210.0
  9
$ORTHOMODE
 70
     0
  9
$REGENMODE
 70
     1
  9
$FILLMODE
 70
     0
  9
$QTEXTMODE
 70
     0
  9
$MIRRTEXT
 70
     1
  9
$DRAGMODE
 70
     2
  9
$LTSCALE
 40
100.0
  9
$OSMODE
 70
    37
  9
$ATTMODE
 70
     1
  9
$TEXTSIZE
 40
180.0
  9
$TRACEWID
 40
0.05
  9
$TEXTSTYLE
  7
STANDARD
  9
$CLAYER
  8
3
  9
$CELTYPE
  6
BYLAYER
  9
$CECOLOR
 62
   256
  9
$DIMSCALE
 40
45.0
  9
$DIMASZ
 40
2.0
  9
$DIMEXO
 40
0.5
  9
$DIMDLI
 40
10.0
  9
$DIMRND
 40
0.0
  9
$DIMDLE
 40
0.0
  9
$DIMEXE
 40
1.0
  9
$DIMTP
 40
1.0
  9
$DIMTM
 40
1.0
  9
$DIMTXT
 40
3.0
  9
$DIMCEN
 40
0.0
  9
$DIMTSZ
 40
0.0
  9
$DIMTOL
 70
     0
  9
$DIMLIM
 70
     0
  9
$DIMTIH
 70
     0
  9
$DIMTOH
 70
     0
  9
$DIMSE1
 70
     0
  9
$DIMSE2
 70
     0
  9
$DIMTAD
 70
     1
  9
$DIMZIN
 70
     8
  9
$DIMBLK
  1

  9
$DIMASO
 70
     1
  9
$DIMSHO
 70
     1
  9
$DIMPOST
  1

  9
$DIMAPOST
  1

  9
$DIMALT
 70
     0
  9
$DIMALTD
 70
     2
  9
$DIMALTF
 40
0.039
  9
$DIMLFAC
 40
1.0
  9
$DIMTOFL
 70
     0
  9
$DIMTVP
 40
0.0
  9
$DIMTIX
 70
     0
  9
$DIMSOXD
 70
     0
  9
$DIMSAH
 70
     1
  9
$DIMBLK1
  1
OPEN
  9
$DIMBLK2
  1
OPEN
  9
$DIMSTYLE
  2
IGA
  9
$DIMCLRD
 70
     0
  9
$DIMCLRE
 70
     0
  9
$DIMCLRT
 70
     0
  9
$DIMTFAC
 40
10.0
  9
$DIMGAP
 40
1.0
  9
$LUNITS
 70
     2
  9
$LUPREC
 70
     3
  9
$SKETCHINC
 40
0.1
  9
$FILLETRAD
 40
50.0
  9
$AUNITS
 70
     0
  9
$AUPREC
 70
     0
  9
$MENU
  1
acad
  9
$ELEVATION
 40
0.0
  9
$PELEVATION
 40
0.0
  9
$THICKNESS
 40
0.0
  9
$LIMCHECK
 70
     0
  9
$BLIPMODE
 70
     0
  9
$CHAMFERA
 40
0.5
  9
$CHAMFERB
 40
0.5
  9
$SKPOLY
 70
     0
  9
$TDCREATE
 40
2451845.4205035879
  9
$TDUPDATE
 40
2454953.6915076962
  9
$TDINDWG
 40
0.0569552546
  9
$TDUSRTIMER
 40
0.0569552546
  9
$USRTIMER
 70
     1
  9
$ANGBASE
 50
0.0
  9
$ANGDIR
 70
     0
  9
$PDMODE
 70
     0
  9
$PDSIZE
 40
0.0
  9
$PLINEWID
 40
0.0
  9
$COORDS
 70
     1
  9
$SPLFRAME
 70
     0
  9
$SPLINETYPE
 70
     6
  9
$SPLINESEGS
 70
     8
  9
$ATTDIA
 70
     0
  9
$ATTREQ
 70
     1
  9
$HANDLING
 70
 10241
  9
$HANDSEED
  5
8C33
  9
$SURFTAB1
 70
     6
  9
$SURFTAB2
 70
     6
  9
$SURFTYPE
 70
     6
  9
$SURFU
 70
     6
  9
$SURFV
 70
     6
  9
$UCSNAME
  2

  9
$UCSORG
 10
0.0
 20
0.0
 30
0.0
  9
$UCSXDIR
 10
1.0
 20
0.0
 30
0.0
  9
$UCSYDIR
 10
0.0
 20
1.0
 30
0.0
  9
$PUCSNAME
  2

  9
$PUCSORG
 10
0.0
 20
0.0
 30
0.0
  9
$PUCSXDIR
 10
1.0
 20
0.0
 30
0.0
  9
$PUCSYDIR
 10
0.0
 20
1.0
 30
0.0
  9
$USERI1
 70
     0
  9
$USERI2
 70
     0
  9
$USERI3
 70
     0
  9
$USERI4
 70
     0
  9
$USERI5
 70
     0
  9
$USERR1
 40
0.0
  9
$USERR2
 40
0.0
  9
$USERR3
 40
0.0
  9
$USERR4
 40
0.0
  9
$USERR5
 40
0.0
  9
$WORLDVIEW
 70
     1
  9
$SHADEDGE
 70
     3
  9
$SHADEDIF
 70
    70
  9
$TILEMODE
 70
     1
  9
$MAXACTVP
 70
    16
  9
$PLIMCHECK
 70
     0
  9
$PEXTMIN
 10
1.0000000000000000E+020
 20
1.0000000000000000E+020
 30
1.0000000000000000E+020
  9
$PEXTMAX
 10
-1.0000000000000000E+020
 20
-1.0000000000000000E+020
 30
-1.0000000000000000E+020
  9
$PLIMMIN
 10
0.0
 20
0.0
  9
$PLIMMAX
 10
12.0
 20
9.0
  9
$UNITMODE
 70
     0
  9
$VISRETAIN
 70
     0
  9
$PLINEGEN
 70
     0
  9
$PSLTSCALE
 70
     1
  0
ENDSEC
  0
SECTION
  2
TABLES
  0
TABLE
  2
VPORT
 70
     2
  0
VPORT
  2
*ACTIVE
 70
     0
 10
0.0
 20
0.0
 11
1.0
 21
1.0
 12
23296.160042414838
 22
6279.21740128083
 13
0.0
 23
0.0
 14
10.0
 24
10.0
 15
10.0
 25
10.0
 16
0.0
 26
0.0
 36
1.0
 17
0.0
 27
0.0
 37
0.0
 40
17466.13235103618
 41
3.1666666666666661
 42
50.0
 43
0.0
 44
0.0
 50
0.0
 51
0.0
 71
     0
 72
   100
 73
     1
 74
     0
 75
     0
 76
     0
 77
     0
 78
     0
  0
ENDTAB
  0
TABLE
  2
LTYPE
 70
     2
  0
LTYPE
  2
CONTINUOUS
 70
     0
  3
Solid line
 72
    65
 73
     0
 40
0.0
  0
LTYPE
  2
CENTER
 70
     0
  3
____ _ ____ _ ____ _ ____ _ ____ _ ____ _ ____ 
 72
    65
 73
     4
 40
2.0
 49
1.25
 49
-0.25
 49
0.25
 49
-0.25
  0
ENDTAB
  0
TABLE
  2
LAYER
 70
     6
  0
LAYER
  2
0
 70
     0
 62
     7
  6
CONTINUOUS
  0
LAYER
  2
3
 70
     0
 62
     2
  6
CONTINUOUS
  0
LAYER
  2
2
 70
     0
 62
     3
  6
CENTER
  0
LAYER
  2
1
 70
     0
 62
     4
  6
CONTINUOUS
  0
LAYER
  2
4
 70
     0
 62
     7
  6
CONTINUOUS
  0
LAYER
  2
DEFPOINTS
 70
     0
 62
     7
  6
CONTINUOUS
  0
ENDTAB
  0
TABLE
  2
STYLE
 70
     1
  0
STYLE
  2
STANDARD
 70
     0
 40
0.0
 41
1.0
 50
0.0
 71
     0
 42
180.0
  3
simplex.shx
  4
extfont.shx
  0
ENDTAB
  0
TABLE
  2
VIEW
 70
     0
  0
ENDTAB
  0
TABLE
  2
UCS
 70
     0
  0
ENDTAB
  0
TABLE
  2
APPID
 70
     1
  0
APPID
  2
ACAD
 70
     0
  0
ENDTAB
  0
TABLE
  2
DIMSTYLE
 70
     1
  0
DIMSTYLE
  2
IGA
 70
     0
  3

  4

  5

  6
OPEN
  7
OPEN
 40
2.0
 41
2.0
 42
0.5
 43
10.0
 44
1.0
 45
0.0
 46
0.0
 47
1.0
 48
1.0
140
3.0
141
0.0
142
0.0
143
0.03937
144
1.0
145
0.0
146
10.0
147
1.0
 71
     0
 72
     0
 73
     0
 74
     0
 75
     0
 76
     0
 77
     1
 78
     8
170
     0
171
     2
172
     0
173
     1
174
     0
175
     0
176
     0
177
     0
178
     0
  0
ENDTAB
  0
ENDSEC
  0
SECTION
  2
BLOCKS
  0
BLOCK
  8
0
  2
$MODEL_SPACE
 70
     0
 10
0.0
 20
0.0
 30
0.0
  3
$MODEL_SPACE
  1

  0
ENDBLK
  5
1B
  8
0
  0
BLOCK
 67
     1
  8
0
  2
$PAPER_SPACE
 70
     0
 10
0.0
 20
0.0
 30
0.0
  3
$PAPER_SPACE
  1

  0
ENDBLK
  5
18
 67
     1
  8
0
  0
BLOCK
  8
0
  2
YA_N
 70
     0
 10
0.0
 20
0.0
 30
0.0
  3
YA_N
  1

  0
ENDBLK
  5
79FE
  8
0
  0
BLOCK
  8
0
  2
_OPEN
 70
     0
 10
0.0
 20
0.0
 30
0.0
  3
_OPEN
  1

  0
LINE
  5
7B50
  8
0
  6
BYBLOCK
 62
     0
 10
-1.0
 20
0.166667
 30
0.0
 11
0.0
 21
0.0
 31
0.0
  0
LINE
  5
7B51
  8
0
  6
BYBLOCK
 62
     0
 10
0.0
 20
0.0
 30
0.0
 11
-1.0
 21
-0.166667
 31
0.0
  0
LINE
  5
7B52
  8
0
  6
BYBLOCK
 62
     0
 10
0.0
 20
0.0
 30
0.0
 11
-1.0
 21
0.0
 31
0.0
  0
ENDBLK
  5
7B53
  8
0
  0
BLOCK
  8
0
  2
_DOT
 70
     0
 10
0.0
 20
0.0
 30
0.0
  3
_DOT
  1

  0
LINE
  5
7D69
  8
0
  6
BYBLOCK
 62
     0
 10
0.0
 20
0.0
 30
0.0
 11
-1.0
 21
0.0
 31
0.0
  0
POLYLINE
  5
7D6A
  8
0
  6
BYBLOCK
 62
     0
 66
     1
 10
0.0
 20
0.0
 30
0.0
 70
     1
 40
0.166667
 41
0.166667
  0
VERTEX
  5
8B43
  8
0
  6
BYBLOCK
 62
     0
 10
-0.083333
 20
0.0
 30
0.0
 42
1.0
  0
VERTEX
  5
8B44
  8
0
  6
BYBLOCK
 62
     0
 10
0.083333
 20
0.0
 30
0.0
 42
1.0
  0
SEQEND
  5
8B45
  8
0
  6
BYBLOCK
 62
     0
  0
ENDBLK
  5
7D3B
  8
0
  0
BLOCK
  8
0
  2
*D3
 70
     1
 10
0.0
 20
0.0
 30
0.0
  3
*D3
  1

  0
LINE
  5
8B46
  8
3
 62
     0
 10
6486.6376499999997
 20
3053.554669227151
 30
0.0
 11
6486.6376499999997
 21
2578.4288962645528
 31
0.0
  0
LINE
  5
8B47
  8
3
 62
     0
 10
7597.6376499999997
 20
2998.9124062271499
 30
0.0
 11
7597.6376499999997
 21
2578.4288962645528
 31
0.0
  0
LINE
  5
8B48
  8
3
 62
     0
 10
6576.6376499999988
 20
2623.4288962645528
 30
0.0
 11
7507.6376499999988
 21
2623.4288962645528
 31
0.0
  0
INSERT
  5
8B49
  8
3
 62
     0
  2
_OPEN
 10
6486.6376499999997
 20
2623.4288962645528
 30
0.0
 41
90.0
 42
90.0
 43
90.0
 50
180.0
  0
INSERT
  5
8B4A
  8
3
 62
     0
  2
_OPEN
 10
7597.6376499999997
 20
2623.4288962645528
 30
0.0
 41
90.0
 42
90.0
 43
90.0
  0
TEXT
  8
3
  40
135
  5
8C1B
  62
0
  72
0
  71
0
 10
6794.64
 20
2496.98
 30
0.000000
  1
1111
  0
POINT
  5
8B4C
  8
DEFPOINTS
 62
     0
 10
6486.6376499999997
 20
3076.054669227151
 30
0.0
  0
POINT
  5
8B4D
  8
DEFPOINTS
 62
     0
 10
7597.6376499999997
 20
3021.4124062271512
 30
0.0
  0
POINT
  5
8B4E
  8
DEFPOINTS
 62
     0
 10
7597.6376499999997
 20
2623.4288962645528
 30
0.0
  0
ENDBLK
  5
85EA
  8
0
  0
BLOCK
  8
0
  2
*D4
 70
     1
 10
0.0
 20
0.0
 30
0.0
  3
*D4
  1

  0
LINE
  5
8B4F
  8
3
 62
     0
 10
8336.6376500000006
 20
3053.554669227151
 30
0.0
 11
8336.6376500000006
 21
2578.4288962645528
 31
0.0
  0
LINE
  5
8B50
  8
3
 62
     0
 10
7687.6376499999988
 20
2623.4288962645528
 30
0.0
 11
8246.6376500000024
 21
2623.4288962645528
 31
0.0
  0
INSERT
  5
8B51
  8
3
 62
     0
  2
_OPEN
 10
7597.6376499999997
 20
2623.4288962645528
 30
0.0
 41
90.0
 42
90.0
 43
90.0
 50
180.0
  0
INSERT
  5
8B52
  8
3
 62
     0
  2
_OPEN
 10
8336.6376500000006
 20
2623.4288962645528
 30
0.0
 41
90.0
 42
90.0
 43
90.0
  0
TEXT
  8
3
  40
135
  5
8C1C
  62
0
  72
0
  71
0
 10
7697.14
 20
2496.98
 30
0.000000
  1
739
  0
POINT
  5
8B54
  8
DEFPOINTS
 62
     0
 10
7597.6376499999997
 20
3021.4124062271512
 30
0.0
  0
POINT
  5
8B55
  8
DEFPOINTS
 62
     0
 10
8336.6376500000006
 20
3076.054669227151
 30
0.0
  0
POINT
  5
8B56
  8
DEFPOINTS
 62
     0
 10
8336.6376500000006
 20
2623.4288962645528
 30
0.0
  0
ENDBLK
  5
85DF
  8
0
  0
BLOCK
  8
0
  2
*D5
 70
     1
 10
0.0
 20
0.0
 30
0.0
  3
*D5
  1

  0
LINE
  5
8B57
  8
3
 62
     0
 10
6486.6376499999997
 20
3053.554669227151
 30
0.0
 11
6486.6376499999997
 21
2250.0718941813898
 31
0.0
  0
LINE
  5
8B58
  8
3
 62
     0
 10
8336.6376500000006
 20
3053.554669227151
 30
0.0
 11
8336.6376500000006
 21
2250.0718941813898
 31
0.0
  0
LINE
  5
8B59
  8
3
 62
     0
 10
6576.6376499999988
 20
2295.0718941813898
 30
0.0
 11
8246.6376500000024
 21
2295.0718941813898
 31
0.0
  0
INSERT
  5
8B5A
  8
3
 62
     0
  2
_OPEN
 10
6486.6376499999997
 20
2295.0718941813898
 30
0.0
 41
90.0
 42
90.0
 43
90.0
 50
180.0
  0
INSERT
  5
8B5B
  8
3
 62
     0
  2
_OPEN
 10
8336.6376500000006
 20
2295.0718941813898
 30
0.0
 41
90.0
 42
90.0
 43
90.0
  0
TEXT
  8
3
  40
135
  5
8C1D
  62
0
  72
0
  71
0
 10
7216.83
 20
2168.62
 30
0.000000
  1
1850
  0
POINT
  5
8B5D
  8
DEFPOINTS
 62
     0
 10
6486.6376499999997
 20
3076.054669227151
 30
0.0
  0
POINT
  5
8B5E
  8
DEFPOINTS
 62
     0
 10
8336.6376500000006
 20
3076.054669227151
 30
0.0
  0
POINT
  5
8B5F
  8
DEFPOINTS
 62
     0
 10
8336.6376500000006
 20
2295.0718941813898
 30
0.0
  0
ENDBLK
  5
85F5
  8
0
  0
BLOCK
  8
0
  2
*D6
 70
     1
 10
0.0
 20
0.0
 30
0.0
  3
*D6
  1

  0
LINE
  5
8B60
  8
3
 62
     0
 10
8415.1376500000006
 20
5596.11824922715
 30
0.0
 11
8822.5519080000013
 21
5596.11824922715
 31
0.0
  0
LINE
  5
8B61
  8
3
 62
     0
 10
8415.1376500000006
 20
3796.11824922715
 30
0.0
 11
8822.5519079999995
 21
3796.11824922715
 31
0.0
  0
LINE
  5
8B62
  8
3
 62
     0
 10
8777.5519080000013
 20
5506.1182492271491
 30
0.0
 11
8777.5519079999995
 21
3886.11824922715
 31
0.0
  0
INSERT
  5
8B63
  8
3
 62
     0
  2
_OPEN
 10
8777.5519080000013
 20
5596.11824922715
 30
0.0
 41
90.0
 42
90.0
 43
90.0
 50
90.0
  0
INSERT
  5
8B64
  8
3
 62
     0
  2
_OPEN
 10
8777.5519079999995
 20
3796.11824922715
 30
0.0
 41
90.0
 42
90.0
 43
90.0
 50
270.0
  0
TEXT
  8
3
  40
135
  5
8C1E
  62
0
  72
0
  71
0
 10
8395.05
 20
4402.88
 30
0.000000
  1
φ1800
  0
POINT
  5
8B66
  8
DEFPOINTS
 62
     0
 10
8392.6376500000006
 20
5596.11824922715
 30
0.0
  0
POINT
  5
8B67
  8
DEFPOINTS
 62
     0
 10
8392.6376500000006
 20
3796.11824922715
 30
0.0
  0
POINT
  5
8B68
  8
DEFPOINTS
 62
     0
 10
8777.5519079999995
 20
3796.11824922715
 30
0.0
  0
ENDBLK
  5
825D
  8
0
  0
BLOCK
  8
0
  2
*D7
 70
     1
 10
0.0
 20
0.0
 30
0.0
  3
*D7
  1

  0
LINE
  5
8B69
  8
3
 62
     0
 10
8392.6376500000006
 20
5683.61824922715
 30
0.0
 11
8392.6376500000006
 21
7211.2087289752171
 31
0.0
  0
LINE
  5
8B6A
  8
3
 62
     0
 10
7597.6376499999997
 20
7047.555187372549
 30
0.0
 11
7597.6376499999997
 21
7211.2087289752171
 31
0.0
  0
LINE
  5
8B6B
  8
3
 62
     0
 10
8302.6376500000006
 20
7166.2087289752171
 30
0.0
 11
7687.6376499999988
 21
7166.2087289752171
 31
0.0
  0
INSERT
  5
8B6C
  8
3
 62
     0
  2
_OPEN
 10
8392.6376500000006
 20
7166.2087289752171
 30
0.0
 41
90.0
 42
90.0
 43
90.0
  0
INSERT
  5
8B6D
  8
3
 62
     0
  2
_OPEN
 10
7597.6376499999997
 20
7166.2087289752171
 30
0.0
 41
90.0
 42
90.0
 43
90.0
 50
180.0
  0
TEXT
  8
3
  40
135
  5
8C1F
  62
0
  72
0
  71
0
 10
7735.53
 20
7039.76
 30
0.000000
  1
795
  0
POINT
  5
8B6F
  8
DEFPOINTS
 62
     0
 10
8392.6376500000006
 20
5661.118249227151
 30
0.0
  0
POINT
  5
8B70
  8
DEFPOINTS
 62
     0
 10
7597.6376499999997
 20
7025.0551873725481
 30
0.0
  0
POINT
  5
8B71
  8
DEFPOINTS
 62
     0
 10
7597.6376499999997
 20
7166.2087289752171
 30
0.0
  0
ENDBLK
  5
8670
  8
0
  0
BLOCK
  8
0
  2
*D8
 70
     1
 10
0.0
 20
0.0
 30
0.0
  3
*D8
  1

  0
LINE
  5
8B72
  8
3
 62
     0
 10
6497.6376499999997
 20
5198.61824922715
 30
0.0
 11
6497.6376499999997
 21
7211.2087289752171
 31
0.0
  0
LINE
  5
8B73
  8
3
 62
     0
 10
7507.6376499999988
 20
7166.2087289752171
 30
0.0
 11
6587.6376499999988
 21
7166.2087289752171
 31
0.0
  0
INSERT
  5
8B74
  8
3
 62
     0
  2
_OPEN
 10
7597.6376499999997
 20
7166.2087289752171
 30
0.0
 41
90.0
 42
90.0
 43
90.0
  0
INSERT
  5
8B75
  8
3
 62
     0
  2
_OPEN
 10
6497.6376499999997
 20
7166.2087289752171
 30
0.0
 41
90.0
 42
90.0
 43
90.0
 50
180.0
  0
TEXT
  8
3
  40
135
  5
8C20
  62
0
  72
0
  71
0
 10
6777.64
 20
7075.12
 30
0.000000
  1
(1150)
  0
POINT
  5
8B77
  8
DEFPOINTS
 62
     0
 10
7597.6376499999997
 20
6855.407678258558
 30
0.0
  0
POINT
  5
8B78
  8
DEFPOINTS
 62
     0
 10
6497.6376499999997
 20
5176.11824922715
 30
0.0
  0
POINT
  5
8B79
  8
DEFPOINTS
 62
     0
 10
6497.6376499999997
 20
7166.2087289752171
 30
0.0
  0
ENDBLK
  5
865A
  8
0
  0
BLOCK
  8
0
  2
*D9
 70
     1
 10
0.0
 20
0.0
 30
0.0
  3
*D9
  1

  0
LINE
  5
8B83
  8
3
 62
     0
 10
5804.7782101205412
 20
3053.554669227151
 30
0.0
 11
5804.7782101205412
 21
2628.4187662583299
 31
0.0
  0
LINE
  5
8B84
  8
3
 62
     0
 10
2964.7782101205412
 20
2945.9689980150679
 30
0.0
 11
2964.7782101205412
 21
2628.4187662583299
 31
0.0
  0
LINE
  5
8B85
  8
3
 62
     0
 10
5714.7782101205403
 20
2673.418766258329
 30
0.0
 11
3054.7782101205412
 21
2673.418766258329
 31
0.0
  0
INSERT
  5
8B86
  8
3
 62
     0
  2
_OPEN
 10
5804.7782101205412
 20
2673.418766258329
 30
0.0
 41
90.0
 42
90.0
 43
90.0
  0
INSERT
  5
8B87
  8
3
 62
     0
  2
_OPEN
 10
2964.7782101205412
 20
2673.418766258329
 30
0.0
 41
90.0
 42
90.0
 43
90.0
 50
180.0
  0
TEXT
  8
3
  40
135
  5
8C21
  62
0
  72
0
  71
0
 10
4032.70
 20
2546.97
 30
0.000000
  1
2840
  0
POINT
  5
8B89
  8
DEFPOINTS
 62
     0
 10
5804.7782101205412
 20
3076.054669227151
 30
0.0
  0
POINT
  5
8B8A
  8
DEFPOINTS
 62
     0
 10
2964.7782101205412
 20
2968.468998015067
 30
0.0
  0
POINT
  5
8B8B
  8
DEFPOINTS
 62
     0
 10
2964.7782101205412
 20
2673.418766258329
 30
0.0
  0
ENDBLK
  5
86AD
  8
0
  0
BLOCK
  8
0
  2
*D10
 70
     1
 10
0.0
 20
0.0
 30
0.0
  3
*D10
  1

  0
LINE
  5
8B8C
  8
3
 62
     0
 10
1904.778210120541
 20
3053.554669227151
 30
0.0
 11
1904.778210120541
 21
2628.4187662583299
 31
0.0
  0
LINE
  5
8B8D
  8
3
 62
     0
 10
2874.7782101205412
 20
2673.418766258329
 30
0.0
 11
1994.778210120541
 21
2673.418766258329
 31
0.0
  0
INSERT
  5
8B8E
  8
3
 62
     0
  2
_OPEN
 10
2964.7782101205412
 20
2673.418766258329
 30
0.0
 41
90.0
 42
90.0
 43
90.0
  0
INSERT
  5
8B8F
  8
3
 62
     0
  2
_OPEN
 10
1904.778210120541
 20
2673.418766258329
 30
0.0
 41
90.0
 42
90.0
 43
90.0
 50
180.0
  0
TEXT
  8
3
  40
135
  5
8C22
  62
0
  72
0
  71
0
 10
2164.78
 20
2546.97
 30
0.000000
  1
1060
  0
POINT
  5
8B91
  8
DEFPOINTS
 62
     0
 10
2964.7782101205412
 20
2968.468998015067
 30
0.0
  0
POINT
  5
8B92
  8
DEFPOINTS
 62
     0
 10
1904.778210120541
 20
3076.054669227151
 30
0.0
  0
POINT
  5
8B93
  8
DEFPOINTS
 62
     0
 10
1904.778210120541
 20
2673.418766258329
 30
0.0
  0
ENDBLK
  5
86E5
  8
0
  0
BLOCK
  8
0
  2
*D11
 70
     1
 10
0.0
 20
0.0
 30
0.0
  3
*D11
  1

  0
LINE
  5
8B7A
  8
3
 62
     0
 10
5804.7782101205412
 20
3053.554669227151
 30
0.0
 11
5804.7782101205412
 21
2222.717789878232
 31
0.0
  0
LINE
  5
8B7B
  8
3
 62
     0
 10
1904.778210120541
 20
3053.554669227151
 30
0.0
 11
1904.778210120541
 21
2222.717789878232
 31
0.0
  0
LINE
  5
8B7C
  8
3
 62
     0
 10
5714.7782101205403
 20
2267.717789878232
 30
0.0
 11
1994.778210120541
 21
2267.717789878232
 31
0.0
  0
INSERT
  5
8B7D
  8
3
 62
     0
  2
_OPEN
 10
5804.7782101205412
 20
2267.717789878232
 30
0.0
 41
90.0
 42
90.0
 43
90.0
  0
INSERT
  5
8B7E
  8
3
 62
     0
  2
_OPEN
 10
1904.778210120541
 20
2267.717789878232
 30
0.0
 41
90.0
 42
90.0
 43
90.0
 50
180.0
  0
TEXT
  8
3
  40
135
  5
8C23
  62
0
  72
0
  71
0
 10
3429.56
 20
2141.27
 30
0.000000
  1
3900
  0
POINT
  5
8B80
  8
DEFPOINTS
 62
     0
 10
5804.7782101205412
 20
3076.054669227151
 30
0.0
  0
POINT
  5
8B81
  8
DEFPOINTS
 62
     0
 10
1904.778210120541
 20
3076.054669227151
 30
0.0
  0
POINT
  5
8B82
  8
DEFPOINTS
 62
     0
 10
1904.778210120541
 20
2267.717789878232
 30
0.0
  0
ENDBLK
  5
86B8
  8
0
  0
BLOCK
  8
0
  2
*D12
 70
     1
 10
0.0
 20
0.0
 30
0.0
  3
*D12
  1

  0
LINE
  5
8B94
  8
3
 62
     0
 10
5804.7782101205412
 20
3538.61824922715
 30
0.0
 11
5804.7782101205412
 21
7102.8734099349231
 31
0.0
  0
LINE
  5
8B95
  8
3
 62
     0
 10
1799.778210120541
 20
6701.6182492271491
 30
0.0
 11
1799.778210120541
 21
7102.8734099349231
 31
0.0
  0
LINE
  5
8B96
  8
3
 62
     0
 10
5714.7782101205403
 20
7057.873409934924
 30
0.0
 11
1889.778210120541
 21
7057.873409934924
 31
0.0
  0
INSERT
  5
8B97
  8
3
 62
     0
  2
_OPEN
 10
5804.7782101205412
 20
7057.873409934924
 30
0.0
 41
90.0
 42
90.0
 43
90.0
  0
INSERT
  5
8B98
  8
3
 62
     0
  2
_OPEN
 10
1799.778210120541
 20
7057.873409934924
 30
0.0
 41
90.0
 42
90.0
 43
90.0
 50
180.0
  0
TEXT
  8
3
  40
135
  5
8C24
  62
0
  72
0
  71
0
 10
3532.28
 20
6931.42
 30
0.000000
  1
4005
  0
POINT
  5
8B9A
  8
DEFPOINTS
 62
     0
 10
5804.7782101205412
 20
3516.11824922715
 30
0.0
  0
POINT
  5
8B9B
  8
DEFPOINTS
 62
     0
 10
1799.778210120541
 20
6679.1182492271491
 30
0.0
  0
POINT
  5
8B9C
  8
DEFPOINTS
 62
     0
 10
1799.778210120541
 20
7057.873409934924
 30
0.0
  0
ENDBLK
  5
86A2
  8
0
  0
BLOCK
  8
0
  2
*D13
 70
     1
 10
0.0
 20
0.0
 30
0.0
  3
*D13
  1

  0
LINE
  5
8B9D
  8
3
 62
     0
 10
1799.778210120541
 20
6724.1182492271491
 30
0.0
 11
1799.778210120541
 21
6848.9506352395547
 31
0.0
  0
LINE
  5
8B9E
  8
3
 62
     0
 10
2964.7782101205412
 20
6627.6196802527547
 30
0.0
 11
2964.7782101205412
 21
6848.9506352395547
 31
0.0
  0
LINE
  5
8B9F
  8
3
 62
     0
 10
1889.778210120541
 20
6803.9506352395547
 30
0.0
 11
2874.7782101205412
 21
6803.9506352395547
 31
0.0
  0
INSERT
  5
8BA0
  8
3
 62
     0
  2
_OPEN
 10
1799.778210120541
 20
6803.9506352395547
 30
0.0
 41
90.0
 42
90.0
 43
90.0
 50
180.0
  0
INSERT
  5
8BA1
  8
3
 62
     0
  2
_OPEN
 10
2964.7782101205412
 20
6803.9506352395547
 30
0.0
 41
90.0
 42
90.0
 43
90.0
  0
TEXT
  8
3
  40
135
  5
8C25
  62
0
  72
0
  71
0
 10
2112.28
 20
6677.50
 30
0.000000
  1
1165
  0
POINT
  5
8BA3
  8
DEFPOINTS
 62
     0
 10
1799.778210120541
 20
6701.6182492271491
 30
0.0
  0
POINT
  5
8BA4
  8
DEFPOINTS
 62
     0
 10
2964.7782101205412
 20
6605.1196802527547
 30
0.0
  0
POINT
  5
8BA5
  8
DEFPOINTS
 62
     0
 10
2964.7782101205412
 20
6803.9506352395547
 30
0.0
  0
ENDBLK
  5
86FA
  8
0
  0
BLOCK
  8
0
  2
*D14
 70
     1
 10
0.0
 20
0.0
 30
0.0
  3
*D14
  1

  0
LINE
  5
8BA6
  8
3
 62
     0
 10
4518.7782101205412
 20
4849.6182492271491
 30
0.0
 11
4518.7782101205412
 21
6848.9506352395547
 31
0.0
  0
LINE
  5
8BA7
  8
3
 62
     0
 10
3054.7782101205412
 20
6803.9506352395547
 30
0.0
 11
4428.7782101205412
 21
6803.9506352395547
 31
0.0
  0
INSERT
  5
8BA8
  8
3
 62
     0
  2
_OPEN
 10
2964.7782101205412
 20
6803.9506352395547
 30
0.0
 41
90.0
 42
90.0
 43
90.0
 50
180.0
  0
INSERT
  5
8BA9
  8
3
 62
     0
  2
_OPEN
 10
4518.7782101205412
 20
6803.9506352395547
 30
0.0
 41
90.0
 42
90.0
 43
90.0
  0
TEXT
  8
3
  40
135
  5
8C26
  62
0
  72
0
  71
0
 10
3471.78
 20
6677.50
 30
0.000000
  1
1554
  0
POINT
  5
8BAB
  8
DEFPOINTS
 62
     0
 10
2964.7782101205412
 20
6605.1196802527547
 30
0.0
  0
POINT
  5
8BAC
  8
DEFPOINTS
 62
     0
 10
4518.7782101205412
 20
4827.1182492271491
 30
0.0
  0
POINT
  5
8BAD
  8
DEFPOINTS
 62
     0
 10
4518.7782101205412
 20
6803.9506352395547
 30
0.0
  0
ENDBLK
  5
86EF
  8
0
  0
BLOCK
  8
0
  2
*D15
 70
     1
 10
0.0
 20
0.0
 30
0.0
  3
*D15
  1

  0
LINE
  5
8BAE
  8
3
 62
     0
 10
1777.4941771205411
 20
6617.4080872271506
 30
0.0
 11
1136.2427726545279
 21
6617.4080872271506
 31
0.0
  0
LINE
  5
8BAF
  8
3
 62
     0
 10
1777.278210120541
 20
4767.1182492271491
 30
0.0
 11
1136.2427726545279
 21
4767.1182492271491
 31
0.0
  0
LINE
  5
8BB0
  8
3
 62
     0
 10
1181.2427726545279
 20
6527.4080872271497
 30
0.0
 11
1181.2427726545279
 21
4857.1182492271482
 31
0.0
  0
INSERT
  5
8BB1
  8
3
 62
     0
  2
_OPEN
 10
1181.2427726545279
 20
6617.4080872271506
 30
0.0
 41
90.0
 42
90.0
 43
90.0
 50
90.0
  0
INSERT
  5
8BB2
  8
3
 62
     0
  2
_OPEN
 10
1181.2427726545279
 20
4767.1182492271491
 30
0.0
 41
90.0
 42
90.0
 43
90.0
 50
270.0
  0
TEXT
  8
3
  40
135
  5
8C27
  62
0
  72
0
  71
0
 10
798.743
 20
5453.31
 30
0.000000
  1
1850
  0
POINT
  5
8BB4
  8
DEFPOINTS
 62
     0
 10
1799.9941771205411
 20
6617.4080872271506
 30
0.0
  0
POINT
  5
8BB5
  8
DEFPOINTS
 62
     0
 10
1799.778210120541
 20
4767.1182492271491
 30
0.0
  0
POINT
  5
8BB6
  8
DEFPOINTS
 62
     0
 10
1181.2427726545279
 20
4767.1182492271491
 30
0.0
  0
ENDBLK
  5
868C
  8
0
  0
BLOCK
  8
0
  2
*D16
 70
     1
 10
0.0
 20
0.0
 30
0.0
  3
*D16
  1

  0
LINE
  5
8BB7
  8
3
 62
     0
 10
1158.7427726545279
 20
6617.4080872271506
 30
0.0
 11
778.75567669171176
 21
6617.4080872271506
 31
0.0
  0
LINE
  5
8BB8
  8
3
 62
     0
 10
1685.9942981667839
 20
4696.11824922715
 30
0.0
 11
778.75567669171141
 21
4696.11824922715
 31
0.0
  0
LINE
  5
8BB9
  8
3
 62
     0
 10
823.75567669171187
 20
6527.4080872271497
 30
0.0
 11
823.75567669171141
 21
4786.11824922715
 31
0.0
  0
INSERT
  5
8BBA
  8
3
 62
     0
  2
_OPEN
 10
823.75567669171187
 20
6617.4080872271506
 30
0.0
 41
90.0
 42
90.0
 43
90.0
 50
90.0
  0
INSERT
  5
8BBB
  8
3
 62
     0
  2
_OPEN
 10
823.75567669171141
 20
4696.11824922715
 30
0.0
 41
90.0
 42
90.0
 43
90.0
 50
270.0
  0
TEXT
  8
3
  40
135
  5
8C28
  62
0
  72
0
  71
0
 10
441.256
 20
5417.81
 30
0.000000
  1
1921
  0
POINT
  5
8BBD
  8
DEFPOINTS
 62
     0
 10
1181.2427726545279
 20
6617.4080872271506
 30
0.0
  0
POINT
  5
8BBE
  8
DEFPOINTS
 62
     0
 10
1708.4942981667839
 20
4696.11824922715
 30
0.0
  0
POINT
  5
8BBF
  8
DEFPOINTS
 62
     0
 10
823.75567669171141
 20
4696.11824922715
 30
0.0
  0
ENDBLK
  5
8697
  8
0
  0
BLOCK
  8
0
  2
*D17
 70
     1
 10
0.0
 20
0.0
 30
0.0
  3
*D17
  1

  0
LINE
  5
8BC0
  8
3
 62
     0
 10
1882.278210120541
 20
3366.11824922715
 30
0.0
 11
778.75567669171153
 21
3366.118249227151
 31
0.0
  0
LINE
  5
8BC1
  8
3
 62
     0
 10
823.75567669171164
 20
4606.11824922715
 30
0.0
 11
823.75567669171141
 21
3456.11824922715
 31
0.0
  0
INSERT
  5
8BC2
  8
3
 62
     0
  2
_OPEN
 10
823.75567669171164
 20
4696.11824922715
 30
0.0
 41
90.0
 42
90.0
 43
90.0
 50
90.0
  0
INSERT
  5
8BC3
  8
3
 62
     0
  2
_OPEN
 10
823.75567669171141
 20
3366.118249227151
 30
0.0
 41
90.0
 42
90.0
 43
90.0
 50
270.0
  0
TEXT
  8
3
  40
135
  5
8C29
  62
0
  72
0
  71
0
 10
441.256
 20
3792.17
 30
0.000000
  1
1330
  0
POINT
  5
8BC5
  8
DEFPOINTS
 62
     0
 10
1708.4942981667839
 20
4696.11824922715
 30
0.0
  0
POINT
  5
8BC6
  8
DEFPOINTS
 62
     0
 10
1904.778210120541
 20
3366.11824922715
 30
0.0
  0
POINT
  5
8BC7
  8
DEFPOINTS
 62
     0
 10
823.75567669171141
 20
3366.118249227151
 30
0.0
  0
ENDBLK
  5
86C2
  8
0
  0
BLOCK
  8
0
  2
*D18
 70
     1
 10
0.0
 20
0.0
 30
0.0
  3
*D18
  1

  0
LINE
  5
8BC8
  8
3
 62
     0
 10
1882.278210120541
 20
3226.054669227151
 30
0.0
 11
778.75567669171141
 21
3226.054669227151
 31
0.0
  0
LINE
  5
8BC9
  8
3
 62
     0
 10
823.75567669171164
 20
3456.11824922715
 30
0.0
 11
823.75567669171164
 21
3546.11824922715
 31
0.0
  0
LINE
  5
8BCA
  8
3
 62
     0
 10
823.75567669171141
 20
3136.054669227151
 30
0.0
 11
823.75567669171141
 21
3046.054669227151
 31
0.0
  0
LINE
  5
8BCB
  8
3
 62
     0
 10
823.75567669171141
 20
3296.086459227151
 30
0.0
 11
643.75567669171153
 21
3350.086459227151
 31
0.0
  0
LINE
  5
8BCC
  8
3
 62
     0
 10
643.75567669171153
 20
3350.086459227151
 30
0.0
 11
643.75567669171153
 21
3761.5150306557221
 31
0.0
  0
TEXT
  8
3
  40
135
  5
8C2A
  62
0
  72
0
  71
0
 10
261.256
 20
3316.85
 30
0.000000
  1
140
  0
LINE
  5
8BCE
  8
3
 62
     0
 10
823.75567669171164
 20
3366.118249227151
 30
0.0
 11
823.75567669171141
 21
3226.054669227151
 31
0.0
  0
INSERT
  5
8BCF
  8
3
 62
     0
  2
_OPEN
 10
823.75567669171164
 20
3366.118249227151
 30
0.0
 41
90.0
 42
90.0
 43
90.0
 50
270.0
  0
INSERT
  5
8BD0
  8
3
 62
     0
  2
_OPEN
 10
823.75567669171141
 20
3226.054669227151
 30
0.0
 41
90.0
 42
90.0
 43
90.0
 50
90.0
  0
POINT
  5
8BD1
  8
DEFPOINTS
 62
     0
 10
1904.778210120541
 20
3366.11824922715
 30
0.0
  0
POINT
  5
8BD2
  8
DEFPOINTS
 62
     0
 10
1904.778210120541
 20
3226.054669227151
 30
0.0
  0
POINT
  5
8BD3
  8
DEFPOINTS
 62
     0
 10
823.75567669171141
 20
3226.054669227151
 30
0.0
  0
ENDBLK
  5
86D0
  8
0
  0
BLOCK
  8
0
  2
*D19
 70
     1
 10
0.0
 20
0.0
 30
0.0
  3
*D19
  1

  0
LINE
  5
8BD4
  8
3
 62
     0
 10
1882.278210120541
 20
3076.054669227151
 30
0.0
 11
778.75567669171141
 21
3076.054669227151
 31
0.0
  0
LINE
  5
8BD5
  8
3
 62
     0
 10
823.75567669171141
 20
3316.054669227151
 30
0.0
 11
823.75567669171164
 21
3406.054669227151
 31
0.0
  0
LINE
  5
8BD6
  8
3
 62
     0
 10
823.75567669171141
 20
2986.054669227151
 30
0.0
 11
823.75567669171119
 21
2484.6260977985798
 31
0.0
  0
INSERT
  5
8BD7
  8
3
 62
     0
  2
_OPEN
 10
823.75567669171141
 20
3226.054669227151
 30
0.0
 41
90.0
 42
90.0
 43
90.0
 50
270.0
  0
INSERT
  5
8BD8
  8
3
 62
     0
  2
_OPEN
 10
823.75567669171141
 20
3076.054669227151
 30
0.0
 41
90.0
 42
90.0
 43
90.0
 50
90.0
  0
TEXT
  8
3
  40
135
  5
8C2B
  62
0
  72
0
  71
0
 10
441.256
 20
2451.39
 30
0.000000
  1
150
  0
POINT
  5
8BDA
  8
DEFPOINTS
 62
     0
 10
1904.778210120541
 20
3226.054669227151
 30
0.0
  0
POINT
  5
8BDB
  8
DEFPOINTS
 62
     0
 10
1904.778210120541
 20
3076.054669227151
 30
0.0
  0
POINT
  5
8BDC
  8
DEFPOINTS
 62
     0
 10
823.75567669171141
 20
3076.054669227151
 30
0.0
  0
ENDBLK
  5
86DB
  8
0
  0
BLOCK
  8
0
  2
*D20
 70
     1
 10
0.0
 20
0.0
 30
0.0
  3
*D20
  1

  0
LINE
  5
8BDD
  8
3
 62
     0
 10
801.25567669171141
 20
3076.054669227151
 30
0.0
 11
337.26865169283622
 21
3076.054669227151
 31
0.0
  0
LINE
  5
8BDE
  8
3
 62
     0
 10
801.25567669171141
 20
6617.4080872271506
 30
0.0
 11
337.26865169283701
 21
6617.4080872271506
 31
0.0
  0
LINE
  5
8BDF
  8
3
 62
     0
 10
382.26865169283622
 20
3166.05466922715
 30
0.0
 11
382.2686516928369
 21
6527.4080872271497
 31
0.0
  0
INSERT
  5
8BE0
  8
3
 62
     0
  2
_OPEN
 10
382.26865169283622
 20
3076.054669227151
 30
0.0
 41
90.0
 42
90.0
 43
90.0
 50
270.0
  0
INSERT
  5
8BE1
  8
3
 62
     0
  2
_OPEN
 10
382.26865169283701
 20
6617.4080872271506
 30
0.0
 41
90.0
 42
90.0
 43
90.0
 50
90.0
  0
TEXT
  8
3
  40
135
  5
8C2C
  62
0
  72
0
  71
0
 10
-0.231348
 20
4607.78
 30
0.000000
  1
3541
  0
POINT
  5
8BE3
  8
DEFPOINTS
 62
     0
 10
823.75567669171141
 20
3076.054669227151
 30
0.0
  0
POINT
  5
8BE4
  8
DEFPOINTS
 62
     0
 10
823.75567669171141
 20
6617.4080872271506
 30
0.0
  0
POINT
  5
8BE5
  8
DEFPOINTS
 62
     0
 10
382.26865169283701
 20
6617.4080872271506
 30
0.0
  0
ENDBLK
  5
8705
  8
0
  0
BLOCK
  8
0
  2
*D21
 70
     1
 10
0.0
 20
0.0
 30
0.0
  3
*D21
  1

  0
LINE
  5
8BE6
  8
3
 62
     0
 10
6937.6376499999988
 20
6701.6182492271491
 30
0.0
 11
6937.6376499999988
 21
6898.7585537930527
 31
0.0
  0
LINE
  5
8BE7
  8
3
 62
     0
 10
8257.6376500000006
 20
6701.618249227151
 30
0.0
 11
8257.6376500000006
 21
6898.7585537930527
 31
0.0
  0
LINE
  5
8BE8
  8
3
 62
     0
 10
7027.6376499999988
 20
6853.7585537930527
 30
0.0
 11
8167.6376500000006
 21
6853.7585537930527
 31
0.0
  0
INSERT
  5
8BE9
  8
3
 62
     0
  2
_OPEN
 10
6937.6376499999988
 20
6853.7585537930527
 30
0.0
 41
90.0
 42
90.0
 43
90.0
 50
180.0
  0
INSERT
  5
8BEA
  8
3
 62
     0
  2
_OPEN
 10
8257.6376500000006
 20
6853.7585537930527
 30
0.0
 41
90.0
 42
90.0
 43
90.0
  0
TEXT
  8
3
  40
135
  5
8C2D
  62
0
  72
0
  71
0
 10
7327.64
 20
6727.31
 30
0.000000
  1
1320
  0
POINT
  5
8BEC
  8
DEFPOINTS
 62
     0
 10
6937.6376499999988
 20
6679.11824922715
 30
0.0
  0
POINT
  5
8BED
  8
DEFPOINTS
 62
     0
 10
8257.6376500000006
 20
6679.118249227151
 30
0.0
  0
POINT
  5
8BEE
  8
DEFPOINTS
 62
     0
 10
8257.6376500000006
 20
6853.7585537930527
 30
0.0
  0
ENDBLK
  5
864F
  8
0
  0
BLOCK
  8
0
  2
*D22
 70
     1
 10
0.0
 20
0.0
 30
0.0
  3
*D22
  1

  0
LINE
  5
8BEF
  8
3
 62
     0
 10
1882.2782101205421
 20
7839.0635380000012
 30
0.0
 11
998.29514402256029
 21
7839.0635380000012
 31
0.0
  0
LINE
  5
8BF0
  8
3
 62
     0
 10
1882.2782101205421
 20
9689.0635380000003
 30
0.0
 11
998.29514402256063
 21
9689.0635380000003
 31
0.0
  0
LINE
  5
8BF1
  8
3
 62
     0
 10
1043.29514402256
 20
7929.0635380000012
 30
0.0
 11
1043.29514402256
 21
9599.0635380000003
 31
0.0
  0
INSERT
  5
8BF2
  8
3
 62
     0
  2
_OPEN
 10
1043.29514402256
 20
7839.0635380000012
 30
0.0
 41
90.0
 42
90.0
 43
90.0
 50
270.0
  0
INSERT
  5
8BF3
  8
3
 62
     0
  2
_OPEN
 10
1043.29514402256
 20
9689.0635380000003
 30
0.0
 41
90.0
 42
90.0
 43
90.0
 50
90.0
  0
TEXT
  8
3
  40
135
  5
8C2E
  62
0
  72
0
  71
0
 10
660.795
 20
8525.11
 30
0.000000
  1
1850
  0
POINT
  5
8BF5
  8
DEFPOINTS
 62
     0
 10
1904.778210120543
 20
7839.0635380000012
 30
0.0
  0
POINT
  5
8BF6
  8
DEFPOINTS
 62
     0
 10
1904.778210120543
 20
9689.0635380000003
 30
0.0
  0
POINT
  5
8BF7
  8
DEFPOINTS
 62
     0
 10
1043.29514402256
 20
9689.0635380000003
 30
0.0
  0
ENDBLK
  5
881D
  8
0
  0
BLOCK
  8
0
  2
*D23
 70
     1
 10
0.0
 20
0.0
 30
0.0
  3
*D23
  1

  0
LINE
  5
8BF8
  8
3
 62
     0
 10
5804.7782101205421
 20
7816.5635380000012
 30
0.0
 11
5804.7782101205421
 21
7312.77823410162
 31
0.0
  0
LINE
  5
8BF9
  8
3
 62
     0
 10
1904.778210120543
 20
7816.5635380000012
 30
0.0
 11
1904.778210120543
 21
7312.77823410162
 31
0.0
  0
LINE
  5
8BFA
  8
3
 62
     0
 10
5714.778210120543
 20
7357.77823410162
 30
0.0
 11
1994.778210120543
 21
7357.77823410162
 31
0.0
  0
INSERT
  5
8BFB
  8
3
 62
     0
  2
_OPEN
 10
5804.7782101205421
 20
7357.77823410162
 30
0.0
 41
90.0
 42
90.0
 43
90.0
  0
INSERT
  5
8BFC
  8
3
 62
     0
  2
_OPEN
 10
1904.778210120543
 20
7357.77823410162
 30
0.0
 41
90.0
 42
90.0
 43
90.0
 50
180.0
  0
TEXT
  8
3
  40
135
  5
8C2F
  62
0
  72
0
  71
0
 10
3494.76
 20
7231.33
 30
0.000000
  1
3900
  0
POINT
  5
8BFE
  8
DEFPOINTS
 62
     0
 10
5804.7782101205421
 20
7839.0635380000012
 30
0.0
  0
POINT
  5
8BFF
  8
DEFPOINTS
 62
     0
 10
1904.778210120543
 20
7839.0635380000012
 30
0.0
  0
POINT
  5
8C00
  8
DEFPOINTS
 62
     0
 10
1904.778210120543
 20
7357.77823410162
 30
0.0
  0
ENDBLK
  5
8829
  8
0
  0
BLOCK
  8
0
  2
*D24
 70
     1
 10
0.0
 20
0.0
 30
0.0
  3
*D24
  1

  0
LINE
  5
8C01
  8
3
 62
     0
 10
5804.7782101205421
 20
9061.5635379999985
 30
0.0
 11
5804.7782101205421
 21
10041.31577435536
 31
0.0
  0
LINE
  5
8C02
  8
3
 62
     0
 10
4114.778210120543
 20
9996.3157743553602
 30
0.0
 11
5714.778210120543
 21
9996.3157743553602
 31
0.0
  0
INSERT
  5
8C03
  8
3
 62
     0
  2
_OPEN
 10
4024.778210120543
 20
9996.3157743553602
 30
0.0
 41
90.0
 42
90.0
 43
90.0
 50
180.0
  0
INSERT
  5
8C04
  8
3
 62
     0
  2
_OPEN
 10
5804.7782101205421
 20
9996.3157743553602
 30
0.0
 41
90.0
 42
90.0
 43
90.0
  0
TEXT
  8
3
  40
135
  5
8C30
  62
0
  72
0
  71
0
 10
4644.78
 20
9869.87
 30
0.000000
  1
1780
  0
POINT
  5
8C06
  8
DEFPOINTS
 62
     0
 10
4024.778210120543
 20
9689.0635380000003
 30
0.0
  0
POINT
  5
8C07
  8
DEFPOINTS
 62
     0
 10
5804.7782101205421
 20
9039.0635380000003
 30
0.0
  0
POINT
  5
8C08
  8
DEFPOINTS
 62
     0
 10
5804.7782101205421
 20
9996.3157743553602
 30
0.0
  0
ENDBLK
  5
8834
  8
0
  0
BLOCK
  8
0
  2
*D25
 70
     1
 10
0.0
 20
0.0
 30
0.0
  3
*D25
  1

  0
LINE
  5
8C09
  8
3
 62
     0
 10
5827.2782101205421
 20
9039.0635380000003
 30
0.0
 11
6091.9102581205434
 21
9039.0635380000003
 31
0.0
  0
LINE
  5
8C0A
  8
3
 62
     0
 10
5827.2782101205421
 20
7839.0635380000012
 30
0.0
 11
6091.9102581205434
 21
7839.0635380000012
 31
0.0
  0
LINE
  5
8C0B
  8
3
 62
     0
 10
6046.9102581205443
 20
8949.0635380000003
 30
0.0
 11
6046.9102581205443
 21
7929.0635380000012
 31
0.0
  0
INSERT
  5
8C0C
  8
3
 62
     0
  2
_OPEN
 10
6046.9102581205443
 20
9039.0635380000003
 30
0.0
 41
90.0
 42
90.0
 43
90.0
 50
90.0
  0
INSERT
  5
8C0D
  8
3
 62
     0
  2
_OPEN
 10
6046.9102581205443
 20
7839.0635380000012
 30
0.0
 41
90.0
 42
90.0
 43
90.0
 50
270.0
  0
TEXT
  8
3
  40
135
  5
8C31
  62
0
  72
0
  71
0
 10
5664.41
 20
8193.83
 30
0.000000
  1
1200
  0
POINT
  5
8C0F
  8
DEFPOINTS
 62
     0
 10
5804.7782101205421
 20
9039.0635380000003
 30
0.0
  0
POINT
  5
8C10
  8
DEFPOINTS
 62
     0
 10
5804.7782101205421
 20
7839.0635380000012
 30
0.0
  0
POINT
  5
8C11
  8
DEFPOINTS
 62
     0
 10
6046.9102581205443
 20
7839.0635380000012
 30
0.0
  0
ENDBLK
  5
8840
  8
0
  0
BLOCK
  8
0
  2
*D26
 70
     1
 10
0.0
 20
0.0
 30
0.0
  3
*D26
  1

  0
LINE
  5
8C12
  8
3
 62
     0
 10
1904.778210120543
 20
9711.5635380000003
 30
0.0
 11
1904.778210120543
 21
10041.31577435536
 31
0.0
  0
LINE
  5
8C13
  8
3
 62
     0
 10
4024.778210120543
 20
9711.5635380000003
 30
0.0
 11
4024.778210120543
 21
10041.31577435536
 31
0.0
  0
LINE
  5
8C14
  8
3
 62
     0
 10
1994.778210120543
 20
9996.3157743553602
 30
0.0
 11
3934.778210120543
 21
9996.3157743553602
 31
0.0
  0
INSERT
  5
8C15
  8
3
 62
     0
  2
_OPEN
 10
1904.778210120543
 20
9996.3157743553602
 30
0.0
 41
90.0
 42
90.0
 43
90.0
 50
180.0
  0
INSERT
  5
8C16
  8
3
 62
     0
  2
_OPEN
 10
4024.778210120543
 20
9996.3157743553602
 30
0.0
 41
90.0
 42
90.0
 43
90.0
  0
TEXT
  8
3
  40
135
  5
8C32
  62
0
  72
0
  71
0
 10
2701.85
 20
9869.87
 30
0.000000
  1
2120
  0
POINT
  5
8C18
  8
DEFPOINTS
 62
     0
 10
1904.778210120543
 20
9689.0635380000003
 30
0.0
  0
POINT
  5
8C19
  8
DEFPOINTS
 62
     0
 10
4024.778210120543
 20
9689.0635380000003
 30
0.0
  0
POINT
  5
8C1A
  8
DEFPOINTS
 62
     0
 10
4024.778210120543
 20
9996.3157743553602
 30
0.0
  0
ENDBLK
  5
884C
  8
0
  0
ENDSEC
  0
SECTION
  2
ENTITIES
  0
INSERT
  5
7ADD
  8
0
  2
YA_N
 10
12518.736613999999
 20
-6524.6833909999987
 30
0.0
  0
INSERT
  5
7AF5
  8
0
  2
YA_N
 10
18386.038918999999
 20
2975.8020809999989
 30
0.0
  0
INSERT
  5
7DA2
  8
0
  2
YA_N
 10
12518.736613999999
 20
-6524.6833909999987
 30
0.0
  0
INSERT
  5
7DB4
  8
0
  2
YA_N
 10
18386.038918999999
 20
2975.8020809999989
 30
0.0
  0
LINE
  5
80D9
  8
1
 10
6486.6376499999997
 20
3516.11824922715
 30
0.0
 11
8336.6376500000006
 21
3516.11824922715
 31
0.0
  0
LINE
  5
80DA
  8
1
 10
6486.6376499999997
 20
3366.11824922715
 30
0.0
 11
8336.6376500000006
 21
3366.11824922715
 31
0.0
  0
LINE
  5
80E7
  8
1
 10
6561.6376499999997
 20
3516.11824922715
 30
0.0
 11
6486.6376499999997
 21
3516.11824922715
 31
0.0
  0
LINE
  5
80E8
  8
1
 10
6561.6376499999997
 20
3366.11824922715
 30
0.0
 11
6486.6376499999997
 21
3366.11824922715
 31
0.0
  0
LINE
  5
80EA
  8
2
 10
7597.6376499999997
 20
3021.4124062271512
 30
0.0
 11
7597.6376499999997
 21
6773.0185956053756
 31
0.0
  0
LINE
  5
80EB
  8
1
 10
8257.6376500000024
 20
3516.11824922715
 30
0.0
 11
8257.6376500000006
 21
6619.2122550463964
 31
0.0
  0
LINE
  5
80EC
  8
1
 10
8392.6376500000006
 20
3731.1182492271491
 30
0.0
 11
8392.6376500000006
 21
5661.118249227151
 31
0.0
  0
LINE
  5
80EE
  8
1
 10
8261.6376500000006
 20
3366.11824922715
 30
0.0
 11
8336.6376500000006
 21
3366.11824922715
 31
0.0
  0
LINE
  5
80EF
  8
1
 10
8261.6376500000006
 20
3516.11824922715
 30
0.0
 11
8336.6376500000006
 21
3516.11824922715
 31
0.0
  0
LINE
  5
80F0
  8
1
 10
8257.6376500000006
 20
3796.11824922715
 30
0.0
 11
8392.6376500000006
 21
3796.11824922715
 31
0.0
  0
LINE
  5
80F1
  8
1
 10
8257.6376500000006
 20
5596.11824922715
 30
0.0
 11
8392.6376500000006
 21
5596.11824922715
 31
0.0
  0
INSERT
  5
8103
  8
0
  2
YA_N
 10
12518.736613999999
 20
-6524.6833909999987
 30
0.0
  0
LINE
  5
8105
  8
2
 10
6397.6376499999997
 20
4696.11824922715
 30
0.0
 11
8498.3907209999998
 21
4696.11824922715
 31
0.0
  0
LINE
  5
8106
  8
1
 10
6497.6376499999978
 20
3581.11824922715
 30
0.0
 11
6497.6376499999997
 21
5176.11824922715
 31
0.0
  0
LINE
  5
8107
  8
1
 10
6697.6376499999997
 20
5176.11824922715
 30
0.0
 11
6697.6376499999978
 21
3581.11824922715
 31
0.0
  0
LINE
  5
8108
  8
1
 10
6697.6376499999978
 20
3581.11824922715
 30
0.0
 11
6497.6376499999978
 21
3581.11824922715
 31
0.0
  0
LINE
  5
8109
  8
1
 10
6657.6376499999988
 20
3716.11824922715
 30
0.0
 11
6657.6376499999988
 21
4046.11824922715
 31
0.0
  0
LINE
  5
810A
  8
1
 10
6537.6376499999988
 20
3716.11824922715
 30
0.0
 11
6537.6376499999988
 21
4046.11824922715
 31
0.0
  0
LINE
  5
810B
  8
1
 10
6537.6376499999988
 20
5096.11824922715
 30
0.0
 11
6657.6376499999988
 21
5096.11824922715
 31
0.0
  0
LINE
  5
810C
  8
1
 10
6657.6376499999988
 20
4296.11824922715
 30
0.0
 11
6537.6376499999988
 21
4296.11824922715
 31
0.0
  0
LINE
  5
810D
  8
1
 10
6537.6376499999988
 20
4046.11824922715
 30
0.0
 11
6537.6376499999988
 21
5096.11824922715
 31
0.0
  0
LINE
  5
810E
  8
1
 10
6657.6376499999988
 20
4046.11824922715
 30
0.0
 11
6657.6376499999988
 21
5096.11824922715
 31
0.0
  0
LINE
  5
810F
  8
2
 10
6597.6376499999997
 20
5141.96624922715
 30
0.0
 11
6597.6376499999988
 21
3480.81417422715
 31
0.0
  0
LINE
  5
8110
  8
1
 10
6697.6376499999997
 20
5176.11824922715
 30
0.0
 11
6497.6376499999997
 21
5176.11824922715
 31
0.0
  0
LINE
  5
8112
  8
2
 10
6463.3366499999993
 20
3866.11824922715
 30
0.0
 11
7693.2158207247703
 21
3866.11824922715
 31
0.0
  0
LINE
  5
8113
  8
1
 10
6537.6376499999988
 20
4016.11824922715
 30
0.0
 11
6657.6376499999988
 21
4016.11824922715
 31
0.0
  0
LINE
  5
8114
  8
1
 10
6537.6376499999988
 20
3716.11824922715
 30
0.0
 11
6657.6376499999988
 21
3716.11824922715
 31
0.0
  0
INSERT
  5
8115
  8
0
  2
YA_N
 10
18386.038918999999
 20
2975.8020809999989
 30
0.0
  0
LINE
  5
8124
  8
1
 10
6486.6376499999997
 20
3516.11824922715
 30
0.0
 11
6486.6376499999997
 21
3366.11824922715
 31
0.0
  0
LINE
  5
8125
  8
1
 10
8336.6376500000006
 20
3516.11824922715
 30
0.0
 11
8336.6376500000006
 21
3366.11824922715
 31
0.0
  0
LINE
  5
8126
  8
1
 10
6486.6376499999997
 20
3076.054669227151
 30
0.0
 11
8336.6376500000006
 21
3076.054669227151
 31
0.0
  0
LINE
  5
8127
  8
1
 10
6486.6376499999997
 20
3226.054669227151
 30
0.0
 11
8336.6376500000006
 21
3226.054669227151
 31
0.0
  0
LINE
  5
8128
  8
1
 10
6561.6376499999997
 20
3076.054669227151
 30
0.0
 11
6486.6376499999997
 21
3076.054669227151
 31
0.0
  0
LINE
  5
8129
  8
1
 10
6561.6376499999997
 20
3226.054669227151
 30
0.0
 11
6486.6376499999997
 21
3226.054669227151
 31
0.0
  0
LINE
  5
812A
  8
1
 10
6486.6376499999997
 20
3226.054669227151
 30
0.0
 11
6486.6376499999997
 21
3076.054669227151
 31
0.0
  0
LINE
  5
812B
  8
1
 10
8336.6376500000006
 20
3226.054669227151
 30
0.0
 11
8336.6376500000006
 21
3076.054669227151
 31
0.0
  0
LINE
  5
8146
  8
1
 10
6657.6376499999988
 20
4741.11824922715
 30
0.0
 11
6937.6376499999988
 21
4741.11824922715
 31
0.0
  0
LINE
  5
8147
  8
1
 10
6657.6376499999988
 20
4651.11824922715
 30
0.0
 11
6937.6376499999988
 21
4651.11824922715
 31
0.0
  0
LINE
  5
815A
  8
1
 10
7636.6376499999988
 20
4144.86824922715
 30
0.0
 11
6784.1376499999988
 21
4144.86824922715
 31
0.0
  0
LINE
  5
815B
  8
1
 10
6784.1376499999988
 20
3587.36824922715
 30
0.0
 11
7636.6376499999988
 21
3587.36824922715
 31
0.0
  0
LINE
  5
815C
  8
1
 10
6784.1376499999988
 20
3587.36824922715
 30
0.0
 11
6784.1376499999988
 21
4144.86824922715
 31
0.0
  0
LINE
  5
815D
  8
1
 10
6777.6376499999988
 20
3951.61824922715
 30
0.0
 11
6777.6376499999988
 21
3780.61824922715
 31
0.0
  0
LINE
  5
815E
  8
1
 10
6784.4860249999992
 20
3953.61824922715
 30
0.0
 11
6779.6376499999988
 21
3953.61824922715
 31
0.0
  0
ARC
  5
815F
  8
1
 10
6779.6376499999988
 20
3951.61824922715
 30
0.0
 40
2.0
 50
90.0
 51
180.0
  0
LINE
  5
8160
  8
1
 10
6597.6376499999988
 20
3823.61824922715
 30
0.0
 11
6762.1376499999978
 21
3823.61824922715
 31
0.0
  0
LINE
  5
8162
  8
1
 10
6597.6376499999988
 20
3908.61824922715
 30
0.0
 11
6767.6376499999988
 21
3908.61824922715
 31
0.0
  0
LINE
  5
8164
  8
1
 10
6784.1376499999988
 20
3778.61824922715
 30
0.0
 11
6779.6376499999988
 21
3778.61824922715
 31
0.0
  0
ARC
  5
8165
  8
1
 10
6779.6376499999988
 20
3780.61824922715
 30
0.0
 40
2.0
 50
180.0
 51
270.0
  0
LINE
  5
8166
  8
1
 10
6767.6376499999988
 20
3816.11824922715
 30
0.0
 11
6777.6376499999988
 21
3816.11824922715
 31
0.0
  0
LINE
  5
8167
  8
1
 10
6767.6376499999988
 20
3916.11824922715
 30
0.0
 11
6777.6376499999988
 21
3916.11824922715
 31
0.0
  0
LINE
  5
8168
  8
1
 10
6767.6376499999988
 20
3916.11824922715
 30
0.0
 11
6767.6376499999988
 21
3816.11824922715
 31
0.0
  0
DIMENSION
  5
8238
  8
3
  2
*D3
 10
7597.6376499999997
 20
2623.4288962645528
 30
0.0
 11
7064.637444
 21
2623.4288962645528
 31
0.0
 70
   128
 13
6486.6376499999997
 23
3076.054669227151
 33
0.0
 14
7597.6376499999997
 24
3021.4124062271512
 34
0.0
1001
ACAD
1000
DSTYLE
1002
{
1070
   287
1070
     3
1070
   287
1070
     3
1070
    40
1040
45.0
1070
   143
1040
0.039
1070
   172
1070
     1
1070
   271
1070
     0
1070
   279
1070
     0
1070
   288
1070
     1
1002
}
  0
DIMENSION
  5
8244
  8
3
  2
*D4
 10
8336.6376500000006
 20
2623.4288962645528
 30
0.0
 11
7967.1376500000006
 21
2735.9288962645528
 31
0.0
 70
     0
 13
7597.6376499999997
 23
3021.4124062271512
 33
0.0
 14
8336.6376500000006
 24
3076.054669227151
 34
0.0
1001
ACAD
1000
DSTYLE
1002
{
1070
   287
1070
     4
1070
   287
1070
     4
1070
    40
1040
45.0
1070
    75
1070
     1
1070
   143
1040
0.039
1070
   172
1070
     1
1070
   271
1070
     0
1070
   279
1070
     1
1070
   288
1070
     1
1002
}
  0
DIMENSION
  5
8251
  8
3
  2
*D5
 10
8336.6376500000006
 20
2295.0718941813898
 30
0.0
 11
7486.8346590000001
 21
2295.0718941813898
 31
0.0
 70
   128
 13
6486.6376499999997
 23
3076.054669227151
 33
0.0
 14
8336.6376500000006
 24
3076.054669227151
 34
0.0
1001
ACAD
1000
DSTYLE
1002
{
1070
   287
1070
     3
1070
   287
1070
     3
1070
    40
1040
45.0
1070
   143
1040
0.039
1070
   172
1070
     1
1070
   271
1070
     0
1070
   279
1070
     0
1070
   288
1070
     1
1002
}
  0
DIMENSION
  5
825E
  8
3
  2
*D6
 10
8777.5519079999995
 20
3796.11824922715
 30
0.0
 11
8777.5519079999995
 21
4641.8280002271504
 31
0.0
 70
   128
 13
8392.6376500000006
 23
5596.11824922715
 33
0.0
 14
8392.6376500000006
 24
3796.11824922715
 34
0.0
 50
90.0
1001
ACAD
1000
DSTYLE
1002
{
1070
   287
1070
     3
1070
   287
1070
     3
1070
     3
1000
φ<>
1070
    40
1040
45.0
1070
   143
1040
0.039
1070
   172
1070
     1
1070
   271
1070
     0
1070
   279
1070
     0
1070
   288
1070
     1
1002
}
  0
DIMENSION
  5
8278
  8
3
  2
*D7
 10
7597.6376499999997
 20
7166.2087289752171
 30
0.0
 11
8005.5341159999989
 21
7166.2087289752171
 31
0.0
 70
   128
 13
8392.6376500000006
 23
5661.118249227151
 33
0.0
 14
7597.6376499999997
 24
7025.0551873725481
 34
0.0
1001
ACAD
1000
DSTYLE
1002
{
1070
   287
1070
     3
1070
   287
1070
     3
1070
    40
1040
45.0
1070
   143
1040
0.039
1070
   172
1070
     1
1070
   271
1070
     0
1070
   279
1070
     0
1070
   288
1070
     1
1002
}
  0
DIMENSION
  5
8284
  8
3
  2
*D8
 10
6497.6376499999997
 20
7166.2087289752171
 30
0.0
 11
7047.6376499999997
 21
7314.0658718323593
 31
0.0
 70
     0
  1
(1150)
 13
7597.6376499999997
 23
6855.407678258558
 33
0.0
 14
6497.6376499999997
 24
5176.11824922715
 34
0.0
1001
ACAD
1000
DSTYLE
1002
{
1070
   287
1070
     4
1070
   287
1070
     4
1070
    40
1040
45.0
1070
    75
1070
     1
1070
   143
1040
0.039
1070
   172
1070
     1
1070
   271
1070
     0
1070
   279
1070
     1
1070
   288
1070
     1
1002
}
  0
LINE
  5
8285
  8
4
 10
8325.0
 20
1888.8800944790089
 30
0.0
 11
8325.0
 21
988.8800944790089
 31
0.0
  0
LINE
  5
8286
  8
4
 10
5175.0
 20
1888.8800944790089
 30
0.0
 11
5175.0
 21
988.8800944790089
 31
0.0
  0
LINE
  5
8287
  8
4
 10
2925.0
 20
1888.8800944790089
 30
0.0
 11
2925.0
 21
988.8800944790089
 31
0.0
  0
LINE
  5
828A
  8
4
 10
2925.0
 20
988.88009447900913
 30
0.0
 11
8325.0
 21
988.88009447900913
 31
0.0
  0
LINE
  5
828B
  8
4
 10
2925.0
 20
1438.8800944790089
 30
0.0
 11
8325.0
 21
1438.8800944790089
 31
0.0
  0
TEXT
  5
828C
  8
4
 10
3098.259364
 20
1580.8237104790089
 30
0.0
 40
225.0
  1
機器名称
  0
TEXT
  5
828D
  8
4
 10
3088.1614769999992
 20
1086.283299479009
 30
0.0
 40
225.0
  1
機器型番
  0
TEXT
  5
828E
  8
4
 10
5197.1468829999994
 20
1542.2688194790089
 30
0.0
 40
202.49999999999989
  1
ミツヤリミットロードファン
  0
TEXT
  5
828F
  8
4
 10
5339.9452299999994
 20
1066.098223479009
 30
0.0
 40
225.0
  1
LLE#11-4
  0
TEXT
  5
8291
  8
4
 10
3619.4975020000002
 20
10725.429786000001
 30
0.0
 40
243.0
  1
床置防振ベット
  0
TEXT
  5
8292
  8
4
 10
1258.0479374325371
 20
11402.464393
 30
0.0
 40
324.0
  1
ベルト駆動式片吸込両持排煙ファン
 41
1.143750671685607
 72
     5
 11
8224.8620288039092
 21
11402.464393
 31
0.0
  0
LINE
  5
8293
  8
4
 10
1125.0
 20
11112.339394000001
 30
0.0
 11
8325.0
 21
11112.339394000001
 31
0.0
  0
LINE
  5
8294
  8
4
 10
1125.0
 20
12012.339394000001
 30
0.0
 11
8325.0
 21
12012.339394000001
 31
0.0
  0
LINE
  5
8295
  8
4
 10
2925.0
 20
1888.8800944790089
 30
0.0
 11
8325.0
 21
1888.8800944790089
 31
0.0
  0
LINE
  5
8296
  8
4
 10
1125.0
 20
12012.339394000001
 30
0.0
 11
1125.0
 21
11112.339394000001
 31
0.0
  0
TEXT
  5
8297
  8
4
 10
1658.1327570000001
 20
10720.437649
 30
0.0
 40
243.0
  1
左回転左横向
  0
TEXT
  5
8298
  8
4
 10
6610.3630169999997
 20
12177.274867
 30
0.0
 40
252.0
  1
No.
  0
TEXT
  5
8299
  8
4
 10
5900.8322820000003
 20
10725.429786000001
 30
0.0
 40
243.0
  1
縮尺：1/45
  0
LINE
  5
829A
  8
4
 10
8325.0
 20
12012.339394000001
 30
0.0
 11
8325.0
 21
11112.339394000001
 31
0.0
  0
LINE
  5
829B
  8
4
 10
9450.0
 20
13275.0
 30
0.0
 11
9450.0
 21
13275.0
 31
0.0
  0
LINE
  5
829C
  8
4
 10
6482.7784009999996
 20
12065.686124
 30
0.0
 11
6482.7784009999996
 21
12539.93517699999
 31
0.0
  0
LINE
  5
829D
  8
4
 10
6482.7784009999996
 20
12539.93517699999
 30
0.0
 11
8325.0
 21
12539.93517699999
 31
0.0
  0
LINE
  5
829E
  8
4
 10
8325.0
 20
12539.93517699999
 30
0.0
 11
8325.0
 21
12065.686124
 31
0.0
  0
LINE
  5
829F
  8
4
 10
8325.0
 20
12065.686124
 30
0.0
 11
6482.7784009999996
 21
12065.686124
 31
0.0
  0
LINE
  5
82A0
  8
4
 10
0.0
 20
0.0
 30
0.0
 11
0.0
 21
13275.0
 31
0.0
  0
LINE
  5
82A1
  8
4
 10
0.0
 20
13275.0
 30
0.0
 11
9450.0
 21
13275.0
 31
0.0
  0
LINE
  5
82A2
  8
4
 10
9450.0
 20
13275.0
 30
0.0
 11
9450.0
 21
0.0
 31
0.0
  0
LINE
  5
82A3
  8
4
 10
9450.0
 20
0.0
 30
0.0
 11
0.0
 21
0.0
 31
0.0
  0
LINE
  5
82B1
  8
1
 10
6937.6376499999988
 20
3516.11824922715
 30
0.0
 11
6937.6376499999988
 21
3587.36824922715
 31
0.0
  0
DIMENSION
  5
831C
  8
3
  2
*D11
 10
1904.778210120541
 20
2267.717789878232
 30
0.0
 11
3699.5645721205392
 21
2267.717789878232
 31
0.0
 70
   128
 13
5804.7782101205412
 23
3076.054669227151
 33
0.0
 14
1904.778210120541
 24
3076.054669227151
 34
0.0
1001
ACAD
1000
DSTYLE
1002
{
1070
   287
1070
     3
1070
   287
1070
     3
1070
    40
1040
45.0
1070
   143
1040
0.039
1070
   172
1070
     1
1070
   271
1070
     0
1070
   279
1070
     0
1070
   288
1070
     1
1002
}
  0
DIMENSION
  5
831D
  8
3
  2
*D9
 10
2964.7782101205412
 20
2673.418766258329
 30
0.0
 11
4302.7034851205408
 21
2673.418766258329
 31
0.0
 70
   128
 13
5804.7782101205412
 23
3076.054669227151
 33
0.0
 14
2964.7782101205412
 24
2968.468998015067
 34
0.0
1001
ACAD
1000
DSTYLE
1002
{
1070
   287
1070
     3
1070
   287
1070
     3
1070
    40
1040
45.0
1070
   143
1040
0.039
1070
   172
1070
     1
1070
   271
1070
     0
1070
   279
1070
     0
1070
   288
1070
     1
1002
}
  0
LINE
  5
8320
  8
1
 10
2817.2984011205399
 20
4324.29879622715
 30
0.0
 11
5279.4732821205407
 21
3726.68595422715
 31
0.0
  0
LINE
  5
8321
  8
1
 10
3187.9020901205399
 20
5028.1058012271506
 30
0.0
 11
5418.44966512054
 21
3990.6135812271509
 31
0.0
  0
LINE
  5
8322
  8
1
 10
2778.2642011205398
 20
4253.8376242271488
 30
0.0
 11
5225.97778812054
 21
3608.1212182271502
 31
0.0
  0
LINE
  5
8323
  8
1
 10
3223.9125471205398
 20
5100.1602202271497
 30
0.0
 11
5485.9393231205404
 21
4101.8093992271488
 31
0.0
  0
LINE
  5
8324
  8
1
 10
1904.778210120541
 20
3516.11824922715
 30
0.0
 11
5804.7782101205412
 21
3516.11824922715
 31
0.0
  0
LINE
  5
8325
  8
1
 10
1904.778210120541
 20
3366.11824922715
 30
0.0
 11
5804.7782101205412
 21
3366.11824922715
 31
0.0
  0
LINE
  5
8326
  8
1
 10
1904.778210120541
 20
3076.054669227151
 30
0.0
 11
5804.7782101205412
 21
3076.054669227151
 31
0.0
  0
LINE
  5
8327
  8
1
 10
1904.778210120541
 20
3226.054669227151
 30
0.0
 11
5804.7782101205412
 21
3226.054669227151
 31
0.0
  0
LINE
  5
8328
  8
2
 10
4601.2568534388984
 20
4696.11824922715
 30
0.0
 11
1708.4942981667839
 21
4696.11824922715
 31
0.0
  0
ARC
  5
8329
  8
1
 10
2833.7782101205412
 20
4827.1182492271491
 30
0.0
 40
1685.0
 50
0.0
 51
84.612059000000016
  0
LINE
  5
832A
  8
1
 10
1864.778210120541
 20
4767.1182492271491
 30
0.0
 11
1864.778210120541
 21
6611.2979502271501
 31
0.0
  0
LINE
  5
832B
  8
1
 10
1799.778210120541
 20
4703.11824922715
 30
0.0
 11
1799.778210120541
 21
6679.1182492271491
 31
0.0
  0
LINE
  5
832F
  8
1
 10
1799.9941771205411
 20
6617.4080872271506
 30
0.0
 11
2992.2136111205409
 21
6506.9633352271494
 31
0.0
  0
LINE
  5
8331
  8
1
 10
5490.2573421205407
 20
3597.92757222715
 30
0.0
 11
5179.2990781205408
 21
3597.92757222715
 31
0.0
  0
LINE
  5
8332
  8
2
 10
5672.2371741205407
 20
3866.11824922715
 30
0.0
 11
4991.5009881205406
 21
3866.11824922715
 31
0.0
  0
LINE
  5
8333
  8
1
 10
5684.7782101205412
 20
3586.11824922715
 30
0.0
 11
4984.7782101205403
 21
3586.11824922715
 31
0.0
  0
ARC
  5
8334
  8
1
 10
5334.7782101205403
 20
3866.11824922715
 30
0.0
 40
310.0
 50
300.10230799999988
 51
239.89769200000001
  0
CIRCLE
  5
8335
  8
1
 10
5334.7782101205403
 20
3866.11824922715
 30
0.0
 40
150.0
  0
ARC
  5
8336
  8
1
 10
5334.7782101205403
 20
3866.11824922715
 30
0.0
 40
280.0
 50
247.13426799999999
 51
57.325814999999977
  0
LINE
  5
8338
  8
1
 10
5614.7782101205403
 20
3733.0769022271502
 30
0.0
 11
5614.7782101205403
 21
3586.11824922715
 31
0.0
  0
LINE
  5
8339
  8
1
 10
5804.7782101205412
 20
3226.054669227151
 30
0.0
 11
5804.7782101205412
 21
3076.054669227151
 31
0.0
  0
LINE
  5
833A
  8
1
 10
5804.7782101205412
 20
3516.11824922715
 30
0.0
 11
5804.7782101205412
 21
3366.11824922715
 31
0.0
  0
LINE
  5
833B
  8
1
 10
5684.7782101205412
 20
3586.11824922715
 30
0.0
 11
5504.7782101205412
 21
3586.11824922715
 31
0.0
  0
LINE
  5
833C
  8
1
 10
5684.7782101205412
 20
3586.11824922715
 30
0.0
 11
5684.7782101205412
 21
3516.11824922715
 31
0.0
  0
LINE
  5
833D
  8
1
 10
5054.7782101205412
 20
3733.0769022271502
 30
0.0
 11
5054.7782101205412
 21
3586.11824922715
 31
0.0
  0
LINE
  5
833E
  8
2
 10
5334.7782101205403
 20
3443.3203192271499
 30
0.0
 11
5334.7782101205403
 21
4348.1171012271507
 31
0.0
  0
LINE
  5
833F
  8
1
 10
4984.7782101205403
 20
3586.11824922715
 30
0.0
 11
4984.7782101205403
 21
3516.11824922715
 31
0.0
  0
DIMENSION
  5
8340
  8
3
  2
*D10
 10
1904.778210120541
 20
2673.418766258329
 30
0.0
 11
2434.7782101205412
 21
2785.9187662583299
 31
0.0
 70
     0
 13
2964.7782101205412
 23
2968.468998015067
 33
0.0
 14
1904.778210120541
 24
3076.054669227151
 34
0.0
1001
ACAD
1000
DSTYLE
1002
{
1070
   287
1070
     4
1070
   287
1070
     4
1070
    40
1040
45.0
1070
    75
1070
     1
1070
   143
1040
0.039
1070
   172
1070
     1
1070
   271
1070
     0
1070
   279
1070
     1
1070
   288
1070
     1
1002
}
  0
ARC
  5
8344
  8
1
 10
3075.2782101205412
 20
4585.61824922715
 30
0.0
 40
1181.4999999999991
 50
180.0
 51
244.8509406549035
  0
ARC
  5
8345
  8
1
 10
3095.7782101205412
 20
4827.1182492271491
 30
0.0
 40
1423.0
 50
292.88414596752949
 51
0.0
  0
LINE
  5
8346
  8
2
 10
2964.7782101205412
 20
2968.468998015067
 30
0.0
 11
2964.7782101205412
 21
6605.1196802527547
 31
0.0
  0
LINE
  5
8347
  8
1
 10
1911.0825781205419
 20
4767.1182492271491
 30
0.0
 11
1799.778210120541
 21
4767.1182492271491
 31
0.0
  0
ARC
  5
8348
  8
1
 10
2964.77921012054
 20
4696.11824922715
 30
0.0
 40
480.0
 50
57.325814999999977
 51
247.13426799999999
  0
CIRCLE
  5
8349
  8
1
 10
2964.7782101205412
 20
4696.11824922715
 30
0.0
 40
400.0
  0
ARC
  5
834A
  8
1
 10
2964.7782101205412
 20
4696.11824922715
 30
0.0
 40
965.0
 50
359.46562699999998
 51
0.0
  0
ARC
  5
834B
  8
1
 10
2854.2782101205412
 20
4585.61824922715
 30
0.0
 40
960.5
 50
169.107665
 51
180.0
  0
LINE
  5
834C
  8
1
 10
1904.778210120541
 20
3226.054669227151
 30
0.0
 11
1904.778210120541
 21
3076.054669227151
 31
0.0
  0
LINE
  5
834D
  8
1
 10
1904.778210120541
 20
3516.11824922715
 30
0.0
 11
1904.778210120541
 21
3366.11824922715
 31
0.0
  0
DIMENSION
  5
8428
  8
3
  2
*D12
 10
1799.778210120541
 20
7057.873409934924
 30
0.0
 11
3802.2782101205398
 21
7170.373409934924
 31
0.0
 70
     0
 13
5804.7782101205412
 23
3516.11824922715
 33
0.0
 14
1799.778210120541
 24
6679.1182492271491
 34
0.0
1001
ACAD
1000
DSTYLE
1002
{
1070
   287
1070
     3
1070
   287
1070
     3
1070
    40
1040
45.0
1070
   143
1040
0.039
1070
   271
1070
     0
1070
   279
1070
     0
1002
}
  0
DIMENSION
  5
8435
  8
3
  2
*D13
 10
2964.7782101205412
 20
6803.9506352395547
 30
0.0
 11
2382.2782101205412
 21
6916.4506352395547
 31
0.0
 70
     0
 13
1799.778210120541
 23
6701.6182492271491
 33
0.0
 14
2964.7782101205412
 24
6605.1196802527547
 34
0.0
1001
ACAD
1000
DSTYLE
1002
{
1070
   287
1070
     3
1070
   287
1070
     3
1070
    40
1040
45.0
1070
   143
1040
0.039
1070
   271
1070
     0
1070
   279
1070
     0
1002
}
  0
DIMENSION
  5
8441
  8
3
  2
*D14
 10
4518.7782101205412
 20
6803.9506352395547
 30
0.0
 11
3741.7782101205412
 21
6916.4506352395547
 31
0.0
 70
     0
 13
2964.7782101205412
 23
6605.1196802527547
 33
0.0
 14
4518.7782101205412
 24
4827.1182492271491
 34
0.0
1001
ACAD
1000
DSTYLE
1002
{
1070
   287
1070
     4
1070
   287
1070
     4
1070
    40
1040
45.0
1070
    75
1070
     1
1070
   143
1040
0.039
1070
   271
1070
     0
1070
   279
1070
     1
1002
}
  0
DIMENSION
  5
844E
  8
3
  2
*D15
 10
1181.2427726545279
 20
4767.1182492271491
 30
0.0
 11
1068.742772654527
 21
5692.2631682271503
 31
0.0
 70
     0
 13
1799.9941771205411
 23
6617.4080872271506
 33
0.0
 14
1799.778210120541
 24
4767.1182492271491
 34
0.0
 50
270.0
1001
ACAD
1000
DSTYLE
1002
{
1070
   287
1070
     3
1070
   287
1070
     3
1070
    40
1040
45.0
1070
   143
1040
0.039
1070
   271
1070
     0
1070
   279
1070
     0
1002
}
  0
DIMENSION
  5
845B
  8
3
  2
*D16
 10
823.75567669171141
 20
4696.11824922715
 30
0.0
 11
711.25567669171073
 21
5656.7631682271503
 31
0.0
 70
     0
 13
1181.2427726545279
 23
6617.4080872271506
 33
0.0
 14
1708.4942981667839
 24
4696.11824922715
 34
0.0
 50
270.0
1001
ACAD
1000
DSTYLE
1002
{
1070
   287
1070
     3
1070
   287
1070
     3
1070
    40
1040
45.0
1070
   143
1040
0.039
1070
   271
1070
     0
1070
   279
1070
     0
1002
}
  0
DIMENSION
  5
8467
  8
3
  2
*D17
 10
823.75567669171141
 20
3366.118249227151
 30
0.0
 11
711.25567669171085
 21
4031.11824922715
 31
0.0
 70
     0
 13
1708.4942981667839
 23
4696.11824922715
 33
0.0
 14
1904.778210120541
 24
3366.11824922715
 34
0.0
 50
270.0
1001
ACAD
1000
DSTYLE
1002
{
1070
   287
1070
     4
1070
   287
1070
     4
1070
    40
1040
45.0
1070
    75
1070
     1
1070
   143
1040
0.039
1070
   271
1070
     0
1070
   279
1070
     1
1002
}
  0
DIMENSION
  5
8477
  8
3
  2
*D18
 10
823.75567669171141
 20
3226.054669227151
 30
0.0
 11
531.25567669171096
 21
3395.086459227151
 31
0.0
 70
     0
 13
1904.778210120541
 23
3366.11824922715
 33
0.0
 14
1904.778210120541
 24
3226.054669227151
 34
0.0
 50
270.0
1001
ACAD
1000
DSTYLE
1002
{
1070
   287
1070
     4
1070
   287
1070
     4
1070
    40
1040
45.0
1070
    75
1070
     1
1070
   143
1040
0.039
1070
   271
1070
     0
1070
   279
1070
     1
1002
}
  0
DIMENSION
  5
8487
  8
3
  2
*D19
 10
823.75567669171141
 20
3076.054669227151
 30
0.0
 11
711.25567669171085
 21
2690.3403835128652
 31
0.0
 70
     0
 13
1904.778210120541
 23
3226.054669227151
 33
0.0
 14
1904.778210120541
 24
3076.054669227151
 34
0.0
 50
270.0
1001
ACAD
1000
DSTYLE
1002
{
1070
   287
1070
     1
1070
   287
1070
     1
1070
    40
1040
45.0
1070
    75
1070
     1
1070
   143
1040
0.039
1070
   271
1070
     0
1070
   279
1070
     0
1070
   289
1070
     1
1002
}
  0
DIMENSION
  5
8526
  8
3
  2
*D20
 10
382.26865169283701
 20
6617.4080872271506
 30
0.0
 11
269.76865169283582
 21
4846.7313782271513
 31
0.0
 70
     0
 13
823.75567669171141
 23
3076.054669227151
 33
0.0
 14
823.75567669171141
 24
6617.4080872271506
 34
0.0
 50
270.0
1001
ACAD
1000
DSTYLE
1002
{
1070
   287
1070
     4
1070
   287
1070
     4
1070
    40
1040
45.0
1070
   143
1040
0.039
1070
   271
1070
     0
1070
   279
1070
     1
1002
}
  0
LINE
  5
85A7
  8
1
 10
6937.6376499999988
 20
6619.2122550463982
 30
0.0
 11
8257.6376500000006
 21
6619.2122550463982
 31
0.0
  0
DIMENSION
  5
8650
  8
3
  2
*D21
 10
8257.6376500000006
 20
6853.7585537930527
 30
0.0
 11
7597.6376499999997
 21
6966.2585537930527
 31
0.0
 70
     0
 13
6937.6376499999988
 23
6679.11824922715
 33
0.0
 14
8257.6376500000006
 24
6679.118249227151
 34
0.0
1001
ACAD
1000
DSTYLE
1002
{
1070
   287
1070
     4
1070
   287
1070
     4
1070
    40
1040
45.0
1070
   143
1040
0.039
1070
   271
1070
     0
1070
   279
1070
     1
1002
}
  0
DIMENSION
  5
87D3
  8
3
  2
*D22
 10
1043.29514402256
 20
9689.0635380000003
 30
0.0
 11
930.79514402255916
 21
8764.0635380000003
 31
0.0
 70
     0
 13
1904.778210120543
 23
7839.0635380000012
 33
0.0
 14
1904.778210120543
 24
9689.0635380000003
 34
0.0
 50
90.0
1001
ACAD
1000
DSTYLE
1002
{
1070
   287
1070
     4
1070
   287
1070
     4
1070
   287
1070
     4
1070
    40
1040
45.0
1070
   143
1040
0.039
1070
   271
1070
     0
1070
   279
1070
     1
1002
}
  0
LINE
  5
87D4
  8
2
 10
1434.634273120542
 20
8950.0635380000003
 30
0.0
 11
4393.1835626461407
 21
8950.0635380000003
 31
0.0
  0
LINE
  5
87D5
  8
1
 10
4518.778210120543
 20
8964.0635380000003
 30
0.0
 11
5804.7782101205421
 21
8964.0635380000003
 31
0.0
  0
DIMENSION
  5
87D6
  8
3
  2
*D23
 10
1904.778210120543
 20
7357.77823410162
 30
0.0
 11
3764.7595541205419
 21
7357.77823410162
 31
0.0
 70
   128
 13
5804.7782101205421
 23
7839.0635380000012
 33
0.0
 14
1904.778210120543
 24
7839.0635380000012
 34
0.0
 50
180.0
1001
ACAD
1000
DSTYLE
1002
{
1070
   287
1070
     3
1070
   287
1070
     3
1070
   287
1070
     3
1070
    40
1040
45.0
1070
   143
1040
0.039
1070
   172
1070
     1
1070
   271
1070
     0
1070
   279
1070
     0
1070
   288
1070
     1
1002
}
  0
DIMENSION
  5
87D7
  8
3
  2
*D24
 10
5804.7782101205421
 20
9996.3157743553602
 30
0.0
 11
4914.778210120543
 21
10108.815774355349
 31
0.0
 70
     0
 13
4024.778210120543
 23
9689.0635380000003
 33
0.0
 14
5804.7782101205421
 24
9039.0635380000003
 34
0.0
 50
180.0
1001
ACAD
1000
DSTYLE
1002
{
1070
   287
1070
     4
1070
   287
1070
     4
1070
   287
1070
     4
1070
    40
1040
45.0
1070
    75
1070
     1
1070
   143
1040
0.039
1070
   172
1070
     1
1070
   271
1070
     0
1070
   279
1070
     1
1070
   288
1070
     1
1002
}
  0
LINE
  5
87D8
  8
1
 10
2484.778210120543
 20
8050.0635379999994
 30
0.0
 11
5619.778210120543
 21
8050.0635379999994
 31
0.0
  0
LINE
  5
87D9
  8
2
 10
2518.9302101205431
 20
7950.0635379999994
 30
0.0
 11
5541.2292541205443
 21
7950.0635379999994
 31
0.0
  0
LINE
  5
87DA
  8
1
 10
5619.778210120543
 20
7850.0635380000003
 30
0.0
 11
2484.778210120543
 21
7850.0635379999994
 31
0.0
  0
LINE
  5
87DB
  8
1
 10
1904.778210120543
 20
7839.0635380000012
 30
0.0
 11
5804.7782101205421
 21
7839.0635380000012
 31
0.0
  0
LINE
  5
87DC
  8
1
 10
4518.778210120543
 20
9039.0635380000003
 30
0.0
 11
5804.7782101205421
 21
9039.0635380000003
 31
0.0
  0
DIMENSION
  5
87DD
  8
3
  2
*D25
 10
6046.9102581205443
 20
7839.0635380000012
 30
0.0
 11
6046.9102581205434
 21
8432.7754170000007
 31
0.0
 70
   128
 13
5804.7782101205421
 23
9039.0635380000003
 33
0.0
 14
5804.7782101205421
 24
7839.0635380000012
 34
0.0
 50
90.0
1001
ACAD
1000
DSTYLE
1002
{
1070
   287
1070
     3
1070
   287
1070
     3
1070
   287
1070
     3
1070
    40
1040
45.0
1070
   143
1040
0.039
1070
   172
1070
     1
1070
   271
1070
     0
1070
   279
1070
     0
1070
   288
1070
     1
1002
}
  0
LINE
  5
87DE
  8
2
 10
5334.778210120543
 20
7930.5669569999991
 30
0.0
 11
5334.778210120543
 21
9008.3548540000029
 31
0.0
  0
LINE
  5
87DF
  8
1
 10
5047.278210120543
 20
8136.5635379999976
 30
0.0
 11
5047.278210120543
 21
8989.0635380000003
 31
0.0
  0
LINE
  5
87E0
  8
1
 10
5604.7782101205421
 20
8989.0635380000003
 30
0.0
 11
5604.7782101205421
 21
8136.5635379999976
 31
0.0
  0
LINE
  5
87E1
  8
1
 10
5804.7782101205421
 20
7839.0635380000012
 30
0.0
 11
5804.7782101205421
 21
9039.0635380000003
 31
0.0
  0
LINE
  5
87E2
  8
1
 10
5420.2782101205421
 20
8130.0635379999994
 30
0.0
 11
5249.278210120543
 21
8130.0635379999994
 31
0.0
  0
LINE
  5
87E3
  8
1
 10
5047.278210120543
 20
8136.5635379999976
 30
0.0
 11
5604.7782101205421
 21
8136.5635379999976
 31
0.0
  0
LINE
  5
87E4
  8
1
 10
5484.778210120543
 20
8010.0635379999976
 30
0.0
 11
5184.778210120543
 21
8010.0635379999976
 31
0.0
  0
LINE
  5
87E5
  8
1
 10
5484.778210120543
 20
7890.0635379999976
 30
0.0
 11
5184.778210120543
 21
7890.0635379999976
 31
0.0
  0
LINE
  5
87E6
  8
1
 10
5619.778210120543
 20
7914.0635380000003
 30
0.0
 11
5804.7782101205421
 21
7914.0635380000003
 31
0.0
  0
LINE
  5
87E7
  8
1
 10
5619.778210120543
 20
8050.0635379999994
 30
0.0
 11
5619.778210120543
 21
7850.0635379999994
 31
0.0
  0
LINE
  5
87E8
  8
1
 10
5484.778210120543
 20
7890.0635379999976
 30
0.0
 11
5484.778210120543
 21
8010.0635379999976
 31
0.0
  0
LINE
  5
87E9
  8
1
 10
5422.278210120543
 20
8136.9119129999999
 30
0.0
 11
5422.278210120543
 21
8132.0635379999976
 31
0.0
  0
ARC
  5
87EA
  8
1
 10
5420.2782101205421
 20
8132.0635379999976
 30
0.0
 40
2.0
 50
270.0
 51
0.000000000000007
  0
LINE
  5
87EB
  8
1
 10
5334.778210120543
 20
7815.7625379999999
 30
0.0
 11
5334.778210120543
 21
8163.5635379999976
 31
0.0
  0
LINE
  5
87EC
  8
1
 10
5284.778210120543
 20
8120.0635379999976
 30
0.0
 11
5284.778210120543
 21
8130.0635379999994
 31
0.0
  0
LINE
  5
87ED
  8
1
 10
5384.778210120543
 20
8120.0635379999976
 30
0.0
 11
5384.778210120543
 21
8130.0635379999994
 31
0.0
  0
LINE
  5
87EE
  8
1
 10
5384.778210120543
 20
8120.0635379999976
 30
0.0
 11
5284.778210120543
 21
8120.0635379999976
 31
0.0
  0
LINE
  5
87EF
  8
1
 10
5377.278210120543
 20
7950.0635379999994
 30
0.0
 11
5287.278210120543
 21
7950.0635379999994
 31
0.0
  0
LINE
  5
87F0
  8
1
 10
5377.278210120543
 20
7950.0635379999994
 30
0.0
 11
5377.278210120543
 21
8120.0635379999976
 31
0.0
  0
LINE
  5
87F1
  8
1
 10
5292.2782101205421
 20
8090.0635379999976
 30
0.0
 11
5287.278210120543
 21
8090.0635379999976
 31
0.0
  0
LINE
  5
87F2
  8
1
 10
5292.2782101205421
 20
7950.0635379999994
 30
0.0
 11
5292.2782101205421
 21
8114.5635379999976
 31
0.0
  0
LINE
  5
87F3
  8
1
 10
5287.278210120543
 20
7950.0635379999994
 30
0.0
 11
5287.278210120543
 21
8090.0635379999976
 31
0.0
  0
LINE
  5
87F4
  8
1
 10
5247.278210120543
 20
8136.5635379999976
 30
0.0
 11
5247.278210120543
 21
8132.0635379999976
 31
0.0
  0
ARC
  5
87F5
  8
1
 10
5249.278210120543
 20
8132.0635379999976
 30
0.0
 40
2.0
 50
180.0
 51
270.0
  0
LINE
  5
87F6
  8
1
 10
5184.778210120543
 20
7890.0635379999976
 30
0.0
 11
5184.778210120543
 21
8010.0635379999976
 31
0.0
  0
LINE
  5
87F7
  8
1
 10
5604.7782101205421
 20
8989.0635380000003
 30
0.0
 11
5047.278210120543
 21
8989.0635380000003
 31
0.0
  0
LINE
  5
87F8
  8
1
 10
1904.778210120543
 20
9614.0635380000003
 30
0.0
 11
4024.778210120543
 21
9614.0635380000003
 31
0.0
  0
LINE
  5
87F9
  8
1
 10
1999.778210120543
 20
9745.0635380000003
 30
0.0
 11
3929.7782101205421
 21
9745.0635380000003
 31
0.0
  0
DIMENSION
  5
87FA
  8
3
  2
*D26
 10
4024.778210120543
 20
9996.3157743553602
 30
0.0
 11
2971.8494961205429
 21
9996.3157743553602
 31
0.0
 70
   128
 13
1904.778210120543
 23
9689.0635380000003
 33
0.0
 14
4024.778210120543
 24
9689.0635380000003
 34
0.0
 50
180.0
1001
ACAD
1000
DSTYLE
1002
{
1070
   287
1070
     3
1070
   287
1070
     3
1070
   287
1070
     3
1070
    40
1040
45.0
1070
   143
1040
0.039
1070
   172
1070
     1
1070
   271
1070
     0
1070
   279
1070
     0
1070
   288
1070
     1
1002
}
  0
LINE
  5
87FB
  8
1
 10
3364.778210120543
 20
8010.0635379999976
 30
0.0
 11
2564.778210120543
 21
8010.0635379999976
 31
0.0
  0
LINE
  5
87FC
  8
1
 10
3364.778210120543
 20
7890.0635379999976
 30
0.0
 11
2564.778210120543
 21
7890.0635379999976
 31
0.0
  0
LINE
  5
87FD
  8
1
 10
1799.778210120543
 20
8290.0635380000003
 30
0.0
 11
4518.778210120543
 21
8290.0635380000003
 31
0.0
  0
LINE
  5
87FE
  8
1
 10
1799.778210120543
 20
9610.0635380000003
 30
0.0
 11
4518.778210120543
 21
9610.0635380000022
 31
0.0
  0
LINE
  5
87FF
  8
1
 10
4518.778210120543
 20
8290.0635380000003
 30
0.0
 11
4518.778210120543
 21
9610.0635380000022
 31
0.0
  0
LINE
  5
8800
  8
1
 10
3949.778210120543
 20
8050.0635379999994
 30
0.0
 11
3949.778210120543
 21
8290.0635379999985
 31
0.0
  0
LINE
  5
8801
  8
1
 10
4024.778210120543
 20
8050.0635380000012
 30
0.0
 11
4024.778210120543
 21
8290.0635380000003
 31
0.0
  0
LINE
  5
8802
  8
1
 10
3364.778210120543
 20
8010.0635379999976
 30
0.0
 11
3364.778210120543
 21
7890.0635379999976
 31
0.0
  0
LINE
  5
8803
  8
1
 10
3864.7782101205421
 20
9689.0635380000003
 30
0.0
 11
4024.778210120543
 21
9689.0635380000003
 31
0.0
  0
LINE
  5
8804
  8
1
 10
4024.778210120543
 20
9610.0635380000022
 30
0.0
 11
4024.778210120543
 21
9689.0635380000003
 31
0.0
  0
LINE
  5
8805
  8
1
 10
3949.778210120543
 20
9610.0635380000003
 30
0.0
 11
3949.778210120543
 21
9614.0635380000022
 31
0.0
  0
LINE
  5
8806
  8
1
 10
3864.7782101205421
 20
9610.0635380000022
 30
0.0
 11
3864.7782101205421
 21
9745.0635380000003
 31
0.0
  0
LINE
  5
8807
  8
1
 10
1799.778210120543
 20
8221.0635380000022
 30
0.0
 11
1799.778210120543
 21
9679.0635380000003
 31
0.0
  0
LINE
  5
8808
  8
2
 10
2964.778210120543
 20
7784.9977922113176
 30
0.0
 11
2964.778210120543
 21
9859.5168784776179
 31
0.0
  0
LINE
  5
8809
  8
1
 10
1904.778210120543
 20
7914.0635380000003
 30
0.0
 11
2484.778210120543
 21
7914.0635380000003
 31
0.0
  0
LINE
  5
880A
  8
1
 10
2484.778210120543
 20
8050.0635379999994
 30
0.0
 11
2484.778210120543
 21
7850.0635379999994
 31
0.0
  0
LINE
  5
880B
  8
1
 10
2564.778210120543
 20
7890.0635379999976
 30
0.0
 11
2564.778210120543
 21
8010.0635379999976
 31
0.0
  0
LINE
  5
880C
  8
1
 10
1904.778210120543
 20
7839.0635380000012
 30
0.0
 11
1904.778210120543
 21
8290.0635380000003
 31
0.0
  0
LINE
  5
880D
  8
1
 10
1979.778210120543
 20
7914.0635380000003
 30
0.0
 11
1979.778210120543
 21
8290.0635380000003
 31
0.0
  0
LINE
  5
880E
  8
1
 10
1904.778210120543
 20
9610.0635380000003
 30
0.0
 11
1904.778210120543
 21
9689.0635380000003
 31
0.0
  0
LINE
  5
880F
  8
1
 10
2064.7782101205439
 20
9610.0635380000003
 30
0.0
 11
2064.778210120543
 21
9745.0635380000003
 31
0.0
  0
LINE
  5
8810
  8
1
 10
1979.778210120543
 20
9610.0635380000003
 30
0.0
 11
1979.778210120543
 21
9614.0635380000022
 31
0.0
  0
LINE
  5
8811
  8
1
 10
1904.778210120543
 20
9689.0635380000003
 30
0.0
 11
2064.7782101205439
 21
9689.0635380000003
 31
0.0
  0
LINE
  5
8B26
  8
1
 10
6868.6376499999997
 20
6679.1182492271491
 30
0.0
 11
8326.6376500000006
 21
6679.1182492271491
 31
0.0
  0
LINE
  5
8B27
  8
1
 10
6868.6376499999997
 20
4741.11824922715
 30
0.0
 11
6868.6376499999997
 21
6679.1182492271491
 31
0.0
  0
LINE
  5
8B28
  8
1
 10
8326.6376500000006
 20
5596.1182492271491
 30
0.0
 11
8326.6376500000006
 21
6679.1182492271491
 31
0.0
  0
LINE
  5
8B29
  8
1
 10
7636.6376499999988
 20
3587.36824922715
 30
0.0
 11
7636.6376499999988
 21
4144.86824922715
 31
0.0
  0
LINE
  5
8B2B
  8
1
 10
6937.6376499999988
 20
4144.86824922715
 30
0.0
 11
6937.6376499999988
 21
6619.2122550463982
 31
0.0
  0
ENDSEC
  0
EOF
