  0
SECTION
  2
HEADER
  9
$ACADVER
  1
AC1009
  9
$INSBASE
 10
0.0
 20
0.0
 30
0.0
  9
$EXTMIN
 10
0.0
 20
0.0
 30
0.0
  9
$EXTMAX
 10
9450.0
 20
13275.0
 30
0.0
  9
$LIMMIN
 10
0.0
 20
0.0
  9
$LIMMAX
 10
297.0
 20
210.0
  9
$ORTHOMODE
 70
     0
  9
$REGENMODE
 70
     1
  9
$FILLMODE
 70
     0
  9
$QTEXTMODE
 70
     0
  9
$MIRRTEXT
 70
     1
  9
$DRAGMODE
 70
     2
  9
$LTSCALE
 40
100.0
  9
$OSMODE
 70
    37
  9
$ATTMODE
 70
     1
  9
$TEXTSIZE
 40
180.0
  9
$TRACEWID
 40
0.05
  9
$TEXTSTYLE
  7
STANDARD
  9
$CLAYER
  8
1
  9
$CELTYPE
  6
BYLAYER
  9
$CECOLOR
 62
   256
  9
$DIMSCALE
 40
45.0
  9
$DIMASZ
 40
2.0
  9
$DIMEXO
 40
0.5
  9
$DIMDLI
 40
10.0
  9
$DIMRND
 40
0.0
  9
$DIMDLE
 40
0.0
  9
$DIMEXE
 40
1.0
  9
$DIMTP
 40
1.0
  9
$DIMTM
 40
1.0
  9
$DIMTXT
 40
3.0
  9
$DIMCEN
 40
0.0
  9
$DIMTSZ
 40
0.0
  9
$DIMTOL
 70
     0
  9
$DIMLIM
 70
     0
  9
$DIMTIH
 70
     0
  9
$DIMTOH
 70
     0
  9
$DIMSE1
 70
     0
  9
$DIMSE2
 70
     0
  9
$DIMTAD
 70
     1
  9
$DIMZIN
 70
     8
  9
$DIMBLK
  1

  9
$DIMASO
 70
     1
  9
$DIMSHO
 70
     1
  9
$DIMPOST
  1

  9
$DIMAPOST
  1

  9
$DIMALT
 70
     0
  9
$DIMALTD
 70
     2
  9
$DIMALTF
 40
0.039
  9
$DIMLFAC
 40
1.0
  9
$DIMTOFL
 70
     1
  9
$DIMTVP
 40
0.0
  9
$DIMTIX
 70
     0
  9
$DIMSOXD
 70
     0
  9
$DIMSAH
 70
     1
  9
$DIMBLK1
  1
OPEN
  9
$DIMBLK2
  1
OPEN
  9
$DIMSTYLE
  2
IGA
  9
$DIMCLRD
 70
     0
  9
$DIMCLRE
 70
     0
  9
$DIMCLRT
 70
     0
  9
$DIMTFAC
 40
10.0
  9
$DIMGAP
 40
1.0
  9
$LUNITS
 70
     2
  9
$LUPREC
 70
     3
  9
$SKETCHINC
 40
0.1
  9
$FILLETRAD
 40
50.0
  9
$AUNITS
 70
     0
  9
$AUPREC
 70
     0
  9
$MENU
  1
acad
  9
$ELEVATION
 40
0.0
  9
$PELEVATION
 40
0.0
  9
$THICKNESS
 40
0.0
  9
$LIMCHECK
 70
     0
  9
$BLIPMODE
 70
     0
  9
$CHAMFERA
 40
0.5
  9
$CHAMFERB
 40
0.5
  9
$SKPOLY
 70
     0
  9
$TDCREATE
 40
2451845.4205035879
  9
$TDUPDATE
 40
2454953.6912494558
  9
$TDINDWG
 40
0.0588221181
  9
$TDUSRTIMER
 40
0.0588219329
  9
$USRTIMER
 70
     1
  9
$ANGBASE
 50
0.0
  9
$ANGDIR
 70
     0
  9
$PDMODE
 70
     0
  9
$PDSIZE
 40
0.0
  9
$PLINEWID
 40
0.0
  9
$COORDS
 70
     1
  9
$SPLFRAME
 70
     0
  9
$SPLINETYPE
 70
     6
  9
$SPLINESEGS
 70
     8
  9
$ATTDIA
 70
     0
  9
$ATTREQ
 70
     1
  9
$HANDLING
 70
 10241
  9
$HANDSEED
  5
8B95
  9
$SURFTAB1
 70
     6
  9
$SURFTAB2
 70
     6
  9
$SURFTYPE
 70
     6
  9
$SURFU
 70
     6
  9
$SURFV
 70
     6
  9
$UCSNAME
  2

  9
$UCSORG
 10
0.0
 20
0.0
 30
0.0
  9
$UCSXDIR
 10
1.0
 20
0.0
 30
0.0
  9
$UCSYDIR
 10
0.0
 20
1.0
 30
0.0
  9
$PUCSNAME
  2

  9
$PUCSORG
 10
0.0
 20
0.0
 30
0.0
  9
$PUCSXDIR
 10
1.0
 20
0.0
 30
0.0
  9
$PUCSYDIR
 10
0.0
 20
1.0
 30
0.0
  9
$USERI1
 70
     0
  9
$USERI2
 70
     0
  9
$USERI3
 70
     0
  9
$USERI4
 70
     0
  9
$USERI5
 70
     0
  9
$USERR1
 40
0.0
  9
$USERR2
 40
0.0
  9
$USERR3
 40
0.0
  9
$USERR4
 40
0.0
  9
$USERR5
 40
0.0
  9
$WORLDVIEW
 70
     1
  9
$SHADEDGE
 70
     3
  9
$SHADEDIF
 70
    70
  9
$TILEMODE
 70
     1
  9
$MAXACTVP
 70
    16
  9
$PLIMCHECK
 70
     0
  9
$PEXTMIN
 10
1.0000000000000000E+020
 20
1.0000000000000000E+020
 30
1.0000000000000000E+020
  9
$PEXTMAX
 10
-1.0000000000000000E+020
 20
-1.0000000000000000E+020
 30
-1.0000000000000000E+020
  9
$PLIMMIN
 10
0.0
 20
0.0
  9
$PLIMMAX
 10
12.0
 20
9.0
  9
$UNITMODE
 70
     0
  9
$VISRETAIN
 70
     0
  9
$PLINEGEN
 70
     0
  9
$PSLTSCALE
 70
     1
  0
ENDSEC
  0
SECTION
  2
TABLES
  0
TABLE
  2
VPORT
 70
     2
  0
VPORT
  2
*ACTIVE
 70
     0
 10
0.0
 20
0.0
 11
1.0
 21
1.0
 12
21751.78828885089
 22
5924.5883522091053
 13
0.0
 23
0.0
 14
10.0
 24
10.0
 15
10.0
 25
10.0
 16
0.0
 26
0.0
 36
1.0
 17
0.0
 27
0.0
 37
0.0
 40
15687.557579481791
 41
3.1666666666666661
 42
50.0
 43
0.0
 44
0.0
 50
0.0
 51
0.0
 71
     0
 72
   100
 73
     1
 74
     0
 75
     0
 76
     0
 77
     0
 78
     0
  0
ENDTAB
  0
TABLE
  2
LTYPE
 70
     2
  0
LTYPE
  2
CONTINUOUS
 70
     0
  3
Solid line
 72
    65
 73
     0
 40
0.0
  0
LTYPE
  2
CENTER
 70
     0
  3
____ _ ____ _ ____ _ ____ _ ____ _ ____ _ ____ 
 72
    65
 73
     4
 40
2.0
 49
1.25
 49
-0.25
 49
0.25
 49
-0.25
  0
ENDTAB
  0
TABLE
  2
LAYER
 70
     6
  0
LAYER
  2
0
 70
     0
 62
     7
  6
CONTINUOUS
  0
LAYER
  2
3
 70
     0
 62
     2
  6
CONTINUOUS
  0
LAYER
  2
2
 70
     0
 62
     3
  6
CENTER
  0
LAYER
  2
1
 70
     0
 62
     4
  6
CONTINUOUS
  0
LAYER
  2
4
 70
     0
 62
     7
  6
CONTINUOUS
  0
LAYER
  2
DEFPOINTS
 70
     0
 62
     7
  6
CONTINUOUS
  0
ENDTAB
  0
TABLE
  2
STYLE
 70
     1
  0
STYLE
  2
STANDARD
 70
     0
 40
0.0
 41
1.0
 50
0.0
 71
     0
 42
180.0
  3
simplex.shx
  4
extfont.shx
  0
ENDTAB
  0
TABLE
  2
VIEW
 70
     0
  0
ENDTAB
  0
TABLE
  2
UCS
 70
     0
  0
ENDTAB
  0
TABLE
  2
APPID
 70
     1
  0
APPID
  2
ACAD
 70
     0
  0
ENDTAB
  0
TABLE
  2
DIMSTYLE
 70
     1
  0
DIMSTYLE
  2
IGA
 70
     0
  3

  4

  5

  6
OPEN
  7
OPEN
 40
2.0
 41
2.0
 42
0.5
 43
10.0
 44
1.0
 45
0.0
 46
0.0
 47
1.0
 48
1.0
140
3.0
141
0.0
142
0.0
143
0.03937
144
1.0
145
0.0
146
10.0
147
1.0
 71
     0
 72
     0
 73
     0
 74
     0
 75
     0
 76
     0
 77
     1
 78
     8
170
     0
171
     2
172
     0
173
     1
174
     0
175
     0
176
     0
177
     0
178
     0
  0
ENDTAB
  0
ENDSEC
  0
SECTION
  2
BLOCKS
  0
BLOCK
  8
0
  2
$MODEL_SPACE
 70
     0
 10
0.0
 20
0.0
 30
0.0
  3
$MODEL_SPACE
  1

  0
ENDBLK
  5
1B
  8
0
  0
BLOCK
 67
     1
  8
0
  2
$PAPER_SPACE
 70
     0
 10
0.0
 20
0.0
 30
0.0
  3
$PAPER_SPACE
  1

  0
ENDBLK
  5
18
 67
     1
  8
0
  0
BLOCK
  8
0
  2
YA_N
 70
     0
 10
0.0
 20
0.0
 30
0.0
  3
YA_N
  1

  0
ENDBLK
  5
79FE
  8
0
  0
BLOCK
  8
0
  2
_OPEN
 70
     0
 10
0.0
 20
0.0
 30
0.0
  3
_OPEN
  1

  0
LINE
  5
7B50
  8
0
  6
BYBLOCK
 62
     0
 10
-1.0
 20
0.166667
 30
0.0
 11
0.0
 21
0.0
 31
0.0
  0
LINE
  5
7B51
  8
0
  6
BYBLOCK
 62
     0
 10
0.0
 20
0.0
 30
0.0
 11
-1.0
 21
-0.166667
 31
0.0
  0
LINE
  5
7B52
  8
0
  6
BYBLOCK
 62
     0
 10
0.0
 20
0.0
 30
0.0
 11
-1.0
 21
0.0
 31
0.0
  0
ENDBLK
  5
7B53
  8
0
  0
BLOCK
  8
0
  2
*D2
 70
     1
 10
0.0
 20
0.0
 30
0.0
  3
*D2
  1

  0
LINE
  5
8870
  8
3
 62
     0
 10
1656.7802181835041
 20
9711.5635380000003
 30
0.0
 11
1656.7802181835041
 21
10209.14557977394
 31
0.0
  0
LINE
  5
8871
  8
3
 62
     0
 10
3776.7802181835032
 20
9711.5635380000003
 30
0.0
 11
3776.7802181835032
 21
10209.14557977394
 31
0.0
  0
LINE
  5
8872
  8
3
 62
     0
 10
1746.7802181835041
 20
10164.14557977394
 30
0.0
 11
3686.7802181835032
 21
10164.14557977394
 31
0.0
  0
INSERT
  5
8873
  8
3
 62
     0
  2
_OPEN
 10
1656.7802181835041
 20
10164.14557977394
 30
0.0
 41
90.0
 42
90.0
 43
90.0
 50
180.0
  0
INSERT
  5
8874
  8
3
 62
     0
  2
_OPEN
 10
3776.7802181835032
 20
10164.14557977394
 30
0.0
 41
90.0
 42
90.0
 43
90.0
  0
TEXT
  5
8875
  8
1
 62
     0
 10
2498.851504183503
 20
10209.14557977394
 30
0.0
 40
135.0
  1
2120
  0
POINT
  5
8876
  8
DEFPOINTS
 62
     0
 10
1656.7802181835041
 20
9689.0635380000003
 30
0.0
  0
POINT
  5
8877
  8
DEFPOINTS
 62
     0
 10
3776.7802181835032
 20
9689.0635380000003
 30
0.0
  0
POINT
  5
8878
  8
DEFPOINTS
 62
     0
 10
3776.7802181835032
 20
10164.14557977394
 30
0.0
  0
ENDBLK
  5
8175
  8
0
  0
BLOCK
  8
0
  2
*D3
 70
     1
 10
0.0
 20
0.0
 30
0.0
  3
*D3
  1

  0
LINE
  5
8B54
  8
3
 62
     0
 10
5256.7802181835041
 20
9061.5635379999985
 30
0.0
 11
5256.7802181835041
 21
10209.14557977394
 31
0.0
  0
LINE
  5
8B55
  8
3
 62
     0
 10
3866.7802181835032
 20
10164.14557977394
 30
0.0
 11
5166.7802181835041
 21
10164.14557977394
 31
0.0
  0
INSERT
  5
8B56
  8
3
 62
     0
  2
_OPEN
 10
3776.7802181835032
 20
10164.14557977394
 30
0.0
 41
90.0
 42
90.0
 43
90.0
 50
180.0
  0
INSERT
  5
8B57
  8
3
 62
     0
  2
_OPEN
 10
5256.7802181835041
 20
10164.14557977394
 30
0.0
 41
90.0
 42
90.0
 43
90.0
  0
TEXT
  8
3
  40
135
  5
8B8E
  62
0
  72
0
  71
0
 10
4246.78
 20
10037.7
 30
0.000000
  1
1480
  0
POINT
  5
8B59
  8
DEFPOINTS
 62
     0
 10
3776.7802181835032
 20
9689.0635380000003
 30
0.0
  0
POINT
  5
8B5A
  8
DEFPOINTS
 62
     0
 10
5256.7802181835041
 20
9039.0635380000003
 30
0.0
  0
POINT
  5
8B5B
  8
DEFPOINTS
 62
     0
 10
5256.7802181835041
 20
10164.14557977394
 30
0.0
  0
ENDBLK
  5
8309
  8
0
  0
BLOCK
  8
0
  2
*D4
 70
     1
 10
0.0
 20
0.0
 30
0.0
  3
*D4
  1

  0
LINE
  5
889D
  8
3
 62
     0
 10
1634.2802181835041
 20
9689.0635380000003
 30
0.0
 11
837.72338218350512
 21
9689.0635380000003
 31
0.0
  0
LINE
  5
889E
  8
3
 62
     0
 10
1634.2802181835041
 20
7839.0635380000012
 30
0.0
 11
837.72338218350455
 21
7839.0635380000012
 31
0.0
  0
LINE
  5
889F
  8
3
 62
     0
 10
882.72338218350512
 20
9599.0635380000003
 30
0.0
 11
882.72338218350467
 21
7929.0635380000012
 31
0.0
  0
INSERT
  5
88A0
  8
3
 62
     0
  2
_OPEN
 10
882.72338218350512
 20
9689.0635380000003
 30
0.0
 41
90.0
 42
90.0
 43
90.0
 50
90.0
  0
INSERT
  5
88A1
  8
3
 62
     0
  2
_OPEN
 10
882.72338218350467
 20
7839.0635380000012
 30
0.0
 41
90.0
 42
90.0
 43
90.0
 50
270.0
  0
TEXT
  5
88A2
  8
1
 62
     0
 10
837.72338218350342
 20
8126.9301969999997
 30
0.0
 40
135.0
  1
1850
 50
90.0
  0
POINT
  5
88A3
  8
DEFPOINTS
 62
     0
 10
1656.7802181835041
 20
9689.0635380000003
 30
0.0
  0
POINT
  5
88A4
  8
DEFPOINTS
 62
     0
 10
1656.7802181835041
 20
7839.0635380000012
 30
0.0
  0
POINT
  5
88A5
  8
DEFPOINTS
 62
     0
 10
882.72338218350467
 20
7839.0635380000012
 30
0.0
  0
ENDBLK
  5
818E
  8
0
  0
BLOCK
  8
0
  2
*D5
 70
     1
 10
0.0
 20
0.0
 30
0.0
  3
*D5
  1

  0
LINE
  5
8894
  8
3
 62
     0
 10
5279.2802181835041
 20
9039.0635380000003
 30
0.0
 11
5585.1368790925271
 21
9039.0635380000003
 31
0.0
  0
LINE
  5
8895
  8
3
 62
     0
 10
5279.2802181835041
 20
7839.0635380000012
 30
0.0
 11
5585.1368790925271
 21
7839.0635380000012
 31
0.0
  0
LINE
  5
8896
  8
3
 62
     0
 10
5540.136879092528
 20
8949.0635380000003
 30
0.0
 11
5540.136879092528
 21
7929.0635380000012
 31
0.0
  0
INSERT
  5
8897
  8
3
 62
     0
  2
_OPEN
 10
5540.136879092528
 20
9039.0635380000003
 30
0.0
 41
90.0
 42
90.0
 43
90.0
 50
90.0
  0
INSERT
  5
8898
  8
3
 62
     0
  2
_OPEN
 10
5540.136879092528
 20
7839.0635380000012
 30
0.0
 41
90.0
 42
90.0
 43
90.0
 50
270.0
  0
TEXT
  5
8899
  8
1
 62
     0
 10
5495.1368790925271
 20
8245.8323682794216
 30
0.0
 40
135.0
  1
1200
 50
90.0
  0
POINT
  5
889A
  8
DEFPOINTS
 62
     0
 10
5256.7802181835041
 20
9039.0635380000003
 30
0.0
  0
POINT
  5
889B
  8
DEFPOINTS
 62
     0
 10
5256.7802181835041
 20
7839.0635380000012
 30
0.0
  0
POINT
  5
889C
  8
DEFPOINTS
 62
     0
 10
5540.136879092528
 20
7839.0635380000012
 30
0.0
  0
ENDBLK
  5
819B
  8
0
  0
BLOCK
  8
0
  2
*D6
 70
     1
 10
0.0
 20
0.0
 30
0.0
  3
*D6
  1

  0
LINE
  5
8867
  8
3
 62
     0
 10
5256.7802181835041
 20
7816.5635380000012
 30
0.0
 11
5256.7802181835041
 21
7419.320243000001
 31
0.0
  0
LINE
  5
8868
  8
3
 62
     0
 10
1656.7802181835041
 20
7816.5635380000012
 30
0.0
 11
1656.7802181835041
 21
7419.320243000001
 31
0.0
  0
LINE
  5
8869
  8
3
 62
     0
 10
5166.7802181835041
 20
7464.3202430000019
 30
0.0
 11
1746.7802181835041
 21
7464.3202430000019
 31
0.0
  0
INSERT
  5
886A
  8
3
 62
     0
  2
_OPEN
 10
5256.7802181835041
 20
7464.3202430000019
 30
0.0
 41
90.0
 42
90.0
 43
90.0
  0
INSERT
  5
886B
  8
3
 62
     0
  2
_OPEN
 10
1656.7802181835041
 20
7464.3202430000019
 30
0.0
 41
90.0
 42
90.0
 43
90.0
 50
180.0
  0
TEXT
  5
886C
  8
1
 62
     0
 10
2978.9044193263599
 20
7509.320243000001
 30
0.0
 40
135.0
  1
3600
  0
POINT
  5
886D
  8
DEFPOINTS
 62
     0
 10
5256.7802181835041
 20
7839.0635380000012
 30
0.0
  0
POINT
  5
886E
  8
DEFPOINTS
 62
     0
 10
1656.7802181835041
 20
7839.0635380000012
 30
0.0
  0
POINT
  5
886F
  8
DEFPOINTS
 62
     0
 10
1656.7802181835041
 20
7464.3202430000019
 30
0.0
  0
ENDBLK
  5
82FF
  8
0
  0
BLOCK
  8
0
  2
*D7
 70
     1
 10
0.0
 20
0.0
 30
0.0
  3
*D7
  1

  0
LINE
  5
885E
  8
3
 62
     0
 10
1424.7802181835041
 20
5051.9495479999987
 30
0.0
 11
1424.7802181835041
 21
6826.6350540000003
 31
0.0
  0
LINE
  5
885F
  8
3
 62
     0
 10
2716.7802181835041
 20
6641.7444249999999
 30
0.0
 11
2716.7802181835041
 21
6826.6350540000003
 31
0.0
  0
LINE
  5
8860
  8
3
 62
     0
 10
1514.7802181835041
 20
6781.6350540000003
 30
0.0
 11
2626.7802181835041
 21
6781.6350540000003
 31
0.0
  0
INSERT
  5
8861
  8
3
 62
     0
  2
_OPEN
 10
1424.7802181835041
 20
6781.6350540000003
 30
0.0
 41
90.0
 42
90.0
 43
90.0
 50
180.0
  0
INSERT
  5
8862
  8
3
 62
     0
  2
_OPEN
 10
2716.7802181835041
 20
6781.6350540000003
 30
0.0
 41
90.0
 42
90.0
 43
90.0
  0
TEXT
  5
8863
  8
1
 62
     0
 10
1863.4726591835031
 20
6826.6350540000003
 30
0.0
 40
135.0
  1
1292
  0
POINT
  5
8864
  8
DEFPOINTS
 62
     0
 10
1424.7802181835041
 20
5029.4495479999987
 30
0.0
  0
POINT
  5
8865
  8
DEFPOINTS
 62
     0
 10
2716.7802181835041
 20
6619.244424999999
 30
0.0
  0
POINT
  5
8866
  8
DEFPOINTS
 62
     0
 10
2716.7802181835041
 20
6781.6350540000003
 30
0.0
  0
ENDBLK
  5
81B5
  8
0
  0
BLOCK
  8
0
  2
*D8
 70
     1
 10
0.0
 20
0.0
 30
0.0
  3
*D8
  1

  0
LINE
  5
8B5C
  8
3
 62
     0
 10
4638.0700561835029
 20
6347.7335810000004
 30
0.0
 11
4638.0700561835029
 21
6826.6350540000003
 31
0.0
  0
LINE
  5
8B5D
  8
3
 62
     0
 10
2806.7802181835041
 20
6781.6350540000003
 30
0.0
 11
4548.0700561835038
 21
6781.6350540000003
 31
0.0
  0
INSERT
  5
8B5E
  8
3
 62
     0
  2
_OPEN
 10
2716.7802181835041
 20
6781.6350540000003
 30
0.0
 41
90.0
 42
90.0
 43
90.0
 50
180.0
  0
INSERT
  5
8B5F
  8
3
 62
     0
  2
_OPEN
 10
4638.0700561835029
 20
6781.6350540000003
 30
0.0
 41
90.0
 42
90.0
 43
90.0
  0
TEXT
  8
3
  40
135
  5
8B8F
  62
0
  72
0
  71
0
 10
3407.43
 20
6655.19
 30
0.000000
  1
1921
  0
POINT
  5
8B61
  8
DEFPOINTS
 62
     0
 10
2716.7802181835041
 20
6619.244424999999
 30
0.0
  0
POINT
  5
8B62
  8
DEFPOINTS
 62
     0
 10
4638.0700561835029
 20
6325.2335810000004
 30
0.0
  0
POINT
  5
8B63
  8
DEFPOINTS
 62
     0
 10
4638.0700561835029
 20
6781.6350540000003
 30
0.0
  0
ENDBLK
  5
81C1
  8
0
  0
BLOCK
  8
0
  2
*D9
 70
     1
 10
0.0
 20
0.0
 30
0.0
  3
*D9
  1

  0
LINE
  5
8879
  8
3
 62
     0
 10
4638.0700561835029
 20
6347.7335810000004
 30
0.0
 11
4638.0700561835029
 21
6525.2904899999994
 31
0.0
  0
LINE
  5
887A
  8
3
 62
     0
 10
2787.7802181835032
 20
6347.9495479999987
 30
0.0
 11
2787.7802181835032
 21
6525.2904899999994
 31
0.0
  0
LINE
  5
887B
  8
3
 62
     0
 10
4548.0700561835038
 20
6480.2904900000003
 30
0.0
 11
2877.7802181835032
 21
6480.2904900000003
 31
0.0
  0
INSERT
  5
887C
  8
3
 62
     0
  2
_OPEN
 10
4638.0700561835029
 20
6480.2904900000003
 30
0.0
 41
90.0
 42
90.0
 43
90.0
  0
INSERT
  5
887D
  8
3
 62
     0
  2
_OPEN
 10
2787.7802181835032
 20
6480.2904900000003
 30
0.0
 41
90.0
 42
90.0
 43
90.0
 50
180.0
  0
TEXT
  5
887E
  8
1
 62
     0
 10
3395.445493183503
 20
6525.2904899999994
 30
0.0
 40
135.0
  1
1850
  0
POINT
  5
887F
  8
DEFPOINTS
 62
     0
 10
4638.0700561835029
 20
6325.2335810000004
 30
0.0
  0
POINT
  5
8880
  8
DEFPOINTS
 62
     0
 10
2787.7802181835032
 20
6325.4495479999987
 30
0.0
  0
POINT
  5
8881
  8
DEFPOINTS
 62
     0
 10
2787.7802181835032
 20
6480.2904900000003
 30
0.0
  0
ENDBLK
  5
81CE
  8
0
  0
BLOCK
  8
0
  2
*D10
 70
     1
 10
0.0
 20
0.0
 30
0.0
  3
*D10
  1

  0
LINE
  5
888B
  8
3
 62
     0
 10
4722.2802181835032
 20
6325.4495479999987
 30
0.0
 11
5907.5527581835049
 21
6325.4495479999987
 31
0.0
  0
LINE
  5
888C
  8
3
 62
     0
 10
4942.2262861835043
 20
5160.4495479999987
 30
0.0
 11
5907.552758183504
 21
5160.4495479999987
 31
0.0
  0
LINE
  5
888D
  8
3
 62
     0
 10
5862.5527581835049
 20
6235.4495479999996
 30
0.0
 11
5862.552758183504
 21
5250.4495479999987
 31
0.0
  0
INSERT
  5
888E
  8
3
 62
     0
  2
_OPEN
 10
5862.5527581835049
 20
6325.4495479999987
 30
0.0
 41
90.0
 42
90.0
 43
90.0
 50
90.0
  0
INSERT
  5
888F
  8
3
 62
     0
  2
_OPEN
 10
5862.552758183504
 20
5160.4495479999987
 30
0.0
 41
90.0
 42
90.0
 43
90.0
 50
270.0
  0
TEXT
  5
8890
  8
1
 62
     0
 10
5817.5527581835031
 20
5544.9206848571421
 30
0.0
 40
135.0
  1
1165
 50
90.0
  0
POINT
  5
8891
  8
DEFPOINTS
 62
     0
 10
4699.7802181835032
 20
6325.4495479999987
 30
0.0
  0
POINT
  5
8892
  8
DEFPOINTS
 62
     0
 10
4919.7262861835043
 20
5160.4495479999987
 30
0.0
  0
POINT
  5
8893
  8
DEFPOINTS
 62
     0
 10
5862.552758183504
 20
5160.4495479999987
 30
0.0
  0
ENDBLK
  5
8316
  8
0
  0
BLOCK
  8
0
  2
*D11
 70
     1
 10
0.0
 20
0.0
 30
0.0
  3
*D11
  1

  0
LINE
  5
8B64
  8
3
 62
     0
 10
5279.2802181835041
 20
3570.449548
 30
0.0
 11
5907.5527581835031
 21
3570.449548
 31
0.0
  0
LINE
  5
8B65
  8
3
 62
     0
 10
5862.5527581835031
 20
5070.4495479999996
 30
0.0
 11
5862.5527581835031
 21
3660.4495479999991
 31
0.0
  0
INSERT
  5
8B66
  8
3
 62
     0
  2
_OPEN
 10
5862.5527581835031
 20
5160.4495479999987
 30
0.0
 41
90.0
 42
90.0
 43
90.0
 50
90.0
  0
INSERT
  5
8B67
  8
3
 62
     0
  2
_OPEN
 10
5862.5527581835031
 20
3570.449548
 30
0.0
 41
90.0
 42
90.0
 43
90.0
 50
270.0
  0
TEXT
  8
3
  40
135
  5
8B90
  62
0
  72
0
  71
0
 10
5480.05
 20
4126.50
 30
0.000000
  1
1590
  0
POINT
  5
8B69
  8
DEFPOINTS
 62
     0
 10
4919.7262861835043
 20
5160.4495479999987
 30
0.0
  0
POINT
  5
8B6A
  8
DEFPOINTS
 62
     0
 10
5256.7802181835041
 20
3570.449548
 30
0.0
  0
POINT
  5
8B6B
  8
DEFPOINTS
 62
     0
 10
5862.5527581835031
 20
3570.449548
 30
0.0
  0
ENDBLK
  5
82F3
  8
0
  0
BLOCK
  8
0
  2
*D12
 70
     1
 10
0.0
 20
0.0
 30
0.0
  3
*D12
  1

  0
LINE
  5
8A01
  8
3
 62
     0
 10
5256.7802181835041
 20
3377.9495479999991
 30
0.0
 11
5256.7802181835041
 21
2854.07006
 31
0.0
  0
LINE
  5
8A02
  8
3
 62
     0
 10
2716.7802181835041
 20
3288.1840739999998
 30
0.0
 11
2716.7802181835041
 21
2854.07006
 31
0.0
  0
LINE
  5
8A03
  8
3
 62
     0
 10
5166.7802181835041
 20
2899.07006
 30
0.0
 11
2806.7802181835041
 21
2899.07006
 31
0.0
  0
INSERT
  5
8A04
  8
3
 62
     0
  2
_OPEN
 10
5256.7802181835041
 20
2899.07006
 30
0.0
 41
90.0
 42
90.0
 43
90.0
  0
INSERT
  5
8A05
  8
3
 62
     0
  2
_OPEN
 10
2716.7802181835041
 20
2899.07006
 30
0.0
 41
90.0
 42
90.0
 43
90.0
 50
180.0
  0
TEXT
  5
8A06
  8
1
 62
     0
 10
3516.848350326361
 20
2944.0700599999991
 30
0.0
 40
135.0
  1
2540
  0
POINT
  5
8A07
  8
DEFPOINTS
 62
     0
 10
5256.7802181835041
 20
3400.4495479999991
 30
0.0
  0
POINT
  5
8A08
  8
DEFPOINTS
 62
     0
 10
2716.7802181835041
 20
3310.6840739999989
 30
0.0
  0
POINT
  5
8A09
  8
DEFPOINTS
 62
     0
 10
2716.7802181835041
 20
2899.07006
 30
0.0
  0
ENDBLK
  5
82DE
  8
0
  0
BLOCK
  8
0
  2
*D13
 70
     1
 10
0.0
 20
0.0
 30
0.0
  3
*D13
  1

  0
LINE
  5
8B6C
  8
3
 62
     0
 10
1656.7802181835041
 20
3377.9495479999991
 30
0.0
 11
1656.7802181835041
 21
2854.07006
 31
0.0
  0
LINE
  5
8B6D
  8
3
 62
     0
 10
2626.7802181835041
 20
2899.07006
 30
0.0
 11
1746.7802181835041
 21
2899.07006
 31
0.0
  0
INSERT
  5
8B6E
  8
3
 62
     0
  2
_OPEN
 10
2716.7802181835041
 20
2899.07006
 30
0.0
 41
90.0
 42
90.0
 43
90.0
  0
INSERT
  5
8B6F
  8
3
 62
     0
  2
_OPEN
 10
1656.7802181835041
 20
2899.07006
 30
0.0
 41
90.0
 42
90.0
 43
90.0
 50
180.0
  0
TEXT
  8
3
  40
135
  5
8B91
  62
0
  72
0
  71
0
 10
1916.78
 20
2772.62
 30
0.000000
  1
1060
  0
POINT
  5
8B71
  8
DEFPOINTS
 62
     0
 10
2716.7802181835041
 20
3310.6840739999989
 30
0.0
  0
POINT
  5
8B72
  8
DEFPOINTS
 62
     0
 10
1656.7802181835041
 20
3400.4495479999991
 30
0.0
  0
POINT
  5
8B73
  8
DEFPOINTS
 62
     0
 10
1656.7802181835041
 20
2899.07006
 30
0.0
  0
ENDBLK
  5
821D
  8
0
  0
BLOCK
  8
0
  2
*D14
 70
     1
 10
0.0
 20
0.0
 30
0.0
  3
*D14
  1

  0
LINE
  5
89DD
  8
3
 62
     0
 10
5256.7802181835041
 20
3377.9495479999991
 30
0.0
 11
5256.7802181835041
 21
2528.6179480000001
 31
0.0
  0
LINE
  5
89DE
  8
3
 62
     0
 10
1656.7802181835041
 20
3377.9495479999991
 30
0.0
 11
1656.7802181835041
 21
2528.6179480000001
 31
0.0
  0
LINE
  5
89DF
  8
3
 62
     0
 10
5166.7802181835041
 20
2573.6179480000001
 30
0.0
 11
1746.7802181835041
 21
2573.6179480000001
 31
0.0
  0
INSERT
  5
89E0
  8
3
 62
     0
  2
_OPEN
 10
5256.7802181835041
 20
2573.6179480000001
 30
0.0
 41
90.0
 42
90.0
 43
90.0
  0
INSERT
  5
89E1
  8
3
 62
     0
  2
_OPEN
 10
1656.7802181835041
 20
2573.6179480000001
 30
0.0
 41
90.0
 42
90.0
 43
90.0
 50
180.0
  0
TEXT
  5
89E2
  8
1
 62
     0
 10
3113.7094373263599
 20
2618.6179480000001
 30
0.0
 40
135.0
  1
3600
  0
POINT
  5
89E3
  8
DEFPOINTS
 62
     0
 10
5256.7802181835041
 20
3400.4495479999991
 30
0.0
  0
POINT
  5
89E4
  8
DEFPOINTS
 62
     0
 10
1656.7802181835041
 20
3400.4495479999991
 30
0.0
  0
POINT
  5
89E5
  8
DEFPOINTS
 62
     0
 10
1656.7802181835041
 20
2573.6179480000001
 30
0.0
  0
ENDBLK
  5
82D3
  8
0
  0
BLOCK
  8
0
  2
*D15
 70
     1
 10
0.0
 20
0.0
 30
0.0
  3
*D15
  1

  0
LINE
  5
8A1A
  8
3
 62
     0
 10
6486.6376499999997
 20
3377.9495479999991
 30
0.0
 11
6486.6376499999997
 21
2854.07006
 31
0.0
  0
LINE
  5
8A1B
  8
3
 62
     0
 10
7597.6376499999997
 20
3323.2437049999999
 30
0.0
 11
7597.6376499999997
 21
2854.07006
 31
0.0
  0
LINE
  5
8A1C
  8
3
 62
     0
 10
6576.6376499999988
 20
2899.07006
 30
0.0
 11
7507.6376499999988
 21
2899.07006
 31
0.0
  0
INSERT
  5
8A1D
  8
3
 62
     0
  2
_OPEN
 10
6486.6376499999997
 20
2899.07006
 30
0.0
 41
90.0
 42
90.0
 43
90.0
 50
180.0
  0
INSERT
  5
8A1E
  8
3
 62
     0
  2
_OPEN
 10
7597.6376499999997
 20
2899.07006
 30
0.0
 41
90.0
 42
90.0
 43
90.0
  0
TEXT
  5
8A1F
  8
1
 62
     0
 10
6894.2803011428559
 20
2944.0700599999991
 30
0.0
 40
135.0
  1
1111
  0
POINT
  5
8A20
  8
DEFPOINTS
 62
     0
 10
6486.6376499999997
 20
3400.4495479999991
 30
0.0
  0
POINT
  5
8A21
  8
DEFPOINTS
 62
     0
 10
7597.6376499999997
 20
3345.743704999999
 30
0.0
  0
POINT
  5
8A22
  8
DEFPOINTS
 62
     0
 10
7597.6376499999997
 20
2899.07006
 30
0.0
  0
ENDBLK
  5
8237
  8
0
  0
BLOCK
  8
0
  2
*D16
 70
     1
 10
0.0
 20
0.0
 30
0.0
  3
*D16
  1

  0
LINE
  5
8B74
  8
3
 62
     0
 10
8336.6376500000006
 20
3377.9495479999991
 30
0.0
 11
8336.6376500000006
 21
2854.07006
 31
0.0
  0
LINE
  5
8B75
  8
3
 62
     0
 10
7687.6376499999988
 20
2899.07006
 30
0.0
 11
8246.6376500000024
 21
2899.07006
 31
0.0
  0
INSERT
  5
8B76
  8
3
 62
     0
  2
_OPEN
 10
7597.6376499999997
 20
2899.07006
 30
0.0
 41
90.0
 42
90.0
 43
90.0
 50
180.0
  0
INSERT
  5
8B77
  8
3
 62
     0
  2
_OPEN
 10
8336.6376500000006
 20
2899.07006
 30
0.0
 41
90.0
 42
90.0
 43
90.0
  0
TEXT
  8
3
  40
135
  5
8B92
  62
0
  72
0
  71
0
 10
7697.14
 20
2772.62
 30
0.000000
  1
739
  0
POINT
  5
8B79
  8
DEFPOINTS
 62
     0
 10
7597.6376499999997
 20
3345.743704999999
 30
0.0
  0
POINT
  5
8B7A
  8
DEFPOINTS
 62
     0
 10
8336.6376500000006
 20
3400.4495479999991
 30
0.0
  0
POINT
  5
8B7B
  8
DEFPOINTS
 62
     0
 10
8336.6376500000006
 20
2899.07006
 30
0.0
  0
ENDBLK
  5
8243
  8
0
  0
BLOCK
  8
0
  2
*D17
 70
     1
 10
0.0
 20
0.0
 30
0.0
  3
*D17
  1

  0
LINE
  5
89EF
  8
3
 62
     0
 10
6486.6376499999997
 20
3377.9495479999991
 30
0.0
 11
6486.6376499999997
 21
2528.6179480000001
 31
0.0
  0
LINE
  5
89F0
  8
3
 62
     0
 10
8336.6376500000006
 20
3377.9495479999991
 30
0.0
 11
8336.6376500000006
 21
2528.6179480000001
 31
0.0
  0
LINE
  5
89F1
  8
3
 62
     0
 10
6576.6376499999988
 20
2573.6179480000001
 30
0.0
 11
8246.6376500000024
 21
2573.6179480000001
 31
0.0
  0
INSERT
  5
89F2
  8
3
 62
     0
  2
_OPEN
 10
6486.6376499999997
 20
2573.6179480000001
 30
0.0
 41
90.0
 42
90.0
 43
90.0
 50
180.0
  0
INSERT
  5
89F3
  8
3
 62
     0
  2
_OPEN
 10
8336.6376500000006
 20
2573.6179480000001
 30
0.0
 41
90.0
 42
90.0
 43
90.0
  0
TEXT
  5
89F4
  8
1
 62
     0
 10
7261.8346590000001
 20
2618.6179480000001
 30
0.0
 40
135.0
  1
1850
  0
POINT
  5
89F5
  8
DEFPOINTS
 62
     0
 10
6486.6376499999997
 20
3400.4495479999991
 30
0.0
  0
POINT
  5
89F6
  8
DEFPOINTS
 62
     0
 10
8336.6376500000006
 20
3400.4495479999991
 30
0.0
  0
POINT
  5
89F7
  8
DEFPOINTS
 62
     0
 10
8336.6376500000006
 20
2573.6179480000001
 30
0.0
  0
ENDBLK
  5
8250
  8
0
  0
BLOCK
  8
0
  2
*D18
 70
     1
 10
0.0
 20
0.0
 30
0.0
  3
*D18
  1

  0
LINE
  5
8254
  8
0
  6
BYBLOCK
 62
     0
 10
8415.1376500000006
 20
6060.4495479999996
 30
0.0
 11
8822.5519079999995
 21
6060.4495479999996
 31
0.0
  0
LINE
  5
8255
  8
0
  6
BYBLOCK
 62
     0
 10
8415.1376500000006
 20
4260.4495479999987
 30
0.0
 11
8822.5519079999995
 21
4260.4495479999987
 31
0.0
  0
LINE
  5
8256
  8
0
  6
BYBLOCK
 62
     0
 10
8777.5519079999995
 20
5970.4495479999996
 30
0.0
 11
8777.5519079999995
 21
4350.4495479999987
 31
0.0
  0
INSERT
  5
8257
  8
0
  6
BYBLOCK
 62
     0
  2
_OPEN
 10
8777.5519079999995
 20
6060.4495479999996
 30
0.0
 41
90.0
 42
90.0
 43
90.0
 50
90.0
  0
INSERT
  5
8258
  8
0
  6
BYBLOCK
 62
     0
  2
_OPEN
 10
8777.5519079999995
 20
4260.4495479999987
 30
0.0
 41
90.0
 42
90.0
 43
90.0
 50
270.0
  0
TEXT
  5
8259
  8
1
 62
     0
 10
8732.5519079999995
 20
4813.6592989999999
 30
0.0
 40
135.0
  1
φ1800
 50
90.0
  0
POINT
  5
825A
  8
DEFPOINTS
  6
BYBLOCK
 62
     0
 10
8392.6376500000006
 20
6060.4495479999996
 30
0.0
  0
POINT
  5
825B
  8
DEFPOINTS
  6
BYBLOCK
 62
     0
 10
8392.6376500000006
 20
4260.4495479999987
 30
0.0
  0
POINT
  5
825C
  8
DEFPOINTS
  6
BYBLOCK
 62
     0
 10
8777.5519079999995
 20
4260.4495479999987
 30
0.0
  0
ENDBLK
  5
825D
  8
0
  0
BLOCK
  8
0
  2
*D19
 70
     1
 10
0.0
 20
0.0
 30
0.0
  3
*D19
  1

  0
LINE
  5
8261
  8
0
  6
BYBLOCK
 62
     0
 10
6937.6376499999988
 20
6347.9495479999987
 30
0.0
 11
6937.6376499999988
 21
6561.4518230000003
 31
0.0
  0
LINE
  5
8262
  8
0
  6
BYBLOCK
 62
     0
 10
8257.6376500000006
 20
6347.9495479999987
 30
0.0
 11
8257.6376500000006
 21
6561.4518230000003
 31
0.0
  0
LINE
  5
8263
  8
0
  6
BYBLOCK
 62
     0
 10
7027.6376499999988
 20
6516.4518230000003
 30
0.0
 11
8167.6376500000006
 21
6516.4518230000003
 31
0.0
  0
INSERT
  5
8264
  8
0
  6
BYBLOCK
 62
     0
  2
_OPEN
 10
6937.6376499999988
 20
6516.4518230000003
 30
0.0
 41
90.0
 42
90.0
 43
90.0
 50
180.0
  0
INSERT
  5
8265
  8
0
  6
BYBLOCK
 62
     0
  2
_OPEN
 10
8257.6376500000006
 20
6516.4518230000003
 30
0.0
 41
90.0
 42
90.0
 43
90.0
  0
TEXT
  5
8266
  8
1
 62
     0
 10
7334.2113310000004
 20
6561.4518230000003
 30
0.0
 40
135.0
  1
1320
  0
POINT
  5
8267
  8
DEFPOINTS
  6
BYBLOCK
 62
     0
 10
6937.6376499999988
 20
6325.4495479999987
 30
0.0
  0
POINT
  5
8268
  8
DEFPOINTS
  6
BYBLOCK
 62
     0
 10
8257.6376500000006
 20
6325.4495479999987
 30
0.0
  0
POINT
  5
8269
  8
DEFPOINTS
  6
BYBLOCK
 62
     0
 10
8257.6376500000006
 20
6516.4518230000003
 30
0.0
  0
ENDBLK
  5
826A
  8
0
  0
BLOCK
  8
0
  2
*D20
 70
     1
 10
0.0
 20
0.0
 30
0.0
  3
*D20
  1

  0
LINE
  5
826E
  8
0
  6
BYBLOCK
 62
     0
 10
8392.6376500000006
 20
6147.9495479999987
 30
0.0
 11
8392.6376500000006
 21
6971.2804430000006
 31
0.0
  0
LINE
  5
826F
  8
0
  6
BYBLOCK
 62
     0
 10
7597.6376499999997
 20
6738.8326290000005
 30
0.0
 11
7597.6376499999997
 21
6971.2804430000006
 31
0.0
  0
LINE
  5
8270
  8
0
  6
BYBLOCK
 62
     0
 10
8302.6376500000006
 20
6926.2804429999997
 30
0.0
 11
7687.6376499999988
 21
6926.2804429999997
 31
0.0
  0
INSERT
  5
8271
  8
0
  6
BYBLOCK
 62
     0
  2
_OPEN
 10
8392.6376500000006
 20
6926.2804429999997
 30
0.0
 41
90.0
 42
90.0
 43
90.0
  0
INSERT
  5
8272
  8
0
  6
BYBLOCK
 62
     0
  2
_OPEN
 10
7597.6376499999997
 20
6926.2804429999997
 30
0.0
 41
90.0
 42
90.0
 43
90.0
 50
180.0
  0
TEXT
  5
8273
  8
1
 62
     0
 10
7831.9626874285714
 20
6971.2804430000006
 30
0.0
 40
135.0
  1
795
  0
POINT
  5
8274
  8
DEFPOINTS
  6
BYBLOCK
 62
     0
 10
8392.6376500000006
 20
6125.4495479999987
 30
0.0
  0
POINT
  5
8275
  8
DEFPOINTS
  6
BYBLOCK
 62
     0
 10
7597.6376499999997
 20
6716.3326290000005
 30
0.0
  0
POINT
  5
8276
  8
DEFPOINTS
  6
BYBLOCK
 62
     0
 10
7597.6376499999997
 20
6926.2804429999997
 30
0.0
  0
ENDBLK
  5
8277
  8
0
  0
BLOCK
  8
0
  2
*D21
 70
     1
 10
0.0
 20
0.0
 30
0.0
  3
*D21
  1

  0
LINE
  5
8B7C
  8
3
 62
     0
 10
6497.6376499999997
 20
5662.9495479999996
 30
0.0
 11
6497.6376499999997
 21
6971.2804430000006
 31
0.0
  0
LINE
  5
8B7D
  8
3
 62
     0
 10
7507.6376499999988
 20
6926.2804429999997
 30
0.0
 11
6587.6376499999988
 21
6926.2804429999997
 31
0.0
  0
INSERT
  5
8B7E
  8
3
 62
     0
  2
_OPEN
 10
7597.6376499999997
 20
6926.2804429999997
 30
0.0
 41
90.0
 42
90.0
 43
90.0
  0
INSERT
  5
8B7F
  8
3
 62
     0
  2
_OPEN
 10
6497.6376499999997
 20
6926.2804429999997
 30
0.0
 41
90.0
 42
90.0
 43
90.0
 50
180.0
  0
TEXT
  8
3
  40
135
  5
8B93
  62
0
  72
0
  71
0
 10
6777.64
 20
6835.19
 30
0.000000
  1
(1150)
  0
POINT
  5
8B81
  8
DEFPOINTS
 62
     0
 10
7597.6376499999997
 20
6716.3326290000005
 30
0.0
  0
POINT
  5
8B82
  8
DEFPOINTS
 62
     0
 10
6497.6376499999997
 20
5640.4495479999987
 30
0.0
  0
POINT
  5
8B83
  8
DEFPOINTS
 62
     0
 10
6497.6376499999997
 20
6926.2804429999997
 30
0.0
  0
ENDBLK
  5
8283
  8
0
  0
BLOCK
  8
0
  2
*D22
 70
     1
 10
0.0
 20
0.0
 30
0.0
  3
*D22
  1

  0
LINE
  5
8B84
  8
3
 62
     0
 10
5279.2802181835041
 20
3400.4495479999991
 30
0.0
 11
5907.5527581835031
 21
3400.4495479999991
 31
0.0
  0
LINE
  5
8B85
  8
3
 62
     0
 10
5862.5527581835031
 20
3660.4495479999991
 30
0.0
 11
5862.5527581835031
 21
3750.4495479999991
 31
0.0
  0
LINE
  5
8B86
  8
3
 62
     0
 10
5862.5527581835031
 20
3310.4495479999991
 30
0.0
 11
5862.5527581835031
 21
3220.4495479999991
 31
0.0
  0
TEXT
  8
3
  40
135
  5
8B94
  62
0
  72
0
  71
0
 10
5506.42
 20
2887.62
 30
0.000000
  1
170
  0
LINE
  5
8B88
  8
3
 62
     0
 10
5862.5527581835031
 20
3570.449548
 30
0.0
 11
5862.5527581835031
 21
3400.4495479999991
 31
0.0
  0
INSERT
  5
8B89
  8
3
 62
     0
  2
_OPEN
 10
5862.5527581835031
 20
3570.449548
 30
0.0
 41
90.0
 42
90.0
 43
90.0
 50
270.0
  0
INSERT
  5
8B8A
  8
3
 62
     0
  2
_OPEN
 10
5862.5527581835031
 20
3400.4495479999991
 30
0.0
 41
90.0
 42
90.0
 43
90.0
 50
90.0
  0
POINT
  5
8B8B
  8
DEFPOINTS
 62
     0
 10
5256.7802181835041
 20
3570.449548
 30
0.0
  0
POINT
  5
8B8C
  8
DEFPOINTS
 62
     0
 10
5256.7802181835041
 20
3400.4495479999991
 30
0.0
  0
POINT
  5
8B8D
  8
DEFPOINTS
 62
     0
 10
5862.5527581835031
 20
3400.4495479999991
 30
0.0
  0
ENDBLK
  5
8A3F
  8
0
  0
ENDSEC
  0
SECTION
  2
ENTITIES
  0
INSERT
  5
7ADD
  8
0
  2
YA_N
 10
12518.736613999999
 20
-6524.6833909999987
 30
0.0
  0
INSERT
  5
7AF5
  8
0
  2
YA_N
 10
18386.038918999999
 20
2975.8020809999989
 30
0.0
  0
INSERT
  5
7DA2
  8
0
  2
YA_N
 10
12518.736613999999
 20
-6524.6833909999987
 30
0.0
  0
INSERT
  5
7DB4
  8
0
  2
YA_N
 10
18386.038918999999
 20
2975.8020809999989
 30
0.0
  0
LINE
  5
80D9
  8
1
 10
6486.6376499999997
 20
3720.4495479999991
 30
0.0
 11
8336.6376500000006
 21
3720.4495479999991
 31
0.0
  0
LINE
  5
80DA
  8
1
 10
6486.6376499999997
 20
3570.449548
 30
0.0
 11
8336.6376500000006
 21
3570.449548
 31
0.0
  0
LINE
  5
80DB
  8
1
 10
2723.7802181835041
 20
6325.4495479999987
 30
0.0
 11
4699.7802181835032
 21
6325.4495479999987
 31
0.0
  0
LINE
  5
80DC
  8
1
 10
2787.7802181835032
 20
6260.4495479999996
 30
0.0
 11
4631.9599191835032
 21
6260.4495479999996
 31
0.0
  0
ARC
  5
80DD
  8
1
 10
2847.7802181835032
 20
5291.4495479999996
 30
0.0
 40
1685.0
 50
270.0
 51
354.61205899999999
  0
LINE
  5
80DE
  8
1
 10
4638.0700561835029
 20
6325.2335810000004
 30
0.0
 11
4527.6253041835034
 21
5133.0141469999999
 31
0.0
  0
ARC
  5
80DF
  8
1
 10
4886.7802181835032
 20
4070.449548
 30
0.0
 40
280.0
 50
247.13426799999999
 51
57.325814999999999
  0
ARC
  5
80E0
  8
1
 10
2847.7802181835032
 20
5029.4495479999987
 30
0.0
 40
1423.0
 50
180.0
 51
270.0
  0
LINE
  5
80E1
  8
2
 10
4919.7262861835043
 20
5160.4495479999987
 30
0.0
 11
1132.0226371835031
 21
5160.4495479999987
 31
0.0
  0
ARC
  5
80E2
  8
1
 10
2606.2802181835041
 20
5049.9495479999996
 30
0.0
 40
1181.4999999999991
 50
90.0
 51
180.994179
  0
ARC
  5
80E3
  8
1
 10
2716.7802181835041
 20
5160.4495479999987
 30
0.0
 40
965.0
 50
359.46562699999998
 51
0.000000000000007
  0
LINE
  5
80E4
  8
1
 10
2787.7802181835032
 20
6214.1451800000004
 30
0.0
 11
2787.7802181835032
 21
6325.4495479999987
 31
0.0
  0
LINE
  5
80E5
  8
2
 10
2716.7802181835041
 20
3310.6840739999989
 30
0.0
 11
2716.7802181835041
 21
6619.244424999999
 31
0.0
  0
ARC
  5
80E6
  8
1
 10
2606.2802181835041
 20
5270.9495479999987
 30
0.0
 40
960.5
 50
79.107665000000011
 51
90.0
  0
LINE
  5
80E7
  8
1
 10
6561.6376499999997
 20
3720.4495479999991
 30
0.0
 11
6486.6376499999997
 21
3720.4495479999991
 31
0.0
  0
LINE
  5
80EA
  8
2
 10
7597.6376499999997
 20
3345.743704999999
 30
0.0
 11
7597.6376499999997
 21
6528.0706770000006
 31
0.0
  0
LINE
  5
80EB
  8
1
 10
8257.6376500000006
 20
5169.4495479999996
 30
0.0
 11
8257.6376500000006
 21
6325.4495479999987
 31
0.0
  0
LINE
  5
80EC
  8
1
 10
8392.6376500000006
 20
4195.4495479999996
 30
0.0
 11
8392.6376500000006
 21
6125.4495479999987
 31
0.0
  0
LINE
  5
80ED
  8
1
 10
8257.6376500000006
 20
3720.4495479999991
 30
0.0
 11
8257.6376500000006
 21
5151.4495479999987
 31
0.0
  0
LINE
  5
80EE
  8
1
 10
8261.6376500000006
 20
3570.449548
 30
0.0
 11
8336.6376500000006
 21
3570.449548
 31
0.0
  0
LINE
  5
80EF
  8
1
 10
8261.6376500000006
 20
3720.4495479999991
 30
0.0
 11
8336.6376500000006
 21
3720.4495479999991
 31
0.0
  0
LINE
  5
80F0
  8
1
 10
8257.6376500000006
 20
4260.4495479999987
 30
0.0
 11
8392.6376500000006
 21
4260.4495479999987
 31
0.0
  0
LINE
  5
80F1
  8
1
 10
8257.6376500000006
 20
6060.4495479999996
 30
0.0
 11
8392.6376500000006
 21
6060.4495479999996
 31
0.0
  0
LINE
  5
80F5
  8
1
 10
1656.7802181835041
 20
3570.449548
 30
0.0
 11
5256.7802181835041
 21
3570.449548
 31
0.0
  0
LINE
  5
80F6
  8
1
 10
1656.7802181835041
 20
3720.4495479999991
 30
0.0
 11
5256.7802181835041
 21
3720.4495479999991
 31
0.0
  0
LINE
  5
80F7
  8
1
 10
4706.7802181835032
 20
9039.0635380000003
 30
0.0
 11
5256.7802181835041
 21
9039.0635380000003
 31
0.0
  0
LINE
  5
80F8
  8
1
 10
1656.7802181835041
 20
7839.0635380000012
 30
0.0
 11
5256.7802181835041
 21
7839.0635380000012
 31
0.0
  0
LINE
  5
80FA
  8
1
 10
1656.7802181835041
 20
3720.4495479999991
 30
0.0
 11
1656.7802181835041
 21
3570.449548
 31
0.0
  0
LINE
  5
80FB
  8
1
 10
1656.7802181835041
 20
9689.0635380000003
 30
0.0
 11
1816.7802181835029
 21
9689.0635380000003
 31
0.0
  0
LINE
  5
80FC
  8
1
 10
1656.7802181835041
 20
7839.0635380000012
 30
0.0
 11
1656.7802181835041
 21
8290.0635380000003
 31
0.0
  0
LINE
  5
80FD
  8
2
 10
2716.7802181835041
 20
7794.7701880000004
 30
0.0
 11
2716.7802181835041
 21
9767.8716100000001
 31
0.0
  0
LINE
  5
80FF
  8
2
 10
4886.7802181835032
 20
3647.651617999999
 30
0.0
 11
4886.7802181835032
 21
4552.4484000000002
 31
0.0
  0
LINE
  5
8101
  8
1
 10
5256.7802181835041
 20
3720.4495479999991
 30
0.0
 11
5256.7802181835041
 21
3570.449548
 31
0.0
  0
LINE
  5
8102
  8
1
 10
5256.7802181835041
 20
7839.0635380000012
 30
0.0
 11
5256.7802181835041
 21
9039.0635380000003
 31
0.0
  0
INSERT
  5
8103
  8
0
  2
YA_N
 10
12518.736613999999
 20
-6524.6833909999987
 30
0.0
  0
CIRCLE
  5
8104
  8
1
 10
2716.7802181835041
 20
5160.4495479999987
 30
0.0
 40
400.0
  0
LINE
  5
8105
  8
2
 10
6397.6376499999997
 20
5160.4495479999987
 30
0.0
 11
8498.3907209999998
 21
5160.4495479999987
 31
0.0
  0
LINE
  5
8106
  8
1
 10
6497.6376499999997
 20
3785.4495479999991
 30
0.0
 11
6497.6376499999997
 21
5640.4495479999987
 31
0.0
  0
LINE
  5
8107
  8
1
 10
6697.6376499999997
 20
5640.4495479999987
 30
0.0
 11
6697.6376499999997
 21
3785.4495479999991
 31
0.0
  0
LINE
  5
8108
  8
1
 10
6697.6376499999997
 20
3785.4495479999991
 30
0.0
 11
6497.6376499999997
 21
3785.4495479999991
 31
0.0
  0
LINE
  5
810B
  8
1
 10
6537.6376499999988
 20
5560.4495479999996
 30
0.0
 11
6657.6376499999988
 21
5560.4495479999996
 31
0.0
  0
LINE
  5
810C
  8
1
 10
6657.6376499999988
 20
4760.4495479999987
 30
0.0
 11
6537.6376499999988
 21
4760.4495479999987
 31
0.0
  0
LINE
  5
810D
  8
1
 10
6537.6376499999988
 20
3920.449548
 30
0.0
 11
6537.6376499999988
 21
5560.4495479999996
 31
0.0
  0
LINE
  5
810E
  8
1
 10
6657.6376499999988
 20
3920.449548
 30
0.0
 11
6657.6376499999988
 21
5560.4495479999996
 31
0.0
  0
LINE
  5
810F
  8
2
 10
6597.6376499999997
 20
5606.2975479999996
 30
0.0
 11
6597.6376499999997
 21
3915.1454729999991
 31
0.0
  0
LINE
  5
8110
  8
1
 10
6697.6376499999997
 20
5640.4495479999987
 30
0.0
 11
6497.6376499999997
 21
5640.4495479999987
 31
0.0
  0
ARC
  5
8111
  8
1
 10
2716.7812181835029
 20
5160.4495479999987
 30
0.0
 40
480.0
 50
57.325814999999999
 51
247.13426799999999
  0
LINE
  5
8112
  8
2
 10
6463.3366500000011
 20
4070.449548
 30
0.0
 11
7687.5543755739991
 21
4070.449548
 31
0.0
  0
LINE
  5
8113
  8
1
 10
6537.6376499999988
 20
4220.4495479999996
 30
0.0
 11
6657.6376499999988
 21
4220.4495479999996
 31
0.0
  0
LINE
  5
8114
  8
1
 10
6537.6376499999988
 20
3920.449548
 30
0.0
 11
6657.6376499999988
 21
3920.449548
 31
0.0
  0
INSERT
  5
8115
  8
0
  2
YA_N
 10
18386.038918999999
 20
2975.8020809999989
 30
0.0
  0
CIRCLE
  5
8116
  8
1
 10
4886.7802181835032
 20
4070.449548
 30
0.0
 40
150.0
  0
ARC
  5
8117
  8
1
 10
4886.7802181835032
 20
4070.449548
 30
0.0
 40
310.0
 50
300.10230799999988
 51
239.89769200000001
  0
LINE
  5
8118
  8
1
 10
5236.7802181835032
 20
3790.4495479999991
 30
0.0
 11
4536.7802181835032
 21
3790.4495479999991
 31
0.0
  0
LINE
  5
8119
  8
2
 10
5224.2391821835026
 20
4070.449548
 30
0.0
 11
4543.5029961835025
 21
4070.449548
 31
0.0
  0
LINE
  5
811A
  8
1
 10
5042.2593501835036
 20
3802.258871
 30
0.0
 11
4731.3010861835037
 21
3802.258871
 31
0.0
  0
LINE
  5
811B
  8
1
 10
5236.7802181835032
 20
3790.4495479999991
 30
0.0
 11
5056.7802181835032
 21
3790.4495479999991
 31
0.0
  0
LINE
  5
811C
  8
1
 10
5166.7802181835041
 20
3937.4082009999988
 30
0.0
 11
5166.7802181835041
 21
3790.4495479999991
 31
0.0
  0
LINE
  5
811D
  8
1
 10
5236.7802181835032
 20
3790.4495479999991
 30
0.0
 11
5236.7802181835032
 21
3720.4495479999991
 31
0.0
  0
LINE
  5
811E
  8
1
 10
4606.7802181835032
 20
3937.4082009999988
 30
0.0
 11
4606.7802181835032
 21
3790.4495479999991
 31
0.0
  0
LINE
  5
811F
  8
1
 10
4536.7802181835032
 20
3790.4495479999991
 30
0.0
 11
4536.7802181835032
 21
3720.4495479999991
 31
0.0
  0
LINE
  5
8120
  8
1
 10
2975.914555183504
 20
5564.4915190000002
 30
0.0
 11
5037.9413311835033
 21
4306.1406979999992
 31
0.0
  0
LINE
  5
8121
  8
1
 10
2530.2662091835032
 20
4718.1689229999993
 30
0.0
 11
4777.9797961835029
 21
3812.4525170000002
 31
0.0
  0
LINE
  5
8122
  8
1
 10
2939.9040981835028
 20
5492.4371000000001
 30
0.0
 11
4970.4516731835038
 21
4194.94488
 31
0.0
  0
LINE
  5
8123
  8
1
 10
2569.3004091835028
 20
4788.6300950000013
 30
0.0
 11
4831.4752901835036
 21
3931.017253
 31
0.0
  0
LINE
  5
8124
  8
1
 10
6486.6376499999997
 20
3720.4495479999991
 30
0.0
 11
6486.6376499999997
 21
3570.449548
 31
0.0
  0
LINE
  5
8125
  8
1
 10
8336.6376500000006
 20
3720.4495479999991
 30
0.0
 11
8336.6376500000006
 21
3570.449548
 31
0.0
  0
LINE
  5
812E
  8
2
 10
1186.6362811835029
 20
8950.0635380000003
 30
0.0
 11
5433.7429941835044
 21
8950.0635380000003
 31
0.0
  0
LINE
  5
812F
  8
1
 10
4637.7802181835032
 20
8290.0635380000003
 30
0.0
 11
4637.7802181835032
 21
9610.0635380000003
 31
0.0
  0
LINE
  5
8130
  8
1
 10
1424.7802181835041
 20
8290.0635380000003
 30
0.0
 11
1424.7802181835041
 21
9610.0635380000003
 31
0.0
  0
LINE
  5
8131
  8
1
 10
1424.7802181835041
 20
9610.0635380000003
 30
0.0
 11
4637.7802181835032
 21
9610.0635380000003
 31
0.0
  0
LINE
  5
8132
  8
1
 10
1424.7802181835041
 20
8290.0635380000003
 30
0.0
 11
4637.7802181835032
 21
8290.0635380000003
 31
0.0
  0
LINE
  5
8133
  8
1
 10
1656.7802181835041
 20
9610.0635380000003
 30
0.0
 11
1656.7802181835041
 21
9689.0635380000003
 31
0.0
  0
LINE
  5
8134
  8
1
 10
3776.7802181835032
 20
9679.0635380000022
 30
0.0
 11
3776.7802181835032
 21
9689.0635380000003
 31
0.0
  0
LINE
  5
8135
  8
1
 10
2787.7802181835032
 20
8290.0635380000003
 30
0.0
 11
2787.7802181835032
 21
9610.0635380000003
 31
0.0
  0
LINE
  5
8136
  8
1
 10
2787.7802181835032
 20
9610.0635380000003
 30
0.0
 11
4637.7802181835032
 21
8290.0635380000003
 31
0.0
  0
LINE
  5
8137
  8
1
 10
4637.7802181835032
 20
9610.0635380000003
 30
0.0
 11
2787.7802181835032
 21
8290.0635380000003
 31
0.0
  0
LINE
  5
8138
  8
1
 10
5036.7802181835032
 20
7890.0635379999994
 30
0.0
 11
5036.7802181835032
 21
8010.0635380000003
 31
0.0
  0
LINE
  5
8139
  8
1
 10
4736.7802181835032
 20
7890.0635379999994
 30
0.0
 11
4736.7802181835032
 21
8010.0635380000003
 31
0.0
  0
LINE
  5
813A
  8
1
 10
4886.7802181835032
 20
7815.7625379999999
 30
0.0
 11
4886.7802181835032
 21
8163.5635380000003
 31
0.0
  0
LINE
  5
813B
  8
1
 10
2236.7802181835041
 20
8050.0635379999994
 30
0.0
 11
2236.7802181835041
 21
7850.0635379999994
 31
0.0
  0
LINE
  5
813C
  8
1
 10
3116.7802181835032
 20
8010.0635380000003
 30
0.0
 11
3116.7802181835032
 21
7890.0635379999994
 31
0.0
  0
LINE
  5
813D
  8
1
 10
2316.7802181835041
 20
7890.0635379999994
 30
0.0
 11
2316.7802181835041
 21
8010.0635380000003
 31
0.0
  0
LINE
  5
813E
  8
1
 10
5171.7802181835032
 20
8050.0635379999994
 30
0.0
 11
5171.7802181835032
 21
7850.0635379999994
 31
0.0
  0
LINE
  5
813F
  8
1
 10
5036.7802181835032
 20
7890.0635379999994
 30
0.0
 11
4736.7802181835032
 21
7890.0635379999994
 31
0.0
  0
LINE
  5
8140
  8
1
 10
5171.7802181835032
 20
7850.0635379999994
 30
0.0
 11
2236.7802181835041
 21
7850.0635379999994
 31
0.0
  0
LINE
  5
8141
  8
2
 10
2270.9322181835018
 20
7950.0635379999994
 30
0.0
 11
5093.2312621835044
 21
7950.0635379999994
 31
0.0
  0
LINE
  5
8142
  8
1
 10
3116.7802181835032
 20
7890.0635379999994
 30
0.0
 11
2316.7802181835041
 21
7890.0635379999994
 31
0.0
  0
LINE
  5
8143
  8
1
 10
5036.7802181835032
 20
8010.0635380000003
 30
0.0
 11
4736.7802181835032
 21
8010.0635380000003
 31
0.0
  0
LINE
  5
8144
  8
1
 10
2236.7802181835041
 20
8050.0635379999994
 30
0.0
 11
5171.7802181835032
 21
8050.0635379999994
 31
0.0
  0
LINE
  5
8145
  8
1
 10
3116.7802181835032
 20
8010.0635380000003
 30
0.0
 11
2316.7802181835041
 21
8010.0635380000003
 31
0.0
  0
LINE
  5
8146
  8
1
 10
6657.6376499999988
 20
5205.4495479999996
 30
0.0
 11
6937.6376499999988
 21
5205.4495479999996
 31
0.0
  0
LINE
  5
8147
  8
1
 10
6657.6376499999988
 20
5115.4495479999987
 30
0.0
 11
6937.6376499999988
 21
5115.4495479999987
 31
0.0
  0
LINE
  5
8148
  8
1
 10
5156.7802181835032
 20
8989.0635380000003
 30
0.0
 11
5156.7802181835032
 21
8136.5635380000003
 31
0.0
  0
LINE
  5
8149
  8
1
 10
4599.2802181835032
 20
8136.5635380000003
 30
0.0
 11
4599.2802181835032
 21
8221.0635380000022
 31
0.0
  0
LINE
  5
814A
  8
2
 10
4886.7802181835032
 20
7930.5669569999991
 30
0.0
 11
4886.7802181835032
 21
9008.3548540000029
 31
0.0
  0
LINE
  5
814B
  8
1
 10
5156.7802181835032
 20
8989.0635380000003
 30
0.0
 11
4706.7802181835032
 21
8989.0635379999985
 31
0.0
  0
LINE
  5
814C
  8
1
 10
4599.2802181835032
 20
8136.5635380000003
 30
0.0
 11
5156.7802181835032
 21
8136.5635380000003
 31
0.0
  0
LINE
  5
814D
  8
1
 10
4972.2802181835032
 20
8130.0635379999994
 30
0.0
 11
4801.2802181835032
 21
8130.0635379999994
 31
0.0
  0
LINE
  5
814E
  8
1
 10
4929.2802181835032
 20
7950.0635379999994
 30
0.0
 11
4839.2802181835032
 21
7950.0635379999994
 31
0.0
  0
LINE
  5
814F
  8
1
 10
4936.7802181835032
 20
8120.0635380000003
 30
0.0
 11
4836.7802181835032
 21
8120.0635380000003
 31
0.0
  0
LINE
  5
8150
  8
1
 10
4929.2802181835032
 20
7950.0635379999994
 30
0.0
 11
4929.2802181835032
 21
8120.0635380000003
 31
0.0
  0
LINE
  5
8151
  8
1
 10
4936.7802181835032
 20
8120.0635380000003
 30
0.0
 11
4936.7802181835032
 21
8130.0635379999994
 31
0.0
  0
ARC
  5
8152
  8
1
 10
4972.2802181835032
 20
8132.0635380000003
 30
0.0
 40
2.0
 50
270.0
 51
0.000000000000007
  0
LINE
  5
8153
  8
1
 10
4974.2802181835032
 20
8136.9119129999999
 30
0.0
 11
4974.2802181835032
 21
8132.0635380000003
 31
0.0
  0
LINE
  5
8154
  8
1
 10
4839.2802181835032
 20
7950.0635379999994
 30
0.0
 11
4839.2802181835032
 21
8090.0635380000003
 31
0.0
  0
LINE
  5
8155
  8
1
 10
4844.2802181835032
 20
7950.0635379999994
 30
0.0
 11
4844.2802181835032
 21
8114.5635380000003
 31
0.0
  0
LINE
  5
8156
  8
1
 10
4836.7802181835032
 20
8120.0635380000003
 30
0.0
 11
4836.7802181835032
 21
8130.0635379999994
 31
0.0
  0
ARC
  5
8157
  8
1
 10
4801.2802181835032
 20
8132.0635380000003
 30
0.0
 40
2.0
 50
180.0
 51
270.0
  0
LINE
  5
8158
  8
1
 10
4799.2802181835032
 20
8136.5635380000003
 30
0.0
 11
4799.2802181835032
 21
8132.0635380000003
 31
0.0
  0
LINE
  5
8159
  8
1
 10
4844.2802181835032
 20
8090.0635380000003
 30
0.0
 11
4839.2802181835032
 21
8090.0635380000003
 31
0.0
  0
LINE
  5
815A
  8
1
 10
7636.6376499999997
 20
4349.1995479999996
 30
0.0
 11
6784.1376499999988
 21
4349.1995479999996
 31
0.0
  0
LINE
  5
815B
  8
1
 10
6784.1376499999988
 20
3791.6995479999991
 30
0.0
 11
7636.6376499999997
 21
3791.6995479999991
 31
0.0
  0
LINE
  5
815C
  8
1
 10
6784.1376499999988
 20
3791.6995479999991
 30
0.0
 11
6784.1376499999988
 21
4349.1995479999996
 31
0.0
  0
LINE
  5
815D
  8
1
 10
6777.6376499999988
 20
4155.9495479999987
 30
0.0
 11
6777.6376499999988
 21
3984.9495479999991
 31
0.0
  0
LINE
  5
815E
  8
1
 10
6784.4860249999992
 20
4157.9495479999996
 30
0.0
 11
6779.6376499999988
 21
4157.9495479999996
 31
0.0
  0
ARC
  5
815F
  8
1
 10
6779.6376499999988
 20
4155.9495479999987
 30
0.0
 40
2.0
 50
90.0
 51
180.0
  0
LINE
  5
8160
  8
1
 10
6597.6376499999997
 20
4027.9495479999991
 30
0.0
 11
6762.1376499999988
 21
4027.9495479999991
 31
0.0
  0
LINE
  5
8162
  8
1
 10
6597.6376499999997
 20
4112.9495479999987
 30
0.0
 11
6767.6376500000006
 21
4112.9495479999987
 31
0.0
  0
LINE
  5
8164
  8
1
 10
6784.1376499999988
 20
3982.949548
 30
0.0
 11
6779.6376499999988
 21
3982.949548
 31
0.0
  0
ARC
  5
8165
  8
1
 10
6779.6376499999988
 20
3984.9495479999991
 30
0.0
 40
2.0
 50
180.0
 51
270.0
  0
LINE
  5
8166
  8
1
 10
6767.6376500000006
 20
4020.449548
 30
0.0
 11
6777.6376499999988
 21
4020.449548
 31
0.0
  0
LINE
  5
8167
  8
1
 10
6767.6376500000006
 20
4120.4495479999987
 30
0.0
 11
6777.6376499999988
 21
4120.4495479999987
 31
0.0
  0
LINE
  5
8168
  8
1
 10
6767.6376500000006
 20
4120.4495479999987
 30
0.0
 11
6767.6376500000006
 21
4020.449548
 31
0.0
  0
DIMENSION
  5
8176
  8
3
  2
*D2
 10
3776.7802181835032
 20
10164.14557977394
 30
0.0
 11
2723.851504183503
 21
10164.14557977394
 31
0.0
 70
   128
 13
1656.7802181835041
 23
9689.0635380000003
 33
0.0
 14
3776.7802181835032
 24
9689.0635380000003
 34
0.0
 50
180.0
1001
ACAD
1000
DSTYLE
1002
{
1070
   288
1070
     1
1070
   172
1070
     1
1070
    40
1040
45.0
1070
   287
1070
     3
1070
   271
1070
     0
1070
   143
1040
0.039
1002
}
  0
DIMENSION
  5
8182
  8
3
  2
*D3
 10
5256.7802181835041
 20
10164.14557977394
 30
0.0
 11
4516.7802181835032
 21
10276.64557977394
 31
0.0
 70
     0
 13
3776.7802181835032
 23
9689.0635380000003
 33
0.0
 14
5256.7802181835041
 24
9039.0635380000003
 34
0.0
 50
180.0
1001
ACAD
1000
DSTYLE
1002
{
1070
   287
1070
     4
1070
   287
1070
     4
1070
   287
1070
     4
1070
   287
1070
     4
1070
   287
1070
     4
1070
   287
1070
     4
1070
   287
1070
     4
1070
    40
1040
45.0
1070
    75
1070
     1
1070
   143
1040
0.039
1070
   172
1070
     1
1070
   271
1070
     0
1070
   279
1070
     1
1070
   288
1070
     1
1002
}
  0
DIMENSION
  5
818F
  8
3
  2
*D4
 10
882.72338218350467
 20
7839.0635380000012
 30
0.0
 11
882.72338218350353
 21
8351.9301969999997
 31
0.0
 70
   128
 13
1656.7802181835041
 23
9689.0635380000003
 33
0.0
 14
1656.7802181835041
 24
7839.0635380000012
 34
0.0
 50
90.0
1001
ACAD
1000
DSTYLE
1002
{
1070
   288
1070
     1
1070
   172
1070
     1
1070
    40
1040
45.0
1070
   287
1070
     3
1070
   271
1070
     0
1070
   143
1040
0.039
1002
}
  0
DIMENSION
  5
819C
  8
3
  2
*D5
 10
5540.136879092528
 20
7839.0635380000012
 30
0.0
 11
5540.1368790925262
 21
8470.8323682794216
 31
0.0
 70
   128
 13
5256.7802181835041
 23
9039.0635380000003
 33
0.0
 14
5256.7802181835041
 24
7839.0635380000012
 34
0.0
 50
90.0
1001
ACAD
1000
DSTYLE
1002
{
1070
   288
1070
     1
1070
   172
1070
     1
1070
    40
1040
45.0
1070
   287
1070
     3
1070
   271
1070
     0
1070
   143
1040
0.039
1002
}
  0
DIMENSION
  5
81A9
  8
3
  2
*D6
 10
1656.7802181835041
 20
7464.3202430000019
 30
0.0
 11
3216.761562183503
 21
7464.3202430000019
 31
0.0
 70
   128
 13
5256.7802181835041
 23
7839.0635380000012
 33
0.0
 14
1656.7802181835041
 24
7839.0635380000012
 34
0.0
 50
180.0
1001
ACAD
1000
DSTYLE
1002
{
1070
   288
1070
     1
1070
   172
1070
     1
1070
    40
1040
45.0
1070
   287
1070
     3
1070
   271
1070
     0
1070
   143
1040
0.039
1002
}
  0
DIMENSION
  5
81B6
  8
3
  2
*D7
 10
2716.7802181835041
 20
6781.6350540000003
 30
0.0
 11
2088.4726591835029
 21
6781.6350540000003
 31
0.0
 70
   128
 13
1424.7802181835041
 23
5029.4495479999987
 33
0.0
 14
2716.7802181835041
 24
6619.244424999999
 34
0.0
 50
180.0
1001
ACAD
1000
DSTYLE
1002
{
1070
   288
1070
     1
1070
   172
1070
     1
1070
    40
1040
45.0
1070
   287
1070
     3
1070
   271
1070
     0
1070
   143
1040
0.039
1002
}
  0
DIMENSION
  5
81C2
  8
3
  2
*D8
 10
4638.0700561835029
 20
6781.6350540000003
 30
0.0
 11
3677.4251371835039
 21
6894.1350540000003
 31
0.0
 70
     0
 13
2716.7802181835041
 23
6619.244424999999
 33
0.0
 14
4638.0700561835029
 24
6325.2335810000004
 34
0.0
 50
180.0
1001
ACAD
1000
DSTYLE
1002
{
1070
   287
1070
     4
1070
   287
1070
     4
1070
   287
1070
     4
1070
   287
1070
     4
1070
   287
1070
     4
1070
   287
1070
     4
1070
   287
1070
     4
1070
    40
1040
45.0
1070
    75
1070
     1
1070
   143
1040
0.039
1070
   172
1070
     1
1070
   271
1070
     0
1070
   279
1070
     1
1070
   288
1070
     1
1002
}
  0
DIMENSION
  5
81CF
  8
3
  2
*D9
 10
2787.7802181835032
 20
6480.2904900000003
 30
0.0
 11
3620.445493183503
 21
6480.2904900000003
 31
0.0
 70
   128
 13
4638.0700561835029
 23
6325.2335810000004
 33
0.0
 14
2787.7802181835032
 24
6325.4495479999987
 34
0.0
 50
180.0
1001
ACAD
1000
DSTYLE
1002
{
1070
   288
1070
     1
1070
   172
1070
     1
1070
    40
1040
45.0
1070
   287
1070
     3
1070
   271
1070
     0
1070
   143
1040
0.039
1002
}
  0
DIMENSION
  5
81DC
  8
3
  2
*D10
 10
5862.552758183504
 20
5160.4495479999987
 30
0.0
 11
5862.5527581835031
 21
5757.0635419999999
 31
0.0
 70
   128
 13
4699.7802181835032
 23
6325.4495479999987
 33
0.0
 14
4919.7262861835043
 24
5160.4495479999987
 34
0.0
 50
90.0
1001
ACAD
1000
DSTYLE
1002
{
1070
   288
1070
     1
1070
   172
1070
     1
1070
    40
1040
45.0
1070
   287
1070
     3
1070
   271
1070
     0
1070
   143
1040
0.039
1002
}
  0
DIMENSION
  5
81E8
  8
3
  2
*D11
 10
5862.5527581835031
 20
3570.449548
 30
0.0
 11
5750.0527581835022
 21
4365.4495479999996
 31
0.0
 70
     0
 13
4919.7262861835043
 23
5160.4495479999987
 33
0.0
 14
5256.7802181835041
 24
3570.449548
 34
0.0
 50
90.0
1001
ACAD
1000
DSTYLE
1002
{
1070
   287
1070
     4
1070
   287
1070
     4
1070
   287
1070
     4
1070
   287
1070
     4
1070
   287
1070
     4
1070
   287
1070
     4
1070
   287
1070
     4
1070
    40
1040
45.0
1070
    75
1070
     1
1070
   143
1040
0.039
1070
   172
1070
     1
1070
   271
1070
     0
1070
   279
1070
     1
1070
   288
1070
     1
1002
}
  0
DIMENSION
  5
8212
  8
3
  2
*D12
 10
2716.7802181835041
 20
2899.07006
 30
0.0
 11
3754.7054931835032
 21
2899.07006
 31
0.0
 70
   128
 13
5256.7802181835041
 23
3400.4495479999991
 33
0.0
 14
2716.7802181835041
 24
3310.6840739999989
 34
0.0
 50
180.0
1001
ACAD
1000
DSTYLE
1002
{
1070
   288
1070
     1
1070
   172
1070
     1
1070
    40
1040
45.0
1070
   287
1070
     3
1070
   271
1070
     0
1070
   143
1040
0.039
1002
}
  0
DIMENSION
  5
821E
  8
3
  2
*D13
 10
1656.7802181835041
 20
2899.07006
 30
0.0
 11
2186.7802181835041
 21
3011.57006
 31
0.0
 70
     0
 13
2716.7802181835041
 23
3310.6840739999989
 33
0.0
 14
1656.7802181835041
 24
3400.4495479999991
 34
0.0
 50
180.0
1001
ACAD
1000
DSTYLE
1002
{
1070
   287
1070
     4
1070
   287
1070
     4
1070
   287
1070
     4
1070
   287
1070
     4
1070
   287
1070
     4
1070
   287
1070
     4
1070
   287
1070
     4
1070
    40
1040
45.0
1070
    75
1070
     1
1070
   143
1040
0.039
1070
   172
1070
     1
1070
   271
1070
     0
1070
   279
1070
     1
1070
   288
1070
     1
1002
}
  0
DIMENSION
  5
822B
  8
3
  2
*D14
 10
1656.7802181835041
 20
2573.6179480000001
 30
0.0
 11
3351.566580183503
 21
2573.6179480000001
 31
0.0
 70
   128
 13
5256.7802181835041
 23
3400.4495479999991
 33
0.0
 14
1656.7802181835041
 24
3400.4495479999991
 34
0.0
 50
180.0
1001
ACAD
1000
DSTYLE
1002
{
1070
   288
1070
     1
1070
   172
1070
     1
1070
    40
1040
45.0
1070
   287
1070
     3
1070
   271
1070
     0
1070
   143
1040
0.039
1002
}
  0
DIMENSION
  5
8238
  8
3
  2
*D15
 10
7597.6376499999997
 20
2899.07006
 30
0.0
 11
7064.637444
 21
2899.07006
 31
0.0
 70
   128
 13
6486.6376499999997
 23
3400.4495479999991
 33
0.0
 14
7597.6376499999997
 24
3345.743704999999
 34
0.0
1001
ACAD
1000
DSTYLE
1002
{
1070
   288
1070
     1
1070
   172
1070
     1
1070
    40
1040
45.0
1070
   287
1070
     3
1070
   271
1070
     0
1070
   143
1040
0.039
1002
}
  0
DIMENSION
  5
8244
  8
3
  2
*D16
 10
8336.6376500000006
 20
2899.07006
 30
0.0
 11
7967.1376500000006
 21
3011.57006
 31
0.0
 70
     0
 13
7597.6376499999997
 23
3345.743704999999
 33
0.0
 14
8336.6376500000006
 24
3400.4495479999991
 34
0.0
1001
ACAD
1000
DSTYLE
1002
{
1070
   287
1070
     4
1070
   287
1070
     4
1070
   287
1070
     4
1070
   287
1070
     4
1070
   287
1070
     4
1070
   287
1070
     4
1070
   287
1070
     4
1070
    40
1040
45.0
1070
    75
1070
     1
1070
   143
1040
0.039
1070
   172
1070
     1
1070
   271
1070
     0
1070
   279
1070
     1
1070
   288
1070
     1
1002
}
  0
DIMENSION
  5
8251
  8
3
  2
*D17
 10
8336.6376500000006
 20
2573.6179480000001
 30
0.0
 11
7486.8346590000001
 21
2573.6179480000001
 31
0.0
 70
   128
 13
6486.6376499999997
 23
3400.4495479999991
 33
0.0
 14
8336.6376500000006
 24
3400.4495479999991
 34
0.0
1001
ACAD
1000
DSTYLE
1002
{
1070
   288
1070
     1
1070
   172
1070
     1
1070
    40
1040
45.0
1070
   287
1070
     3
1070
   271
1070
     0
1070
   143
1040
0.039
1002
}
  0
DIMENSION
  5
825E
  8
3
  2
*D18
 10
8777.5519079999995
 20
4260.4495479999987
 30
0.0
 11
8777.5519079999995
 21
5106.1592989999999
 31
0.0
 70
   128
 13
8392.6376500000006
 23
6060.4495479999996
 33
0.0
 14
8392.6376500000006
 24
4260.4495479999987
 34
0.0
 50
90.0
1001
ACAD
1000
DSTYLE
1002
{
1070
   288
1070
     1
1070
   172
1070
     1
1070
    40
1040
45.0
1070
     3
1000
φ<>
1070
   287
1070
     3
1070
   271
1070
     0
1070
   143
1040
0.039
1002
}
  0
DIMENSION
  5
826B
  8
3
  2
*D19
 10
8257.6376500000006
 20
6516.4518230000003
 30
0.0
 11
7559.2113310000004
 21
6516.4518230000003
 31
0.0
 70
   128
 13
6937.6376499999988
 23
6325.4495479999987
 33
0.0
 14
8257.6376500000006
 24
6325.4495479999987
 34
0.0
1001
ACAD
1000
DSTYLE
1002
{
1070
   288
1070
     1
1070
   172
1070
     1
1070
    40
1040
45.0
1070
   287
1070
     3
1070
   271
1070
     0
1070
   143
1040
0.039
1002
}
  0
DIMENSION
  5
8278
  8
3
  2
*D20
 10
7597.6376499999997
 20
6926.2804429999997
 30
0.0
 11
8005.5341159999989
 21
6926.2804429999997
 31
0.0
 70
   128
 13
8392.6376500000006
 23
6125.4495479999987
 33
0.0
 14
7597.6376499999997
 24
6716.3326290000005
 34
0.0
1001
ACAD
1000
DSTYLE
1002
{
1070
   288
1070
     1
1070
   172
1070
     1
1070
    40
1040
45.0
1070
   287
1070
     3
1070
   271
1070
     0
1070
   143
1040
0.039
1002
}
  0
DIMENSION
  5
8284
  8
3
  2
*D21
 10
6497.6376499999997
 20
6926.2804429999997
 30
0.0
 11
7047.6376499999997
 21
7074.1375858571437
 31
0.0
 70
     0
  1
(1150)
 13
7597.6376499999997
 23
6716.3326290000005
 33
0.0
 14
6497.6376499999997
 24
5640.4495479999987
 34
0.0
1001
ACAD
1000
DSTYLE
1002
{
1070
   287
1070
     4
1070
   287
1070
     4
1070
   287
1070
     4
1070
   287
1070
     4
1070
   287
1070
     4
1070
   287
1070
     4
1070
   287
1070
     4
1070
    40
1040
45.0
1070
    75
1070
     1
1070
   143
1040
0.039
1070
   172
1070
     1
1070
   271
1070
     0
1070
   279
1070
     1
1070
   288
1070
     1
1002
}
  0
LINE
  5
8285
  8
4
 10
8325.0
 20
1809.640978300059
 30
0.0
 11
8325.0
 21
909.64097830005983
 31
0.0
  0
LINE
  5
8286
  8
4
 10
5175.0
 20
1809.640978300059
 30
0.0
 11
5175.0
 21
909.64097830005983
 31
0.0
  0
LINE
  5
8287
  8
4
 10
2925.0
 20
1809.640978300059
 30
0.0
 11
2925.0
 21
909.64097830005983
 31
0.0
  0
LINE
  5
828A
  8
4
 10
2925.0
 20
909.64097830005983
 30
0.0
 11
8325.0
 21
909.64097830005983
 31
0.0
  0
LINE
  5
828B
  8
4
 10
2925.0
 20
1359.6409783000599
 30
0.0
 11
8325.0
 21
1359.6409783000599
 31
0.0
  0
TEXT
  5
828C
  8
4
 10
3098.259364
 20
1501.58459430006
 30
0.0
 40
225.0
  1
機器名称
  0
TEXT
  5
828D
  8
4
 10
3088.1614769999992
 20
1007.04418330006
 30
0.0
 40
225.0
  1
機器型番
  0
TEXT
  5
828E
  8
4
 10
5197.1468829999994
 20
1463.02970330006
 30
0.0
 40
202.49999999999989
  1
ミツヤリミットロードファン
  0
TEXT
  5
828F
  8
4
 10
5339.9452299999994
 20
986.85910730005969
 30
0.0
 40
225.0
  1
LLE＃11-4
  0
TEXT
  5
8291
  8
4
 10
3619.4975020000002
 20
10725.429786000001
 30
0.0
 40
243.0
  1
床置防振ベット
  0
TEXT
  5
8292
  8
4
 10
1258.0479369999989
 20
11402.464393
 30
0.0
 40
324.0
  1
ベルト駆動式片吸込両持排煙ファン
 41
1.1437506717888091
 72
     5
 11
8224.8620289999999
 21
11402.464393
 31
0.0
  0
LINE
  5
8293
  8
4
 10
1125.0
 20
11112.339394000001
 30
0.0
 11
8325.0
 21
11112.339394000001
 31
0.0
  0
LINE
  5
8294
  8
4
 10
1125.0
 20
12012.339394000001
 30
0.0
 11
8325.0
 21
12012.339394000001
 31
0.0
  0
LINE
  5
8295
  8
4
 10
2925.0
 20
1809.640978300059
 30
0.0
 11
8325.0
 21
1809.640978300059
 31
0.0
  0
LINE
  5
8296
  8
4
 10
1125.0
 20
12012.339394000001
 30
0.0
 11
1125.0
 21
11112.339394000001
 31
0.0
  0
TEXT
  5
8297
  8
4
 10
1658.1327570000001
 20
10720.437649
 30
0.0
 40
243.0
  1
左回転上向
  0
TEXT
  5
8298
  8
4
 10
6610.3630169999997
 20
12177.274867
 30
0.0
 40
252.0
  1
No.
  0
TEXT
  5
8299
  8
4
 10
5900.8322820000003
 20
10725.429786000001
 30
0.0
 40
243.0
  1
縮尺：1/45
  0
LINE
  5
829A
  8
4
 10
8325.0
 20
12012.339394000001
 30
0.0
 11
8325.0
 21
11112.339394000001
 31
0.0
  0
LINE
  5
829B
  8
4
 10
9450.0
 20
13275.0
 30
0.0
 11
9450.0
 21
13275.0
 31
0.0
  0
LINE
  5
829C
  8
4
 10
6482.7784009999996
 20
12065.686124
 30
0.0
 11
6482.7784009999996
 21
12539.93517699999
 31
0.0
  0
LINE
  5
829D
  8
4
 10
6482.7784009999996
 20
12539.93517699999
 30
0.0
 11
8325.0
 21
12539.93517699999
 31
0.0
  0
LINE
  5
829E
  8
4
 10
8325.0
 20
12539.93517699999
 30
0.0
 11
8325.0
 21
12065.686124
 31
0.0
  0
LINE
  5
829F
  8
4
 10
8325.0
 20
12065.686124
 30
0.0
 11
6482.7784009999996
 21
12065.686124
 31
0.0
  0
LINE
  5
82A0
  8
4
 10
0.0
 20
0.0
 30
0.0
 11
0.0
 21
13275.0
 31
0.0
  0
LINE
  5
82A1
  8
4
 10
0.0
 20
13275.0
 30
0.0
 11
9450.0
 21
13275.0
 31
0.0
  0
LINE
  5
82A2
  8
4
 10
9450.0
 20
13275.0
 30
0.0
 11
9450.0
 21
0.0
 31
0.0
  0
LINE
  5
82A3
  8
4
 10
9450.0
 20
0.0
 30
0.0
 11
0.0
 21
0.0
 31
0.0
  0
LINE
  5
82B1
  8
1
 10
6937.6376499999988
 20
3720.4495479999991
 30
0.0
 11
6937.6376499999988
 21
3791.6995479999991
 31
0.0
  0
LINE
  5
83FF
  8
1
 10
1751.780218183502
 20
9745.0635380000003
 30
0.0
 11
3681.7802181835032
 21
9745.0635380000003
 31
0.0
  0
LINE
  5
8400
  8
1
 10
1816.780218183505
 20
9610.0635380000003
 30
0.0
 11
1816.7802181835029
 21
9745.0635380000003
 31
0.0
  0
LINE
  5
8401
  8
1
 10
3616.7802181835041
 20
9679.0635380000003
 30
0.0
 11
3616.7802181835032
 21
9745.0635380000003
 31
0.0
  0
LINE
  5
8404
  8
1
 10
3616.7802181835041
 20
9689.0635380000003
 30
0.0
 11
3776.7802181835032
 21
9689.0635380000003
 31
0.0
  0
LINE
  5
8406
  8
1
 10
4706.7802181835032
 20
8221.0635380000003
 30
0.0
 11
4706.7802181835032
 21
9679.0635380000022
 31
0.0
  0
LINE
  5
8407
  8
1
 10
2718.7802181835032
 20
8221.0635380000003
 30
0.0
 11
2718.7802181835032
 21
9679.0635380000003
 31
0.0
  0
LINE
  5
8408
  8
1
 10
2718.7802181835032
 20
9679.0635380000003
 30
0.0
 11
4706.7802181835032
 21
9679.0635380000022
 31
0.0
  0
LINE
  5
8409
  8
1
 10
2718.7802181835032
 20
8221.0635380000003
 30
0.0
 11
4706.7802181835032
 21
8221.0635380000003
 31
0.0
  0
LINE
  5
8A23
  8
1
 10
1656.7802181835041
 20
3550.4495479999991
 30
0.0
 11
1656.7802181835041
 21
3400.4495479999991
 31
0.0
  0
LINE
  5
8A24
  8
1
 10
1656.7802181835041
 20
3550.4495479999991
 30
0.0
 11
5256.7802181835041
 21
3550.4495479999991
 31
0.0
  0
LINE
  5
8A25
  8
1
 10
1656.7802181835041
 20
3400.4495479999991
 30
0.0
 11
5256.7802181835041
 21
3400.4495479999991
 31
0.0
  0
LINE
  5
8A26
  8
1
 10
5256.7802181835041
 20
3550.4495479999991
 30
0.0
 11
5256.7802181835041
 21
3400.4495479999991
 31
0.0
  0
LINE
  5
8A27
  8
1
 10
6486.6376499999997
 20
3400.4495479999991
 30
0.0
 11
8336.6376500000006
 21
3400.4495479999991
 31
0.0
  0
LINE
  5
8A28
  8
1
 10
6486.6376499999997
 20
3550.4495479999991
 30
0.0
 11
8336.6376500000006
 21
3550.4495479999991
 31
0.0
  0
LINE
  5
8A29
  8
1
 10
6486.6376499999997
 20
3550.4495479999991
 30
0.0
 11
6486.6376499999997
 21
3400.4495479999991
 31
0.0
  0
LINE
  5
8A2A
  8
1
 10
6561.6376499999997
 20
3550.4495479999991
 30
0.0
 11
6486.6376499999997
 21
3550.4495479999991
 31
0.0
  0
LINE
  5
8A2B
  8
1
 10
8261.6376500000006
 20
3550.4495479999991
 30
0.0
 11
8336.6376500000006
 21
3550.4495479999991
 31
0.0
  0
LINE
  5
8A2C
  8
1
 10
8261.6376500000006
 20
3400.4495479999991
 30
0.0
 11
8336.6376500000006
 21
3400.4495479999991
 31
0.0
  0
LINE
  5
8A2D
  8
1
 10
8336.6376500000006
 20
3550.4495479999991
 30
0.0
 11
8336.6376500000006
 21
3400.4495479999991
 31
0.0
  0
DIMENSION
  5
8A2E
  8
3
  2
*D22
 10
5862.5527581835031
 20
3400.4495479999991
 30
0.0
 11
5888.9213381858417
 21
3126.5730838095042
 31
0.0
 70
   128
 13
5256.7802181835041
 23
3570.449548
 33
0.0
 14
5256.7802181835041
 24
3400.4495479999991
 34
0.0
 50
90.0
1001
ACAD
1000
DSTYLE
1002
{
1070
   287
1070
     4
1070
   287
1070
     4
1070
    40
1040
45.0
1070
    75
1070
     1
1070
   143
1040
0.039
1070
   172
1070
     1
1070
   271
1070
     0
1070
   279
1070
     1
1070
   288
1070
     1
1002
}
  0
LINE
  5
8B30
  8
1
 10
7636.6376499999997
 20
3791.6995479999991
 30
0.0
 11
7636.6376499999997
 21
4349.1995479999996
 31
0.0
  0
LINE
  5
8B33
  8
1
 10
6937.6376499999988
 20
4349.1995479999996
 30
0.0
 11
6937.6376499999988
 21
6325.4495479999987
 31
0.0
  0
LINE
  5
8B3D
  8
1
 10
6869.6376499999978
 20
6260.4495479999987
 30
0.0
 11
6869.6376499999978
 21
6325.4495479999987
 31
0.0
  0
LINE
  5
8B3E
  8
1
 10
8325.6376500000006
 20
6260.4495479999987
 30
0.0
 11
8325.6376500000006
 21
6325.4495479999987
 31
0.0
  0
LINE
  5
8B3F
  8
1
 10
8325.6376500000006
 20
6325.4495479999987
 30
0.0
 11
6869.6376499999978
 21
6325.4495479999987
 31
0.0
  0
LINE
  5
8B40
  8
1
 10
8325.6376500000006
 20
6260.4495479999987
 30
0.0
 11
6869.6376499999978
 21
6260.4495479999987
 31
0.0
  0
ENDSEC
  0
EOF
