  0
SECTION
  2
HEADER
  9
$ACADVER
  1
AC1009
  9
$INSBASE
 10
0.0
 20
0.0
 30
0.0
  9
$EXTMIN
 10
0.0
 20
0.0
 30
0.0
  9
$EXTMAX
 10
9450.0
 20
13275.0
 30
0.0
  9
$LIMMIN
 10
0.0
 20
0.0
  9
$LIMMAX
 10
297.0
 20
210.0
  9
$ORTHOMODE
 70
     0
  9
$REGENMODE
 70
     1
  9
$FILLMODE
 70
     0
  9
$QTEXTMODE
 70
     0
  9
$MIRRTEXT
 70
     1
  9
$DRAGMODE
 70
     2
  9
$LTSCALE
 40
100.0
  9
$OSMODE
 70
    37
  9
$ATTMODE
 70
     1
  9
$TEXTSIZE
 40
180.0
  9
$TRACEWID
 40
0.05
  9
$TEXTSTYLE
  7
STANDARD
  9
$CLAYER
  8
3
  9
$CELTYPE
  6
BYLAYER
  9
$CECOLOR
 62
   256
  9
$DIMSCALE
 40
45.0
  9
$DIMASZ
 40
2.0
  9
$DIMEXO
 40
0.5
  9
$DIMDLI
 40
10.0
  9
$DIMRND
 40
0.0
  9
$DIMDLE
 40
0.0
  9
$DIMEXE
 40
1.0
  9
$DIMTP
 40
1.0
  9
$DIMTM
 40
1.0
  9
$DIMTXT
 40
3.0
  9
$DIMCEN
 40
0.0
  9
$DIMTSZ
 40
0.0
  9
$DIMTOL
 70
     0
  9
$DIMLIM
 70
     0
  9
$DIMTIH
 70
     0
  9
$DIMTOH
 70
     0
  9
$DIMSE1
 70
     0
  9
$DIMSE2
 70
     0
  9
$DIMTAD
 70
     1
  9
$DIMZIN
 70
     8
  9
$DIMBLK
  1

  9
$DIMASO
 70
     1
  9
$DIMSHO
 70
     1
  9
$DIMPOST
  1

  9
$DIMAPOST
  1

  9
$DIMALT
 70
     0
  9
$DIMALTD
 70
     2
  9
$DIMALTF
 40
0.039
  9
$DIMLFAC
 40
1.0
  9
$DIMTOFL
 70
     1
  9
$DIMTVP
 40
0.0
  9
$DIMTIX
 70
     0
  9
$DIMSOXD
 70
     0
  9
$DIMSAH
 70
     1
  9
$DIMBLK1
  1
OPEN
  9
$DIMBLK2
  1
OPEN
  9
$DIMSTYLE
  2
IGA
  9
$DIMCLRD
 70
     0
  9
$DIMCLRE
 70
     0
  9
$DIMCLRT
 70
     0
  9
$DIMTFAC
 40
10.0
  9
$DIMGAP
 40
1.0
  9
$LUNITS
 70
     2
  9
$LUPREC
 70
     3
  9
$SKETCHINC
 40
0.1
  9
$FILLETRAD
 40
50.0
  9
$AUNITS
 70
     0
  9
$AUPREC
 70
     0
  9
$MENU
  1
acad
  9
$ELEVATION
 40
0.0
  9
$PELEVATION
 40
0.0
  9
$THICKNESS
 40
0.0
  9
$LIMCHECK
 70
     0
  9
$BLIPMODE
 70
     0
  9
$CHAMFERA
 40
0.5
  9
$CHAMFERB
 40
0.5
  9
$SKPOLY
 70
     0
  9
$TDCREATE
 40
2452331.406026504
  9
$TDUPDATE
 40
2454953.6906108912
  9
$TDINDWG
 40
0.0366810417
  9
$TDUSRTIMER
 40
0.0366810417
  9
$USRTIMER
 70
     1
  9
$ANGBASE
 50
0.0
  9
$ANGDIR
 70
     0
  9
$PDMODE
 70
     0
  9
$PDSIZE
 40
0.0
  9
$PLINEWID
 40
0.0
  9
$COORDS
 70
     1
  9
$SPLFRAME
 70
     0
  9
$SPLINETYPE
 70
     6
  9
$SPLINESEGS
 70
     8
  9
$ATTDIA
 70
     0
  9
$ATTREQ
 70
     1
  9
$HANDLING
 70
 10241
  9
$HANDSEED
  5
7FFE
  9
$SURFTAB1
 70
     6
  9
$SURFTAB2
 70
     6
  9
$SURFTYPE
 70
     6
  9
$SURFU
 70
     6
  9
$SURFV
 70
     6
  9
$UCSNAME
  2

  9
$UCSORG
 10
0.0
 20
0.0
 30
0.0
  9
$UCSXDIR
 10
1.0
 20
0.0
 30
0.0
  9
$UCSYDIR
 10
0.0
 20
1.0
 30
0.0
  9
$PUCSNAME
  2

  9
$PUCSORG
 10
0.0
 20
0.0
 30
0.0
  9
$PUCSXDIR
 10
1.0
 20
0.0
 30
0.0
  9
$PUCSYDIR
 10
0.0
 20
1.0
 30
0.0
  9
$USERI1
 70
     0
  9
$USERI2
 70
     0
  9
$USERI3
 70
     0
  9
$USERI4
 70
     0
  9
$USERI5
 70
     0
  9
$USERR1
 40
0.0
  9
$USERR2
 40
0.0
  9
$USERR3
 40
0.0
  9
$USERR4
 40
0.0
  9
$USERR5
 40
0.0
  9
$WORLDVIEW
 70
     1
  9
$SHADEDGE
 70
     3
  9
$SHADEDIF
 70
    70
  9
$TILEMODE
 70
     1
  9
$MAXACTVP
 70
    16
  9
$PLIMCHECK
 70
     0
  9
$PEXTMIN
 10
1.0000000000000000E+020
 20
1.0000000000000000E+020
 30
1.0000000000000000E+020
  9
$PEXTMAX
 10
-1.0000000000000000E+020
 20
-1.0000000000000000E+020
 30
-1.0000000000000000E+020
  9
$PLIMMIN
 10
0.0
 20
0.0
  9
$PLIMMAX
 10
12.0
 20
9.0
  9
$UNITMODE
 70
     0
  9
$VISRETAIN
 70
     0
  9
$PLINEGEN
 70
     0
  9
$PSLTSCALE
 70
     1
  0
ENDSEC
  0
SECTION
  2
TABLES
  0
TABLE
  2
VPORT
 70
     2
  0
VPORT
  2
*ACTIVE
 70
     0
 10
0.0
 20
0.0
 11
1.0
 21
1.0
 12
8966.8582902126327
 22
1414.507598739684
 13
0.0
 23
0.0
 14
10.0
 24
10.0
 15
10.0
 25
10.0
 16
0.0
 26
0.0
 36
1.0
 17
0.0
 27
0.0
 37
0.0
 40
3998.1310408609388
 41
3.1666666666666661
 42
50.0
 43
0.0
 44
0.0
 50
0.0
 51
0.0
 71
     0
 72
   100
 73
     1
 74
     0
 75
     0
 76
     0
 77
     0
 78
     0
  0
ENDTAB
  0
TABLE
  2
LTYPE
 70
     2
  0
LTYPE
  2
CONTINUOUS
 70
     0
  3
Solid line
 72
    65
 73
     0
 40
0.0
  0
LTYPE
  2
CENTER
 70
     0
  3
____ _ ____ _ ____ _ ____ _ ____ _ ____ _ ____ 
 72
    65
 73
     4
 40
2.0
 49
1.25
 49
-0.25
 49
0.25
 49
-0.25
  0
ENDTAB
  0
TABLE
  2
LAYER
 70
     6
  0
LAYER
  2
0
 70
     0
 62
     7
  6
CONTINUOUS
  0
LAYER
  2
3
 70
     0
 62
     2
  6
CONTINUOUS
  0
LAYER
  2
2
 70
     0
 62
     3
  6
CENTER
  0
LAYER
  2
1
 70
     0
 62
     4
  6
CONTINUOUS
  0
LAYER
  2
4
 70
     0
 62
     7
  6
CONTINUOUS
  0
LAYER
  2
DEFPOINTS
 70
     0
 62
     7
  6
CONTINUOUS
  0
ENDTAB
  0
TABLE
  2
STYLE
 70
     1
  0
STYLE
  2
STANDARD
 70
     0
 40
0.0
 41
1.0
 50
0.0
 71
     0
 42
180.0
  3
simplex.shx
  4
extfont.shx
  0
ENDTAB
  0
TABLE
  2
VIEW
 70
     0
  0
ENDTAB
  0
TABLE
  2
UCS
 70
     0
  0
ENDTAB
  0
TABLE
  2
APPID
 70
     1
  0
APPID
  2
ACAD
 70
     0
  0
ENDTAB
  0
TABLE
  2
DIMSTYLE
 70
     1
  0
DIMSTYLE
  2
IGA
 70
     0
  3

  4

  5

  6
OPEN
  7
OPEN
 40
2.0
 41
2.0
 42
0.5
 43
10.0
 44
1.0
 45
0.0
 46
0.0
 47
1.0
 48
1.0
140
3.0
141
0.0
142
0.0
143
0.03937
144
1.0
145
0.0
146
10.0
147
1.0
 71
     0
 72
     0
 73
     0
 74
     0
 75
     0
 76
     0
 77
     1
 78
     8
170
     0
171
     2
172
     0
173
     1
174
     0
175
     0
176
     0
177
     0
178
     0
  0
ENDTAB
  0
ENDSEC
  0
SECTION
  2
BLOCKS
  0
BLOCK
  8
0
  2
$MODEL_SPACE
 70
     0
 10
0.0
 20
0.0
 30
0.0
  3
$MODEL_SPACE
  1

  0
ENDBLK
  5
1B
  8
0
  0
BLOCK
 67
     1
  8
0
  2
$PAPER_SPACE
 70
     0
 10
0.0
 20
0.0
 30
0.0
  3
$PAPER_SPACE
  1

  0
ENDBLK
  5
18
 67
     1
  8
0
  0
BLOCK
  8
0
  2
_OPEN
 70
     0
 10
0.0
 20
0.0
 30
0.0
  3
_OPEN
  1

  0
LINE
  5
79FD
  8
0
  6
BYBLOCK
 62
     0
 10
-1.0
 20
0.1666666666666666
 30
0.0
 11
0.0
 21
0.0
 31
0.0
  0
LINE
  5
79FE
  8
0
  6
BYBLOCK
 62
     0
 10
0.0
 20
0.0
 30
0.0
 11
-1.0
 21
-0.1666666666666666
 31
0.0
  0
LINE
  5
79FF
  8
0
  6
BYBLOCK
 62
     0
 10
0.0
 20
0.0
 30
0.0
 11
-1.0
 21
0.0
 31
0.0
  0
ENDBLK
  5
7A01
  8
0
  0
BLOCK
  8
0
  2
*D1
 70
     1
 10
0.0
 20
0.0
 30
0.0
  3
*D1
  1

  0
LINE
  5
7F2C
  8
3
 62
     0
 10
2148.995635826735
 20
9371.3599351291105
 30
0.0
 11
2148.995635826735
 21
9621.9388581004023
 31
0.0
  0
LINE
  5
7F2D
  8
3
 62
     0
 10
4048.9956358268528
 20
9371.3599351291105
 30
0.0
 11
4048.9956358268528
 21
9621.9388581004023
 31
0.0
  0
LINE
  5
7F2E
  8
3
 62
     0
 10
2238.995635826735
 20
9576.9388581004023
 30
0.0
 11
3958.9956358268528
 21
9576.9388581004023
 31
0.0
  0
INSERT
  5
7F2F
  8
3
 62
     0
  2
_OPEN
 10
2148.995635826735
 20
9576.9388581004023
 30
0.0
 41
90.0
 42
90.0
 43
90.0
 50
180.0
  0
INSERT
  5
7F30
  8
3
 62
     0
  2
_OPEN
 10
4048.9956358268528
 20
9576.9388581004023
 30
0.0
 41
90.0
 42
90.0
 43
90.0
  0
TEXT
  8
3
  40
135
  5
7FE8
  62
0
  72
0
  71
0
 10
2829.33
 20
9450.49
 30
0.000000
  1
1900
  0
POINT
  5
7F32
  8
DEFPOINTS
 62
     0
 10
2148.995635826735
 20
9348.8599351291086
 30
0.0
  0
POINT
  5
7F33
  8
DEFPOINTS
 62
     0
 10
4048.9956358268528
 20
9348.8599351291086
 30
0.0
  0
POINT
  5
7F34
  8
DEFPOINTS
 62
     0
 10
4048.9956358268528
 20
9576.9388581004023
 30
0.0
  0
ENDBLK
  5
7BC1
  8
0
  0
BLOCK
  8
0
  2
*D2
 70
     1
 10
0.0
 20
0.0
 30
0.0
  3
*D2
  1

  0
LINE
  5
7F35
  8
3
 62
     0
 10
5248.9954595201734
 20
8871.3599351291105
 30
0.0
 11
5248.9954595201734
 21
9621.9388581004023
 31
0.0
  0
LINE
  5
7F36
  8
3
 62
     0
 10
4138.9956358268519
 20
9576.9388581004023
 30
0.0
 11
5158.9954595201734
 21
9576.9388581004023
 31
0.0
  0
INSERT
  5
7F37
  8
3
 62
     0
  2
_OPEN
 10
4048.9956358268528
 20
9576.9388581004023
 30
0.0
 41
90.0
 42
90.0
 43
90.0
 50
180.0
  0
INSERT
  5
7F38
  8
3
 62
     0
  2
_OPEN
 10
5248.9954595201734
 20
9576.9388581004023
 30
0.0
 41
90.0
 42
90.0
 43
90.0
  0
TEXT
  8
3
  40
135
  5
7FE9
  62
0
  72
0
  71
0
 10
4379.00
 20
9450.49
 30
0.000000
  1
1200
  0
POINT
  5
7F3A
  8
DEFPOINTS
 62
     0
 10
4048.9956358268528
 20
9348.8599351291086
 30
0.0
  0
POINT
  5
7F3B
  8
DEFPOINTS
 62
     0
 10
5248.9954595201734
 20
8848.8599351291086
 30
0.0
  0
POINT
  5
7F3C
  8
DEFPOINTS
 62
     0
 10
5248.9954595201734
 20
9576.9388581004023
 30
0.0
  0
ENDBLK
  5
7BCD
  8
0
  0
BLOCK
  8
0
  2
*D3
 70
     1
 10
0.0
 20
0.0
 30
0.0
  3
*D3
  1

  0
LINE
  5
7F3D
  8
3
 62
     0
 10
5271.4954595201734
 20
8848.8599351291086
 30
0.0
 11
5687.7706179189991
 21
8848.8599351291086
 31
0.0
  0
LINE
  5
7F3E
  8
3
 62
     0
 10
5271.4950716452786
 20
7748.8599351291077
 30
0.0
 11
5687.7706179189991
 21
7748.8599351291077
 31
0.0
  0
LINE
  5
7F3F
  8
3
 62
     0
 10
5642.770617919
 20
8758.8599351291086
 30
0.0
 11
5642.770617919
 21
7838.8599351291086
 31
0.0
  0
INSERT
  5
7F40
  8
3
 62
     0
  2
_OPEN
 10
5642.770617919
 20
8848.8599351291086
 30
0.0
 41
90.0
 42
90.0
 43
90.0
 50
90.0
  0
INSERT
  5
7F41
  8
3
 62
     0
  2
_OPEN
 10
5642.770617919
 20
7748.8599351291077
 30
0.0
 41
90.0
 42
90.0
 43
90.0
 50
270.0
  0
TEXT
  8
3
  40
135
  5
7FEA
  62
0
  72
0
  71
0
 10
5260.27
 20
8056.40
 30
0.000000
  1
1100
  0
POINT
  5
7F43
  8
DEFPOINTS
 62
     0
 10
5248.9954595201734
 20
8848.8599351291086
 30
0.0
  0
POINT
  5
7F44
  8
DEFPOINTS
 62
     0
 10
5248.9950716452786
 20
7748.8599351291077
 30
0.0
  0
POINT
  5
7F45
  8
DEFPOINTS
 62
     0
 10
5642.770617919
 20
7748.8599351291077
 30
0.0
  0
ENDBLK
  5
7BDA
  8
0
  0
BLOCK
  8
0
  2
*D4
 70
     1
 10
0.0
 20
0.0
 30
0.0
  3
*D4
  1

  0
LINE
  5
7F46
  8
3
 62
     0
 10
2126.495635826735
 20
9348.8599351291086
 30
0.0
 11
1778.9649412308579
 21
9348.8599351291086
 31
0.0
  0
LINE
  5
7F47
  8
3
 62
     0
 10
2126.4950716450739
 20
7748.8599351291077
 30
0.0
 11
1778.9649412308579
 21
7748.8599351291105
 31
0.0
  0
LINE
  5
7F48
  8
3
 62
     0
 10
1823.9649412308579
 20
9258.8599351291086
 30
0.0
 11
1823.9649412308579
 21
7838.8599351291086
 31
0.0
  0
INSERT
  5
7F49
  8
3
 62
     0
  2
_OPEN
 10
1823.9649412308579
 20
9348.8599351291086
 30
0.0
 41
90.0
 42
90.0
 43
90.0
 50
90.0
  0
INSERT
  5
7F4A
  8
3
 62
     0
  2
_OPEN
 10
1823.9649412308579
 20
7748.8599351291105
 30
0.0
 41
90.0
 42
90.0
 43
90.0
 50
270.0
  0
TEXT
  8
3
  40
135
  5
7FEB
  62
0
  72
0
  71
0
 10
1441.46
 20
8303.98
 30
0.000000
  1
1600
  0
POINT
  5
7F4C
  8
DEFPOINTS
 62
     0
 10
2148.995635826735
 20
9348.8599351291086
 30
0.0
  0
POINT
  5
7F4D
  8
DEFPOINTS
 62
     0
 10
2148.9950716450739
 20
7748.8599351291077
 30
0.0
  0
POINT
  5
7F4E
  8
DEFPOINTS
 62
     0
 10
1823.9649412308579
 20
7748.8599351291105
 30
0.0
  0
ENDBLK
  5
7BE7
  8
0
  0
BLOCK
  8
0
  2
*D5
 70
     1
 10
0.0
 20
0.0
 30
0.0
  3
*D5
  1

  0
LINE
  5
7F4F
  8
3
 62
     0
 10
2148.9950716450739
 20
7726.3599351291086
 30
0.0
 11
2148.9950716450739
 21
7274.5861457622013
 31
0.0
  0
LINE
  5
7F50
  8
3
 62
     0
 10
5248.9950716452786
 20
7726.3599351291086
 30
0.0
 11
5248.9950716452786
 21
7274.5861457622013
 31
0.0
  0
LINE
  5
7F51
  8
3
 62
     0
 10
2238.9950716450739
 20
7319.5861457622013
 30
0.0
 11
5158.9950716452786
 21
7319.5861457622013
 31
0.0
  0
INSERT
  5
7F52
  8
3
 62
     0
  2
_OPEN
 10
2148.9950716450739
 20
7319.5861457622013
 30
0.0
 41
90.0
 42
90.0
 43
90.0
 50
180.0
  0
INSERT
  5
7F53
  8
3
 62
     0
  2
_OPEN
 10
5248.9950716452786
 20
7319.5861457622013
 30
0.0
 41
90.0
 42
90.0
 43
90.0
  0
TEXT
  8
3
  40
135
  5
7FEC
  62
0
  72
0
  71
0
 10
3361.34
 20
7193.14
 30
0.000000
  1
3100
  0
POINT
  5
7F55
  8
DEFPOINTS
 62
     0
 10
2148.9950716450739
 20
7748.8599351291077
 30
0.0
  0
POINT
  5
7F56
  8
DEFPOINTS
 62
     0
 10
5248.9950716452786
 20
7748.8599351291077
 30
0.0
  0
POINT
  5
7F57
  8
DEFPOINTS
 62
     0
 10
5248.9950716452786
 20
7319.5861457622013
 30
0.0
  0
ENDBLK
  5
7BF4
  8
0
  0
BLOCK
  8
0
  2
*D6
 70
     1
 10
0.0
 20
0.0
 30
0.0
  3
*D6
  1

  0
LINE
  5
7F58
  8
3
 62
     0
 10
2053.994818558363
 20
6091.0489307527123
 30
0.0
 11
2053.994818558363
 21
6426.5113420833441
 31
0.0
  0
LINE
  5
7F59
  8
3
 62
     0
 10
3098.9948151589379
 20
6051.2840723405352
 30
0.0
 11
3098.9948151589379
 21
6426.5113420833441
 31
0.0
  0
LINE
  5
7F5A
  8
3
 62
     0
 10
2143.994818558363
 20
6381.5113420833441
 30
0.0
 11
3008.9948151589379
 21
6381.5113420833441
 31
0.0
  0
INSERT
  5
7F5B
  8
3
 62
     0
  2
_OPEN
 10
2053.994818558363
 20
6381.5113420833441
 30
0.0
 41
90.0
 42
90.0
 43
90.0
 50
180.0
  0
INSERT
  5
7F5C
  8
3
 62
     0
  2
_OPEN
 10
3098.9948151589379
 20
6381.5113420833441
 30
0.0
 41
90.0
 42
90.0
 43
90.0
  0
TEXT
  8
3
  40
135
  5
7FED
  62
0
  72
0
  71
0
 10
2314.32
 20
6255.06
 30
0.000000
  1
1045
  0
POINT
  5
7F5E
  8
DEFPOINTS
 62
     0
 10
2053.994818558363
 20
6068.5489307527123
 30
0.0
  0
POINT
  5
7F5F
  8
DEFPOINTS
 62
     0
 10
3098.9948151589379
 20
6028.7840723405352
 30
0.0
  0
POINT
  5
7F60
  8
DEFPOINTS
 62
     0
 10
3098.9948151589379
 20
6381.5113420833441
 30
0.0
  0
ENDBLK
  5
7C01
  8
0
  0
BLOCK
  8
0
  2
*D7
 70
     1
 10
0.0
 20
0.0
 30
0.0
  3
*D7
  1

  0
LINE
  5
7F61
  8
3
 62
     0
 10
4469.9948185583607
 20
4447.0479307527094
 30
0.0
 11
4469.9948185583607
 21
6426.5113420833441
 31
0.0
  0
LINE
  5
7F62
  8
3
 62
     0
 10
3188.9948151589379
 20
6381.5113420833441
 30
0.0
 11
4379.9948185583607
 21
6381.5113420833441
 31
0.0
  0
INSERT
  5
7F63
  8
3
 62
     0
  2
_OPEN
 10
3098.9948151589379
 20
6381.5113420833441
 30
0.0
 41
90.0
 42
90.0
 43
90.0
 50
180.0
  0
INSERT
  5
7F64
  8
3
 62
     0
  2
_OPEN
 10
4469.9948185583607
 20
6381.5113420833441
 30
0.0
 41
90.0
 42
90.0
 43
90.0
  0
TEXT
  8
3
  40
135
  5
7FEE
  62
0
  72
0
  71
0
 10
3514.49
 20
6255.06
 30
0.000000
  1
1371
  0
POINT
  5
7F66
  8
DEFPOINTS
 62
     0
 10
3098.9948151589379
 20
6028.7840723405352
 30
0.0
  0
POINT
  5
7F67
  8
DEFPOINTS
 62
     0
 10
4469.9948185583607
 20
4424.5479307527094
 30
0.0
  0
POINT
  5
7F68
  8
DEFPOINTS
 62
     0
 10
4469.9948185583607
 20
6381.5113420833441
 30
0.0
  0
ENDBLK
  5
7C0E
  8
0
  0
BLOCK
  8
0
  2
*D8
 70
     1
 10
0.0
 20
0.0
 30
0.0
  3
*D8
  1

  0
LINE
  5
7F69
  8
3
 62
     0
 10
2031.494818558363
 20
6003.5489307527123
 30
0.0
 11
1674.4290496964679
 21
6003.5489307527123
 31
0.0
  0
LINE
  5
7F6A
  8
3
 62
     0
 10
2031.494818558361
 20
4353.5489307527123
 30
0.0
 11
1674.4290496964679
 21
4353.5489307527123
 31
0.0
  0
LINE
  5
7F6B
  8
3
 62
     0
 10
1719.4290496964691
 20
5913.5489307527123
 30
0.0
 11
1719.4290496964679
 21
4443.5489307527123
 31
0.0
  0
INSERT
  5
7F6C
  8
3
 62
     0
  2
_OPEN
 10
1719.4290496964691
 20
6003.5489307527123
 30
0.0
 41
90.0
 42
90.0
 43
90.0
 50
90.0
  0
INSERT
  5
7F6D
  8
3
 62
     0
  2
_OPEN
 10
1719.4290496964679
 20
4353.5489307527123
 30
0.0
 41
90.0
 42
90.0
 43
90.0
 50
270.0
  0
TEXT
  8
3
  40
135
  5
7FEF
  62
0
  72
0
  71
0
 10
1336.93
 20
4910.69
 30
0.000000
  1
1650
  0
POINT
  5
7F6F
  8
DEFPOINTS
 62
     0
 10
2053.994818558363
 20
6003.5489307527114
 30
0.0
  0
POINT
  5
7F70
  8
DEFPOINTS
 62
     0
 10
2053.9948185583612
 20
4353.5489307527114
 30
0.0
  0
POINT
  5
7F71
  8
DEFPOINTS
 62
     0
 10
1719.4290496964679
 20
4353.5489307527123
 30
0.0
  0
ENDBLK
  5
7C1B
  8
0
  0
BLOCK
  8
0
  2
*D9
 70
     1
 10
0.0
 20
0.0
 30
0.0
  3
*D9
  1

  0
LINE
  5
7F72
  8
3
 62
     0
 10
2031.494818558363
 20
6003.5489307527123
 30
0.0
 11
1408.9671499093829
 21
6003.5489307527123
 31
0.0
  0
LINE
  5
7F73
  8
3
 62
     0
 10
1936.8195923559831
 20
4308.5479307527094
 30
0.0
 11
1408.967149909382
 21
4308.5479307527094
 31
0.0
  0
LINE
  5
7F74
  8
3
 62
     0
 10
1453.9671499093829
 20
5913.5489307527123
 30
0.0
 11
1453.967149909382
 21
4398.5479307527094
 31
0.0
  0
INSERT
  5
7F75
  8
3
 62
     0
  2
_OPEN
 10
1453.9671499093829
 20
6003.5489307527123
 30
0.0
 41
90.0
 42
90.0
 43
90.0
 50
90.0
  0
INSERT
  5
7F76
  8
3
 62
     0
  2
_OPEN
 10
1453.967149909382
 20
4308.5479307527094
 30
0.0
 41
90.0
 42
90.0
 43
90.0
 50
270.0
  0
TEXT
  8
3
  40
135
  5
7FF0
  62
0
  72
0
  71
0
 10
1071.47
 20
4888.59
 30
0.000000
  1
1695
  0
POINT
  5
7F78
  8
DEFPOINTS
 62
     0
 10
2053.994818558363
 20
6003.5489307527114
 30
0.0
  0
POINT
  5
7F79
  8
DEFPOINTS
 62
     0
 10
1959.3195923559831
 20
4308.5479307527094
 30
0.0
  0
POINT
  5
7F7A
  8
DEFPOINTS
 62
     0
 10
1453.967149909382
 20
4308.5479307527094
 30
0.0
  0
ENDBLK
  5
7C28
  8
0
  0
BLOCK
  8
0
  2
*D10
 70
     1
 10
0.0
 20
0.0
 30
0.0
  3
*D10
  1

  0
LINE
  5
7F7B
  8
3
 62
     0
 10
2126.4947932076871
 20
3138.5479307526662
 30
0.0
 11
1408.967149909382
 21
3138.5479307526662
 31
0.0
  0
LINE
  5
7F7C
  8
3
 62
     0
 10
1453.967149909382
 20
4218.5479307527094
 30
0.0
 11
1453.967149909382
 21
3228.5479307526662
 31
0.0
  0
INSERT
  5
7F7D
  8
3
 62
     0
  2
_OPEN
 10
1453.967149909382
 20
4308.5479307527094
 30
0.0
 41
90.0
 42
90.0
 43
90.0
 50
90.0
  0
INSERT
  5
7F7E
  8
3
 62
     0
  2
_OPEN
 10
1453.967149909382
 20
3138.5479307526662
 30
0.0
 41
90.0
 42
90.0
 43
90.0
 50
270.0
  0
TEXT
  8
3
  40
135
  5
7FF1
  62
0
  72
0
  71
0
 10
1071.47
 20
3484.60
 30
0.000000
  1
1170
  0
POINT
  5
7F80
  8
DEFPOINTS
 62
     0
 10
1959.3195923559831
 20
4308.5479307527094
 30
0.0
  0
POINT
  5
7F81
  8
DEFPOINTS
 62
     0
 10
2148.9947932076871
 20
3138.5479307526662
 30
0.0
  0
POINT
  5
7F82
  8
DEFPOINTS
 62
     0
 10
1453.967149909382
 20
3138.5479307526662
 30
0.0
  0
ENDBLK
  5
7C34
  8
0
  0
BLOCK
  8
0
  2
*D11
 70
     1
 10
0.0
 20
0.0
 30
0.0
  3
*D11
  1

  0
LINE
  5
7E16
  8
0
  6
BYBLOCK
 62
     0
 10
2126.4947620877292
 20
2998.547930752658
 30
0.0
 11
1408.967149909382
 21
2998.547930752658
 31
0.0
  0
LINE
  5
7E17
  8
0
  6
BYBLOCK
 62
     0
 10
1453.967149909382
 20
3228.5479307526662
 30
0.0
 11
1453.967149909382
 21
3318.5479307526671
 31
0.0
  0
LINE
  5
7E18
  8
0
  6
BYBLOCK
 62
     0
 10
1453.967149909382
 20
2908.547930752658
 30
0.0
 11
1453.967149909382
 21
2818.547930752658
 31
0.0
  0
TEXT
  5
7E19
  8
3
 62
     0
 10
1283.6100070522391
 20
2967.7262428742501
 30
0.0
 40
135.0
  1
(140)
 50
90.0
  0
LINE
  5
7E1A
  8
0
  6
BYBLOCK
 62
     0
 10
1453.967149909382
 20
3138.5479307526662
 30
0.0
 11
1453.967149909382
 21
2998.547930752658
 31
0.0
  0
INSERT
  5
7E1B
  8
0
  6
BYBLOCK
 62
     0
  2
_OPEN
 10
1453.967149909382
 20
3138.5479307526662
 30
0.0
 41
90.0
 42
90.0
 43
90.0
 50
270.0
  0
INSERT
  5
7E1C
  8
0
  6
BYBLOCK
 62
     0
  2
_DOT
 10
1453.967149909382
 20
2998.547930752658
 30
0.0
 41
90.0
 42
90.0
 43
90.0
 50
90.0
  0
POINT
  5
7E1D
  8
DEFPOINTS
  6
BYBLOCK
 62
     0
 10
2148.9947932076871
 20
3138.5479307526662
 30
0.0
  0
POINT
  5
7E1E
  8
DEFPOINTS
  6
BYBLOCK
 62
     0
 10
2148.9947620877292
 20
2998.547930752658
 30
0.0
  0
POINT
  5
7E1F
  8
DEFPOINTS
  6
BYBLOCK
 62
     0
 10
1453.967149909382
 20
2998.547930752658
 30
0.0
  0
ENDBLK
  5
7E20
  8
0
  0
BLOCK
  8
0
  2
*D12
 70
     1
 10
0.0
 20
0.0
 30
0.0
  3
*D12
  1

  0
LINE
  5
7F83
  8
3
 62
     0
 10
2126.4947620877292
 20
2998.547930752658
 30
0.0
 11
1408.967149909382
 21
2998.547930752658
 31
0.0
  0
LINE
  5
7F84
  8
3
 62
     0
 10
2126.494760854197
 20
2923.5479307526539
 30
0.0
 11
1408.967149909382
 21
2923.5479307526539
 31
0.0
  0
LINE
  5
7F85
  8
3
 62
     0
 10
1453.967149909382
 20
3088.547930752658
 30
0.0
 11
1453.967149909382
 21
3178.547930752658
 31
0.0
  0
LINE
  5
7F86
  8
3
 62
     0
 10
1453.967149909382
 20
2833.5479307526539
 30
0.0
 11
1453.9671499093811
 21
2434.9765021812259
 31
0.0
  0
LINE
  5
7F87
  8
3
 62
     0
 10
1453.967149909382
 20
2998.547930752658
 30
0.0
 11
1453.967149909382
 21
2923.5479307526539
 31
0.0
  0
INSERT
  5
7F88
  8
3
 62
     0
  2
_DOT
 10
1453.967149909382
 20
2998.547930752658
 30
0.0
 41
90.0
 42
90.0
 43
90.0
 50
270.0
  0
INSERT
  5
7F89
  8
3
 62
     0
  2
_OPEN
 10
1453.967149909382
 20
2923.5479307526539
 30
0.0
 41
90.0
 42
90.0
 43
90.0
 50
90.0
  0
TEXT
  8
3
  40
135
  5
7FF2
  62
0
  72
0
  71
0
 10
1071.47
 20
2350.31
 30
0.000000
  1
75
  0
POINT
  5
7F8B
  8
DEFPOINTS
 62
     0
 10
2148.9947620877292
 20
2998.547930752658
 30
0.0
  0
POINT
  5
7F8C
  8
DEFPOINTS
 62
     0
 10
2148.994760854197
 20
2923.5479307526539
 30
0.0
  0
POINT
  5
7F8D
  8
DEFPOINTS
 62
     0
 10
1453.967149909382
 20
2923.5479307526539
 30
0.0
  0
ENDBLK
  5
7E08
  8
0
  0
BLOCK
  8
0
  2
_DOT
 70
     0
 10
0.0
 20
0.0
 30
0.0
  3
_DOT
  1

  0
LINE
  5
7D49
  8
0
  6
BYBLOCK
 62
     0
 10
0.0
 20
0.0
 30
0.0
 11
-1.0
 21
-0.0000000000000284
 31
0.0
  0
POLYLINE
  5
7D4A
  8
0
  6
BYBLOCK
 62
     0
 66
     1
 10
0.0
 20
0.0
 30
0.0
 70
     1
 40
0.1666666666666666
 41
0.1666666666666666
  0
VERTEX
  5
7FD3
  8
0
  6
BYBLOCK
 62
     0
 10
-0.0833333333333286
 20
-0.0000000000000284
 30
0.0
 42
1.0
  0
VERTEX
  5
7FD4
  8
0
  6
BYBLOCK
 62
     0
 10
0.0833333333333286
 20
-0.0000000000000284
 30
0.0
 42
1.0
  0
SEQEND
  5
7FD5
  8
0
  6
BYBLOCK
 62
     0
  0
ENDBLK
  5
7C8A
  8
0
  0
BLOCK
  8
0
  2
*D14
 70
     1
 10
0.0
 20
0.0
 30
0.0
  3
*D14
  1

  0
LINE
  5
7F8E
  8
3
 62
     0
 10
2148.994760854197
 20
2901.0479307526548
 30
0.0
 11
2148.994760854197
 21
2517.730386593812
 31
0.0
  0
LINE
  5
7F8F
  8
3
 62
     0
 10
3098.9947582481918
 20
2739.3039125076202
 30
0.0
 11
3098.9947582481918
 21
2517.730386593812
 31
0.0
  0
LINE
  5
7F90
  8
3
 62
     0
 10
2238.9947608541961
 20
2562.730386593812
 30
0.0
 11
3008.9947582481918
 21
2562.730386593812
 31
0.0
  0
INSERT
  5
7F91
  8
3
 62
     0
  2
_OPEN
 10
2148.994760854197
 20
2562.730386593812
 30
0.0
 41
90.0
 42
90.0
 43
90.0
 50
180.0
  0
INSERT
  5
7F92
  8
3
 62
     0
  2
_OPEN
 10
3098.9947582481918
 20
2562.730386593812
 30
0.0
 41
90.0
 42
90.0
 43
90.0
  0
TEXT
  8
3
  40
135
  5
7FF3
  62
0
  72
0
  71
0
 10
2323.24
 20
2436.28
 30
0.000000
  1
950
  0
POINT
  5
7F94
  8
DEFPOINTS
 62
     0
 10
2148.994760854197
 20
2923.5479307526539
 30
0.0
  0
POINT
  5
7F95
  8
DEFPOINTS
 62
     0
 10
3098.9947582481918
 20
2761.8039125076202
 30
0.0
  0
POINT
  5
7F96
  8
DEFPOINTS
 62
     0
 10
3098.9947582481918
 20
2562.730386593812
 30
0.0
  0
ENDBLK
  5
7CAF
  8
0
  0
BLOCK
  8
0
  2
*D15
 70
     1
 10
0.0
 20
0.0
 30
0.0
  3
*D15
  1

  0
LINE
  5
7F97
  8
3
 62
     0
 10
5248.9947608542034
 20
2901.0487049430799
 30
0.0
 11
5248.9947608542034
 21
2517.730386593812
 31
0.0
  0
LINE
  5
7F98
  8
3
 62
     0
 10
3188.9947582481918
 20
2562.730386593812
 30
0.0
 11
5158.9947608542034
 21
2562.730386593812
 31
0.0
  0
INSERT
  5
7F99
  8
3
 62
     0
  2
_OPEN
 10
3098.9947582481918
 20
2562.730386593812
 30
0.0
 41
90.0
 42
90.0
 43
90.0
 50
180.0
  0
INSERT
  5
7F9A
  8
3
 62
     0
  2
_OPEN
 10
5248.9947608542034
 20
2562.730386593812
 30
0.0
 41
90.0
 42
90.0
 43
90.0
  0
TEXT
  8
3
  40
135
  5
7FF4
  62
0
  72
0
  71
0
 10
3903.99
 20
2436.28
 30
0.000000
  1
2150
  0
POINT
  5
7F9C
  8
DEFPOINTS
 62
     0
 10
3098.9947582481918
 20
2761.8039125076202
 30
0.0
  0
POINT
  5
7F9D
  8
DEFPOINTS
 62
     0
 10
5248.9947608542034
 20
2923.5487049430799
 30
0.0
  0
POINT
  5
7F9E
  8
DEFPOINTS
 62
     0
 10
5248.9947608542034
 20
2562.730386593812
 30
0.0
  0
ENDBLK
  5
7CBB
  8
0
  0
BLOCK
  8
0
  2
*D16
 70
     1
 10
0.0
 20
0.0
 30
0.0
  3
*D16
  1

  0
LINE
  5
7F9F
  8
3
 62
     0
 10
6163.7076748482614
 20
2901.0459582264839
 30
0.0
 11
6163.7076748482614
 21
2528.782163248412
 31
0.0
  0
LINE
  5
7FA0
  8
3
 62
     0
 10
7094.7076764170961
 20
2829.733786392404
 30
0.0
 11
7094.7076764170961
 21
2528.782163248412
 31
0.0
  0
LINE
  5
7FA1
  8
3
 62
     0
 10
6253.7076748482614
 20
2573.782163248412
 30
0.0
 11
7004.707676417097
 21
2573.782163248412
 31
0.0
  0
INSERT
  5
7FA2
  8
3
 62
     0
  2
_OPEN
 10
6163.7076748482614
 20
2573.782163248412
 30
0.0
 41
90.0
 42
90.0
 43
90.0
 50
180.0
  0
INSERT
  5
7FA3
  8
3
 62
     0
  2
_OPEN
 10
7094.7076764170961
 20
2573.782163248412
 30
0.0
 41
90.0
 42
90.0
 43
90.0
  0
TEXT
  8
3
  40
135
  5
7FF5
  62
0
  72
0
  71
0
 10
6363.21
 20
2447.33
 30
0.000000
  1
931
  0
POINT
  5
7FA5
  8
DEFPOINTS
 62
     0
 10
6163.7076748482614
 20
2923.5459582264848
 30
0.0
  0
POINT
  5
7FA6
  8
DEFPOINTS
 62
     0
 10
7094.7076764170961
 20
2852.233786392404
 30
0.0
  0
POINT
  5
7FA7
  8
DEFPOINTS
 62
     0
 10
7094.7076764170961
 20
2573.782163248412
 30
0.0
  0
ENDBLK
  5
7CC8
  8
0
  0
BLOCK
  8
0
  2
*D17
 70
     1
 10
0.0
 20
0.0
 30
0.0
  3
*D17
  1

  0
LINE
  5
7FA8
  8
3
 62
     0
 10
7763.7076748482677
 20
2901.0456043108611
 30
0.0
 11
7763.7076748482677
 21
2528.782163248412
 31
0.0
  0
LINE
  5
7FA9
  8
3
 62
     0
 10
7184.7076764170961
 20
2573.782163248412
 30
0.0
 11
7673.7076748482687
 21
2573.782163248412
 31
0.0
  0
INSERT
  5
7FAA
  8
3
 62
     0
  2
_OPEN
 10
7094.7076764170961
 20
2573.782163248412
 30
0.0
 41
90.0
 42
90.0
 43
90.0
 50
180.0
  0
INSERT
  5
7FAB
  8
3
 62
     0
  2
_OPEN
 10
7763.7076748482677
 20
2573.782163248412
 30
0.0
 41
90.0
 42
90.0
 43
90.0
  0
TEXT
  8
3
  40
135
  5
7FF6
  62
0
  72
0
  71
0
 10
7159.21
 20
2447.33
 30
0.000000
  1
669
  0
POINT
  5
7FAD
  8
DEFPOINTS
 62
     0
 10
7094.7076764170961
 20
2852.233786392404
 30
0.0
  0
POINT
  5
7FAE
  8
DEFPOINTS
 62
     0
 10
7763.7076748482677
 20
2923.5456043108611
 30
0.0
  0
POINT
  5
7FAF
  8
DEFPOINTS
 62
     0
 10
7763.7076748482677
 20
2573.782163248412
 30
0.0
  0
ENDBLK
  5
7CD4
  8
0
  0
BLOCK
  8
0
  2
*D18
 70
     1
 10
0.0
 20
0.0
 30
0.0
  3
*D18
  1

  0
LINE
  5
7FB0
  8
3
 62
     0
 10
6504.7075220183988
 20
6026.0479582272146
 30
0.0
 11
6504.7075220183988
 21
6290.8163495194749
 31
0.0
  0
LINE
  5
7FB1
  8
3
 62
     0
 10
7684.7075220183988
 20
6026.0479582272137
 30
0.0
 11
7684.7075220183988
 21
6290.8163495194749
 31
0.0
  0
LINE
  5
7FB2
  8
3
 62
     0
 10
6594.7075220183997
 20
6245.8163495194758
 30
0.0
 11
7594.7075220183997
 21
6245.8163495194758
 31
0.0
  0
INSERT
  5
7FB3
  8
3
 62
     0
  2
_OPEN
 10
6504.7075220183988
 20
6245.8163495194758
 30
0.0
 41
90.0
 42
90.0
 43
90.0
 50
180.0
  0
INSERT
  5
7FB4
  8
3
 62
     0
  2
_OPEN
 10
7684.7075220183988
 20
6245.8163495194758
 30
0.0
 41
90.0
 42
90.0
 43
90.0
  0
TEXT
  8
3
  40
135
  5
7FF7
  62
0
  72
0
  71
0
 10
6824.80
 20
6119.37
 30
0.000000
  1
1180
  0
POINT
  5
7FB6
  8
DEFPOINTS
 62
     0
 10
6504.7075220183988
 20
6003.5479582272146
 30
0.0
  0
POINT
  5
7FB7
  8
DEFPOINTS
 62
     0
 10
7684.7075220183988
 20
6003.5479582272137
 30
0.0
  0
POINT
  5
7FB8
  8
DEFPOINTS
 62
     0
 10
7684.7075220183988
 20
6245.8163495194758
 30
0.0
  0
ENDBLK
  5
7CE1
  8
0
  0
BLOCK
  8
0
  2
*D19
 70
     1
 10
0.0
 20
0.0
 30
0.0
  3
*D19
  1

  0
LINE
  5
7FB9
  8
3
 62
     0
 10
7819.7115220183987
 20
5196.043958227212
 30
0.0
 11
7819.7115220183987
 21
6645.3998632488301
 31
0.0
  0
LINE
  5
7FBA
  8
3
 62
     0
 10
7094.7075337226233
 20
6466.3713075726828
 30
0.0
 11
7094.7075337226233
 21
6645.3998632488301
 31
0.0
  0
LINE
  5
7FBB
  8
3
 62
     0
 10
7729.7115220183978
 20
6600.3998632488292
 30
0.0
 11
7184.7075337226242
 21
6600.3998632488292
 31
0.0
  0
INSERT
  5
7FBC
  8
3
 62
     0
  2
_OPEN
 10
7819.7115220183987
 20
6600.3998632488292
 30
0.0
 41
90.0
 42
90.0
 43
90.0
  0
INSERT
  5
7FBD
  8
3
 62
     0
  2
_OPEN
 10
7094.7075337226233
 20
6600.3998632488292
 30
0.0
 41
90.0
 42
90.0
 43
90.0
 50
180.0
  0
TEXT
  8
3
  40
135
  5
7FF8
  62
0
  72
0
  71
0
 10
7188.12
 20
6473.95
 30
0.000000
  1
725
  0
POINT
  5
7FBF
  8
DEFPOINTS
 62
     0
 10
7819.7115220183987
 20
5173.543958227212
 30
0.0
  0
POINT
  5
7FC0
  8
DEFPOINTS
 62
     0
 10
7094.7075337226233
 20
6443.8713075726837
 30
0.0
  0
POINT
  5
7FC1
  8
DEFPOINTS
 62
     0
 10
7094.7075337226233
 20
6600.3998632488292
 30
0.0
  0
ENDBLK
  5
7DEC
  8
0
  0
BLOCK
  8
0
  2
*D20
 70
     1
 10
0.0
 20
0.0
 30
0.0
  3
*D20
  1

  0
LINE
  5
7FC2
  8
3
 62
     0
 10
6114.7075004250046
 20
4781.0479307527094
 30
0.0
 11
6114.7075004250046
 21
6645.3998632488301
 31
0.0
  0
LINE
  5
7FC3
  8
3
 62
     0
 10
7004.7075337226252
 20
6600.3998632488292
 30
0.0
 11
6204.7075004250046
 21
6600.3998632488292
 31
0.0
  0
INSERT
  5
7FC4
  8
3
 62
     0
  2
_OPEN
 10
7094.7075337226233
 20
6600.3998632488292
 30
0.0
 41
90.0
 42
90.0
 43
90.0
  0
INSERT
  5
7FC5
  8
3
 62
     0
  2
_OPEN
 10
6114.7075004250046
 20
6600.3998632488292
 30
0.0
 41
90.0
 42
90.0
 43
90.0
 50
180.0
  0
TEXT
  8
3
  40
135
  5
7FF9
  62
0
  72
0
  71
0
 10
6334.71
 20
6586.45
 30
0.000000
  1
MAX
  0
TEXT
  8
3
  40
135
  5
7FFA
  62
0
  72
0
  71
0
 10
6334.71
 20
6410.95
 30
0.000000
  1
1080
  0
POINT
  5
7FC7
  8
DEFPOINTS
 62
     0
 10
7094.7075337226233
 20
6443.8713075726837
 30
0.0
  0
POINT
  5
7FC8
  8
DEFPOINTS
 62
     0
 10
6114.7075004250046
 20
4758.5479307527094
 30
0.0
  0
POINT
  5
7FC9
  8
DEFPOINTS
 62
     0
 10
6114.7075004250046
 20
6600.3998632488292
 30
0.0
  0
ENDBLK
  5
7D48
  8
0
  0
BLOCK
  8
0
  2
*D21
 70
     1
 10
0.0
 20
0.0
 30
0.0
  3
*D21
  1

  0
LINE
  5
7FCA
  8
3
 62
     0
 10
7842.2115220183978
 20
5108.5479307527103
 30
0.0
 11
8202.1611522942494
 21
5108.5479307527103
 31
0.0
  0
LINE
  5
7FCB
  8
3
 62
     0
 10
7842.2115220183978
 20
3508.5479307527089
 30
0.0
 11
8202.1611522942476
 21
3508.5479307527089
 31
0.0
  0
LINE
  5
7FCC
  8
3
 62
     0
 10
8157.1611522942476
 20
5018.5479307527103
 30
0.0
 11
8157.1611522942476
 21
3598.5479307527089
 31
0.0
  0
INSERT
  5
7FCD
  8
3
 62
     0
  2
_OPEN
 10
8157.1611522942476
 20
5108.5479307527103
 30
0.0
 41
90.0
 42
90.0
 43
90.0
 50
90.0
  0
INSERT
  5
7FCE
  8
3
 62
     0
  2
_OPEN
 10
8157.1611522942476
 20
3508.5479307527089
 30
0.0
 41
90.0
 42
90.0
 43
90.0
 50
270.0
  0
TEXT
  8
3
  40
135
  5
7FFB
  62
0
  72
0
  71
0
 10
7774.66
 20
4070.94
 30
0.000000
  1
φ1600
  0
POINT
  5
7FD0
  8
DEFPOINTS
 62
     0
 10
7819.7115220183987
 20
5108.5479307527103
 30
0.0
  0
POINT
  5
7FD1
  8
DEFPOINTS
 62
     0
 10
7819.7115220183987
 20
3508.5479307527089
 30
0.0
  0
POINT
  5
7FD2
  8
DEFPOINTS
 62
     0
 10
8157.1611522942476
 20
3508.5479307527089
 30
0.0
  0
ENDBLK
  5
7D1D
  8
0
  0
BLOCK
  8
0
  2
*D22
 70
     1
 10
0.0
 20
0.0
 30
0.0
  3
*D22
  1

  0
LINE
  5
7FD6
  8
3
 62
     0
 10
2053.994818558363
 20
6026.0489307527114
 30
0.0
 11
2053.994818558363
 21
6724.6930466065596
 31
0.0
  0
LINE
  5
7FD7
  8
3
 62
     0
 10
5248.9947944412252
 20
3311.0487049430958
 30
0.0
 11
5248.9947944412252
 21
6724.6930466065596
 31
0.0
  0
LINE
  5
7FD8
  8
3
 62
     0
 10
2143.994818558363
 20
6679.6930466065596
 30
0.0
 11
5158.9947944412252
 21
6679.6930466065596
 31
0.0
  0
INSERT
  5
7FD9
  8
3
 62
     0
  2
_OPEN
 10
2053.994818558363
 20
6679.6930466065596
 30
0.0
 41
90.0
 42
90.0
 43
90.0
 50
180.0
  0
INSERT
  5
7FDA
  8
3
 62
     0
  2
_OPEN
 10
5248.9947944412252
 20
6679.6930466065596
 30
0.0
 41
90.0
 42
90.0
 43
90.0
  0
TEXT
  8
3
  40
135
  5
7FFC
  62
0
  72
0
  71
0
 10
3398.01
 20
6553.24
 30
0.000000
  1
3195
  0
POINT
  5
7FDC
  8
DEFPOINTS
 62
     0
 10
2053.994818558363
 20
6003.5489307527114
 30
0.0
  0
POINT
  5
7FDD
  8
DEFPOINTS
 62
     0
 10
5248.9947944412252
 20
3288.5487049430972
 30
0.0
  0
POINT
  5
7FDE
  8
DEFPOINTS
 62
     0
 10
5248.9947944412252
 20
6679.6930466065596
 30
0.0
  0
ENDBLK
  5
7D7E
  8
0
  0
BLOCK
  8
0
  2
*D23
 70
     1
 10
0.0
 20
0.0
 30
0.0
  3
*D23
  1

  0
LINE
  5
7FDF
  8
3
 62
     0
 10
2031.494818558363
 20
6068.5489307527123
 30
0.0
 11
1004.365187436787
 21
6068.5489307527123
 31
0.0
  0
LINE
  5
7FE0
  8
3
 62
     0
 10
2126.494760854197
 20
2923.5479307526539
 30
0.0
 11
1004.365187436786
 21
2923.5479307526548
 31
0.0
  0
LINE
  5
7FE1
  8
3
 62
     0
 10
1049.365187436787
 20
5978.5489307527123
 30
0.0
 11
1049.3651874367861
 21
3013.5479307526539
 31
0.0
  0
INSERT
  5
7FE2
  8
3
 62
     0
  2
_OPEN
 10
1049.365187436787
 20
6068.5489307527123
 30
0.0
 41
90.0
 42
90.0
 43
90.0
 50
90.0
  0
INSERT
  5
7FE3
  8
3
 62
     0
  2
_OPEN
 10
1049.3651874367861
 20
2923.5479307526539
 30
0.0
 41
90.0
 42
90.0
 43
90.0
 50
270.0
  0
TEXT
  8
3
  40
135
  5
7FFD
  62
0
  72
0
  71
0
 10
666.865
 20
4290.96
 30
0.000000
  1
3145
  0
POINT
  5
7FE5
  8
DEFPOINTS
 62
     0
 10
2053.994818558363
 20
6068.5489307527123
 30
0.0
  0
POINT
  5
7FE6
  8
DEFPOINTS
 62
     0
 10
2148.994760854197
 20
2923.5479307526539
 30
0.0
  0
POINT
  5
7FE7
  8
DEFPOINTS
 62
     0
 10
1049.3651874367861
 20
2923.5479307526539
 30
0.0
  0
ENDBLK
  5
7DFB
  8
0
  0
ENDSEC
  0
SECTION
  2
ENTITIES
  0
LINE
  5
7AE2
  8
1
 10
7763.7075934700661
 20
3138.5449582271658
 30
0.0
 11
6163.706522018404
 21
3138.545958227211
 31
0.0
1001
ACAD
1000
ASC_BOUNDS
1002
{
1070
    19
1002
}
  0
LINE
  5
7AE3
  8
1
 10
7763.7075901701101
 20
3288.545958227211
 30
0.0
 11
6163.706522018404
 21
3288.545958227211
 31
0.0
  0
LINE
  5
7AE4
  8
1
 10
6504.7065220184049
 20
3288.545958227211
 30
0.0
 11
6163.706522018404
 21
3288.545958227211
 31
0.0
  0
LINE
  5
7AE5
  8
1
 10
6501.506522018406
 20
3288.545958227211
 30
0.0
 11
6163.706522018404
 21
3288.545958227211
 31
0.0
  0
LINE
  5
7AE6
  8
2
 10
6063.7309031003842
 20
4308.5479307527094
 30
0.0
 11
7883.8235613357328
 21
4308.5479307527094
 31
0.0
  0
LINE
  5
7AE7
  8
1
 10
6164.7075220183988
 20
3998.6329663844308
 30
0.0
 11
6264.7075220183997
 21
3998.6329663844772
 31
0.0
  0
LINE
  5
7AE8
  8
1
 10
6164.7075220183988
 20
4604.8053273076894
 30
0.0
 11
6264.7075220183997
 21
4604.8053273077339
 31
0.0
  0
LINE
  5
7AE9
  8
1
 10
6114.7075004250046
 20
4758.5479307527094
 30
0.0
 11
6304.7075036057377
 21
4758.5479307527094
 31
0.0
  0
LINE
  5
7AEA
  8
1
 10
5248.9947608542052
 20
2923.5487049430799
 30
0.0
 11
2148.994760854197
 21
2923.5479307526539
 31
0.0
1001
ACAD
1000
ASC_BOUNDS
1002
{
1070
    19
1002
}
  0
LINE
  5
7AEB
  8
1
 10
5248.9947620877356
 20
2998.548704943084
 30
0.0
 11
2148.9947620877278
 21
2998.547930752658
 31
0.0
1001
ACAD
1000
ASC_BOUNDS
1002
{
1070
    19
1002
}
  0
LINE
  5
7AEC
  8
1
 10
5248.994793207693
 20
3138.5487049430931
 30
0.0
 11
2148.9947932076871
 21
3138.5479307526662
 31
0.0
1001
ACAD
1000
ASC_BOUNDS
1002
{
1070
    19
1005
0
1005
0
1002
}
  0
LINE
  5
7AED
  8
1
 10
5248.9947944412252
 20
3288.5487049430972
 30
0.0
 11
2148.9947944412188
 21
3288.5479307526712
 31
0.0
1001
ACAD
1000
ASC_BOUNDS
1002
{
1070
    19
1002
}
  0
ARC
  5
7AEE
  8
1
 10
3214.9958185583619
 20
4424.5479307527094
 30
0.0
 40
1255.0
 50
264.69699999999989
 51
354.69599999999991
  0
ARC
  5
7AEF
  8
1
 10
2982.9948185583621
 20
4424.5479307527094
 30
0.0
 40
1487.0
 50
355.5259999999999
 51
85.525999999999982
  0
LINE
  5
7AF0
  8
1
 10
5146.6862467894916
 20
3348.5487049434219
 30
0.0
 11
4999.865909674023
 21
3348.5487049434219
 31
0.0
  0
LINE
  5
7AF1
  8
1
 10
5248.994793207693
 20
3138.5487049430922
 30
0.0
 11
5248.9947944412252
 21
3288.5487049430972
 31
0.0
  0
LINE
  5
7AF2
  8
1
 10
5248.9947608542034
 20
2923.5487049430799
 30
0.0
 11
5248.9947620877356
 21
2998.548704943084
 31
0.0
  0
LINE
  5
7AF3
  8
1
 10
5146.6862467894916
 20
3348.5487049434219
 30
0.0
 11
5158.9951636753631
 21
3288.5486717635881
 31
0.0
  0
LINE
  5
7AF4
  8
1
 10
4798.1244176767032
 20
3333.1168547856792
 30
0.0
 11
4898.9951636753631
 21
3333.1168547856792
 31
0.0
  0
LINE
  5
7AF5
  8
1
 10
4999.865909674023
 20
3333.1168547856792
 30
0.0
 11
4898.9951636753631
 21
3333.1168547856792
 31
0.0
  0
LINE
  5
7AF6
  8
1
 10
4999.865909674023
 20
3348.5487049434219
 30
0.0
 11
4999.865909674023
 21
3333.1168547856792
 31
0.0
  0
LINE
  5
7AF7
  8
1
 10
4728.9951636753631
 20
3348.5487049434209
 30
0.0
 11
4708.9951636753631
 21
3348.5487049434209
 31
0.0
  0
LINE
  5
7AF8
  8
1
 10
4651.3040805612336
 20
3348.5487049434219
 30
0.0
 11
4798.1244176767032
 21
3348.5487049434219
 31
0.0
  0
LINE
  5
7AF9
  8
1
 10
4798.1244176767032
 20
3348.5487049434219
 30
0.0
 11
4798.1244176767032
 21
3333.1168547856792
 31
0.0
  0
LINE
  5
7AFA
  8
1
 10
4651.3040805612336
 20
3348.5487049434219
 30
0.0
 11
4638.9951636753631
 21
3288.5486717635881
 31
0.0
  0
LINE
  5
7AFC
  8
1
 10
6114.7064279545957
 20
3268.5487049434219
 30
0.0
 11
6114.7075004250046
 21
4758.5479307527094
 31
0.0
  0
LINE
  5
7AFD
  8
2
 10
3098.9947582481918
 20
2761.8039125076202
 30
0.0
 11
3098.9948151589379
 21
6028.7840723405352
 31
0.0
  0
ARC
  5
7AFE
  8
1
 10
3195.9958185583619
 20
4211.5479307527094
 30
0.0
 40
1042.0
 50
174.6579999999999
 51
264.65899999999988
  0
LINE
  5
7AFF
  8
1
 10
2148.9947932076871
 20
3138.5479307526662
 30
0.0
 11
2148.9947944412188
 21
3288.5479307526712
 31
0.0
  0
LINE
  5
7B00
  8
1
 10
2148.994760854197
 20
2923.5479307526539
 30
0.0
 11
2148.9947620877292
 21
2998.547930752658
 31
0.0
  0
LINE
  5
7B01
  8
1
 10
2148.9948185583598
 20
3288.5467049453841
 30
0.0
 11
2148.9948185583598
 21
3288.5479307526762
 31
0.0
  0
LINE
  5
7B02
  8
1
 10
2053.9948185583612
 20
4353.5489307527114
 30
0.0
 11
2053.994818558363
 21
6003.5489307527114
 31
0.0
  0
LINE
  5
7B03
  8
1
 10
2059.9948185583598
 20
4288.5489307527114
 30
0.0
 11
2059.994818558363
 21
6068.5489307527123
 31
0.0
  0
LINE
  5
7B04
  8
1
 10
2118.9948185583612
 20
4353.5489307527114
 30
0.0
 11
2118.994818558363
 21
5997.5445479775899
 31
0.0
  0
CIRCLE
  5
7B05
  8
1
 10
3098.9953999254221
 20
4308.5461516447076
 30
0.0
 40
300.0
  0
LINE
  5
7B06
  8
2
 10
4679.3159400797813
 20
4308.5479307527094
 30
0.0
 11
1959.3195923559831
 21
4308.5479307527094
 31
0.0
  0
ARC
  5
7B07
  8
1
 10
3001.9948185583612
 20
4211.5479307527094
 30
0.0
 40
848.0
 50
144.11999999999989
 51
173.43099999999981
  0
LINE
  5
7B08
  8
1
 10
2053.9948185583612
 20
4288.5489307527114
 30
0.0
 11
2053.9948185583612
 21
4353.5489307527114
 31
0.0
  0
LINE
  5
7B09
  8
1
 10
2053.9948185583612
 20
4288.5489307527114
 30
0.0
 11
2059.9948185583589
 21
4288.5489307527114
 31
0.0
  0
LINE
  5
7B0A
  8
1
 10
2165.9686730347898
 20
4353.5489307527114
 30
0.0
 11
2053.9948185583612
 21
4353.5489307527114
 31
0.0
  0
LINE
  5
7B0B
  8
1
 10
2053.9948185583612
 20
4353.5489307527114
 30
0.0
 11
2118.9948185583612
 21
4353.5489307527114
 31
0.0
  0
CIRCLE
  5
7B0C
  8
1
 10
2293.324813256826
 20
4714.4345233594713
 30
0.0
 40
22.270700527454458
  0
LINE
  5
7B0D
  8
1
 10
3098.994818558363
 20
5907.0169307527103
 30
0.0
 11
2053.994818558363
 21
6003.5489307527114
 31
0.0
  0
LINE
  5
7B0E
  8
1
 10
4048.9959062682478
 20
5484.1410609531831
 30
0.0
 11
4039.9960199931002
 21
5484.1410609531831
 31
0.0
  0
LINE
  5
7B0F
  8
1
 10
2053.994818558363
 20
6068.5489307527123
 30
0.0
 11
2059.994818558363
 21
6068.5489307527123
 31
0.0
  0
LINE
  5
7B10
  8
1
 10
2053.994818558363
 20
6003.5489307527114
 30
0.0
 11
2053.994818558363
 21
6068.5489307527123
 31
0.0
  0
LINE
  5
7B11
  8
1
 10
6164.7075220183988
 20
3408.5487049434219
 30
0.0
 11
6164.7075220183988
 21
4604.8053273076894
 31
0.0
  0
LINE
  5
7B12
  8
1
 10
4469.9948185583607
 20
8848.8599351291086
 30
0.0
 11
5248.9954595201707
 21
8848.8599351291086
 31
0.0
  0
LINE
  5
7B13
  8
1
 10
2148.9950716450739
 20
7748.8599351291077
 30
0.0
 11
5248.9950716452786
 21
7748.8599351291077
 31
0.0
  0
LINE
  5
7B14
  8
1
 10
5248.9954595201734
 20
8848.8599351291086
 30
0.0
 11
5248.9950716452786
 21
7748.8599351291077
 31
0.0
  0
LINE
  5
7B15
  8
1
 10
2148.9956358267782
 20
9348.8600606703712
 30
0.0
 11
2148.9956079699118
 21
9269.8589344127868
 31
0.0
  0
LINE
  5
7B16
  8
1
 10
4048.9956358268528
 20
9348.8599351291086
 30
0.0
 11
2148.9956358267341
 21
9348.8599351291086
 31
0.0
  0
LINE
  5
7B17
  8
2
 10
3098.9948185583612
 20
7592.6282381144301
 30
0.0
 11
3098.9948185583612
 21
9448.7449717716554
 31
0.0
  0
LINE
  5
7B18
  8
1
 10
4048.9956358268528
 20
9348.8599351291086
 30
0.0
 11
4048.9956079700601
 21
9269.8590184891782
 31
0.0
  0
LINE
  5
7B19
  8
1
 10
7819.7115220183987
 20
3443.5449582272122
 30
0.0
 11
7819.7115220183987
 21
5173.543958227212
 31
0.0
  0
LINE
  5
7B1A
  8
1
 10
7813.7115220183978
 20
5173.543958227212
 30
0.0
 11
7813.7115220183978
 21
3443.5449582272122
 31
0.0
  0
LINE
  5
7B1B
  8
1
 10
7693.9065220184011
 20
3443.5449582272122
 30
0.0
 11
7693.9065220184011
 21
5173.543958227212
 31
0.0
  0
LINE
  5
7B1D
  8
1
 10
6504.7065220184049
 20
3288.545958227211
 30
0.0
 11
6504.706546893588
 21
3338.5487049434232
 31
0.0
  0
LINE
  5
7B1E
  8
2
 10
7094.7075423732886
 20
6228.8610937979493
 30
0.0
 11
7094.7076764170961
 21
2852.233786392404
 31
0.0
  0
LINE
  5
7B1F
  8
1
 10
6163.7076748482577
 20
2923.5459582264848
 30
0.0
 11
7763.7076748482677
 21
2923.5456043108611
 31
0.0
1001
ACAD
1000
ASC_BOUNDS
1002
{
1070
    19
1002
}
  0
LINE
  5
7B20
  8
1
 10
6163.7076715483236
 20
2998.5459582264889
 30
0.0
 11
7763.7076715483354
 21
2998.5456043108661
 31
0.0
1001
ACAD
1000
ASC_BOUNDS
1002
{
1070
    19
1002
}
  0
LINE
  5
7B21
  8
1
 10
6304.7064483679223
 20
3268.5487049434219
 30
0.0
 11
6304.7065172506873
 21
3380.780425263521
 31
0.0
  0
LINE
  5
7B22
  8
1
 10
7752.9065220184029
 20
3508.5479307527089
 30
0.0
 11
7819.7115220183987
 21
3508.5479307527089
 31
0.0
  0
LINE
  5
7B24
  8
1
 10
7687.9065220184011
 20
3508.5449582272122
 30
0.0
 11
7752.9065220184029
 21
3508.5449582272122
 31
0.0
  0
LINE
  5
7B2D
  8
1
 10
7687.9065220184011
 20
3443.5449582272122
 30
0.0
 11
7693.9065220184011
 21
3443.5449582272122
 31
0.0
  0
LINE
  5
7B2F
  8
1
 10
7687.9065220184011
 20
3508.5449582272122
 30
0.0
 11
7687.9065220184011
 21
3443.5449582272122
 31
0.0
  0
LINE
  5
7B33
  8
1
 10
7819.7115220183987
 20
3443.5449582272122
 30
0.0
 11
7813.7115220183978
 21
3443.5449582272122
 31
0.0
  0
LINE
  5
7B35
  8
1
 10
7819.7115220183987
 20
3443.5449582272122
 30
0.0
 11
7819.7115220183987
 21
3508.5449582272122
 31
0.0
  0
LINE
  5
7B36
  8
1
 10
6504.7075220184042
 20
4308.5479307527094
 30
0.0
 11
6504.7075220183988
 21
6003.5479582272137
 31
0.0
  0
LINE
  5
7B37
  8
1
 10
7684.7075220184051
 20
3288.545958227211
 30
0.0
 11
7684.7075220183988
 21
6003.5479582272137
 31
0.0
  0
LINE
  5
7B38
  8
1
 10
7752.9065220184029
 20
6070.8479582272139
 30
0.0
 11
7752.9065220184029
 21
5108.5479307527103
 31
0.0
  0
LINE
  5
7B39
  8
1
 10
6436.5075220184008
 20
6070.8479582272112
 30
0.0
 11
6436.5075220184008
 21
4358.543958227212
 31
0.0
  0
LINE
  5
7B3A
  8
1
 10
6264.7075220183997
 20
4604.8053273077339
 30
0.0
 11
6264.7075220183997
 21
3408.5487049434219
 31
0.0
  0
LINE
  5
7B3B
  8
1
 10
6264.7075220183997
 20
4258.5459582272124
 30
0.0
 11
6504.7070045704713
 21
4258.5459582272124
 31
0.0
  0
LINE
  5
7B3C
  8
1
 10
6264.7075220183997
 20
4358.543958227212
 30
0.0
 11
6504.7075220184042
 21
4358.543958227212
 31
0.0
  0
LINE
  5
7B3D
  8
1
 10
6304.707390597714
 20
4574.4222620996643
 30
0.0
 11
6304.7075036057377
 21
4758.5479307527094
 31
0.0
  0
LINE
  5
7B3E
  8
1
 10
7752.9065220184029
 20
5108.5479307527103
 30
0.0
 11
7819.7115220183987
 21
5108.5479307527103
 31
0.0
  0
LINE
  5
7B41
  8
1
 10
7687.9065220184011
 20
5108.543958227212
 30
0.0
 11
7752.9065220184029
 21
5108.543958227212
 31
0.0
  0
LINE
  5
7B43
  8
1
 10
7687.9065220184011
 20
5108.543958227212
 30
0.0
 11
7687.9065220184011
 21
5173.543958227212
 31
0.0
  0
LINE
  5
7B44
  8
1
 10
7687.9065220184011
 20
5173.543958227212
 30
0.0
 11
7693.9065220184011
 21
5173.543958227212
 31
0.0
  0
LINE
  5
7B4D
  8
1
 10
7819.7115220183987
 20
5173.543958227212
 30
0.0
 11
7819.7115220183987
 21
5108.543958227212
 31
0.0
  0
LINE
  5
7B4E
  8
1
 10
7819.7115220183987
 20
5173.543958227212
 30
0.0
 11
7813.7115220183978
 21
5173.543958227212
 31
0.0
  0
LINE
  5
7B52
  8
1
 10
7752.9065220184029
 20
6070.8479582272139
 30
0.0
 11
6436.5075220184008
 21
6070.8479582272112
 31
0.0
  0
LINE
  5
7B53
  8
1
 10
7684.7075220184006
 20
6003.5479582272137
 30
0.0
 11
6504.7075220183988
 21
6003.5479582272146
 31
0.0
  0
LINE
  5
7B54
  8
1
 10
4796.1655328855268
 20
3352.929004934384
 30
0.0
 11
5001.8247944652003
 21
3352.929004934384
 31
0.0
  0
LINE
  5
7B55
  8
2
 10
4604.697066627712
 20
3548.5487049434232
 30
0.0
 11
5214.0439420695548
 21
3548.5487049434232
 31
0.0
  0
ARC
  5
7B56
  8
1
 10
4898.9951636753631
 20
3548.5487049434232
 30
0.0
 40
221.0
 50
297.7291503578308
 51
242.27084964216911
  0
LINE
  5
7B57
  8
1
 10
4709.9951636753631
 20
3348.5487049434219
 30
0.0
 11
4789.9951636753631
 21
3348.5487049434219
 31
0.0
  0
LINE
  5
7B58
  8
1
 10
4709.9951636753631
 20
3368.5487049434219
 30
0.0
 11
4770.7727007447202
 21
3368.5487049434219
 31
0.0
  0
LINE
  5
7B59
  8
1
 10
4739.9951636753631
 20
3328.0487049434219
 30
0.0
 11
4739.9951636753631
 21
3398.2443157026851
 31
0.0
  0
LINE
  5
7B5A
  8
1
 10
4709.9951636753631
 20
3348.5487049434219
 30
0.0
 11
4709.9951636753631
 21
3402.5600419570819
 31
0.0
  0
LINE
  5
7B5B
  8
1
 10
4709.9951636753631
 20
3402.5600419570819
 30
0.0
 11
4721.8900597338261
 21
3416.35648823662
 31
0.0
  0
LINE
  5
7B5C
  8
1
 10
4789.9951636753631
 20
3357.6774083485898
 30
0.0
 11
4789.9951636753631
 21
3348.5487049434219
 31
0.0
  0
LINE
  5
7B5D
  8
2
 10
4898.9951636753631
 20
3206.8223702906762
 30
0.0
 11
4898.9951636753631
 21
3849.1095917076732
 31
0.0
  0
LINE
  5
7B5E
  8
1
 10
5087.9951636753631
 20
3368.5487049434219
 30
0.0
 11
5027.2176266060069
 21
3368.5487049434232
 31
0.0
  0
LINE
  5
7B5F
  8
1
 10
5087.9951636753631
 20
3348.5487049434219
 30
0.0
 11
5007.995163675364
 21
3348.5487049434219
 31
0.0
  0
LINE
  5
7B60
  8
1
 10
5057.9951636753631
 20
3328.0487049434219
 30
0.0
 11
5057.9951636753631
 21
3398.2443157026851
 31
0.0
  0
LINE
  5
7B61
  8
1
 10
5007.995163675364
 20
3357.6774083485898
 30
0.0
 11
5007.995163675364
 21
3348.5487049434219
 31
0.0
  0
LINE
  5
7B62
  8
1
 10
5087.9951636753631
 20
3348.5487049434219
 30
0.0
 11
5087.9951636753631
 21
3402.5600419570819
 31
0.0
  0
LINE
  5
7B63
  8
1
 10
5087.9951636753631
 20
3402.5600419570819
 30
0.0
 11
5076.1002676168973
 21
3416.3564882366231
 31
0.0
  0
LINE
  5
7B64
  8
1
 10
5119.9538515832028
 20
3552.821670897652
 30
0.0
 11
5130.1187493249072
 21
3552.821670897652
 31
0.0
  0
CIRCLE
  5
7B65
  8
1
 10
4898.9951636753631
 20
3548.5487049434232
 30
0.0
 40
140.0
  0
ARC
  5
7B66
  8
1
 10
4898.9951636753631
 20
3548.5487049434232
 30
0.0
 40
280.0
 50
252.9846024401657
 51
61.23429649351511
  0
ARC
  5
7B67
  8
1
 10
3098.996898823124
 20
4308.5479307527094
 30
0.0
 40
480.0
 50
61.234296493515131
 51
252.98460244016579
  0
LINE
  5
7B68
  8
1
 10
3329.9868391137111
 20
4729.3134800608141
 30
0.0
 11
5033.7392955115392
 21
3793.99527537315
 31
0.0
  0
LINE
  5
7B69
  8
1
 10
3237.926824617999
 20
4574.4372181228646
 30
0.0
 11
4963.8298285318988
 21
3672.631202633228
 31
0.0
  0
LINE
  5
7B6A
  8
1
 10
3005.3280656266511
 20
4023.5436420323158
 30
0.0
 11
4855.2837410026023
 21
3415.547533790972
 31
0.0
  0
LINE
  5
7B6B
  8
1
 10
2958.535127766932
 20
3849.5593787475882
 30
0.0
 11
4817.0591305592507
 21
3280.8053829404339
 31
0.0
  0
LINE
  5
7B6C
  8
1
 10
6164.7065220184004
 20
3688.5487049434219
 30
0.0
 11
6264.7065220184004
 21
3688.5487049434219
 31
0.0
  0
LINE
  5
7B6D
  8
1
 10
6164.7065220184013
 20
3408.5487049434219
 30
0.0
 11
6264.7075220183997
 21
3408.5487049434219
 31
0.0
  0
LINE
  5
7B6E
  8
1
 10
7684.7075220183988
 20
4353.5479582272128
 30
0.0
 11
6504.7075220183979
 21
4353.5479582272137
 31
0.0
  0
LINE
  5
7B6F
  8
1
 10
7763.7075901701101
 20
3288.545958227211
 30
0.0
 11
7763.707593470067
 21
3138.5449582271658
 31
0.0
  0
LINE
  5
7B70
  8
1
 10
6163.7075901701091
 20
3288.545958227211
 30
0.0
 11
6163.707593470046
 21
3138.5459582265421
 31
0.0
  0
LINE
  5
7B71
  8
1
 10
6163.7076715483254
 20
2998.5459582264889
 30
0.0
 11
6163.7076748482614
 21
2923.5459582264848
 31
0.0
  0
LINE
  5
7B72
  8
1
 10
7763.7076715483299
 20
2998.5456043108661
 30
0.0
 11
7763.7076748482677
 21
2923.5456043108611
 31
0.0
  0
LINE
  5
7B73
  8
1
 10
6114.7064279545957
 20
3268.5487049434219
 30
0.0
 11
6304.7064483679223
 21
3268.5487049434219
 31
0.0
  0
LINE
  5
7B74
  8
1
 10
7687.9065220184011
 20
5108.543958227212
 30
0.0
 11
7687.9065220184011
 21
3508.5449582272122
 31
0.0
  0
LINE
  5
7B75
  8
1
 10
7684.7075220183988
 20
6003.5479582272137
 30
0.0
 11
6504.7075220184042
 21
4358.543958227212
 31
0.0
  0
LINE
  5
7B76
  8
1
 10
6504.7075220183988
 20
6003.5479582272146
 30
0.0
 11
7684.7075220184042
 21
4353.5479582272128
 31
0.0
  0
LINE
  5
7B77
  8
2
 10
1964.998123190838
 20
8679.8589262707665
 30
0.0
 11
4623.8647477119857
 21
8679.8590439275558
 31
0.0
  0
LINE
  5
7B78
  8
1
 10
5178.9951636753631
 20
7699.85779044013
 30
0.0
 11
5178.9951636753631
 21
7889.8578108534557
 31
0.0
  0
LINE
  5
7B79
  8
1
 10
5038.9951636753622
 20
7749.8578845039356
 30
0.0
 11
5038.9951636753622
 21
7849.8578845039356
 31
0.0
  0
LINE
  5
7B7A
  8
1
 10
4758.9951636753631
 20
7749.8578845039356
 30
0.0
 11
4758.9951636753631
 21
7849.8578845039328
 31
0.0
  0
LINE
  5
7B7B
  8
1
 10
2648.9948185583621
 20
7699.8588629105398
 30
0.0
 11
2648.9948185583621
 21
7889.8588660912719
 31
0.0
  0
LINE
  5
7B7C
  8
1
 10
2802.737422003383
 20
7749.858884503933
 30
0.0
 11
2802.7374220033362
 21
7849.858884503934
 31
0.0
  0
LINE
  5
7B7D
  8
1
 10
3408.9097829266389
 20
7749.858884503933
 30
0.0
 11
3408.9097829265938
 21
7849.858884503934
 31
0.0
  0
LINE
  5
7B7E
  8
1
 10
3408.9097829266389
 20
7749.858884503933
 30
0.0
 11
2802.737422003383
 21
7749.858884503933
 31
0.0
  0
LINE
  5
7B7F
  8
1
 10
5178.9951636753631
 20
7699.85779044013
 30
0.0
 11
2648.9948185583621
 21
7699.8588629105398
 31
0.0
  0
LINE
  5
7B80
  8
1
 10
5038.9951636753622
 20
7749.8578845039356
 30
0.0
 11
3408.9097829266389
 21
7749.8578845039356
 31
0.0
  0
LINE
  5
7B81
  8
1
 10
2802.7374220033362
 20
7849.858884503934
 30
0.0
 11
3408.9097829265938
 21
7849.858884503934
 31
0.0
  0
LINE
  5
7B82
  8
1
 10
5038.9951636753622
 20
7849.8578845039356
 30
0.0
 11
3408.9097829265938
 21
7849.8578845039347
 31
0.0
  0
LINE
  5
7B83
  8
1
 10
3148.9967910838582
 20
7849.858884503934
 30
0.0
 11
3148.9967910838582
 21
8089.8583670560056
 31
0.0
  0
LINE
  5
7B84
  8
1
 10
5178.9951636753631
 20
7889.8573132912688
 30
0.0
 11
2648.9948185583621
 21
7889.8588660912719
 31
0.0
  0
LINE
  5
7B85
  8
1
 10
3048.9987910838581
 20
7849.858884503934
 30
0.0
 11
3048.9987910838581
 21
8089.8588845039376
 31
0.0
  0
LINE
  5
7B86
  8
1
 10
2053.9948185583612
 20
9269.8589302089331
 30
0.0
 11
4469.9948185583607
 21
9269.8590371187038
 31
0.0
  0
LINE
  5
7B87
  8
1
 10
2053.9948185583612
 20
8089.8589302089313
 30
0.0
 11
4469.9948185583607
 21
8089.8590371186983
 31
0.0
  0
LINE
  5
7B88
  8
1
 10
2053.9948185583612
 20
8024.8589302089331
 30
0.0
 11
2053.9948185583612
 21
9334.8589302089349
 31
0.0
  0
LINE
  5
7B89
  8
1
 10
4469.9948185583626
 20
8089.8590371186983
 30
0.0
 11
4469.9948185583607
 21
9269.8590371186965
 31
0.0
  0
LINE
  5
7B8A
  8
1
 10
2148.9951918859369
 20
8089.8589344127677
 30
0.0
 11
2148.9950716450739
 21
7748.8599351291077
 31
0.0
  0
LINE
  5
7B8B
  8
1
 10
2118.9948185583612
 20
8089.8589330852292
 30
0.0
 11
2118.9948185583612
 21
9269.8589330852283
 31
0.0
  0
LINE
  5
7B8C
  8
2
 10
4898.9951636753631
 20
7592.7214835772565
 30
0.0
 11
4898.9951636753631
 21
8645.7171886097767
 31
0.0
  0
LINE
  5
7B8D
  8
1
 10
5108.9951636753631
 20
8592.9749859249605
 30
0.0
 11
4698.9951636753631
 21
8592.9749859249605
 31
0.0
  0
LINE
  5
7B8E
  8
1
 10
4820.9951636753622
 20
7943.4749859249614
 30
0.0
 11
4898.9951636753631
 21
7943.4749859249614
 31
0.0
  0
LINE
  5
7B8F
  8
1
 10
4698.9951636753631
 20
7954.9749859249596
 30
0.0
 11
4698.9951636753631
 21
8592.9749859249605
 31
0.0
  0
LINE
  5
7B90
  8
1
 10
4818.995163675364
 20
7955.628061924961
 30
0.0
 11
4818.995163675364
 21
7945.4749859249596
 31
0.0
  0
ARC
  5
7B91
  8
1
 10
4815.9951636753631
 20
7955.628061924961
 30
0.0
 40
3.0
 50
0.0
 51
87.000443000000004
  0
ARC
  5
7B92
  8
1
 10
4820.9951636753622
 20
7945.4749859249596
 30
0.0
 40
2.0
 50
180.0
 51
270.0
  0
LINE
  5
7B93
  8
1
 10
5108.9951636753631
 20
8592.9749859249605
 30
0.0
 11
5108.9951636753631
 21
7954.9749859249623
 31
0.0
  0
LINE
  5
7B94
  8
1
 10
5108.9951636753631
 20
7954.9749859249623
 30
0.0
 11
4698.9951636753631
 21
7954.9749859249596
 31
0.0
  0
LINE
  5
7B95
  8
1
 10
4932.9951636753631
 20
7903.4749859249596
 30
0.0
 11
4932.9951636753631
 21
7793.4749859249614
 31
0.0
  0
LINE
  5
7B96
  8
1
 10
4868.9951636753631
 20
7933.4749859249614
 30
0.0
 11
4868.9951636753631
 21
7793.4749859249614
 31
0.0
  0
LINE
  5
7B97
  8
1
 10
4928.9951636753631
 20
7933.4749859249614
 30
0.0
 11
4928.9951636753631
 21
7793.4749859249614
 31
0.0
  0
LINE
  5
7B98
  8
1
 10
4976.9951636753631
 20
7943.4749859249614
 30
0.0
 11
4898.9951636753631
 21
7943.4749859249614
 31
0.0
  0
LINE
  5
7B99
  8
1
 10
4866.4951636753631
 20
7933.4749859249614
 30
0.0
 11
4931.4951636753631
 21
7933.4749859249614
 31
0.0
  0
LINE
  5
7B9A
  8
1
 10
4866.4951636753631
 20
7933.4749859249614
 30
0.0
 11
4866.4951636753631
 21
7943.4749859249614
 31
0.0
  0
LINE
  5
7B9B
  8
1
 10
4931.4951636753631
 20
7933.4749859249614
 30
0.0
 11
4931.4951636753631
 21
7943.4749859249614
 31
0.0
  0
LINE
  5
7B9C
  8
1
 10
4932.9951636753631
 20
7903.4749859249596
 30
0.0
 11
4928.9951636753631
 21
7903.4749859249596
 31
0.0
  0
LINE
  5
7B9D
  8
1
 10
4978.995163675364
 20
7954.9749859249596
 30
0.0
 11
4978.995163675364
 21
7945.4749859249596
 31
0.0
  0
ARC
  5
7B9E
  8
1
 10
4976.9951636753631
 20
7945.4749859249596
 30
0.0
 40
2.0
 50
270.0
 51
0.0
  0
LINE
  5
7B9F
  8
1
 10
4932.9951636753631
 20
7793.4749859249614
 30
0.0
 11
4868.9951636753631
 21
7793.4749859249614
 31
0.0
  0
LINE
  5
7BA0
  8
1
 10
4816.152148380449
 20
7958.6239517430886
 30
0.0
 11
4816.152148380449
 21
7958.6240086479838
 31
0.0
  0
LINE
  5
7BA1
  8
1
 10
7008.8396113373919
 20
3338.5487049434219
 30
0.0
 11
6370.839611337391
 21
3338.5487049434232
 31
0.0
  0
LINE
  5
7BA2
  8
1
 10
6370.8396113373892
 20
3748.5487049434219
 30
0.0
 11
7008.8396113373892
 21
3748.5487049434219
 31
0.0
  0
LINE
  5
7BA3
  8
2
 10
6068.7962788324439
 20
3548.5487049434232
 30
0.0
 11
7038.2966913346399
 21
3548.5487049434232
 31
0.0
  0
LINE
  5
7BA4
  8
1
 10
7008.8396113373892
 20
3338.5487049434219
 30
0.0
 11
7008.8396113373892
 21
3748.5487049434219
 31
0.0
  0
LINE
  5
7BA5
  8
1
 10
6209.3396113373892
 20
3514.5487049434219
 30
0.0
 11
6209.3396113373892
 21
3578.5487049434219
 31
0.0
  0
LINE
  5
7BA6
  8
1
 10
6349.3396113373892
 20
3581.0487049434219
 30
0.0
 11
6349.3396113373892
 21
3516.0487049434219
 31
0.0
  0
LINE
  5
7BA7
  8
1
 10
6370.839611337391
 20
3338.5487049434232
 30
0.0
 11
6370.8396113373892
 21
3748.5487049434209
 31
0.0
  0
LINE
  5
7BA8
  8
1
 10
6359.3396113373892
 20
3626.5487049434219
 30
0.0
 11
6359.3396113373892
 21
3548.5487049434232
 31
0.0
  0
LINE
  5
7BA9
  8
1
 10
6349.3396113373892
 20
3578.5487049434219
 30
0.0
 11
6209.3396113373892
 21
3578.5487049434219
 31
0.0
  0
LINE
  5
7BAA
  8
1
 10
6349.3396113373892
 20
3581.0487049434219
 30
0.0
 11
6359.3396113373892
 21
3581.0487049434219
 31
0.0
  0
ARC
  5
7BAB
  8
1
 10
6361.3396113373892
 20
3626.5487049434219
 30
0.0
 40
2.0
 50
90.0
 51
180.0
  0
LINE
  5
7BAC
  8
1
 10
6371.4926873373897
 20
3628.5487049434219
 30
0.0
 11
6361.3396113373892
 21
3628.5487049434219
 31
0.0
  0
LINE
  5
7BAD
  8
1
 10
6349.3396113373892
 20
3518.5487049434219
 30
0.0
 11
6209.3396113373892
 21
3518.5487049434219
 31
0.0
  0
LINE
  5
7BAE
  8
1
 10
6319.3396113373892
 20
3514.5487049434219
 30
0.0
 11
6209.3396113373892
 21
3514.5487049434219
 31
0.0
  0
ARC
  5
7BAF
  8
1
 10
6361.3396113373892
 20
3470.5487049434219
 30
0.0
 40
2.0
 50
180.0
 51
270.0
  0
LINE
  5
7BB0
  8
1
 10
6370.8396113373892
 20
3468.5487049434219
 30
0.0
 11
6361.3396113373892
 21
3468.5487049434219
 31
0.0
  0
LINE
  5
7BB1
  8
1
 10
6349.3396113373892
 20
3516.0487049434219
 30
0.0
 11
6359.3396113373892
 21
3516.0487049434219
 31
0.0
  0
LINE
  5
7BB2
  8
1
 10
6359.3396113373892
 20
3470.5487049434219
 30
0.0
 11
6359.3396113373892
 21
3548.5487049434232
 31
0.0
  0
LINE
  5
7BB3
  8
1
 10
6319.3396113373892
 20
3514.5487049434219
 30
0.0
 11
6319.3396113373892
 21
3518.5487049434219
 31
0.0
  0
LINE
  5
7BB4
  8
1
 10
6504.7067508588952
 20
3748.5487049434219
 30
0.0
 11
6504.7070294452697
 21
4308.5479307527094
 31
0.0
  0
DIMENSION
  5
7BC2
  8
3
  2
*D1
 10
4048.9956358268528
 20
9576.9388581004023
 30
0.0
 11
3099.3294424301048
 21
9576.9388581004023
 31
0.0
 70
   128
 13
2148.995635826735
 23
9348.8599351291086
 33
0.0
 14
4048.9956358268528
 24
9348.8599351291086
 34
0.0
1001
ACAD
1000
DSTYLE
1002
{
1070
   287
1070
     3
1070
   287
1070
     3
1070
    40
1040
45.0
1070
   143
1040
0.039
1070
   172
1070
     1
1070
   271
1070
     0
1070
   279
1070
     0
1070
   288
1070
     1
1002
}
  0
DIMENSION
  5
7BCE
  8
3
  2
*D2
 10
5248.9954595201734
 20
9576.9388581004023
 30
0.0
 11
4648.9955476735131
 21
9689.4388581004023
 31
0.0
 70
     0
 13
4048.9956358268528
 23
9348.8599351291086
 33
0.0
 14
5248.9954595201734
 24
8848.8599351291086
 34
0.0
1001
ACAD
1000
DSTYLE
1002
{
1070
   287
1070
     4
1070
   287
1070
     4
1070
    40
1040
45.0
1070
    75
1070
     1
1070
   143
1040
0.039
1070
   172
1070
     1
1070
   271
1070
     0
1070
   279
1070
     1
1070
   288
1070
     1
1002
}
  0
DIMENSION
  5
7BDB
  8
3
  2
*D3
 10
5642.770617919
 20
7748.8599351291077
 30
0.0
 11
5642.7706179189991
 21
8295.3450515531968
 31
0.0
 70
   128
 13
5248.9954595201734
 23
8848.8599351291086
 33
0.0
 14
5248.9950716452786
 24
7748.8599351291077
 34
0.0
 50
90.0
1001
ACAD
1000
DSTYLE
1002
{
1070
   287
1070
     3
1070
   287
1070
     3
1070
    40
1040
45.0
1070
   143
1040
0.039
1070
   172
1070
     1
1070
   271
1070
     0
1070
   279
1070
     0
1070
   288
1070
     1
1002
}
  0
DIMENSION
  5
7BE8
  8
3
  2
*D4
 10
1823.9649412308579
 20
7748.8599351291105
 30
0.0
 11
1823.964941230857
 21
8542.9256869705205
 31
0.0
 70
   128
 13
2148.995635826735
 23
9348.8599351291086
 33
0.0
 14
2148.9950716450739
 24
7748.8599351291077
 34
0.0
 50
90.0
1001
ACAD
1000
DSTYLE
1002
{
1070
   287
1070
     3
1070
   287
1070
     3
1070
    40
1040
45.0
1070
   143
1040
0.039
1070
   172
1070
     1
1070
   271
1070
     0
1070
   279
1070
     0
1070
   288
1070
     1
1002
}
  0
DIMENSION
  5
7BF5
  8
3
  2
*D5
 10
5248.9950716452786
 20
7319.5861457622013
 30
0.0
 11
3631.3386279818151
 21
7319.5861457622013
 31
0.0
 70
   128
 13
2148.9950716450739
 23
7748.8599351291077
 33
0.0
 14
5248.9950716452786
 24
7748.8599351291077
 34
0.0
1001
ACAD
1000
DSTYLE
1002
{
1070
   287
1070
     3
1070
   287
1070
     3
1070
    40
1040
45.0
1070
   143
1040
0.039
1070
   172
1070
     1
1070
   271
1070
     0
1070
   279
1070
     0
1070
   288
1070
     1
1002
}
  0
DIMENSION
  5
7C02
  8
3
  2
*D6
 10
3098.9948151589379
 20
6381.5113420833441
 30
0.0
 11
2584.3181006442528
 21
6381.5113420833441
 31
0.0
 70
   128
 13
2053.994818558363
 23
6068.5489307527123
 33
0.0
 14
3098.9948151589379
 24
6028.7840723405352
 34
0.0
1001
ACAD
1000
DSTYLE
1002
{
1070
   287
1070
     3
1070
   287
1070
     3
1070
    40
1040
45.0
1070
   143
1040
0.039
1070
   172
1070
     1
1070
   271
1070
     0
1070
   279
1070
     0
1070
   288
1070
     1
1002
}
  0
DIMENSION
  5
7C0F
  8
3
  2
*D7
 10
4469.9948185583607
 20
6381.5113420833441
 30
0.0
 11
3784.4948168586502
 21
6494.0113420833441
 31
0.0
 70
     0
 13
3098.9948151589379
 23
6028.7840723405352
 33
0.0
 14
4469.9948185583607
 24
4424.5479307527094
 34
0.0
1001
ACAD
1000
DSTYLE
1002
{
1070
   287
1070
     4
1070
   287
1070
     4
1070
    40
1040
45.0
1070
    75
1070
     1
1070
   143
1040
0.039
1070
   172
1070
     1
1070
   271
1070
     0
1070
   279
1070
     1
1070
   288
1070
     1
1002
}
  0
DIMENSION
  5
7C1C
  8
3
  2
*D8
 10
1719.4290496964679
 20
4353.5489307527123
 30
0.0
 11
1719.429049696467
 21
5149.6406861984979
 31
0.0
 70
   128
 13
2053.994818558363
 23
6003.5489307527114
 33
0.0
 14
2053.9948185583612
 24
4353.5489307527114
 34
0.0
 50
90.0
1001
ACAD
1000
DSTYLE
1002
{
1070
   287
1070
     3
1070
   287
1070
     3
1070
    40
1040
45.0
1070
   143
1040
0.039
1070
   172
1070
     1
1070
   271
1070
     0
1070
   279
1070
     0
1070
   288
1070
     1
1002
}
  0
DIMENSION
  5
7C29
  8
3
  2
*D9
 10
1453.967149909382
 20
4308.5479307527094
 30
0.0
 11
1453.967149909382
 21
5127.5371328892943
 31
0.0
 70
   128
 13
2053.994818558363
 23
6003.5489307527114
 33
0.0
 14
1959.3195923559831
 24
4308.5479307527094
 34
0.0
 50
90.0
1001
ACAD
1000
DSTYLE
1002
{
1070
   287
1070
     3
1070
   287
1070
     3
1070
    40
1040
45.0
1070
   143
1040
0.039
1070
   172
1070
     1
1070
   271
1070
     0
1070
   279
1070
     0
1070
   288
1070
     1
1002
}
  0
DIMENSION
  5
7C35
  8
3
  2
*D10
 10
1453.967149909382
 20
3138.5479307526662
 30
0.0
 11
1341.4671499093811
 21
3723.5479307526889
 31
0.0
 70
     0
 13
1959.3195923559831
 23
4308.5479307527094
 33
0.0
 14
2148.9947932076871
 24
3138.5479307526662
 34
0.0
 50
90.0
1001
ACAD
1000
DSTYLE
1002
{
1070
   287
1070
     4
1070
   287
1070
     4
1070
    40
1040
45.0
1070
    75
1070
     1
1070
   143
1040
0.039
1070
   172
1070
     1
1070
   271
1070
     0
1070
   279
1070
     1
1070
   288
1070
     1
1002
}
  0
DIMENSION
  5
7C45
  8
3
  2
*D11
 10
1453.967149909382
 20
2998.547930752658
 30
0.0
 11
1238.6100070522391
 21
3215.2262428742501
 31
0.0
 70
   128
  1
(<>)
 13
2148.9947932076871
 23
3138.5479307526662
 33
0.0
 14
2148.9947620877292
 24
2998.547930752658
 34
0.0
 50
90.0
1001
ACAD
1000
DSTYLE
1002
{
1070
   288
1070
     1
1070
   172
1070
     1
1070
    75
1070
     1
1070
    40
1040
45.0
1070
   271
1070
     0
1070
     7
1000
_DOT
1070
   143
1040
0.039
1002
}
  0
DIMENSION
  5
7C55
  8
3
  2
*D12
 10
1453.967149909382
 20
2923.5479307526539
 30
0.0
 11
1341.4671499093811
 21
2589.262216466941
 31
0.0
 70
     0
 13
2148.9947620877292
 23
2998.547930752658
 33
0.0
 14
2148.994760854197
 24
2923.5479307526539
 34
0.0
 50
90.0
1001
ACAD
1000
DSTYLE
1002
{
1070
   287
1070
     3
1070
   287
1070
     3
1070
    40
1040
45.0
1070
   143
1040
0.039
1070
   172
1070
     1
1070
   271
1070
     0
1070
   279
1070
     0
1070
   288
1070
     1
1070
     6
1000
DOT
1002
}
  0
DIMENSION
  5
7CB0
  8
3
  2
*D14
 10
3098.9947582481918
 20
2562.730386593812
 30
0.0
 11
2593.2410744958388
 21
2562.730386593812
 31
0.0
 70
   128
 13
2148.994760854197
 23
2923.5479307526539
 33
0.0
 14
3098.9947582481918
 24
2761.8039125076202
 34
0.0
1001
ACAD
1000
DSTYLE
1002
{
1070
   287
1070
     3
1070
   287
1070
     3
1070
    40
1040
45.0
1070
   143
1040
0.039
1070
   172
1070
     1
1070
   271
1070
     0
1070
   279
1070
     0
1070
   288
1070
     1
1002
}
  0
DIMENSION
  5
7CBC
  8
3
  2
*D15
 10
5248.9947608542034
 20
2562.730386593812
 30
0.0
 11
4173.9947595511976
 21
2675.230386593812
 31
0.0
 70
     0
 13
3098.9947582481918
 23
2761.8039125076202
 33
0.0
 14
5248.9947608542034
 24
2923.5487049430799
 34
0.0
1001
ACAD
1000
DSTYLE
1002
{
1070
   287
1070
     4
1070
   287
1070
     4
1070
    40
1040
45.0
1070
    75
1070
     1
1070
   143
1040
0.039
1070
   172
1070
     1
1070
   271
1070
     0
1070
   279
1070
     1
1070
   288
1070
     1
1002
}
  0
DIMENSION
  5
7CC9
  8
3
  2
*D16
 10
7094.7076764170961
 20
2573.782163248412
 30
0.0
 11
6633.2132223276794
 21
2573.782163248412
 31
0.0
 70
   128
 13
6163.7076748482614
 23
2923.5459582264848
 33
0.0
 14
7094.7076764170961
 24
2852.233786392404
 34
0.0
1001
ACAD
1000
DSTYLE
1002
{
1070
   287
1070
     3
1070
   287
1070
     3
1070
    40
1040
45.0
1070
   143
1040
0.039
1070
   172
1070
     1
1070
   271
1070
     0
1070
   279
1070
     0
1070
   288
1070
     1
1002
}
  0
DIMENSION
  5
7CD5
  8
3
  2
*D17
 10
7763.7076748482677
 20
2573.782163248412
 30
0.0
 11
7429.2076756326824
 21
2686.282163248412
 31
0.0
 70
     0
 13
7094.7076764170961
 23
2852.233786392404
 33
0.0
 14
7763.7076748482677
 24
2923.5456043108611
 34
0.0
1001
ACAD
1000
DSTYLE
1002
{
1070
   287
1070
     4
1070
   287
1070
     4
1070
    40
1040
45.0
1070
    75
1070
     1
1070
   143
1040
0.039
1070
   172
1070
     1
1070
   271
1070
     0
1070
   279
1070
     1
1070
   288
1070
     1
1002
}
  0
DIMENSION
  5
7CE2
  8
3
  2
*D18
 10
7684.7075220183988
 20
6245.8163495194758
 30
0.0
 11
7094.8044320273484
 21
6245.8163495194758
 31
0.0
 70
   128
 13
6504.7075220183988
 23
6003.5479582272146
 33
0.0
 14
7684.7075220183988
 24
6003.5479582272137
 34
0.0
1001
ACAD
1000
DSTYLE
1002
{
1070
   287
1070
     3
1070
   287
1070
     3
1070
    40
1040
45.0
1070
   143
1040
0.039
1070
   172
1070
     1
1070
   271
1070
     0
1070
   279
1070
     0
1070
   288
1070
     1
1002
}
  0
DIMENSION
  5
7CEF
  8
3
  2
*D19
 10
7094.7075337226233
 20
6600.3998632488292
 30
0.0
 11
7458.1237834840786
 21
6600.3998632488292
 31
0.0
 70
   128
 13
7819.7115220183987
 23
5173.543958227212
 33
0.0
 14
7094.7075337226233
 24
6443.8713075726837
 34
0.0
1001
ACAD
1000
DSTYLE
1002
{
1070
   287
1070
     3
1070
   287
1070
     3
1070
    40
1040
45.0
1070
   143
1040
0.039
1070
   172
1070
     1
1070
   271
1070
     0
1070
   279
1070
     0
1070
   288
1070
     1
1002
}
  0
DIMENSION
  5
7CFB
  8
3
  2
*D20
 10
6114.7075004250046
 20
6600.3998632488292
 30
0.0
 11
6604.7075170738162
 21
6825.3998632488292
 31
0.0
 70
     0
  1
MAX\P1080
 13
7094.7075337226233
 23
6443.8713075726837
 33
0.0
 14
6114.7075004250046
 24
4758.5479307527094
 34
0.0
1001
ACAD
1000
DSTYLE
1002
{
1070
   287
1070
     4
1070
   287
1070
     4
1070
    40
1040
45.0
1070
    75
1070
     1
1070
   143
1040
0.039
1070
   172
1070
     1
1070
   271
1070
     0
1070
   279
1070
     1
1070
   288
1070
     1
1002
}
  0
DIMENSION
  5
7D12
  8
3
  2
*D21
 10
8157.1611522942476
 20
3508.5479307527089
 30
0.0
 11
8157.1611522942476
 21
4309.8903991665074
 31
0.0
 70
   128
 13
7819.7115220183987
 23
5108.5479307527103
 33
0.0
 14
7819.7115220183987
 24
3508.5479307527089
 34
0.0
 50
90.0
1001
ACAD
1000
DSTYLE
1002
{
1070
   287
1070
     3
1070
   287
1070
     3
1070
     3
1000
φ<>
1070
    40
1040
45.0
1070
   143
1040
0.039
1070
   172
1070
     1
1070
   271
1070
     0
1070
   279
1070
     0
1070
   288
1070
     1
1002
}
  0
LINE
  5
7D4E
  8
4
 10
8325.0
 20
2250.0
 30
0.0
 11
8325.0
 21
1350.0
 31
0.0
  0
LINE
  5
7D4F
  8
4
 10
5175.0
 20
2250.0
 30
0.0
 11
5175.0
 21
1350.0
 31
0.0
  0
LINE
  5
7D50
  8
4
 10
2925.0
 20
2250.0
 30
0.0
 11
2925.0
 21
1350.0
 31
0.0
  0
LINE
  5
7D53
  8
4
 10
2925.0
 20
1350.0
 30
0.0
 11
8325.0
 21
1350.0
 31
0.0
  0
LINE
  5
7D54
  8
4
 10
2925.0
 20
1800.0
 30
0.0
 11
8325.0
 21
1800.0
 31
0.0
  0
TEXT
  5
7D55
  8
4
 10
3098.259363811057
 20
1941.943616399758
 30
0.0
 40
225.0
  1
機器名称
  0
TEXT
  5
7D56
  8
4
 10
3088.1614771115892
 20
1447.403205294049
 30
0.0
 40
225.0
  1
機器型番
  0
TEXT
  5
7D57
  8
4
 10
5300.599808767035
 20
1901.08183855313
 30
0.0
 40
191.25
  1
ミツヤリミットロードファン
  0
TEXT
  5
7D58
  8
4
 10
5339.9452301346628
 20
1427.218129259745
 30
0.0
 40
225.0
  1
LLE#10-4
  0
TEXT
  5
7D5A
  8
4
 10
3547.4348141053201
 20
10725.429785996321
 30
0.0
 40
242.99999999999989
  1
床置防振ベット
  0
TEXT
  5
7D5B
  8
4
 10
1403.9135869855461
 20
11410.38245714243
 30
0.0
 40
275.39999999999998
  1
ベルト駆動式片吸込両持排煙ファン
  0
LINE
  5
7D5C
  8
4
 10
1125.0
 20
11112.33939419162
 30
0.0
 11
8325.0
 21
11112.33939419162
 31
0.0
  0
LINE
  5
7D5D
  8
4
 10
1125.0
 20
12012.33939419162
 30
0.0
 11
8325.0
 21
12012.33939419162
 31
0.0
  0
LINE
  5
7D5E
  8
4
 10
2925.0
 20
2250.0
 30
0.0
 11
8325.0
 21
2250.0
 31
0.0
  0
LINE
  5
7D5F
  8
4
 10
1125.0
 20
12012.33939419162
 30
0.0
 11
1125.0
 21
11112.33939419162
 31
0.0
  0
TEXT
  5
7D60
  8
4
 10
1586.0700690131589
 20
10720.437648958539
 30
0.0
 40
242.99999999999989
  1
左回転左横向
  0
TEXT
  5
7D61
  8
4
 10
6610.3630166218027
 20
12177.274866728891
 30
0.0
 40
252.0
  1
No.
  0
TEXT
  5
7D62
  8
4
 10
5900.832281700059
 20
10725.429785996321
 30
0.0
 40
242.99999999999989
  1
縮尺：1/45
  0
LINE
  5
7D63
  8
4
 10
8325.0
 20
12012.33939419162
 30
0.0
 11
8325.0
 21
11112.33939419162
 31
0.0
  0
LINE
  5
7D64
  8
4
 10
9450.0
 20
13275.0
 30
0.0
 11
9450.0
 21
13275.0
 31
0.0
  0
LINE
  5
7D65
  8
4
 10
6482.7784006193906
 20
12065.686124064299
 30
0.0
 11
6482.7784006193906
 21
12539.935176973881
 31
0.0
  0
LINE
  5
7D66
  8
4
 10
6482.7784006193906
 20
12539.935176973881
 30
0.0
 11
8325.0
 21
12539.935176973881
 31
0.0
  0
LINE
  5
7D67
  8
4
 10
8325.0
 20
12539.935176973881
 30
0.0
 11
8325.0
 21
12065.686124064299
 31
0.0
  0
LINE
  5
7D68
  8
4
 10
8325.0
 20
12065.686124064299
 30
0.0
 11
6482.7784006193906
 21
12065.686124064299
 31
0.0
  0
LINE
  5
7D69
  8
4
 10
0.0
 20
0.0
 30
0.0
 11
0.0
 21
13275.0
 31
0.0
  0
LINE
  5
7D6A
  8
4
 10
0.0
 20
13275.0
 30
0.0
 11
9450.0
 21
13275.0
 31
0.0
  0
LINE
  5
7D6B
  8
4
 10
9450.0
 20
13275.0
 30
0.0
 11
9450.0
 21
0.0
 31
0.0
  0
LINE
  5
7D6C
  8
4
 10
9450.0
 20
0.0
 30
0.0
 11
0.0
 21
0.0
 31
0.0
  0
DIMENSION
  5
7D7F
  8
3
  2
*D22
 10
5248.9947944412252
 20
6679.6930466065596
 30
0.0
 11
3668.0102085867329
 21
6679.6930466065596
 31
0.0
 70
   128
 13
2053.994818558363
 23
6003.5489307527114
 33
0.0
 14
5248.9947944412252
 24
3288.5487049430972
 34
0.0
1001
ACAD
1000
DSTYLE
1002
{
1070
   287
1070
     3
1070
   287
1070
     3
1070
    40
1040
45.0
1070
   143
1040
0.039
1070
   172
1070
     1
1070
   271
1070
     0
1070
   279
1070
     0
1070
   288
1070
     1
1002
}
  0
DIMENSION
  5
7D91
  8
3
  2
*D23
 10
1049.3651874367861
 20
2923.5479307526539
 30
0.0
 11
1049.3651874367861
 21
4529.9144900973479
 31
0.0
 70
   128
 13
2053.994818558363
 23
6068.5489307527123
 33
0.0
 14
2148.994760854197
 24
2923.5479307526539
 34
0.0
 50
90.0
1001
ACAD
1000
DSTYLE
1002
{
1070
   287
1070
     3
1070
   287
1070
     3
1070
    40
1040
45.0
1070
   143
1040
0.039
1070
   172
1070
     1
1070
   271
1070
     0
1070
   279
1070
     0
1070
   288
1070
     1
1002
}
  0
ENDSEC
  0
EOF
