  0
SECTION
  2
HEADER
  9
$ACADVER
  1
AC1009
  9
$INSBASE
 10
0.0
 20
0.0
 30
0.0
  9
$EXTMIN
 10
0.0
 20
0.0
 30
0.0
  9
$EXTMAX
 10
9450.0
 20
13275.0
 30
0.0
  9
$LIMMIN
 10
0.0
 20
0.0
  9
$LIMMAX
 10
297.0
 20
210.0
  9
$ORTHOMODE
 70
     0
  9
$REGENMODE
 70
     1
  9
$FILLMODE
 70
     0
  9
$QTEXTMODE
 70
     0
  9
$MIRRTEXT
 70
     1
  9
$DRAGMODE
 70
     2
  9
$LTSCALE
 40
100.0
  9
$OSMODE
 70
    37
  9
$ATTMODE
 70
     1
  9
$TEXTSIZE
 40
180.0
  9
$TRACEWID
 40
0.05
  9
$TEXTSTYLE
  7
STANDARD
  9
$CLAYER
  8
3
  9
$CELTYPE
  6
BYLAYER
  9
$CECOLOR
 62
   256
  9
$DIMSCALE
 40
45.0
  9
$DIMASZ
 40
2.0
  9
$DIMEXO
 40
0.5
  9
$DIMDLI
 40
10.0
  9
$DIMRND
 40
0.0
  9
$DIMDLE
 40
0.0
  9
$DIMEXE
 40
1.0
  9
$DIMTP
 40
1.0
  9
$DIMTM
 40
1.0
  9
$DIMTXT
 40
3.0
  9
$DIMCEN
 40
0.0
  9
$DIMTSZ
 40
0.0
  9
$DIMTOL
 70
     0
  9
$DIMLIM
 70
     0
  9
$DIMTIH
 70
     0
  9
$DIMTOH
 70
     0
  9
$DIMSE1
 70
     0
  9
$DIMSE2
 70
     0
  9
$DIMTAD
 70
     1
  9
$DIMZIN
 70
     8
  9
$DIMBLK
  1

  9
$DIMASO
 70
     1
  9
$DIMSHO
 70
     1
  9
$DIMPOST
  1

  9
$DIMAPOST
  1

  9
$DIMALT
 70
     0
  9
$DIMALTD
 70
     2
  9
$DIMALTF
 40
0.039
  9
$DIMLFAC
 40
1.0
  9
$DIMTOFL
 70
     1
  9
$DIMTVP
 40
0.0
  9
$DIMTIX
 70
     0
  9
$DIMSOXD
 70
     0
  9
$DIMSAH
 70
     1
  9
$DIMBLK1
  1
OPEN
  9
$DIMBLK2
  1
OPEN
  9
$DIMSTYLE
  2
IGA
  9
$DIMCLRD
 70
     0
  9
$DIMCLRE
 70
     0
  9
$DIMCLRT
 70
     0
  9
$DIMTFAC
 40
10.0
  9
$DIMGAP
 40
1.0
  9
$LUNITS
 70
     2
  9
$LUPREC
 70
     3
  9
$SKETCHINC
 40
0.1
  9
$FILLETRAD
 40
50.0
  9
$AUNITS
 70
     0
  9
$AUPREC
 70
     0
  9
$MENU
  1
acad
  9
$ELEVATION
 40
0.0
  9
$PELEVATION
 40
0.0
  9
$THICKNESS
 40
0.0
  9
$LIMCHECK
 70
     0
  9
$BLIPMODE
 70
     0
  9
$CHAMFERA
 40
0.0
  9
$CHAMFERB
 40
0.0
  9
$SKPOLY
 70
     0
  9
$TDCREATE
 40
2452331.406026504
  9
$TDUPDATE
 40
2454953.6900866199
  9
$TDINDWG
 40
0.0581256134
  9
$TDUSRTIMER
 40
0.0581256134
  9
$USRTIMER
 70
     1
  9
$ANGBASE
 50
0.0
  9
$ANGDIR
 70
     0
  9
$PDMODE
 70
     0
  9
$PDSIZE
 40
0.0
  9
$PLINEWID
 40
0.0
  9
$COORDS
 70
     1
  9
$SPLFRAME
 70
     0
  9
$SPLINETYPE
 70
     6
  9
$SPLINESEGS
 70
     8
  9
$ATTDIA
 70
     0
  9
$ATTREQ
 70
     1
  9
$HANDLING
 70
 10241
  9
$HANDSEED
  5
821B
  9
$SURFTAB1
 70
     6
  9
$SURFTAB2
 70
     6
  9
$SURFTYPE
 70
     6
  9
$SURFU
 70
     6
  9
$SURFV
 70
     6
  9
$UCSNAME
  2

  9
$UCSORG
 10
0.0
 20
0.0
 30
0.0
  9
$UCSXDIR
 10
1.0
 20
0.0
 30
0.0
  9
$UCSYDIR
 10
0.0
 20
1.0
 30
0.0
  9
$PUCSNAME
  2

  9
$PUCSORG
 10
0.0
 20
0.0
 30
0.0
  9
$PUCSXDIR
 10
1.0
 20
0.0
 30
0.0
  9
$PUCSYDIR
 10
0.0
 20
1.0
 30
0.0
  9
$USERI1
 70
     0
  9
$USERI2
 70
     0
  9
$USERI3
 70
     0
  9
$USERI4
 70
     0
  9
$USERI5
 70
     0
  9
$USERR1
 40
0.0
  9
$USERR2
 40
0.0
  9
$USERR3
 40
0.0
  9
$USERR4
 40
0.0
  9
$USERR5
 40
0.0
  9
$WORLDVIEW
 70
     1
  9
$SHADEDGE
 70
     3
  9
$SHADEDIF
 70
    70
  9
$TILEMODE
 70
     1
  9
$MAXACTVP
 70
    16
  9
$PLIMCHECK
 70
     0
  9
$PEXTMIN
 10
1.0000000000000000E+020
 20
1.0000000000000000E+020
 30
1.0000000000000000E+020
  9
$PEXTMAX
 10
-1.0000000000000000E+020
 20
-1.0000000000000000E+020
 30
-1.0000000000000000E+020
  9
$PLIMMIN
 10
0.0
 20
0.0
  9
$PLIMMAX
 10
12.0
 20
9.0
  9
$UNITMODE
 70
     0
  9
$VISRETAIN
 70
     0
  9
$PLINEGEN
 70
     0
  9
$PSLTSCALE
 70
     1
  0
ENDSEC
  0
SECTION
  2
TABLES
  0
TABLE
  2
VPORT
 70
     2
  0
VPORT
  2
*ACTIVE
 70
     0
 10
0.0
 20
0.0
 11
1.0
 21
1.0
 12
24438.403171462229
 22
5902.9538485343373
 13
0.0
 23
0.0
 14
10.0
 24
10.0
 15
10.0
 25
10.0
 16
0.0
 26
0.0
 36
1.0
 17
0.0
 27
0.0
 37
0.0
 40
16662.196283196761
 41
3.1666666666666661
 42
50.0
 43
0.0
 44
0.0
 50
0.0
 51
0.0
 71
     0
 72
   100
 73
     1
 74
     0
 75
     0
 76
     0
 77
     0
 78
     0
  0
ENDTAB
  0
TABLE
  2
LTYPE
 70
     2
  0
LTYPE
  2
CONTINUOUS
 70
     0
  3
Solid line
 72
    65
 73
     0
 40
0.0
  0
LTYPE
  2
CENTER
 70
     0
  3
____ _ ____ _ ____ _ ____ _ ____ _ ____ _ ____ 
 72
    65
 73
     4
 40
2.0
 49
1.25
 49
-0.25
 49
0.25
 49
-0.25
  0
ENDTAB
  0
TABLE
  2
LAYER
 70
     6
  0
LAYER
  2
0
 70
     0
 62
     7
  6
CONTINUOUS
  0
LAYER
  2
3
 70
     0
 62
     2
  6
CONTINUOUS
  0
LAYER
  2
2
 70
     0
 62
     3
  6
CENTER
  0
LAYER
  2
1
 70
     0
 62
     4
  6
CONTINUOUS
  0
LAYER
  2
4
 70
     0
 62
     7
  6
CONTINUOUS
  0
LAYER
  2
DEFPOINTS
 70
     0
 62
     7
  6
CONTINUOUS
  0
ENDTAB
  0
TABLE
  2
STYLE
 70
     1
  0
STYLE
  2
STANDARD
 70
     0
 40
0.0
 41
1.0
 50
0.0
 71
     0
 42
180.0
  3
simplex.shx
  4
extfont.shx
  0
ENDTAB
  0
TABLE
  2
VIEW
 70
     0
  0
ENDTAB
  0
TABLE
  2
UCS
 70
     0
  0
ENDTAB
  0
TABLE
  2
APPID
 70
     1
  0
APPID
  2
ACAD
 70
     0
  0
ENDTAB
  0
TABLE
  2
DIMSTYLE
 70
     1
  0
DIMSTYLE
  2
IGA
 70
     0
  3

  4

  5

  6
OPEN
  7
OPEN
 40
2.0
 41
2.0
 42
0.5
 43
10.0
 44
1.0
 45
0.0
 46
0.0
 47
1.0
 48
1.0
140
3.0
141
0.0
142
0.0
143
0.03937
144
1.0
145
0.0
146
10.0
147
1.0
 71
     0
 72
     0
 73
     0
 74
     0
 75
     0
 76
     0
 77
     1
 78
     8
170
     0
171
     2
172
     0
173
     1
174
     0
175
     0
176
     0
177
     0
178
     0
  0
ENDTAB
  0
ENDSEC
  0
SECTION
  2
BLOCKS
  0
BLOCK
  8
0
  2
$MODEL_SPACE
 70
     0
 10
0.0
 20
0.0
 30
0.0
  3
$MODEL_SPACE
  1

  0
ENDBLK
  5
1B
  8
0
  0
BLOCK
 67
     1
  8
0
  2
$PAPER_SPACE
 70
     0
 10
0.0
 20
0.0
 30
0.0
  3
$PAPER_SPACE
  1

  0
ENDBLK
  5
18
 67
     1
  8
0
  0
BLOCK
  8
0
  2
_OPEN
 70
     0
 10
0.0
 20
0.0
 30
0.0
  3
_OPEN
  1

  0
LINE
  5
79FD
  8
0
  6
BYBLOCK
 62
     0
 10
-1.0
 20
0.1666666666666666
 30
0.0
 11
0.0
 21
0.0
 31
0.0
  0
LINE
  5
79FE
  8
0
  6
BYBLOCK
 62
     0
 10
0.0
 20
0.0
 30
0.0
 11
-1.0
 21
-0.1666666666666666
 31
0.0
  0
LINE
  5
79FF
  8
0
  6
BYBLOCK
 62
     0
 10
0.0
 20
0.0
 30
0.0
 11
-1.0
 21
0.0
 31
0.0
  0
ENDBLK
  5
7A01
  8
0
  0
BLOCK
  8
0
  2
*D1
 70
     1
 10
0.0
 20
0.0
 30
0.0
  3
*D1
  1

  0
LINE
  5
814A
  8
3
 62
     0
 10
4215.4762355566909
 20
9737.9279752239781
 30
0.0
 11
4215.4762355566909
 21
9988.5068981952718
 31
0.0
  0
LINE
  5
814B
  8
3
 62
     0
 10
2315.4762355565731
 20
9737.9279752239781
 30
0.0
 11
2315.4762355565731
 21
9988.5068981952718
 31
0.0
  0
LINE
  5
814C
  8
3
 62
     0
 10
4125.4762355566909
 20
9943.5068981952736
 30
0.0
 11
2405.4762355565731
 21
9943.5068981952736
 31
0.0
  0
INSERT
  5
814D
  8
3
 62
     0
  2
_OPEN
 10
4215.4762355566909
 20
9943.5068981952736
 30
0.0
 41
90.0
 42
90.0
 43
90.0
  0
INSERT
  5
814E
  8
3
 62
     0
  2
_OPEN
 10
2315.4762355565731
 20
9943.5068981952736
 30
0.0
 41
90.0
 42
90.0
 43
90.0
 50
180.0
  0
TEXT
  8
3
  40
135
  5
8205
  62
0
  72
0
  71
0
 10
2995.14
 20
9817.06
 30
0.000000
  1
1900
  0
POINT
  5
8150
  8
DEFPOINTS
 62
     0
 10
4215.4762355566909
 20
9715.4279752239781
 30
0.0
  0
POINT
  5
8151
  8
DEFPOINTS
 62
     0
 10
2315.4762355565731
 20
9715.4279752239781
 30
0.0
  0
POINT
  5
8152
  8
DEFPOINTS
 62
     0
 10
2315.4762355565731
 20
9943.5068981952736
 30
0.0
  0
ENDBLK
  5
7F75
  8
0
  0
BLOCK
  8
0
  2
*D2
 70
     1
 10
0.0
 20
0.0
 30
0.0
  3
*D2
  1

  0
LINE
  5
8153
  8
3
 62
     0
 10
1115.476411863252
 20
9237.9279752239781
 30
0.0
 11
1115.476411863252
 21
9988.5068981952718
 31
0.0
  0
LINE
  5
8154
  8
3
 62
     0
 10
2225.4762355565731
 20
9943.5068981952736
 30
0.0
 11
1205.4764118632529
 21
9943.5068981952736
 31
0.0
  0
INSERT
  5
8155
  8
3
 62
     0
  2
_OPEN
 10
2315.4762355565731
 20
9943.5068981952736
 30
0.0
 41
90.0
 42
90.0
 43
90.0
  0
INSERT
  5
8156
  8
3
 62
     0
  2
_OPEN
 10
1115.476411863252
 20
9943.5068981952736
 30
0.0
 41
90.0
 42
90.0
 43
90.0
 50
180.0
  0
TEXT
  8
3
  40
135
  5
8206
  62
0
  72
0
  71
0
 10
1445.48
 20
9817.06
 30
0.000000
  1
1200
  0
POINT
  5
8158
  8
DEFPOINTS
 62
     0
 10
2315.4762355565731
 20
9715.4279752239781
 30
0.0
  0
POINT
  5
8159
  8
DEFPOINTS
 62
     0
 10
1115.476411863252
 20
9215.4279752239781
 30
0.0
  0
POINT
  5
815A
  8
DEFPOINTS
 62
     0
 10
1115.476411863252
 20
9943.5068981952736
 30
0.0
  0
ENDBLK
  5
7F95
  8
0
  0
BLOCK
  8
0
  2
*D3
 70
     1
 10
0.0
 20
0.0
 30
0.0
  3
*D3
  1

  0
LINE
  5
815B
  8
3
 62
     0
 10
1092.9764118632529
 20
9215.4279752239781
 30
0.0
 11
807.72653608735504
 21
9215.4279752239781
 31
0.0
  0
LINE
  5
815C
  8
3
 62
     0
 10
1092.9767997381459
 20
8115.4279752239781
 30
0.0
 11
807.72653608735459
 21
8115.4279752239781
 31
0.0
  0
LINE
  5
815D
  8
3
 62
     0
 10
852.72653608735493
 20
9125.4279752239781
 30
0.0
 11
852.7265360873547
 21
8205.4279752239781
 31
0.0
  0
INSERT
  5
815E
  8
3
 62
     0
  2
_OPEN
 10
852.72653608735493
 20
9215.4279752239781
 30
0.0
 41
90.0
 42
90.0
 43
90.0
 50
90.0
  0
INSERT
  5
815F
  8
3
 62
     0
  2
_OPEN
 10
852.7265360873547
 20
8115.4279752239781
 30
0.0
 41
90.0
 42
90.0
 43
90.0
 50
270.0
  0
TEXT
  8
3
  40
135
  5
8207
  62
0
  72
0
  71
0
 10
470.227
 20
8422.96
 30
0.000000
  1
1100
  0
POINT
  5
8161
  8
DEFPOINTS
 62
     0
 10
1115.476411863252
 20
9215.4279752239781
 30
0.0
  0
POINT
  5
8162
  8
DEFPOINTS
 62
     0
 10
1115.4767997381459
 20
8115.4279752239781
 30
0.0
  0
POINT
  5
8163
  8
DEFPOINTS
 62
     0
 10
852.7265360873547
 20
8115.4279752239781
 30
0.0
  0
ENDBLK
  5
7FB0
  8
0
  0
BLOCK
  8
0
  2
*D4
 70
     1
 10
0.0
 20
0.0
 30
0.0
  3
*D4
  1

  0
LINE
  5
8164
  8
3
 62
     0
 10
4237.9762355566909
 20
9715.4279752239781
 30
0.0
 11
4654.0432301970923
 21
9715.4279752239781
 31
0.0
  0
LINE
  5
8165
  8
3
 62
     0
 10
4237.9767997383533
 20
8115.4279752239781
 30
0.0
 11
4654.0432301970923
 21
8115.4279752239781
 31
0.0
  0
LINE
  5
8166
  8
3
 62
     0
 10
4609.0432301970914
 20
9625.4279752239781
 30
0.0
 11
4609.0432301970914
 21
8205.4279752239763
 31
0.0
  0
INSERT
  5
8167
  8
3
 62
     0
  2
_OPEN
 10
4609.0432301970914
 20
9715.4279752239781
 30
0.0
 41
90.0
 42
90.0
 43
90.0
 50
90.0
  0
INSERT
  5
8168
  8
3
 62
     0
  2
_OPEN
 10
4609.0432301970914
 20
8115.4279752239781
 30
0.0
 41
90.0
 42
90.0
 43
90.0
 50
270.0
  0
TEXT
  8
3
  40
135
  5
8208
  62
0
  72
0
  71
0
 10
4226.54
 20
8670.54
 30
0.000000
  1
1600
  0
POINT
  5
816A
  8
DEFPOINTS
 62
     0
 10
4215.4762355566909
 20
9715.4279752239781
 30
0.0
  0
POINT
  5
816B
  8
DEFPOINTS
 62
     0
 10
4215.4767997383533
 20
8115.4279752239781
 30
0.0
  0
POINT
  5
816C
  8
DEFPOINTS
 62
     0
 10
4609.0432301970914
 20
8115.4279752239781
 30
0.0
  0
ENDBLK
  5
7FE9
  8
0
  0
BLOCK
  8
0
  2
*D5
 70
     1
 10
0.0
 20
0.0
 30
0.0
  3
*D5
  1

  0
LINE
  5
816D
  8
3
 62
     0
 10
4215.4767997383533
 20
8092.9279752239772
 30
0.0
 11
4215.4767997383533
 21
7641.1541858570718
 31
0.0
  0
LINE
  5
816E
  8
3
 62
     0
 10
1115.4767997381459
 20
8092.9279752239772
 30
0.0
 11
1115.4767997381459
 21
7641.1541858570718
 31
0.0
  0
LINE
  5
816F
  8
3
 62
     0
 10
4125.4767997383533
 20
7686.1541858570699
 30
0.0
 11
1205.4767997381459
 21
7686.1541858570699
 31
0.0
  0
INSERT
  5
8170
  8
3
 62
     0
  2
_OPEN
 10
4215.4767997383533
 20
7686.1541858570699
 30
0.0
 41
90.0
 42
90.0
 43
90.0
  0
INSERT
  5
8171
  8
3
 62
     0
  2
_OPEN
 10
1115.4767997381459
 20
7686.1541858570699
 30
0.0
 41
90.0
 42
90.0
 43
90.0
 50
180.0
  0
TEXT
  8
3
  40
135
  5
8209
  62
0
  72
0
  71
0
 10
2463.13
 20
7559.70
 30
0.000000
  1
3100
  0
POINT
  5
8173
  8
DEFPOINTS
 62
     0
 10
4215.4767997383533
 20
8115.4279752239781
 30
0.0
  0
POINT
  5
8174
  8
DEFPOINTS
 62
     0
 10
1115.4767997381459
 20
8115.4279752239781
 30
0.0
  0
POINT
  5
8175
  8
DEFPOINTS
 62
     0
 10
1115.4767997381459
 20
7686.1541858570699
 30
0.0
  0
ENDBLK
  5
7F80
  8
0
  0
BLOCK
  8
0
  2
*D6
 70
     1
 10
0.0
 20
0.0
 30
0.0
  3
*D6
  1

  0
LINE
  5
8176
  8
3
 62
     0
 10
4332.9770528250629
 20
3495.644881704417
 30
0.0
 11
4690.0428216869605
 21
3495.644881704417
 31
0.0
  0
LINE
  5
8177
  8
3
 62
     0
 10
4332.9770528250638
 20
5145.6448817044156
 30
0.0
 11
4690.0428216869605
 21
5145.6448817044156
 31
0.0
  0
LINE
  5
8178
  8
3
 62
     0
 10
4645.0428216869586
 20
3585.6448817044161
 30
0.0
 11
4645.0428216869586
 21
5055.6448817044165
 31
0.0
  0
INSERT
  5
8179
  8
3
 62
     0
  2
_OPEN
 10
4645.0428216869586
 20
3495.644881704417
 30
0.0
 41
90.0
 42
90.0
 43
90.0
 50
270.0
  0
INSERT
  5
817A
  8
3
 62
     0
  2
_OPEN
 10
4645.0428216869586
 20
5145.6448817044156
 30
0.0
 41
90.0
 42
90.0
 43
90.0
 50
90.0
  0
TEXT
  8
3
  40
135
  5
820A
  62
0
  72
0
  71
0
 10
4262.54
 20
4110.60
 30
0.000000
  1
1650
  0
POINT
  5
817C
  8
DEFPOINTS
 62
     0
 10
4310.4770528250629
 20
3495.644881704417
 30
0.0
  0
POINT
  5
817D
  8
DEFPOINTS
 62
     0
 10
4310.4770528250638
 20
5145.6448817044156
 30
0.0
  0
POINT
  5
817E
  8
DEFPOINTS
 62
     0
 10
4645.0428216869586
 20
5145.6448817044156
 30
0.0
  0
ENDBLK
  5
7F54
  8
0
  0
BLOCK
  8
0
  2
*D7
 70
     1
 10
0.0
 20
0.0
 30
0.0
  3
*D7
  1

  0
LINE
  5
817F
  8
3
 62
     0
 10
4332.9770528250629
 20
3495.644881704417
 30
0.0
 11
4955.5047214740462
 21
3495.644881704417
 31
0.0
  0
LINE
  5
8180
  8
3
 62
     0
 10
4427.652279027443
 20
5190.6458817044186
 30
0.0
 11
4955.5047214740462
 21
5190.6458817044186
 31
0.0
  0
LINE
  5
8181
  8
3
 62
     0
 10
4910.5047214740453
 20
3585.6448817044161
 30
0.0
 11
4910.5047214740453
 21
5100.6458817044177
 31
0.0
  0
INSERT
  5
8182
  8
3
 62
     0
  2
_OPEN
 10
4910.5047214740453
 20
3495.644881704417
 30
0.0
 41
90.0
 42
90.0
 43
90.0
 50
270.0
  0
INSERT
  5
8183
  8
3
 62
     0
  2
_OPEN
 10
4910.5047214740453
 20
5190.6458817044186
 30
0.0
 41
90.0
 42
90.0
 43
90.0
 50
90.0
  0
TEXT
  8
3
  40
135
  5
820B
  62
0
  72
0
  71
0
 10
4528.00
 20
4132.71
 30
0.000000
  1
1695
  0
POINT
  5
8185
  8
DEFPOINTS
 62
     0
 10
4310.4770528250629
 20
3495.644881704417
 30
0.0
  0
POINT
  5
8186
  8
DEFPOINTS
 62
     0
 10
4405.152279027443
 20
5190.6458817044186
 30
0.0
  0
POINT
  5
8187
  8
DEFPOINTS
 62
     0
 10
4910.5047214740453
 20
5190.6458817044186
 30
0.0
  0
ENDBLK
  5
7F5F
  8
0
  0
BLOCK
  8
0
  2
_DOT
 70
     0
 10
0.0
 20
0.0
 30
0.0
  3
_DOT
  1

  0
LINE
  5
7D49
  8
0
  6
BYBLOCK
 62
     0
 10
0.0
 20
0.0
 30
0.0
 11
-1.0
 21
-0.0000000000000284
 31
0.0
  0
POLYLINE
  5
7D4A
  8
0
  6
BYBLOCK
 62
     0
 66
     1
 10
0.0
 20
0.0
 30
0.0
 70
     1
 40
0.1666666666666666
 41
0.1666666666666666
  0
VERTEX
  5
81AB
  8
0
  6
BYBLOCK
 62
     0
 10
-0.0833333333333286
 20
-0.0000000000000284
 30
0.0
 42
1.0
  0
VERTEX
  5
81AC
  8
0
  6
BYBLOCK
 62
     0
 10
0.0833333333333286
 20
-0.0000000000000284
 30
0.0
 42
1.0
  0
SEQEND
  5
81AD
  8
0
  6
BYBLOCK
 62
     0
  0
ENDBLK
  5
7C8A
  8
0
  0
BLOCK
  8
0
  2
*D9
 70
     1
 10
0.0
 20
0.0
 30
0.0
  3
*D9
  1

  0
LINE
  5
8188
  8
3
 62
     0
 10
6504.7075220183988
 20
6351.4251973696028
 30
0.0
 11
6504.7075220183988
 21
6616.1935886618639
 31
0.0
  0
LINE
  5
8189
  8
3
 62
     0
 10
7684.7075220183988
 20
6351.4251973696018
 30
0.0
 11
7684.7075220183988
 21
6616.1935886618639
 31
0.0
  0
LINE
  5
818A
  8
3
 62
     0
 10
6594.7075220183997
 20
6571.193588661863
 30
0.0
 11
7594.7075220183997
 21
6571.193588661863
 31
0.0
  0
INSERT
  5
818B
  8
3
 62
     0
  2
_OPEN
 10
6504.7075220183988
 20
6571.193588661863
 30
0.0
 41
90.0
 42
90.0
 43
90.0
 50
180.0
  0
INSERT
  5
818C
  8
3
 62
     0
  2
_OPEN
 10
7684.7075220183988
 20
6571.193588661863
 30
0.0
 41
90.0
 42
90.0
 43
90.0
  0
TEXT
  8
3
  40
135
  5
820C
  62
0
  72
0
  71
0
 10
6824.80
 20
6444.74
 30
0.000000
  1
1180
  0
POINT
  5
818E
  8
DEFPOINTS
 62
     0
 10
6504.7075220183988
 20
6328.9251973696028
 30
0.0
  0
POINT
  5
818F
  8
DEFPOINTS
 62
     0
 10
7684.7075220183988
 20
6328.9251973696018
 30
0.0
  0
POINT
  5
8190
  8
DEFPOINTS
 62
     0
 10
7684.7075220183988
 20
6571.193588661863
 30
0.0
  0
ENDBLK
  5
7CE1
  8
0
  0
BLOCK
  8
0
  2
*D10
 70
     1
 10
0.0
 20
0.0
 30
0.0
  3
*D10
  1

  0
LINE
  5
8191
  8
3
 62
     0
 10
7819.7115220183987
 20
6078.1419091789212
 30
0.0
 11
7819.7115220183987
 21
6970.7771023912173
 31
0.0
  0
LINE
  5
8192
  8
3
 62
     0
 10
7094.7075337226233
 20
6791.7485467150727
 30
0.0
 11
7094.7075337226233
 21
6970.7771023912173
 31
0.0
  0
LINE
  5
8193
  8
3
 62
     0
 10
7729.7115220183978
 20
6925.7771023912173
 30
0.0
 11
7184.7075337226224
 21
6925.7771023912173
 31
0.0
  0
INSERT
  5
8194
  8
3
 62
     0
  2
_OPEN
 10
7819.7115220183987
 20
6925.7771023912173
 30
0.0
 41
90.0
 42
90.0
 43
90.0
  0
INSERT
  5
8195
  8
3
 62
     0
  2
_OPEN
 10
7094.7075337226233
 20
6925.7771023912173
 30
0.0
 41
90.0
 42
90.0
 43
90.0
 50
180.0
  0
TEXT
  8
3
  40
135
  5
820D
  62
0
  72
0
  71
0
 10
7188.12
 20
6799.33
 30
0.000000
  1
725
  0
POINT
  5
8197
  8
DEFPOINTS
 62
     0
 10
7819.7115220183987
 20
6055.6419091789212
 30
0.0
  0
POINT
  5
8198
  8
DEFPOINTS
 62
     0
 10
7094.7075337226233
 20
6769.2485467150718
 30
0.0
  0
POINT
  5
8199
  8
DEFPOINTS
 62
     0
 10
7094.7075337226233
 20
6925.7771023912173
 30
0.0
  0
ENDBLK
  5
7FF8
  8
0
  0
BLOCK
  8
0
  2
*D11
 70
     1
 10
0.0
 20
0.0
 30
0.0
  3
*D11
  1

  0
LINE
  5
819A
  8
3
 62
     0
 10
6114.7075004250046
 20
5663.1458817044177
 30
0.0
 11
6114.7075004250046
 21
6970.7771023912173
 31
0.0
  0
LINE
  5
819B
  8
3
 62
     0
 10
7004.7075337226233
 20
6925.7771023912173
 30
0.0
 11
6204.7075004250046
 21
6925.7771023912173
 31
0.0
  0
INSERT
  5
819C
  8
3
 62
     0
  2
_OPEN
 10
7094.7075337226233
 20
6925.7771023912173
 30
0.0
 41
90.0
 42
90.0
 43
90.0
  0
INSERT
  5
819D
  8
3
 62
     0
  2
_OPEN
 10
6114.7075004250046
 20
6925.7771023912173
 30
0.0
 41
90.0
 42
90.0
 43
90.0
 50
180.0
  0
TEXT
  8
3
  40
135
  5
820E
  62
0
  72
0
  71
0
 10
6334.71
 20
6911.83
 30
0.000000
  1
MAX
  0
TEXT
  8
3
  40
135
  5
820F
  62
0
  72
0
  71
0
 10
6334.71
 20
6736.33
 30
0.000000
  1
1080
  0
POINT
  5
819F
  8
DEFPOINTS
 62
     0
 10
7094.7075337226233
 20
6769.2485467150718
 30
0.0
  0
POINT
  5
81A0
  8
DEFPOINTS
 62
     0
 10
6114.7075004250046
 20
5640.6458817044177
 30
0.0
  0
POINT
  5
81A1
  8
DEFPOINTS
 62
     0
 10
6114.7075004250046
 20
6925.7771023912173
 30
0.0
  0
ENDBLK
  5
7ECD
  8
0
  0
BLOCK
  8
0
  2
*D12
 70
     1
 10
0.0
 20
0.0
 30
0.0
  3
*D12
  1

  0
LINE
  5
81A2
  8
3
 62
     0
 10
7842.2115220183978
 20
5990.6458817044186
 30
0.0
 11
8202.1611522942494
 21
5990.6458817044186
 31
0.0
  0
LINE
  5
81A3
  8
3
 62
     0
 10
7842.2115220183978
 20
4390.6458817044177
 30
0.0
 11
8202.1611522942494
 21
4390.6458817044177
 31
0.0
  0
LINE
  5
81A4
  8
3
 62
     0
 10
8157.1611522942476
 20
5900.6458817044177
 30
0.0
 11
8157.1611522942476
 21
4480.6458817044177
 31
0.0
  0
INSERT
  5
81A5
  8
3
 62
     0
  2
_OPEN
 10
8157.1611522942476
 20
5990.6458817044186
 30
0.0
 41
90.0
 42
90.0
 43
90.0
 50
90.0
  0
INSERT
  5
81A6
  8
3
 62
     0
  2
_OPEN
 10
8157.1611522942476
 20
4390.6458817044177
 30
0.0
 41
90.0
 42
90.0
 43
90.0
 50
270.0
  0
TEXT
  8
3
  40
135
  5
8210
  62
0
  72
0
  71
0
 10
7774.66
 20
4953.04
 30
0.000000
  1
φ1600
  0
POINT
  5
81A8
  8
DEFPOINTS
 62
     0
 10
7819.7115220183987
 20
5990.6458817044186
 30
0.0
  0
POINT
  5
81A9
  8
DEFPOINTS
 62
     0
 10
7819.7115220183987
 20
4390.6458817044177
 30
0.0
  0
POINT
  5
81AA
  8
DEFPOINTS
 62
     0
 10
8157.1611522942476
 20
4390.6458817044177
 30
0.0
  0
ENDBLK
  5
7D1D
  8
0
  0
BLOCK
  8
0
  2
*D13
 70
     1
 10
0.0
 20
0.0
 30
0.0
  3
*D13
  1

  0
LINE
  5
81AE
  8
3
 62
     0
 10
4450.152279027443
 20
5190.6458817044186
 30
0.0
 11
5191.6588084472278
 21
5190.6458817044186
 31
0.0
  0
LINE
  5
81AF
  8
3
 62
     0
 10
5146.6588084472269
 20
3380.6458817044181
 30
0.0
 11
5146.6588084472269
 21
5100.6458817044177
 31
0.0
  0
INSERT
  5
81B0
  8
3
 62
     0
  2
_OPEN
 10
5146.6588084472269
 20
3290.6458817044181
 30
0.0
 41
90.0
 42
90.0
 43
90.0
 50
270.0
  0
INSERT
  5
81B1
  8
3
 62
     0
  2
_OPEN
 10
5146.6588084472269
 20
5190.6458817044186
 30
0.0
 41
90.0
 42
90.0
 43
90.0
 50
90.0
  0
TEXT
  8
3
  40
135
  5
8211
  62
0
  72
0
  71
0
 10
4764.16
 20
4001.70
 30
0.000000
  1
1900
  0
POINT
  5
81B3
  8
DEFPOINTS
 62
     0
 10
4215.4770781757397
 20
3290.645881704419
 30
0.0
  0
POINT
  5
81B4
  8
DEFPOINTS
 62
     0
 10
4427.652279027443
 20
5190.6458817044186
 30
0.0
  0
POINT
  5
81B5
  8
DEFPOINTS
 62
     0
 10
5146.6588084472269
 20
5190.6458817044186
 30
0.0
  0
ENDBLK
  5
7F34
  8
0
  0
BLOCK
  8
0
  2
*D14
 70
     1
 10
0.0
 20
0.0
 30
0.0
  3
*D14
  1

  0
LINE
  5
81B6
  8
3
 62
     0
 10
3171.976052825064
 20
6329.6458817044177
 30
0.0
 11
5191.6588084472278
 21
6329.6458817044177
 31
0.0
  0
LINE
  5
81B7
  8
3
 62
     0
 10
5146.6588084472269
 20
5280.6458817044186
 30
0.0
 11
5146.6588084472269
 21
6239.6458817044186
 31
0.0
  0
INSERT
  5
81B8
  8
3
 62
     0
  2
_OPEN
 10
5146.6588084472269
 20
5190.6458817044186
 30
0.0
 41
90.0
 42
90.0
 43
90.0
 50
270.0
  0
INSERT
  5
81B9
  8
3
 62
     0
  2
_OPEN
 10
5146.6588084472269
 20
6329.6458817044177
 30
0.0
 41
90.0
 42
90.0
 43
90.0
 50
90.0
  0
TEXT
  8
3
  40
135
  5
8212
  62
0
  72
0
  71
0
 10
4764.16
 20
5521.20
 30
0.000000
  1
1139
  0
POINT
  5
81BB
  8
DEFPOINTS
 62
     0
 10
4427.652279027443
 20
5190.6458817044186
 30
0.0
  0
POINT
  5
81BC
  8
DEFPOINTS
 62
     0
 10
3149.476052825064
 20
6329.6458817044177
 30
0.0
  0
POINT
  5
81BD
  8
DEFPOINTS
 62
     0
 10
5146.6588084472269
 20
6329.6458817044177
 30
0.0
  0
ENDBLK
  5
7F3E
  8
0
  0
BLOCK
  8
0
  2
*D15
 70
     1
 10
0.0
 20
0.0
 30
0.0
  3
*D15
  1

  0
LINE
  5
81BE
  8
3
 62
     0
 10
4310.4770528250638
 20
5233.1448817044165
 30
0.0
 11
4310.4770528250638
 21
6771.8227141141142
 31
0.0
  0
LINE
  5
81BF
  8
3
 62
     0
 10
3265.4770562244871
 20
6573.8251219797512
 30
0.0
 11
3265.4770562244871
 21
6771.8227141141142
 31
0.0
  0
LINE
  5
81C0
  8
3
 62
     0
 10
4220.4770528250647
 20
6726.8227141141133
 30
0.0
 11
3355.4770562244871
 21
6726.8227141141133
 31
0.0
  0
INSERT
  5
81C1
  8
3
 62
     0
  2
_OPEN
 10
4310.4770528250638
 20
6726.8227141141133
 30
0.0
 41
90.0
 42
90.0
 43
90.0
  0
INSERT
  5
81C2
  8
3
 62
     0
  2
_OPEN
 10
3265.4770562244871
 20
6726.8227141141133
 30
0.0
 41
90.0
 42
90.0
 43
90.0
 50
180.0
  0
TEXT
  8
3
  40
135
  5
8213
  62
0
  72
0
  71
0
 10
3553.44
 20
6600.37
 30
0.000000
  1
1045
  0
POINT
  5
81C4
  8
DEFPOINTS
 62
     0
 10
4310.4770528250638
 20
5210.6448817044165
 30
0.0
  0
POINT
  5
81C5
  8
DEFPOINTS
 62
     0
 10
3265.4770562244871
 20
6551.3251219797521
 30
0.0
  0
POINT
  5
81C6
  8
DEFPOINTS
 62
     0
 10
3265.4770562244871
 20
6726.8227141141133
 30
0.0
  0
ENDBLK
  5
7EF1
  8
0
  0
BLOCK
  8
0
  2
*D16
 70
     1
 10
0.0
 20
0.0
 30
0.0
  3
*D16
  1

  0
LINE
  5
81C7
  8
3
 62
     0
 10
1894.477052825064
 20
5097.1458817044186
 30
0.0
 11
1894.477052825064
 21
6771.8227141141142
 31
0.0
  0
LINE
  5
81C8
  8
3
 62
     0
 10
3175.4770562244871
 20
6726.8227141141133
 30
0.0
 11
1984.477052825064
 21
6726.8227141141133
 31
0.0
  0
INSERT
  5
81C9
  8
3
 62
     0
  2
_OPEN
 10
3265.4770562244871
 20
6726.8227141141133
 30
0.0
 41
90.0
 42
90.0
 43
90.0
  0
INSERT
  5
81CA
  8
3
 62
     0
  2
_OPEN
 10
1894.477052825064
 20
6726.8227141141133
 30
0.0
 41
90.0
 42
90.0
 43
90.0
 50
180.0
  0
TEXT
  8
3
  40
135
  5
8214
  62
0
  72
0
  71
0
 10
2309.98
 20
6600.37
 30
0.000000
  1
1371
  0
POINT
  5
81CC
  8
DEFPOINTS
 62
     0
 10
3265.4770562244871
 20
6551.3251219797521
 30
0.0
  0
POINT
  5
81CD
  8
DEFPOINTS
 62
     0
 10
1894.477052825064
 20
5074.6458817044186
 30
0.0
  0
POINT
  5
81CE
  8
DEFPOINTS
 62
     0
 10
1894.477052825064
 20
6726.8227141141133
 30
0.0
  0
ENDBLK
  5
7EFB
  8
0
  0
BLOCK
  8
0
  2
*D17
 70
     1
 10
0.0
 20
0.0
 30
0.0
  3
*D17
  1

  0
LINE
  5
81CF
  8
3
 62
     0
 10
4310.4770528250638
 20
5168.1448817044156
 30
0.0
 11
4310.4770528250638
 21
7052.726511390345
 31
0.0
  0
LINE
  5
81D0
  8
3
 62
     0
 10
1115.4770769422009
 20
3463.1466558948491
 30
0.0
 11
1115.4770769422009
 21
7052.726511390345
 31
0.0
  0
LINE
  5
81D1
  8
3
 62
     0
 10
4220.4770528250647
 20
7007.726511390345
 30
0.0
 11
1205.4770769422009
 21
7007.726511390345
 31
0.0
  0
INSERT
  5
81D2
  8
3
 62
     0
  2
_OPEN
 10
4310.4770528250638
 20
7007.726511390345
 30
0.0
 41
90.0
 42
90.0
 43
90.0
  0
INSERT
  5
81D3
  8
3
 62
     0
  2
_OPEN
 10
1115.4770769422009
 20
7007.726511390345
 30
0.0
 41
90.0
 42
90.0
 43
90.0
 50
180.0
  0
TEXT
  8
3
  40
135
  5
8215
  62
0
  72
0
  71
0
 10
2507.62
 20
6881.28
 30
0.000000
  1
3195
  0
POINT
  5
81D5
  8
DEFPOINTS
 62
     0
 10
4310.4770528250638
 20
5145.6448817044156
 30
0.0
  0
POINT
  5
81D6
  8
DEFPOINTS
 62
     0
 10
1115.4770769422009
 20
3440.6466558948482
 30
0.0
  0
POINT
  5
81D7
  8
DEFPOINTS
 62
     0
 10
1115.4770769422009
 20
7007.726511390345
 30
0.0
  0
ENDBLK
  5
7F06
  8
0
  0
BLOCK
  8
0
  2
*D18
 70
     1
 10
0.0
 20
0.0
 30
0.0
  3
*D18
  1

  0
LINE
  5
81D8
  8
3
 62
     0
 10
1115.477078175732
 20
3268.146655894845
 30
0.0
 11
1115.477078175732
 21
2945.4173047949112
 31
0.0
  0
LINE
  5
81D9
  8
3
 62
     0
 10
3265.477108981197
 20
3268.1461189563161
 30
0.0
 11
3265.477108981197
 21
2945.4173047949112
 31
0.0
  0
LINE
  5
81DA
  8
3
 62
     0
 10
1205.477078175732
 20
2990.4173047949112
 30
0.0
 11
3175.477108981197
 21
2990.4173047949112
 31
0.0
  0
INSERT
  5
81DB
  8
3
 62
     0
  2
_OPEN
 10
1115.477078175732
 20
2990.4173047949112
 30
0.0
 41
90.0
 42
90.0
 43
90.0
 50
180.0
  0
INSERT
  5
81DC
  8
3
 62
     0
  2
_OPEN
 10
3265.477108981197
 20
2990.4173047949112
 30
0.0
 41
90.0
 42
90.0
 43
90.0
  0
TEXT
  8
3
  40
135
  5
8216
  62
0
  72
0
  71
0
 10
1920.48
 20
2863.97
 30
0.000000
  1
2150
  0
POINT
  5
81DE
  8
DEFPOINTS
 62
     0
 10
1115.477078175732
 20
3290.646655894845
 30
0.0
  0
POINT
  5
81DF
  8
DEFPOINTS
 62
     0
 10
3265.477108981197
 20
3290.6461189563161
 30
0.0
  0
POINT
  5
81E0
  8
DEFPOINTS
 62
     0
 10
3265.477108981197
 20
2990.4173047949112
 30
0.0
  0
ENDBLK
  5
800C
  8
0
  0
BLOCK
  8
0
  2
*D19
 70
     1
 10
0.0
 20
0.0
 30
0.0
  3
*D19
  1

  0
LINE
  5
81E1
  8
3
 62
     0
 10
3265.477108981197
 20
3268.1461189563161
 30
0.0
 11
3265.477108981197
 21
2945.4173047949112
 31
0.0
  0
LINE
  5
81E2
  8
3
 62
     0
 10
4215.4770781757397
 20
3268.1458817044172
 30
0.0
 11
4215.4770781757397
 21
2945.4173047949112
 31
0.0
  0
LINE
  5
81E3
  8
3
 62
     0
 10
3355.477108981197
 20
2990.4173047949112
 30
0.0
 11
4125.4770781757397
 21
2990.4173047949112
 31
0.0
  0
INSERT
  5
81E4
  8
3
 62
     0
  2
_OPEN
 10
3265.477108981197
 20
2990.4173047949112
 30
0.0
 41
90.0
 42
90.0
 43
90.0
 50
180.0
  0
INSERT
  5
81E5
  8
3
 62
     0
  2
_OPEN
 10
4215.4770781757397
 20
2990.4173047949112
 30
0.0
 41
90.0
 42
90.0
 43
90.0
  0
TEXT
  8
3
  40
135
  5
8217
  62
0
  72
0
  71
0
 10
3470.48
 20
2863.97
 30
0.000000
  1
950
  0
POINT
  5
81E7
  8
DEFPOINTS
 62
     0
 10
3265.477108981197
 20
3290.6461189563161
 30
0.0
  0
POINT
  5
81E8
  8
DEFPOINTS
 62
     0
 10
4215.4770781757397
 20
3290.6458817044172
 30
0.0
  0
POINT
  5
81E9
  8
DEFPOINTS
 62
     0
 10
4215.4770781757397
 20
2990.4173047949112
 30
0.0
  0
ENDBLK
  5
8019
  8
0
  0
BLOCK
  8
0
  2
*D20
 70
     1
 10
0.0
 20
0.0
 30
0.0
  3
*D20
  1

  0
LINE
  5
81EA
  8
3
 62
     0
 10
6163.707593470046
 20
3268.1458817044181
 30
0.0
 11
6163.707593470046
 21
2945.4173047949112
 31
0.0
  0
LINE
  5
81EB
  8
3
 62
     0
 10
7094.7076699929421
 20
3268.1452998297341
 30
0.0
 11
7094.7076699929421
 21
2945.4173047949112
 31
0.0
  0
LINE
  5
81EC
  8
3
 62
     0
 10
6253.7075934700451
 20
2990.4173047949112
 30
0.0
 11
7004.7076699929421
 21
2990.4173047949112
 31
0.0
  0
INSERT
  5
81ED
  8
3
 62
     0
  2
_OPEN
 10
6163.707593470046
 20
2990.4173047949112
 30
0.0
 41
90.0
 42
90.0
 43
90.0
 50
180.0
  0
INSERT
  5
81EE
  8
3
 62
     0
  2
_OPEN
 10
7094.7076699929421
 20
2990.4173047949112
 30
0.0
 41
90.0
 42
90.0
 43
90.0
  0
TEXT
  8
3
  40
135
  5
8218
  62
0
  72
0
  71
0
 10
6359.21
 20
2863.97
 30
0.000000
  1
931
  0
POINT
  5
81F0
  8
DEFPOINTS
 62
     0
 10
6163.707593470046
 20
3290.645881704419
 30
0.0
  0
POINT
  5
81F1
  8
DEFPOINTS
 62
     0
 10
7094.7076699929421
 20
3290.6452998297332
 30
0.0
  0
POINT
  5
81F2
  8
DEFPOINTS
 62
     0
 10
7094.7076699929421
 20
2990.4173047949112
 30
0.0
  0
ENDBLK
  5
8026
  8
0
  0
BLOCK
  8
0
  2
*D21
 70
     1
 10
0.0
 20
0.0
 30
0.0
  3
*D21
  1

  0
LINE
  5
81F3
  8
3
 62
     0
 10
7094.7076699929421
 20
3268.1452998297341
 30
0.0
 11
7094.7076699929421
 21
2945.4173047949112
 31
0.0
  0
LINE
  5
81F4
  8
3
 62
     0
 10
7763.7075934700688
 20
3268.1448817050441
 30
0.0
 11
7763.7075934700688
 21
2945.4173047949112
 31
0.0
  0
LINE
  5
81F5
  8
3
 62
     0
 10
7184.7076699929421
 20
2990.4173047949112
 30
0.0
 11
7673.7075934700679
 21
2990.4173047949112
 31
0.0
  0
INSERT
  5
81F6
  8
3
 62
     0
  2
_OPEN
 10
7094.7076699929421
 20
2990.4173047949112
 30
0.0
 41
90.0
 42
90.0
 43
90.0
 50
180.0
  0
INSERT
  5
81F7
  8
3
 62
     0
  2
_OPEN
 10
7763.7075934700688
 20
2990.4173047949112
 30
0.0
 41
90.0
 42
90.0
 43
90.0
  0
TEXT
  8
3
  40
135
  5
8219
  62
0
  72
0
  71
0
 10
7159.21
 20
2863.97
 30
0.000000
  1
669
  0
POINT
  5
81F9
  8
DEFPOINTS
 62
     0
 10
7094.7076699929421
 20
3290.6452998297332
 30
0.0
  0
POINT
  5
81FA
  8
DEFPOINTS
 62
     0
 10
7763.7075934700688
 20
3290.6448817050432
 30
0.0
  0
POINT
  5
81FB
  8
DEFPOINTS
 62
     0
 10
7763.7075934700688
 20
2990.4173047949112
 30
0.0
  0
ENDBLK
  5
8033
  8
0
  0
BLOCK
  8
0
  2
*D22
 70
     1
 10
0.0
 20
0.0
 30
0.0
  3
*D22
  1

  0
LINE
  5
81FC
  8
3
 62
     0
 10
3216.9760528250649
 20
6329.6458817044177
 30
0.0
 11
5558.4361634677407
 21
6329.6458817044177
 31
0.0
  0
LINE
  5
81FD
  8
3
 62
     0
 10
4237.9770781757397
 20
3290.645881704419
 30
0.0
 11
5558.4361634677407
 21
3290.6458817044181
 31
0.0
  0
LINE
  5
81FE
  8
3
 62
     0
 10
5513.4361634677416
 20
6239.6458817044186
 30
0.0
 11
5513.4361634677407
 21
3380.6458817044181
 31
0.0
  0
INSERT
  5
81FF
  8
3
 62
     0
  2
_OPEN
 10
5513.4361634677416
 20
6329.6458817044177
 30
0.0
 41
90.0
 42
90.0
 43
90.0
 50
90.0
  0
INSERT
  5
8200
  8
3
 62
     0
  2
_OPEN
 10
5513.4361634677407
 20
3290.6458817044181
 30
0.0
 41
90.0
 42
90.0
 43
90.0
 50
270.0
  0
TEXT
  8
3
  40
135
  5
821A
  62
0
  72
0
  71
0
 10
5130.94
 20
4571.20
 30
0.000000
  1
3039
  0
POINT
  5
8202
  8
DEFPOINTS
 62
     0
 10
3194.476052825064
 20
6329.6458817044177
 30
0.0
  0
POINT
  5
8203
  8
DEFPOINTS
 62
     0
 10
4215.4770781757397
 20
3290.645881704419
 30
0.0
  0
POINT
  5
8204
  8
DEFPOINTS
 62
     0
 10
5513.4361634677407
 20
3290.6458817044181
 30
0.0
  0
ENDBLK
  5
8040
  8
0
  0
ENDSEC
  0
SECTION
  2
ENTITIES
  0
LINE
  5
7AE2
  8
1
 10
7763.707593470067
 20
3290.6448817050432
 30
0.0
 11
6163.7065220184058
 21
3290.645881705088
 31
0.0
1001
ACAD
1000
ASC_BOUNDS
1002
{
1070
    19
1002
}
  0
LINE
  5
7AE3
  8
1
 10
7763.707590170111
 20
3440.645881705088
 30
0.0
 11
6163.7065220184058
 21
3440.645881705088
 31
0.0
  0
LINE
  5
7AE6
  8
2
 10
6063.7309031003824
 20
5190.6458817044186
 30
0.0
 11
7883.8235613357328
 21
5190.6458817044186
 31
0.0
  0
LINE
  5
7AE7
  8
1
 10
6164.7075220183988
 20
4880.7309173361409
 30
0.0
 11
6264.7075220183997
 21
4880.7309173361873
 31
0.0
  0
LINE
  5
7AE8
  8
1
 10
6164.7075220183988
 20
5486.9032782593968
 30
0.0
 11
6264.7075220183997
 21
5486.9032782594431
 31
0.0
  0
LINE
  5
7AE9
  8
1
 10
6114.7075004250046
 20
5640.6458817044177
 30
0.0
 11
6304.7075036057377
 21
5640.6458817044177
 31
0.0
  0
LINE
  5
7AEC
  8
1
 10
1115.477078175732
 20
3290.646655894845
 30
0.0
 11
4215.4770781757397
 21
3290.645881704419
 31
0.0
1001
ACAD
1000
ASC_BOUNDS
1002
{
1070
    19
1005
0
1005
0
1002
}
  0
LINE
  5
7AED
  8
1
 10
1115.4770769422009
 20
3440.6466558948482
 30
0.0
 11
4215.4770769422057
 21
3440.6458817044231
 31
0.0
1001
ACAD
1000
ASC_BOUNDS
1002
{
1070
    19
1002
}
  0
ARC
  5
7AEE
  8
1
 10
3149.476052825064
 20
5074.6458817044186
 30
0.0
 40
1255.0
 50
84.696999999999875
 51
174.69599999999991
  0
ARC
  5
7AEF
  8
1
 10
3381.4770528250651
 20
5074.6458817044186
 30
0.0
 40
1487.0
 50
175.5259999999999
 51
265.5259999999999
  0
LINE
  5
7AF0
  8
1
 10
1217.785624593934
 20
3500.6466558951738
 30
0.0
 11
1364.6059617094029
 21
3500.6466558951738
 31
0.0
  0
LINE
  5
7AF1
  8
1
 10
1115.477078175732
 20
3290.6466558948441
 30
0.0
 11
1115.4770769422009
 21
3440.6466558948482
 31
0.0
  0
LINE
  5
7AF3
  8
1
 10
1217.785624593934
 20
3500.6466558951738
 30
0.0
 11
1205.476707708063
 21
3440.646622715341
 31
0.0
  0
LINE
  5
7AF4
  8
1
 10
1566.3474537067229
 20
3485.2148057374311
 30
0.0
 11
1465.476707708063
 21
3485.2148057374311
 31
0.0
  0
LINE
  5
7AF5
  8
1
 10
1364.6059617094029
 20
3485.2148057374311
 30
0.0
 11
1465.476707708063
 21
3485.2148057374311
 31
0.0
  0
LINE
  5
7AF6
  8
1
 10
1364.6059617094029
 20
3500.6466558951738
 30
0.0
 11
1364.6059617094029
 21
3485.2148057374311
 31
0.0
  0
LINE
  5
7AF7
  8
1
 10
1635.476707708063
 20
3500.6466558951729
 30
0.0
 11
1655.476707708063
 21
3500.6466558951729
 31
0.0
  0
LINE
  5
7AF8
  8
1
 10
1713.1677908221909
 20
3500.6466558951738
 30
0.0
 11
1566.3474537067229
 21
3500.6466558951738
 31
0.0
  0
LINE
  5
7AF9
  8
1
 10
1566.3474537067229
 20
3500.6466558951738
 30
0.0
 11
1566.3474537067229
 21
3485.2148057374311
 31
0.0
  0
LINE
  5
7AFA
  8
1
 10
1713.1677908221909
 20
3500.6466558951738
 30
0.0
 11
1725.476707708063
 21
3440.646622715341
 31
0.0
  0
LINE
  5
7AFC
  8
1
 10
6114.7059025172193
 20
3420.6486284212988
 30
0.0
 11
6114.7075004250046
 21
5640.6458817044177
 31
0.0
  0
LINE
  5
7AFD
  8
2
 10
3265.477108981197
 20
3290.6461189563161
 30
0.0
 11
3265.4770562244871
 21
6551.3251219797521
 31
0.0
  0
ARC
  5
7AFE
  8
1
 10
3168.476052825064
 20
5287.6458817044186
 30
0.0
 40
1042.0
 50
354.6579999999999
 51
84.658999999999935
  0
LINE
  5
7AFF
  8
1
 10
4215.4770781757397
 20
3290.6458817044172
 30
0.0
 11
4215.4770769422057
 21
3440.6458817044231
 31
0.0
  0
LINE
  5
7B01
  8
1
 10
4215.4770528250656
 20
3440.6446558971361
 30
0.0
 11
4215.4770528250656
 21
3440.6458817044281
 31
0.0
  0
LINE
  5
7B02
  8
1
 10
4310.4770528250638
 20
5145.6448817044156
 30
0.0
 11
4310.4770528250629
 21
3495.644881704417
 31
0.0
  0
LINE
  5
7B03
  8
1
 10
4304.4770528250656
 20
5210.6448817044165
 30
0.0
 11
4304.4770528250619
 21
3430.6448817044161
 31
0.0
  0
LINE
  5
7B04
  8
1
 10
4245.4770528250647
 20
5145.6448817044156
 30
0.0
 11
4245.4770528250619
 21
3501.6492644795371
 31
0.0
  0
CIRCLE
  5
7B05
  8
1
 10
3265.4764714580028
 20
5190.6441025964177
 30
0.0
 40
300.0
  0
LINE
  5
7B06
  8
2
 10
1685.155931303645
 20
5190.6458817044186
 30
0.0
 11
4405.152279027443
 21
5190.6458817044186
 31
0.0
  0
ARC
  5
7B07
  8
1
 10
3362.4770528250651
 20
5287.6458817044186
 30
0.0
 40
848.0
 50
324.11999999999989
 51
353.43099999999981
  0
LINE
  5
7B08
  8
1
 10
4310.4770528250638
 20
5210.6448817044165
 30
0.0
 11
4310.4770528250638
 21
5145.6448817044156
 31
0.0
  0
LINE
  5
7B09
  8
1
 10
4310.4770528250638
 20
5210.6448817044165
 30
0.0
 11
4304.4770528250656
 21
5210.6448817044165
 31
0.0
  0
LINE
  5
7B0A
  8
1
 10
4198.5031983486369
 20
5145.6448817044156
 30
0.0
 11
4310.4770528250638
 21
5145.6448817044156
 31
0.0
  0
LINE
  5
7B0B
  8
1
 10
4310.4770528250638
 20
5145.6448817044156
 30
0.0
 11
4245.4770528250647
 21
5145.6448817044156
 31
0.0
  0
CIRCLE
  5
7B0C
  8
1
 10
4071.1470581266012
 20
4784.7592890976557
 30
0.0
 40
22.270700527454458
  0
LINE
  5
7B0D
  8
1
 10
3265.4770528250629
 20
3592.176881704419
 30
0.0
 11
4310.4770528250629
 21
3495.644881704417
 31
0.0
  0
LINE
  5
7B0F
  8
1
 10
4310.4770528250629
 20
3430.6448817044161
 30
0.0
 11
4304.4770528250619
 21
3430.6448817044161
 31
0.0
  0
LINE
  5
7B10
  8
1
 10
4310.4770528250629
 20
3495.644881704417
 30
0.0
 11
4310.4770528250629
 21
3430.6448817044161
 31
0.0
  0
LINE
  5
7B11
  8
1
 10
6164.7075220183988
 20
3560.6486284212988
 30
0.0
 11
6164.7075220183988
 21
5486.9032782593968
 31
0.0
  0
LINE
  5
7B12
  8
1
 10
1894.477052825064
 20
9215.4279752239781
 30
0.0
 11
1115.476411863254
 21
9215.4279752239781
 31
0.0
  0
LINE
  5
7B13
  8
1
 10
4215.4767997383533
 20
8115.4279752239781
 30
0.0
 11
1115.4767997381459
 21
8115.4279752239781
 31
0.0
  0
LINE
  5
7B14
  8
1
 10
1115.476411863252
 20
9215.4279752239781
 30
0.0
 11
1115.4767997381459
 21
8115.4279752239781
 31
0.0
  0
LINE
  5
7B15
  8
1
 10
4215.4762355566472
 20
9715.4281007652426
 30
0.0
 11
4215.476263413515
 21
9636.4269745076563
 31
0.0
  0
LINE
  5
7B16
  8
1
 10
2315.4762355565722
 20
9715.4279752239781
 30
0.0
 11
4215.4762355566927
 21
9715.4279752239781
 31
0.0
  0
LINE
  5
7B17
  8
2
 10
3265.4770528250642
 20
7959.1962782092987
 30
0.0
 11
3265.4770528250642
 21
9815.3130118665249
 31
0.0
  0
LINE
  5
7B18
  8
1
 10
2315.4762355565731
 20
9715.4279752239781
 30
0.0
 11
2315.4762634133649
 21
9636.4270585840477
 31
0.0
  0
LINE
  5
7B19
  8
1
 10
7819.7115220183987
 20
4325.6429091789214
 30
0.0
 11
7819.7115220183987
 21
6055.6419091789212
 31
0.0
  0
LINE
  5
7B1A
  8
1
 10
7813.7115220183978
 20
6055.6419091789212
 30
0.0
 11
7813.7115220183978
 21
4325.6429091789214
 31
0.0
  0
LINE
  5
7B1B
  8
1
 10
7693.9065220184029
 20
4325.6429091789214
 30
0.0
 11
7693.9065220184011
 21
6055.6419091789212
 31
0.0
  0
LINE
  5
7B1E
  8
2
 10
7094.7075423732886
 20
6554.2383329403356
 30
0.0
 11
7094.7076699929421
 21
3290.6452998297332
 31
0.0
  0
LINE
  5
7B21
  8
1
 10
6304.7064483679233
 20
3420.6486284212988
 30
0.0
 11
6304.7065172506891
 21
3532.8803487413979
 31
0.0
  0
LINE
  5
7B22
  8
1
 10
7752.9065220184029
 20
4390.6458817044177
 30
0.0
 11
7819.7115220183987
 21
4390.6458817044177
 31
0.0
  0
LINE
  5
7B24
  8
1
 10
7687.9065220184011
 20
4390.6429091789214
 30
0.0
 11
7752.9065220184029
 21
4390.6429091789214
 31
0.0
  0
LINE
  5
7B27
  8
1
 10
7752.9065220184029
 20
4390.6429091789214
 30
0.0
 11
7752.9065220184029
 21
4388.6429091789223
 31
0.0
  0
LINE
  5
7B2D
  8
1
 10
7687.9065220184011
 20
4325.6429091789214
 30
0.0
 11
7693.9065220184011
 21
4325.6429091789214
 31
0.0
  0
LINE
  5
7B2F
  8
1
 10
7687.9065220184011
 20
4390.6429091789214
 30
0.0
 11
7687.9065220184011
 21
4325.6429091789214
 31
0.0
  0
LINE
  5
7B33
  8
1
 10
7819.7115220183987
 20
4325.6429091789214
 30
0.0
 11
7813.7115220183978
 21
4325.6429091789214
 31
0.0
  0
LINE
  5
7B35
  8
1
 10
7819.7115220183987
 20
4325.6429091789214
 30
0.0
 11
7819.7115220183987
 21
4390.6429091789214
 31
0.0
  0
LINE
  5
7B36
  8
1
 10
6504.7075220184061
 20
6329.6458817044177
 30
0.0
 11
6504.7075220184006
 21
3900.6486284212988
 31
0.0
  0
LINE
  5
7B37
  8
1
 10
7684.7075220184042
 20
6329.6458817044177
 30
0.0
 11
7684.7075220183988
 21
3495.6458542299142
 31
0.0
  0
LINE
  5
7B38
  8
1
 10
7752.9065220184029
 20
3440.6458817050889
 30
0.0
 11
7752.9065220184029
 21
4390.6458817044177
 31
0.0
  0
LINE
  5
7B3A
  8
1
 10
6264.7075220183997
 20
5486.9032782594431
 30
0.0
 11
6264.7075220183979
 21
3560.6486284212988
 31
0.0
  0
LINE
  5
7B3B
  8
1
 10
6264.7075220183997
 20
5140.6439091789207
 30
0.0
 11
6504.7070045704713
 21
5140.6439091789207
 31
0.0
  0
LINE
  5
7B3C
  8
1
 10
6264.7075220183997
 20
5240.6419091789212
 30
0.0
 11
6504.7075220184042
 21
5240.6419091789212
 31
0.0
  0
LINE
  5
7B3D
  8
1
 10
6304.707390597714
 20
5456.5202130513744
 30
0.0
 11
6304.7075036057377
 21
5640.6458817044177
 31
0.0
  0
LINE
  5
7B3E
  8
1
 10
7752.9065220184029
 20
5990.6458817044186
 30
0.0
 11
7819.7115220183987
 21
5990.6458817044186
 31
0.0
  0
LINE
  5
7B41
  8
1
 10
7687.9065220184011
 20
5990.6419091789212
 30
0.0
 11
7752.9065220184029
 21
5990.6419091789212
 31
0.0
  0
LINE
  5
7B43
  8
1
 10
7687.9065220184011
 20
5990.6419091789212
 30
0.0
 11
7687.9065220184011
 21
6055.6419091789212
 31
0.0
  0
LINE
  5
7B4D
  8
1
 10
7819.7115220183987
 20
6055.6419091789212
 30
0.0
 11
7819.7115220183987
 21
5990.6419091789212
 31
0.0
  0
LINE
  5
7B53
  8
1
 10
7684.7075220184006
 20
3495.6458542299142
 30
0.0
 11
6504.7061862228302
 21
3495.6458542299129
 31
0.0
  0
LINE
  5
7B54
  8
1
 10
1568.3063384978991
 20
3505.026955886136
 30
0.0
 11
1362.647076918227
 21
3505.026955886136
 31
0.0
  0
LINE
  5
7B55
  8
2
 10
1759.7748047557141
 20
3700.6466558951738
 30
0.0
 11
1150.4279293138709
 21
3700.6466558951738
 31
0.0
  0
ARC
  5
7B56
  8
1
 10
1465.476707708063
 20
3700.6466558951738
 30
0.0
 40
221.0
 50
297.7291503578308
 51
242.270849642169
  0
LINE
  5
7B57
  8
1
 10
1654.476707708063
 20
3500.6466558951738
 30
0.0
 11
1574.476707708063
 21
3500.6466558951738
 31
0.0
  0
LINE
  5
7B58
  8
1
 10
1654.476707708063
 20
3520.6466558951738
 30
0.0
 11
1593.6991706387059
 21
3520.6466558951738
 31
0.0
  0
LINE
  5
7B59
  8
1
 10
1624.476707708063
 20
3480.1466558951738
 30
0.0
 11
1624.476707708063
 21
3550.342266654437
 31
0.0
  0
LINE
  5
7B5A
  8
1
 10
1654.476707708063
 20
3500.6466558951738
 30
0.0
 11
1654.476707708063
 21
3554.657992908833
 31
0.0
  0
LINE
  5
7B5B
  8
1
 10
1654.476707708063
 20
3554.657992908833
 30
0.0
 11
1642.5818116495991
 21
3568.454439188371
 31
0.0
  0
LINE
  5
7B5C
  8
1
 10
1574.476707708063
 20
3509.7753593003408
 30
0.0
 11
1574.476707708063
 21
3500.6466558951738
 31
0.0
  0
LINE
  5
7B5D
  8
2
 10
1465.476707708063
 20
3358.9203212424281
 30
0.0
 11
1465.476707708063
 21
4001.2075426594238
 31
0.0
  0
LINE
  5
7B5E
  8
1
 10
1276.476707708063
 20
3520.6466558951738
 30
0.0
 11
1337.254244777419
 21
3520.6466558951752
 31
0.0
  0
LINE
  5
7B5F
  8
1
 10
1276.476707708063
 20
3500.6466558951738
 30
0.0
 11
1356.476707708063
 21
3500.6466558951738
 31
0.0
  0
LINE
  5
7B60
  8
1
 10
1306.476707708063
 20
3480.1466558951738
 30
0.0
 11
1306.476707708063
 21
3550.342266654437
 31
0.0
  0
LINE
  5
7B61
  8
1
 10
1356.476707708063
 20
3509.7753593003408
 30
0.0
 11
1356.476707708063
 21
3500.6466558951738
 31
0.0
  0
LINE
  5
7B62
  8
1
 10
1276.476707708063
 20
3500.6466558951738
 30
0.0
 11
1276.476707708063
 21
3554.6579929088339
 31
0.0
  0
LINE
  5
7B63
  8
1
 10
1276.476707708063
 20
3554.657992908833
 30
0.0
 11
1288.371603766529
 21
3568.4544391883751
 31
0.0
  0
CIRCLE
  5
7B65
  8
1
 10
1465.476707708063
 20
3700.6466558951738
 30
0.0
 40
140.0
  0
ARC
  5
7B66
  8
1
 10
1465.476707708063
 20
3700.6466558951738
 30
0.0
 40
280.0
 50
134.52724707410579
 51
304.70718210862429
  0
ARC
  5
7B67
  8
1
 10
3265.4749725603019
 20
5190.6458817044186
 30
0.0
 40
480.0
 50
304.70718210862441
 51
134.52724707410579
  0
LINE
  5
7B69
  8
1
 10
3023.8871235425208
 20
5367.9573103842813
 30
0.0
 11
1400.6420428515271
 21
3824.729153584979
 31
0.0
  0
LINE
  5
7B6C
  8
1
 10
6164.7065220184022
 20
3840.6486284212988
 30
0.0
 11
6264.7075220183979
 21
3840.6486284212988
 31
0.0
  0
LINE
  5
7B6D
  8
1
 10
6164.7065220184022
 20
3560.6486284212988
 30
0.0
 11
6264.7075220183979
 21
3560.6486284212988
 31
0.0
  0
LINE
  5
7B6E
  8
1
 10
7684.7075220183988
 20
5145.6458542299151
 30
0.0
 11
6504.7075220183979
 21
5145.6458542299133
 31
0.0
  0
LINE
  5
7B6F
  8
1
 10
7763.707590170111
 20
3440.645881705088
 30
0.0
 11
7763.7075934700688
 21
3290.6448817050432
 31
0.0
  0
LINE
  5
7B70
  8
1
 10
6163.707590170111
 20
3440.645881705088
 30
0.0
 11
6163.707593470046
 21
3290.645881704419
 31
0.0
  0
LINE
  5
7B73
  8
1
 10
6114.7059025172193
 20
3420.6486284212988
 30
0.0
 11
6304.7064483679233
 21
3420.6486284212988
 31
0.0
  0
LINE
  5
7B74
  8
1
 10
7687.9065220184011
 20
5990.6419091789212
 30
0.0
 11
7687.9065220184011
 21
4390.6429091789214
 31
0.0
  0
LINE
  5
7B75
  8
1
 10
7684.7075220183988
 20
3495.6458542299142
 30
0.0
 11
6504.7075220184042
 21
5140.6498542299159
 31
0.0
  0
LINE
  5
7B76
  8
1
 10
6504.7075220183988
 20
3495.6458542299129
 30
0.0
 11
7684.7075220184042
 21
5145.6458542299151
 31
0.0
  0
LINE
  5
7B77
  8
2
 10
4399.4737481925868
 20
9046.4269663656341
 30
0.0
 11
1740.607123671439
 21
9046.4270840224253
 31
0.0
  0
LINE
  5
7B78
  8
1
 10
1185.476707708063
 20
8066.4258305350013
 30
0.0
 11
1185.476707708063
 21
8256.4258509483261
 31
0.0
  0
LINE
  5
7B79
  8
1
 10
1325.476707708063
 20
8116.4259245988051
 30
0.0
 11
1325.476707708063
 21
8216.4259245988051
 31
0.0
  0
LINE
  5
7B7A
  8
1
 10
1605.476707708063
 20
8116.4259245988051
 30
0.0
 11
1605.476707708063
 21
8216.4259245988032
 31
0.0
  0
LINE
  5
7B7B
  8
1
 10
3715.4770528250642
 20
8066.4269030054102
 30
0.0
 11
3715.4770528250642
 21
8256.4269061861396
 31
0.0
  0
LINE
  5
7B7C
  8
1
 10
3561.7344493800429
 20
8116.4269245988035
 30
0.0
 11
3561.7344493800888
 21
8216.4269245988035
 31
0.0
  0
LINE
  5
7B7D
  8
1
 10
2955.562088456787
 20
8116.4269245988035
 30
0.0
 11
2955.562088456833
 21
8216.4269245988035
 31
0.0
  0
LINE
  5
7B7E
  8
1
 10
2955.562088456787
 20
8116.4269245988035
 30
0.0
 11
3561.7344493800429
 21
8116.4269245988035
 31
0.0
  0
LINE
  5
7B7F
  8
1
 10
1185.476707708063
 20
8066.4258305350013
 30
0.0
 11
3715.4770528250642
 21
8066.4269030054102
 31
0.0
  0
LINE
  5
7B80
  8
1
 10
1325.476707708063
 20
8116.4259245988051
 30
0.0
 11
2955.562088456787
 21
8116.4259245988051
 31
0.0
  0
LINE
  5
7B81
  8
1
 10
3561.7344493800888
 20
8216.4269245988035
 30
0.0
 11
2955.562088456833
 21
8216.4269245988035
 31
0.0
  0
LINE
  5
7B82
  8
1
 10
1325.476707708063
 20
8216.4259245988051
 30
0.0
 11
2955.562088456833
 21
8216.4259245988051
 31
0.0
  0
LINE
  5
7B83
  8
1
 10
3215.4750802995668
 20
8216.4269245988035
 30
0.0
 11
3215.4750802995668
 21
8456.4264071508769
 31
0.0
  0
LINE
  5
7B84
  8
1
 10
1185.476707708063
 20
8256.4253533861374
 30
0.0
 11
3715.4770528250642
 21
8256.4269061861396
 31
0.0
  0
LINE
  5
7B85
  8
1
 10
3315.4730802995668
 20
8216.4269245988035
 30
0.0
 11
3315.4730802995668
 21
8456.4269245988053
 31
0.0
  0
LINE
  5
7B86
  8
1
 10
4310.4770528250638
 20
9636.4269703038026
 30
0.0
 11
1894.477052825064
 21
9636.4270772135715
 31
0.0
  0
LINE
  5
7B87
  8
1
 10
4310.4770528250638
 20
8456.4269703038008
 30
0.0
 11
1894.477052825064
 21
8456.4270772135678
 31
0.0
  0
LINE
  5
7B88
  8
1
 10
4310.4770528250638
 20
8391.4269703038026
 30
0.0
 11
4310.4770528250638
 21
9701.4269703038026
 31
0.0
  0
LINE
  5
7B89
  8
1
 10
1894.4770528250631
 20
8456.4270772135678
 30
0.0
 11
1894.477052825064
 21
9636.4270772135678
 31
0.0
  0
LINE
  5
7B8A
  8
1
 10
4215.4766794974903
 20
8456.4269745076399
 30
0.0
 11
4215.4767997383533
 21
8115.4279752239781
 31
0.0
  0
LINE
  5
7B8B
  8
1
 10
4245.4770528250647
 20
8456.4269731800978
 30
0.0
 11
4245.4770528250647
 21
9636.4269731800996
 31
0.0
  0
LINE
  5
7B8C
  8
2
 10
1465.476707708063
 20
7959.289523672127
 30
0.0
 11
1465.476707708063
 21
9012.2852287046444
 31
0.0
  0
LINE
  5
7B8D
  8
1
 10
1255.476707708063
 20
8959.5430260198282
 30
0.0
 11
1665.476707708063
 21
8959.5430260198282
 31
0.0
  0
LINE
  5
7B8E
  8
1
 10
1543.476707708063
 20
8310.0430260198318
 30
0.0
 11
1465.476707708063
 21
8310.0430260198318
 31
0.0
  0
LINE
  5
7B8F
  8
1
 10
1665.476707708063
 20
8321.5430260198282
 30
0.0
 11
1665.476707708063
 21
8959.5430260198282
 31
0.0
  0
LINE
  5
7B90
  8
1
 10
1545.476707708063
 20
8322.1961020198305
 30
0.0
 11
1545.476707708063
 21
8312.04302601983
 31
0.0
  0
ARC
  5
7B91
  8
1
 10
1548.476707708063
 20
8322.1961020198305
 30
0.0
 40
3.0
 50
92.999556999999982
 51
180.0
  0
ARC
  5
7B92
  8
1
 10
1543.476707708063
 20
8312.04302601983
 30
0.0
 40
2.0
 50
270.0
 51
0.0
  0
LINE
  5
7B93
  8
1
 10
1255.476707708063
 20
8959.5430260198282
 30
0.0
 11
1255.4767077080639
 21
8321.5430260198282
 31
0.0
  0
LINE
  5
7B94
  8
1
 10
1255.4767077080639
 20
8321.5430260198318
 30
0.0
 11
1665.4767077080619
 21
8321.5430260198282
 31
0.0
  0
LINE
  5
7B95
  8
1
 10
1431.476707708063
 20
8270.04302601983
 30
0.0
 11
1431.476707708063
 21
8160.0430260198309
 31
0.0
  0
LINE
  5
7B96
  8
1
 10
1495.476707708063
 20
8300.04302601983
 30
0.0
 11
1495.476707708063
 21
8160.0430260198309
 31
0.0
  0
LINE
  5
7B97
  8
1
 10
1435.476707708063
 20
8300.04302601983
 30
0.0
 11
1435.476707708063
 21
8160.0430260198309
 31
0.0
  0
LINE
  5
7B98
  8
1
 10
1387.476707708063
 20
8310.0430260198318
 30
0.0
 11
1465.476707708063
 21
8310.0430260198318
 31
0.0
  0
LINE
  5
7B99
  8
1
 10
1497.976707708063
 20
8300.04302601983
 30
0.0
 11
1432.976707708063
 21
8300.04302601983
 31
0.0
  0
LINE
  5
7B9A
  8
1
 10
1497.976707708063
 20
8300.04302601983
 30
0.0
 11
1497.976707708063
 21
8310.0430260198318
 31
0.0
  0
LINE
  5
7B9B
  8
1
 10
1432.976707708063
 20
8300.04302601983
 30
0.0
 11
1432.976707708063
 21
8310.0430260198318
 31
0.0
  0
LINE
  5
7B9C
  8
1
 10
1431.476707708063
 20
8270.04302601983
 30
0.0
 11
1435.476707708063
 21
8270.04302601983
 31
0.0
  0
LINE
  5
7B9D
  8
1
 10
1385.476707708063
 20
8321.5430260198282
 30
0.0
 11
1385.476707708063
 21
8312.04302601983
 31
0.0
  0
ARC
  5
7B9E
  8
1
 10
1387.476707708063
 20
8312.04302601983
 30
0.0
 40
2.0
 50
180.0
 51
270.0
  0
LINE
  5
7B9F
  8
1
 10
1431.476707708063
 20
8160.0430260198309
 30
0.0
 11
1495.476707708063
 21
8160.0430260198309
 31
0.0
  0
LINE
  5
7BA0
  8
1
 10
1548.3197230029759
 20
8325.191991837959
 30
0.0
 11
1548.3197230029759
 21
8325.1920487428542
 31
0.0
  0
LINE
  5
7BA1
  8
1
 10
6436.5075220184017
 20
3490.6486284213001
 30
0.0
 11
6370.8396113373919
 21
3490.6486284213001
 31
0.0
  0
LINE
  5
7BA2
  8
1
 10
6370.8396113373901
 20
3900.6486284212988
 30
0.0
 11
6436.5075220184017
 21
3900.6486284212988
 31
0.0
  0
LINE
  5
7BA3
  8
2
 10
6068.7962788324439
 20
3700.6486284212988
 30
0.0
 11
6567.2096091297717
 21
3700.6486284212988
 31
0.0
  0
LINE
  5
7BA5
  8
1
 10
6209.339611337391
 20
3666.6486284212988
 30
0.0
 11
6209.339611337391
 21
3730.6486284212988
 31
0.0
  0
LINE
  5
7BA6
  8
1
 10
6349.3396113373901
 20
3733.1486284212988
 30
0.0
 11
6349.3396113373901
 21
3668.1486284212988
 31
0.0
  0
LINE
  5
7BA7
  8
1
 10
6370.8396113373919
 20
3490.6486284213001
 30
0.0
 11
6370.8396113373901
 21
3900.6486284212979
 31
0.0
  0
LINE
  5
7BA8
  8
1
 10
6359.3396113373901
 20
3778.6486284212988
 30
0.0
 11
6359.3396113373901
 21
3700.6486284212988
 31
0.0
  0
LINE
  5
7BA9
  8
1
 10
6349.3396113373901
 20
3730.6486284212988
 30
0.0
 11
6209.339611337391
 21
3730.6486284212988
 31
0.0
  0
LINE
  5
7BAA
  8
1
 10
6349.3396113373901
 20
3733.1486284212988
 30
0.0
 11
6359.3396113373901
 21
3733.1486284212988
 31
0.0
  0
ARC
  5
7BAB
  8
1
 10
6361.3396113373901
 20
3778.6486284212988
 30
0.0
 40
2.0
 50
90.0
 51
180.0
  0
LINE
  5
7BAC
  8
1
 10
6371.4926873373897
 20
3780.6486284212988
 30
0.0
 11
6361.3396113373901
 21
3780.6486284212988
 31
0.0
  0
LINE
  5
7BAD
  8
1
 10
6349.3396113373901
 20
3670.6486284212988
 30
0.0
 11
6209.339611337391
 21
3670.6486284212988
 31
0.0
  0
LINE
  5
7BAE
  8
1
 10
6319.3396113373901
 20
3666.6486284212988
 30
0.0
 11
6209.339611337391
 21
3666.6486284212988
 31
0.0
  0
ARC
  5
7BAF
  8
1
 10
6361.3396113373901
 20
3622.6486284212988
 30
0.0
 40
2.0
 50
180.0
 51
270.0
  0
LINE
  5
7BB0
  8
1
 10
6370.8396113373901
 20
3620.6486284212988
 30
0.0
 11
6361.3396113373901
 21
3620.6486284212988
 31
0.0
  0
LINE
  5
7BB1
  8
1
 10
6349.3396113373901
 20
3668.1486284212988
 30
0.0
 11
6359.3396113373901
 21
3668.1486284212988
 31
0.0
  0
LINE
  5
7BB2
  8
1
 10
6359.3396113373901
 20
3622.6486284212988
 30
0.0
 11
6359.3396113373901
 21
3700.6486284212988
 31
0.0
  0
LINE
  5
7BB3
  8
1
 10
6319.3396113373901
 20
3666.6486284212988
 30
0.0
 11
6319.3396113373901
 21
3670.6486284212988
 31
0.0
  0
LINE
  5
7BB4
  8
1
 10
6504.7061862228293
 20
3495.6458542299129
 30
0.0
 11
6504.7070294452697
 21
5190.6458817044186
 31
0.0
  0
DIMENSION
  5
7BC2
  8
3
  2
*D1
 10
2315.4762355565731
 20
9943.5068981952736
 30
0.0
 11
3265.1424289533211
 21
9943.5068981952736
 31
0.0
 70
   128
 13
4215.4762355566909
 23
9715.4279752239781
 33
0.0
 14
2315.4762355565731
 24
9715.4279752239781
 34
0.0
1001
ACAD
1000
DSTYLE
1002
{
1070
   287
1070
     3
1070
   287
1070
     3
1070
    40
1040
45.0
1070
   143
1040
0.039
1070
   172
1070
     1
1070
   271
1070
     0
1070
   279
1070
     0
1070
   288
1070
     1
1002
}
  0
DIMENSION
  5
7BCE
  8
3
  2
*D2
 10
1115.476411863252
 20
9943.5068981952736
 30
0.0
 11
1715.476323709913
 21
10056.00689819527
 31
0.0
 70
     0
 13
2315.4762355565731
 23
9715.4279752239781
 33
0.0
 14
1115.476411863252
 24
9215.4279752239781
 34
0.0
1001
ACAD
1000
DSTYLE
1002
{
1070
   287
1070
     4
1070
   287
1070
     4
1070
    40
1040
45.0
1070
    75
1070
     1
1070
   143
1040
0.039
1070
   172
1070
     1
1070
   271
1070
     0
1070
   279
1070
     1
1070
   288
1070
     1
1002
}
  0
DIMENSION
  5
7BDB
  8
3
  2
*D3
 10
852.7265360873547
 20
8115.4279752239781
 30
0.0
 11
852.72653608735345
 21
8661.9130916480644
 31
0.0
 70
   128
 13
1115.476411863252
 23
9215.4279752239781
 33
0.0
 14
1115.4767997381459
 24
8115.4279752239781
 34
0.0
 50
270.0
1001
ACAD
1000
DSTYLE
1002
{
1070
   287
1070
     3
1070
   287
1070
     3
1070
    40
1040
45.0
1070
   143
1040
0.039
1070
   172
1070
     1
1070
   271
1070
     0
1070
   279
1070
     0
1070
   288
1070
     1
1002
}
  0
DIMENSION
  5
7BE8
  8
3
  2
*D4
 10
4609.0432301970914
 20
8115.4279752239781
 30
0.0
 11
4609.0432301970905
 21
8909.49372706539
 31
0.0
 70
   128
 13
4215.4762355566909
 23
9715.4279752239781
 33
0.0
 14
4215.4767997383533
 24
8115.4279752239781
 34
0.0
 50
270.0
1001
ACAD
1000
DSTYLE
1002
{
1070
   287
1070
     3
1070
   287
1070
     3
1070
    40
1040
45.0
1070
   143
1040
0.039
1070
   172
1070
     1
1070
   271
1070
     0
1070
   279
1070
     0
1070
   288
1070
     1
1002
}
  0
DIMENSION
  5
7BF5
  8
3
  2
*D5
 10
1115.4767997381459
 20
7686.1541858570699
 30
0.0
 11
2733.1332434016108
 21
7686.1541858570699
 31
0.0
 70
   128
 13
4215.4767997383533
 23
8115.4279752239781
 33
0.0
 14
1115.4767997381459
 24
8115.4279752239781
 34
0.0
1001
ACAD
1000
DSTYLE
1002
{
1070
   287
1070
     3
1070
   287
1070
     3
1070
    40
1040
45.0
1070
   143
1040
0.039
1070
   172
1070
     1
1070
   271
1070
     0
1070
   279
1070
     0
1070
   288
1070
     1
1002
}
  0
DIMENSION
  5
7C1C
  8
3
  2
*D6
 10
4645.0428216869586
 20
5145.6448817044156
 30
0.0
 11
4645.0428216869586
 21
4349.5531262586301
 31
0.0
 70
   128
 13
4310.4770528250629
 23
3495.644881704417
 33
0.0
 14
4310.4770528250638
 24
5145.6448817044156
 34
0.0
 50
270.0
1001
ACAD
1000
DSTYLE
1002
{
1070
   287
1070
     3
1070
   287
1070
     3
1070
    40
1040
45.0
1070
   143
1040
0.039
1070
   172
1070
     1
1070
   271
1070
     0
1070
   279
1070
     0
1070
   288
1070
     1
1002
}
  0
DIMENSION
  5
7C29
  8
3
  2
*D7
 10
4910.5047214740453
 20
5190.6458817044186
 30
0.0
 11
4910.5047214740443
 21
4371.6566795678327
 31
0.0
 70
   128
 13
4310.4770528250629
 23
3495.644881704417
 33
0.0
 14
4405.152279027443
 24
5190.6458817044186
 34
0.0
 50
270.0
1001
ACAD
1000
DSTYLE
1002
{
1070
   287
1070
     3
1070
   287
1070
     3
1070
    40
1040
45.0
1070
   143
1040
0.039
1070
   172
1070
     1
1070
   271
1070
     0
1070
   279
1070
     0
1070
   288
1070
     1
1002
}
  0
DIMENSION
  5
7CE2
  8
3
  2
*D9
 10
7684.7075220183988
 20
6571.193588661863
 30
0.0
 11
7094.8044320273484
 21
6571.193588661863
 31
0.0
 70
   128
 13
6504.7075220183988
 23
6328.9251973696028
 33
0.0
 14
7684.7075220183988
 24
6328.9251973696018
 34
0.0
1001
ACAD
1000
DSTYLE
1002
{
1070
   287
1070
     3
1070
   287
1070
     3
1070
    40
1040
45.0
1070
   143
1040
0.039
1070
   172
1070
     1
1070
   271
1070
     0
1070
   279
1070
     0
1070
   288
1070
     1
1002
}
  0
DIMENSION
  5
7CEF
  8
3
  2
*D10
 10
7094.7075337226233
 20
6925.7771023912173
 30
0.0
 11
7458.1237834840786
 21
6925.7771023912173
 31
0.0
 70
   128
 13
7819.7115220183987
 23
6055.6419091789212
 33
0.0
 14
7094.7075337226233
 24
6769.2485467150718
 34
0.0
1001
ACAD
1000
DSTYLE
1002
{
1070
   287
1070
     3
1070
   287
1070
     3
1070
    40
1040
45.0
1070
   143
1040
0.039
1070
   172
1070
     1
1070
   271
1070
     0
1070
   279
1070
     0
1070
   288
1070
     1
1002
}
  0
DIMENSION
  5
7CFB
  8
3
  2
*D11
 10
6114.7075004250046
 20
6925.7771023912173
 30
0.0
 11
6604.7075170738144
 21
7150.7771023912164
 31
0.0
 70
     0
  1
MAX\P1080
 13
7094.7075337226233
 23
6769.2485467150718
 33
0.0
 14
6114.7075004250046
 24
5640.6458817044177
 34
0.0
1001
ACAD
1000
DSTYLE
1002
{
1070
   287
1070
     4
1070
   287
1070
     4
1070
    40
1040
45.0
1070
    75
1070
     1
1070
   143
1040
0.039
1070
   172
1070
     1
1070
   271
1070
     0
1070
   279
1070
     1
1070
   288
1070
     1
1002
}
  0
DIMENSION
  5
7D12
  8
3
  2
*D12
 10
8157.1611522942476
 20
4390.6458817044177
 30
0.0
 11
8157.1611522942476
 21
5191.9883501182148
 31
0.0
 70
   128
 13
7819.7115220183987
 23
5990.6458817044186
 33
0.0
 14
7819.7115220183987
 24
4390.6458817044177
 34
0.0
 50
90.0
1001
ACAD
1000
DSTYLE
1002
{
1070
   287
1070
     3
1070
   287
1070
     3
1070
     3
1000
φ<>
1070
    40
1040
45.0
1070
   143
1040
0.039
1070
   172
1070
     1
1070
   271
1070
     0
1070
   279
1070
     0
1070
   288
1070
     1
1002
}
  0
LINE
  5
7D4E
  8
4
 10
8325.0
 20
2250.0
 30
0.0
 11
8325.0
 21
1350.0
 31
0.0
  0
LINE
  5
7D4F
  8
4
 10
5175.0
 20
2250.0
 30
0.0
 11
5175.0
 21
1350.0
 31
0.0
  0
LINE
  5
7D50
  8
4
 10
2925.0
 20
2250.0
 30
0.0
 11
2925.0
 21
1350.0
 31
0.0
  0
LINE
  5
7D53
  8
4
 10
2925.0
 20
1350.0
 30
0.0
 11
8325.0
 21
1350.0
 31
0.0
  0
LINE
  5
7D54
  8
4
 10
2925.0
 20
1800.0
 30
0.0
 11
8325.0
 21
1800.0
 31
0.0
  0
TEXT
  5
7D55
  8
4
 10
3098.259363811057
 20
1941.943616399758
 30
0.0
 40
225.0
  1
機器名称
  0
TEXT
  5
7D56
  8
4
 10
3088.1614771115892
 20
1447.403205294049
 30
0.0
 40
225.0
  1
機器型番
  0
TEXT
  5
7D57
  8
4
 10
5300.599808767035
 20
1901.08183855313
 30
0.0
 40
191.25
  1
ミツヤリミットロードファン
  0
TEXT
  5
7D58
  8
4
 10
5339.9452301346628
 20
1427.218129259745
 30
0.0
 40
225.0
  1
LLE#10-4
  0
TEXT
  5
7D5A
  8
4
 10
3547.4348141053201
 20
10725.429785996321
 30
0.0
 40
242.99999999999989
  1
床置ベット
  0
TEXT
  5
7D5B
  8
4
 10
1403.9135869855461
 20
11410.38245714243
 30
0.0
 40
275.39999999999998
  1
ベルト駆動式片吸込両持排煙ファン
  0
LINE
  5
7D5C
  8
4
 10
1125.0
 20
11112.33939419162
 30
0.0
 11
8325.0
 21
11112.33939419162
 31
0.0
  0
LINE
  5
7D5D
  8
4
 10
1125.0
 20
12012.33939419162
 30
0.0
 11
8325.0
 21
12012.33939419162
 31
0.0
  0
LINE
  5
7D5E
  8
4
 10
2925.0
 20
2250.0
 30
0.0
 11
8325.0
 21
2250.0
 31
0.0
  0
LINE
  5
7D5F
  8
4
 10
1125.0
 20
12012.33939419162
 30
0.0
 11
1125.0
 21
11112.33939419162
 31
0.0
  0
TEXT
  5
7D60
  8
4
 10
1586.0700690131589
 20
10720.437648958539
 30
0.0
 40
242.99999999999989
  1
左回転右横向
  0
TEXT
  5
7D61
  8
4
 10
6610.3630166218027
 20
12177.274866728891
 30
0.0
 40
252.0
  1
No.
  0
TEXT
  5
7D62
  8
4
 10
5900.832281700059
 20
10725.429785996321
 30
0.0
 40
242.99999999999989
  1
縮尺：1/45
  0
LINE
  5
7D63
  8
4
 10
8325.0
 20
12012.33939419162
 30
0.0
 11
8325.0
 21
11112.33939419162
 31
0.0
  0
LINE
  5
7D64
  8
4
 10
9450.0
 20
13275.0
 30
0.0
 11
9450.0
 21
13275.0
 31
0.0
  0
LINE
  5
7D65
  8
4
 10
6482.7784006193906
 20
12065.686124064299
 30
0.0
 11
6482.7784006193906
 21
12539.935176973881
 31
0.0
  0
LINE
  5
7D66
  8
4
 10
6482.7784006193906
 20
12539.935176973881
 30
0.0
 11
8325.0
 21
12539.935176973881
 31
0.0
  0
LINE
  5
7D67
  8
4
 10
8325.0
 20
12539.935176973881
 30
0.0
 11
8325.0
 21
12065.686124064299
 31
0.0
  0
LINE
  5
7D68
  8
4
 10
8325.0
 20
12065.686124064299
 30
0.0
 11
6482.7784006193906
 21
12065.686124064299
 31
0.0
  0
LINE
  5
7D69
  8
4
 10
0.0
 20
0.0
 30
0.0
 11
0.0
 21
13275.0
 31
0.0
  0
LINE
  5
7D6A
  8
4
 10
0.0
 20
13275.0
 30
0.0
 11
9450.0
 21
13275.0
 31
0.0
  0
LINE
  5
7D6B
  8
4
 10
9450.0
 20
13275.0
 30
0.0
 11
9450.0
 21
0.0
 31
0.0
  0
LINE
  5
7D6C
  8
4
 10
9450.0
 20
0.0
 30
0.0
 11
0.0
 21
0.0
 31
0.0
  0
LINE
  5
7DBA
  8
1
 10
1547.1543505968921
 20
3586.941938965203
 30
0.0
 11
3440.4999919340662
 21
4946.9911377464787
 31
0.0
  0
LINE
  5
7DBB
  8
1
 10
1624.9038289599821
 20
3470.4663070177648
 30
0.0
 11
3538.7786089921619
 21
4796.0509979145736
 31
0.0
  0
LINE
  5
7DBC
  8
1
 10
1269.1271635181561
 20
3900.2634299809602
 30
0.0
 11
2928.875753949033
 21
5532.8460658514796
 31
0.0
  0
DIMENSION
  5
7E12
  8
3
  2
*D13
 10
5146.6588084472269
 20
5190.6458817044186
 30
0.0
 11
5034.1588084472269
 21
4240.6458817044186
 31
0.0
 70
     0
 13
4215.4770781757397
 23
3290.645881704419
 33
0.0
 14
4427.652279027443
 24
5190.6458817044186
 34
0.0
 50
270.0
1001
ACAD
1000
DSTYLE
1002
{
1070
   287
1070
     4
1070
   287
1070
     4
1070
    40
1040
45.0
1070
    75
1070
     1
1070
   143
1040
0.039
1070
   172
1070
     1
1070
   271
1070
     0
1070
   279
1070
     1
1070
   288
1070
     1
1002
}
  0
DIMENSION
  5
7E1E
  8
3
  2
*D14
 10
5146.6588084472269
 20
6329.6458817044177
 30
0.0
 11
5034.1588084472269
 21
5760.1458817044204
 31
0.0
 70
     0
 13
4427.652279027443
 23
5190.6458817044186
 33
0.0
 14
3149.476052825064
 24
6329.6458817044177
 34
0.0
 50
270.0
1001
ACAD
1000
DSTYLE
1002
{
1070
   287
1070
     4
1070
   287
1070
     4
1070
    40
1040
45.0
1070
    75
1070
     1
1070
   143
1040
0.039
1070
   172
1070
     1
1070
   271
1070
     0
1070
   279
1070
     1
1070
   288
1070
     1
1002
}
  0
DIMENSION
  5
7E2B
  8
3
  2
*D15
 10
3265.4770562244871
 20
6726.8227141141133
 30
0.0
 11
3823.444058843048
 21
6726.8227141141133
 31
0.0
 70
   128
 13
4310.4770528250638
 23
5210.6448817044165
 33
0.0
 14
3265.4770562244871
 24
6551.3251219797521
 34
0.0
1001
ACAD
1000
DSTYLE
1002
{
1070
   287
1070
     3
1070
   287
1070
     3
1070
    40
1040
45.0
1070
   143
1040
0.039
1070
   172
1070
     1
1070
   271
1070
     0
1070
   279
1070
     0
1070
   288
1070
     1
1002
}
  0
DIMENSION
  5
7E42
  8
3
  2
*D16
 10
1894.477052825064
 20
6726.8227141141133
 30
0.0
 11
2579.9770545247761
 21
6839.3227141141142
 31
0.0
 70
     0
 13
3265.4770562244871
 23
6551.3251219797521
 33
0.0
 14
1894.477052825064
 24
5074.6458817044186
 34
0.0
1001
ACAD
1000
DSTYLE
1002
{
1070
   287
1070
     4
1070
   287
1070
     4
1070
    40
1040
45.0
1070
    75
1070
     1
1070
   143
1040
0.039
1070
   172
1070
     1
1070
   271
1070
     0
1070
   279
1070
     1
1070
   288
1070
     1
1002
}
  0
DIMENSION
  5
7EA5
  8
3
  2
*D17
 10
1115.4770769422009
 20
7007.726511390345
 30
0.0
 11
2777.6187633905679
 21
7007.726511390345
 31
0.0
 70
   128
 13
4310.4770528250638
 23
5145.6448817044156
 33
0.0
 14
1115.4770769422009
 24
3440.6466558948482
 34
0.0
1001
ACAD
1000
DSTYLE
1002
{
1070
   287
1070
     3
1070
   287
1070
     3
1070
    40
1040
45.0
1070
   143
1040
0.039
1070
   172
1070
     1
1070
   271
1070
     0
1070
   279
1070
     0
1070
   288
1070
     1
1002
}
  0
LINE
  5
7EC2
  8
1
 10
6504.7075220184061
 20
6329.6458817044177
 30
0.0
 11
7684.7075220184042
 21
6329.6458817044177
 31
0.0
  0
LINE
  5
7ED9
  8
1
 10
6436.5075220184017
 20
3440.645881705088
 30
0.0
 11
6436.5075220184008
 21
5140.6498542299159
 31
0.0
  0
LINE
  5
7EDC
  8
1
 10
7819.7115220183987
 20
6055.6419091789212
 30
0.0
 11
7813.7115220183978
 21
6055.6419091789212
 31
0.0
  0
LINE
  5
7EDD
  8
1
 10
7693.9065220184011
 20
6055.6419091789212
 30
0.0
 11
7687.9065220184011
 21
6055.6419091789212
 31
0.0
  0
DIMENSION
  5
800D
  8
3
  2
*D18
 10
3265.477108981197
 20
2990.4173047949112
 30
0.0
 11
2190.4770935784641
 21
3102.9173047949121
 31
0.0
 70
     0
 13
1115.477078175732
 23
3290.646655894845
 33
0.0
 14
3265.477108981197
 24
3290.6461189563161
 34
0.0
1001
ACAD
1000
DSTYLE
1002
{
1070
   287
1070
     3
1070
   287
1070
     3
1070
    40
1040
45.0
1070
   143
1040
0.039
1070
   172
1070
     1
1070
   271
1070
     0
1070
   279
1070
     0
1002
}
  0
DIMENSION
  5
801A
  8
3
  2
*D19
 10
4215.4770781757397
 20
2990.4173047949112
 30
0.0
 11
3740.4770935784682
 21
3102.9173047949121
 31
0.0
 70
     0
 13
3265.477108981197
 23
3290.6461189563161
 33
0.0
 14
4215.4770781757397
 24
3290.6458817044172
 34
0.0
1001
ACAD
1000
DSTYLE
1002
{
1070
   287
1070
     3
1070
   287
1070
     3
1070
    40
1040
45.0
1070
   143
1040
0.039
1070
   172
1070
     1
1070
   271
1070
     0
1070
   279
1070
     0
1002
}
  0
DIMENSION
  5
8027
  8
3
  2
*D20
 10
7094.7076699929421
 20
2990.4173047949112
 30
0.0
 11
6629.2076317314932
 21
3102.9173047949121
 31
0.0
 70
     0
 13
6163.707593470046
 23
3290.645881704419
 33
0.0
 14
7094.7076699929421
 24
3290.6452998297332
 34
0.0
1001
ACAD
1000
DSTYLE
1002
{
1070
   287
1070
     3
1070
   287
1070
     3
1070
    40
1040
45.0
1070
   143
1040
0.039
1070
   172
1070
     1
1070
   271
1070
     0
1070
   279
1070
     0
1002
}
  0
DIMENSION
  5
8034
  8
3
  2
*D21
 10
7763.7075934700688
 20
2990.4173047949112
 30
0.0
 11
7429.2076317315059
 21
3102.9173047949121
 31
0.0
 70
     0
 13
7094.7076699929421
 23
3290.6452998297332
 33
0.0
 14
7763.7075934700688
 24
3290.6448817050432
 34
0.0
1001
ACAD
1000
DSTYLE
1002
{
1070
   287
1070
     3
1070
   287
1070
     3
1070
    40
1040
45.0
1070
   143
1040
0.039
1070
   172
1070
     1
1070
   271
1070
     0
1070
   279
1070
     0
1002
}
  0
DIMENSION
  5
8041
  8
3
  2
*D22
 10
5513.4361634677407
 20
3290.6458817044181
 30
0.0
 11
5400.9361634677398
 21
4810.1458817044204
 31
0.0
 70
     0
 13
3194.476052825064
 23
6329.6458817044177
 33
0.0
 14
4215.4770781757397
 24
3290.645881704419
 34
0.0
 50
90.0
1001
ACAD
1000
DSTYLE
1002
{
1070
   287
1070
     3
1070
   287
1070
     3
1070
    40
1040
45.0
1070
   143
1040
0.039
1070
   172
1070
     1
1070
   271
1070
     0
1070
   279
1070
     0
1002
}
  0
ENDSEC
  0
EOF
