  0
SECTION
  2
HEADER
  9
$ACADVER
  1
AC1009
  9
$INSBASE
 10
0.0
 20
0.0
 30
0.0
  9
$EXTMIN
 10
0.0
 20
0.0
 30
0.0
  9
$EXTMAX
 10
10500.0
 20
14750.0
 30
0.0
  9
$LIMMIN
 10
0.0
 20
0.0
  9
$LIMMAX
 10
297.0
 20
210.0
  9
$ORTHOMODE
 70
     0
  9
$REGENMODE
 70
     1
  9
$FILLMODE
 70
     0
  9
$QTEXTMODE
 70
     0
  9
$MIRRTEXT
 70
     1
  9
$DRAGMODE
 70
     2
  9
$LTSCALE
 40
100.0
  9
$OSMODE
 70
    37
  9
$ATTMODE
 70
     1
  9
$TEXTSIZE
 40
180.0
  9
$TRACEWID
 40
0.05
  9
$TEXTSTYLE
  7
STANDARD
  9
$CLAYER
  8
3
  9
$CELTYPE
  6
BYLAYER
  9
$CECOLOR
 62
   256
  9
$DIMSCALE
 40
50.0
  9
$DIMASZ
 40
2.0
  9
$DIMEXO
 40
0.5
  9
$DIMDLI
 40
10.0
  9
$DIMRND
 40
0.0
  9
$DIMDLE
 40
0.0
  9
$DIMEXE
 40
1.0
  9
$DIMTP
 40
1.0
  9
$DIMTM
 40
1.0
  9
$DIMTXT
 40
3.0
  9
$DIMCEN
 40
0.0
  9
$DIMTSZ
 40
0.0
  9
$DIMTOL
 70
     0
  9
$DIMLIM
 70
     0
  9
$DIMTIH
 70
     0
  9
$DIMTOH
 70
     0
  9
$DIMSE1
 70
     0
  9
$DIMSE2
 70
     0
  9
$DIMTAD
 70
     1
  9
$DIMZIN
 70
     8
  9
$DIMBLK
  1

  9
$DIMASO
 70
     1
  9
$DIMSHO
 70
     1
  9
$DIMPOST
  1
(<>)
  9
$DIMAPOST
  1

  9
$DIMALT
 70
     0
  9
$DIMALTD
 70
     2
  9
$DIMALTF
 40
0.039
  9
$DIMLFAC
 40
1.0
  9
$DIMTOFL
 70
     1
  9
$DIMTVP
 40
0.0
  9
$DIMTIX
 70
     0
  9
$DIMSOXD
 70
     0
  9
$DIMSAH
 70
     1
  9
$DIMBLK1
  1
OPEN
  9
$DIMBLK2
  1
OPEN
  9
$DIMSTYLE
  2
IGA
  9
$DIMCLRD
 70
     0
  9
$DIMCLRE
 70
     0
  9
$DIMCLRT
 70
     0
  9
$DIMTFAC
 40
10.0
  9
$DIMGAP
 40
1.0
  9
$LUNITS
 70
     2
  9
$LUPREC
 70
     3
  9
$SKETCHINC
 40
0.1
  9
$FILLETRAD
 40
50.0
  9
$AUNITS
 70
     0
  9
$AUPREC
 70
     0
  9
$MENU
  1
acad
  9
$ELEVATION
 40
0.0
  9
$PELEVATION
 40
0.0
  9
$THICKNESS
 40
0.0
  9
$LIMCHECK
 70
     0
  9
$BLIPMODE
 70
     0
  9
$CHAMFERA
 40
0.5
  9
$CHAMFERB
 40
0.5
  9
$SKPOLY
 70
     0
  9
$TDCREATE
 40
2451408.6176542821
  9
$TDUPDATE
 40
2454953.6898153471
  9
$TDINDWG
 40
0.0695167014
  9
$TDUSRTIMER
 40
0.0695167014
  9
$USRTIMER
 70
     1
  9
$ANGBASE
 50
0.0
  9
$ANGDIR
 70
     0
  9
$PDMODE
 70
     0
  9
$PDSIZE
 40
0.0
  9
$PLINEWID
 40
0.0
  9
$COORDS
 70
     1
  9
$SPLFRAME
 70
     0
  9
$SPLINETYPE
 70
     6
  9
$SPLINESEGS
 70
     8
  9
$ATTDIA
 70
     0
  9
$ATTREQ
 70
     1
  9
$HANDLING
 70
 10241
  9
$HANDSEED
  5
8495
  9
$SURFTAB1
 70
     6
  9
$SURFTAB2
 70
     6
  9
$SURFTYPE
 70
     6
  9
$SURFU
 70
     6
  9
$SURFV
 70
     6
  9
$UCSNAME
  2

  9
$UCSORG
 10
0.0
 20
0.0
 30
0.0
  9
$UCSXDIR
 10
1.0
 20
0.0
 30
0.0
  9
$UCSYDIR
 10
0.0
 20
1.0
 30
0.0
  9
$PUCSNAME
  2

  9
$PUCSORG
 10
0.0
 20
0.0
 30
0.0
  9
$PUCSXDIR
 10
1.0
 20
0.0
 30
0.0
  9
$PUCSYDIR
 10
0.0
 20
1.0
 30
0.0
  9
$USERI1
 70
     0
  9
$USERI2
 70
     0
  9
$USERI3
 70
     0
  9
$USERI4
 70
     0
  9
$USERI5
 70
     0
  9
$USERR1
 40
0.0
  9
$USERR2
 40
0.0
  9
$USERR3
 40
0.0
  9
$USERR4
 40
0.0
  9
$USERR5
 40
0.0
  9
$WORLDVIEW
 70
     1
  9
$SHADEDGE
 70
     3
  9
$SHADEDIF
 70
    70
  9
$TILEMODE
 70
     1
  9
$MAXACTVP
 70
    16
  9
$PLIMCHECK
 70
     0
  9
$PEXTMIN
 10
1.0000000000000000E+020
 20
1.0000000000000000E+020
 30
1.0000000000000000E+020
  9
$PEXTMAX
 10
-1.0000000000000000E+020
 20
-1.0000000000000000E+020
 30
-1.0000000000000000E+020
  9
$PLIMMIN
 10
0.0
 20
0.0
  9
$PLIMMAX
 10
12.0
 20
9.0
  9
$UNITMODE
 70
     0
  9
$VISRETAIN
 70
     0
  9
$PLINEGEN
 70
     0
  9
$PSLTSCALE
 70
     1
  0
ENDSEC
  0
SECTION
  2
TABLES
  0
TABLE
  2
VPORT
 70
     2
  0
VPORT
  2
*ACTIVE
 70
     0
 10
0.0
 20
0.0
 11
1.0
 21
1.0
 12
23030.29202984853
 22
8105.3249248461843
 13
0.0
 23
0.0
 14
10.0
 24
10.0
 15
10.0
 25
10.0
 16
0.0
 26
0.0
 36
1.0
 17
0.0
 27
0.0
 37
0.0
 40
20034.307586134739
 41
3.1666666666666661
 42
50.0
 43
0.0
 44
0.0
 50
0.0
 51
0.0
 71
     0
 72
   100
 73
     1
 74
     0
 75
     0
 76
     0
 77
     0
 78
     0
  0
ENDTAB
  0
TABLE
  2
LTYPE
 70
     2
  0
LTYPE
  2
CONTINUOUS
 70
     0
  3
Solid line
 72
    65
 73
     0
 40
0.0
  0
LTYPE
  2
CENTER
 70
     0
  3
____ _ ____ _ ____ _ ____ _ ____ _ ____ _ ____ 
 72
    65
 73
     4
 40
2.0
 49
1.25
 49
-0.25
 49
0.25
 49
-0.25
  0
ENDTAB
  0
TABLE
  2
LAYER
 70
     6
  0
LAYER
  2
0
 70
     0
 62
     7
  6
CONTINUOUS
  0
LAYER
  2
3
 70
     0
 62
     2
  6
CONTINUOUS
  0
LAYER
  2
2
 70
     0
 62
     3
  6
CENTER
  0
LAYER
  2
1
 70
     0
 62
     4
  6
CONTINUOUS
  0
LAYER
  2
4
 70
     0
 62
     7
  6
CONTINUOUS
  0
LAYER
  2
DEFPOINTS
 70
     0
 62
     7
  6
CONTINUOUS
  0
ENDTAB
  0
TABLE
  2
STYLE
 70
     1
  0
STYLE
  2
STANDARD
 70
     0
 40
0.0
 41
1.0
 50
0.0
 71
     0
 42
180.0
  3
simplex.shx
  4
extfont.shx
  0
ENDTAB
  0
TABLE
  2
VIEW
 70
     0
  0
ENDTAB
  0
TABLE
  2
UCS
 70
     0
  0
ENDTAB
  0
TABLE
  2
APPID
 70
     1
  0
APPID
  2
ACAD
 70
     0
  0
ENDTAB
  0
TABLE
  2
DIMSTYLE
 70
     1
  0
DIMSTYLE
  2
IGA
 70
     0
  3

  4

  5

  6
OPEN
  7
OPEN
 40
2.0
 41
2.0
 42
0.5
 43
10.0
 44
1.0
 45
0.0
 46
0.0
 47
1.0
 48
1.0
140
3.0
141
0.0
142
0.0
143
0.03937
144
1.0
145
0.0
146
10.0
147
1.0
 71
     0
 72
     0
 73
     0
 74
     0
 75
     0
 76
     0
 77
     1
 78
     8
170
     0
171
     2
172
     0
173
     1
174
     0
175
     0
176
     0
177
     0
178
     0
  0
ENDTAB
  0
ENDSEC
  0
SECTION
  2
BLOCKS
  0
BLOCK
  8
0
  2
$MODEL_SPACE
 70
     0
 10
0.0
 20
0.0
 30
0.0
  3
$MODEL_SPACE
  1

  0
ENDBLK
  5
1B
  8
0
  0
BLOCK
 67
     1
  8
0
  2
$PAPER_SPACE
 70
     0
 10
0.0
 20
0.0
 30
0.0
  3
$PAPER_SPACE
  1

  0
ENDBLK
  5
18
 67
     1
  8
0
  0
BLOCK
  8
0
  2
_OPEN
 70
     0
 10
0.0
 20
0.0
 30
0.0
  3
_OPEN
  1

  0
LINE
  5
79FD
  8
0
  6
BYBLOCK
 62
     0
 10
-1.0
 20
0.1666666666666666
 30
0.0
 11
0.0
 21
0.0
 31
0.0
  0
LINE
  5
79FE
  8
0
  6
BYBLOCK
 62
     0
 10
0.0
 20
0.0
 30
0.0
 11
-1.0
 21
-0.1666666666666666
 31
0.0
  0
LINE
  5
79FF
  8
0
  6
BYBLOCK
 62
     0
 10
0.0
 20
0.0
 30
0.0
 11
-1.0
 21
0.0
 31
0.0
  0
ENDBLK
  5
7A01
  8
0
  0
BLOCK
  8
0
  2
YA_N
 70
     0
 10
0.0
 20
0.0
 30
0.0
  3
YA_N
  1

  0
ENDBLK
  5
7A0C
  8
0
  0
BLOCK
  8
0
  2
*D2
 70
     1
 10
0.0
 20
0.0
 30
0.0
  3
*D2
  1

  0
LINE
  5
83BD
  8
3
 62
     0
 10
8356.6993384488542
 20
6378.5122829176989
 30
0.0
 11
8356.6993384488542
 21
6663.2338487549996
 31
0.0
  0
LINE
  5
83BE
  8
3
 62
     0
 10
7296.6993384488569
 20
6378.512282917698
 30
0.0
 11
7296.6993384488569
 21
6663.2338487549996
 31
0.0
  0
LINE
  5
83BF
  8
3
 62
     0
 10
8256.6993384488542
 20
6613.2338487549996
 30
0.0
 11
7396.6993384488578
 21
6613.2338487549996
 31
0.0
  0
INSERT
  5
83C0
  8
3
 62
     0
  2
_OPEN
 10
8356.6993384488542
 20
6613.2338487549996
 30
0.0
 41
100.0
 42
100.0
 43
100.0
  0
INSERT
  5
83C1
  8
3
 62
     0
  2
_OPEN
 10
7296.6993384488569
 20
6613.2338487549996
 30
0.0
 41
100.0
 42
100.0
 43
100.0
 50
180.0
  0
TEXT
  8
3
  40
150
  5
847F
  62
0
  72
0
  71
0
 10
7526.70
 20
6472.73
 30
0.000000
  1
1060
  0
POINT
  5
83C3
  8
DEFPOINTS
 62
     0
 10
8356.6993384488542
 20
6353.5122829176989
 30
0.0
  0
POINT
  5
83C4
  8
DEFPOINTS
 62
     0
 10
7296.6993384488569
 20
6353.512282917698
 30
0.0
  0
POINT
  5
83C5
  8
DEFPOINTS
 62
     0
 10
7296.6993384488569
 20
6613.2338487549996
 30
0.0
  0
ENDBLK
  5
820F
  8
0
  0
BLOCK
  8
0
  2
*D3
 70
     1
 10
0.0
 20
0.0
 30
0.0
  3
*D3
  1

  0
LINE
  5
81C2
  8
0
  6
BYBLOCK
 62
     0
 10
8460.699338448856
 20
6181.3888734379061
 30
0.0
 11
8460.699338448856
 21
7030.0322605751444
 31
0.0
  0
LINE
  5
81C3
  8
0
  6
BYBLOCK
 62
     0
 10
7826.699338448856
 20
6842.4527164861829
 30
0.0
 11
7826.699338448856
 21
7030.0322605751444
 31
0.0
  0
LINE
  5
81C4
  8
0
  6
BYBLOCK
 62
     0
 10
8360.699338448856
 20
6980.0322605751453
 30
0.0
 11
7926.6993384488551
 21
6980.0322605751453
 31
0.0
  0
TEXT
  5
81C5
  8
3
 62
     0
 10
7947.2707670202853
 20
7105.0322605751453
 30
0.0
 40
150.0
  1
634
  0
INSERT
  5
81C6
  8
0
  6
BYBLOCK
 62
     0
  2
_OPEN
 10
8460.699338448856
 20
6980.0322605751453
 30
0.0
 41
100.0
 42
100.0
 43
100.0
  0
INSERT
  5
81C7
  8
0
  6
BYBLOCK
 62
     0
  2
_OPEN
 10
7826.699338448856
 20
6980.0322605751453
 30
0.0
 41
100.0
 42
100.0
 43
100.0
 50
180.0
  0
POINT
  5
81C8
  8
DEFPOINTS
  6
BYBLOCK
 62
     0
 10
8460.699338448856
 20
6156.388873437907
 30
0.0
  0
POINT
  5
81C9
  8
DEFPOINTS
  6
BYBLOCK
 62
     0
 10
7826.699338448856
 20
6817.4527164861829
 30
0.0
  0
POINT
  5
81CA
  8
DEFPOINTS
  6
BYBLOCK
 62
     0
 10
7826.699338448856
 20
6980.0322605751453
 30
0.0
  0
ENDBLK
  5
81CB
  8
0
  0
BLOCK
  8
0
  2
*D4
 70
     1
 10
0.0
 20
0.0
 30
0.0
  3
*D4
  1

  0
LINE
  5
83C6
  8
3
 62
     0
 10
7826.699338448856
 20
6842.4527164861829
 30
0.0
 11
7826.699338448856
 21
7030.0322605751444
 31
0.0
  0
LINE
  5
83C7
  8
3
 62
     0
 10
6856.6993384488551
 20
5811.388873437907
 30
0.0
 11
6856.6993384488551
 21
7030.0322605751444
 31
0.0
  0
LINE
  5
83C8
  8
3
 62
     0
 10
7726.699338448856
 20
6980.0322605751453
 30
0.0
 11
6956.699338448856
 21
6980.0322605751453
 31
0.0
  0
INSERT
  5
83C9
  8
3
 62
     0
  2
_OPEN
 10
7826.699338448856
 20
6980.0322605751453
 30
0.0
 41
100.0
 42
100.0
 43
100.0
  0
INSERT
  5
83CA
  8
3
 62
     0
  2
_OPEN
 10
6856.6993384488551
 20
6980.0322605751453
 30
0.0
 41
100.0
 42
100.0
 43
100.0
 50
180.0
  0
TEXT
  8
3
  40
150
  5
8480
  62
0
  72
0
  71
0
 10
7041.70
 20
6964.53
 30
0.000000
  1
MAX
  0
TEXT
  8
3
  40
150
  5
8481
  62
0
  72
0
  71
0
 10
7041.70
 20
6769.53
 30
0.000000
  1
1030
  0
POINT
  5
83CC
  8
DEFPOINTS
 62
     0
 10
7826.699338448856
 20
6817.4527164861829
 30
0.0
  0
POINT
  5
83CD
  8
DEFPOINTS
 62
     0
 10
6856.6993384488551
 20
5786.388873437907
 30
0.0
  0
POINT
  5
83CE
  8
DEFPOINTS
 62
     0
 10
6856.6993384488551
 20
6980.0322605751453
 30
0.0
  0
ENDBLK
  5
81EC
  8
0
  0
BLOCK
  8
0
  2
*D5
 70
     1
 10
0.0
 20
0.0
 30
0.0
  3
*D5
  1

  0
LINE
  5
83CF
  8
3
 62
     0
 10
8485.699338448856
 20
6106.388873437907
 30
0.0
 11
8899.2515597572528
 21
6106.388873437907
 31
0.0
  0
LINE
  5
83D0
  8
3
 62
     0
 10
8485.699338448856
 20
4706.388873437907
 30
0.0
 11
8899.2515597572528
 21
4706.388873437907
 31
0.0
  0
LINE
  5
83D1
  8
3
 62
     0
 10
8849.2515597572547
 20
6006.388873437907
 30
0.0
 11
8849.2515597572547
 21
4806.3888734379061
 31
0.0
  0
INSERT
  5
83D2
  8
3
 62
     0
  2
_OPEN
 10
8849.2515597572547
 20
6106.388873437907
 30
0.0
 41
100.0
 42
100.0
 43
100.0
 50
90.0
  0
INSERT
  5
83D3
  8
3
 62
     0
  2
_OPEN
 10
8849.2515597572547
 20
4706.388873437907
 30
0.0
 41
100.0
 42
100.0
 43
100.0
 50
270.0
  0
TEXT
  8
3
  40
150
  5
8482
  62
0
  72
0
  71
0
 10
8424.25
 20
5140.89
 30
0.000000
  1
φ1400
  0
POINT
  5
83D5
  8
DEFPOINTS
 62
     0
 10
8460.699338448856
 20
6106.388873437907
 30
0.0
  0
POINT
  5
83D6
  8
DEFPOINTS
 62
     0
 10
8460.699338448856
 20
4706.388873437907
 30
0.0
  0
POINT
  5
83D7
  8
DEFPOINTS
 62
     0
 10
8849.2515597572547
 20
4706.388873437907
 30
0.0
  0
ENDBLK
  5
81E1
  8
0
  0
BLOCK
  8
0
  2
*D6
 70
     1
 10
0.0
 20
0.0
 30
0.0
  3
*D6
  1

  0
LINE
  5
83D8
  8
3
 62
     0
 10
4247.4978826749439
 20
10042.662448473629
 30
0.0
 11
4247.4978826749439
 21
10432.178678949511
 31
0.0
  0
LINE
  5
83D9
  8
3
 62
     0
 10
2547.4978826749448
 20
10042.662448473629
 30
0.0
 11
2547.4978826749448
 21
10432.178678949511
 31
0.0
  0
LINE
  5
83DA
  8
3
 62
     0
 10
4147.4978826749448
 20
10382.178678949511
 30
0.0
 11
2647.4978826749448
 21
10382.178678949511
 31
0.0
  0
INSERT
  5
83DB
  8
3
 62
     0
  2
_OPEN
 10
4247.4978826749439
 20
10382.178678949511
 30
0.0
 41
100.0
 42
100.0
 43
100.0
  0
INSERT
  5
83DC
  8
3
 62
     0
  2
_OPEN
 10
2547.4978826749448
 20
10382.178678949511
 30
0.0
 41
100.0
 42
100.0
 43
100.0
 50
180.0
  0
TEXT
  8
3
  40
150
  5
8483
  62
0
  72
0
  71
0
 10
3097.50
 20
10241.7
 30
0.000000
  1
1700
  0
POINT
  5
83DE
  8
DEFPOINTS
 62
     0
 10
4247.4978826749439
 20
10017.662448473629
 30
0.0
  0
POINT
  5
83DF
  8
DEFPOINTS
 62
     0
 10
2547.4978826749448
 20
10017.662448473629
 30
0.0
  0
POINT
  5
83E0
  8
DEFPOINTS
 62
     0
 10
2547.4978826749448
 20
10382.178678949511
 30
0.0
  0
ENDBLK
  5
8164
  8
0
  0
BLOCK
  8
0
  2
*D7
 70
     1
 10
0.0
 20
0.0
 30
0.0
  3
*D7
  1

  0
LINE
  5
83E1
  8
3
 62
     0
 10
2547.4978826749448
 20
10042.662448473629
 30
0.0
 11
2547.4978826749448
 21
10432.178678949511
 31
0.0
  0
LINE
  5
83E2
  8
3
 62
     0
 10
1497.4978826749441
 20
9742.6624484736349
 30
0.0
 11
1497.4978826749441
 21
10432.178678949511
 31
0.0
  0
LINE
  5
83E3
  8
3
 62
     0
 10
2447.4978826749439
 20
10382.178678949511
 30
0.0
 11
1597.4978826749441
 21
10382.178678949511
 31
0.0
  0
INSERT
  5
83E4
  8
3
 62
     0
  2
_OPEN
 10
2547.4978826749448
 20
10382.178678949511
 30
0.0
 41
100.0
 42
100.0
 43
100.0
  0
INSERT
  5
83E5
  8
3
 62
     0
  2
_OPEN
 10
1497.4978826749441
 20
10382.178678949511
 30
0.0
 41
100.0
 42
100.0
 43
100.0
 50
180.0
  0
TEXT
  8
3
  40
150
  5
8484
  62
0
  72
0
  71
0
 10
1722.50
 20
10241.7
 30
0.000000
  1
1050
  0
POINT
  5
83E7
  8
DEFPOINTS
 62
     0
 10
2547.4978826749448
 20
10017.662448473629
 30
0.0
  0
POINT
  5
83E8
  8
DEFPOINTS
 62
     0
 10
1497.4978826749441
 20
9717.6624484736349
 30
0.0
  0
POINT
  5
83E9
  8
DEFPOINTS
 62
     0
 10
1497.4978826749441
 20
10382.178678949511
 30
0.0
  0
ENDBLK
  5
8159
  8
0
  0
BLOCK
  8
0
  2
*D8
 70
     1
 10
0.0
 20
0.0
 30
0.0
  3
*D8
  1

  0
LINE
  5
83EA
  8
3
 62
     0
 10
1472.4978826749441
 20
9717.6624484736349
 30
0.0
 11
1130.9454675937679
 21
9717.6624484736349
 31
0.0
  0
LINE
  5
83EB
  8
3
 62
     0
 10
1472.4978826749441
 20
8617.6624484736349
 30
0.0
 11
1130.9454675937679
 21
8617.6624484736349
 31
0.0
  0
LINE
  5
83EC
  8
3
 62
     0
 10
1180.9454675937679
 20
9617.6624484736349
 30
0.0
 11
1180.9454675937679
 21
8717.6624484736349
 31
0.0
  0
INSERT
  5
83ED
  8
3
 62
     0
  2
_OPEN
 10
1180.9454675937679
 20
9717.6624484736349
 30
0.0
 41
100.0
 42
100.0
 43
100.0
 50
90.0
  0
INSERT
  5
83EE
  8
3
 62
     0
  2
_OPEN
 10
1180.9454675937679
 20
8617.6624484736349
 30
0.0
 41
100.0
 42
100.0
 43
100.0
 50
270.0
  0
TEXT
  8
3
  40
150
  5
8485
  62
0
  72
0
  71
0
 10
755.945
 20
8902.16
 30
0.000000
  1
1100
  0
POINT
  5
83F0
  8
DEFPOINTS
 62
     0
 10
1497.4978826749441
 20
9717.6624484736349
 30
0.0
  0
POINT
  5
83F1
  8
DEFPOINTS
 62
     0
 10
1497.4978826749441
 20
8617.6624484736349
 30
0.0
  0
POINT
  5
83F2
  8
DEFPOINTS
 62
     0
 10
1180.9454675937679
 20
8617.6624484736349
 30
0.0
  0
ENDBLK
  5
814E
  8
0
  0
BLOCK
  8
0
  2
*D9
 70
     1
 10
0.0
 20
0.0
 30
0.0
  3
*D9
  1

  0
LINE
  5
83F3
  8
3
 62
     0
 10
4247.4978826749439
 20
8592.6624484736349
 30
0.0
 11
4247.4978826749439
 21
7983.3776007752058
 31
0.0
  0
LINE
  5
83F4
  8
3
 62
     0
 10
1497.4978826749441
 20
8592.6624484736349
 30
0.0
 11
1497.4978826749441
 21
7983.3776007752058
 31
0.0
  0
LINE
  5
83F5
  8
3
 62
     0
 10
4147.4978826749448
 20
8033.3776007752067
 30
0.0
 11
1597.4978826749441
 21
8033.3776007752067
 31
0.0
  0
INSERT
  5
83F6
  8
3
 62
     0
  2
_OPEN
 10
4247.4978826749439
 20
8033.3776007752067
 30
0.0
 41
100.0
 42
100.0
 43
100.0
  0
INSERT
  5
83F7
  8
3
 62
     0
  2
_OPEN
 10
1497.4978826749441
 20
8033.3776007752067
 30
0.0
 41
100.0
 42
100.0
 43
100.0
 50
180.0
  0
TEXT
  8
3
  40
150
  5
8486
  62
0
  72
0
  71
0
 10
2572.50
 20
7892.88
 30
0.000000
  1
2750
  0
POINT
  5
83F9
  8
DEFPOINTS
 62
     0
 10
4247.4978826749439
 20
8617.6624484736349
 30
0.0
  0
POINT
  5
83FA
  8
DEFPOINTS
 62
     0
 10
1497.4978826749441
 20
8617.6624484736349
 30
0.0
  0
POINT
  5
83FB
  8
DEFPOINTS
 62
     0
 10
1497.4978826749441
 20
8033.3776007752067
 30
0.0
  0
ENDBLK
  5
8143
  8
0
  0
BLOCK
  8
0
  2
*D10
 70
     1
 10
0.0
 20
0.0
 30
0.0
  3
*D10
  1

  0
LINE
  5
83FC
  8
3
 62
     0
 10
4352.4978826749448
 20
3915.388873437907
 30
0.0
 11
4752.992885024134
 21
3915.388873437907
 31
0.0
  0
LINE
  5
83FD
  8
3
 62
     0
 10
4352.4978826749448
 20
5365.3888734379079
 30
0.0
 11
4752.992885024134
 21
5365.3888734379079
 31
0.0
  0
LINE
  5
83FE
  8
3
 62
     0
 10
4702.992885024134
 20
4015.388873437907
 30
0.0
 11
4702.992885024134
 21
5265.388873437907
 31
0.0
  0
INSERT
  5
83FF
  8
3
 62
     0
  2
_OPEN
 10
4702.992885024134
 20
3915.388873437907
 30
0.0
 41
100.0
 42
100.0
 43
100.0
 50
270.0
  0
INSERT
  5
8400
  8
3
 62
     0
  2
_OPEN
 10
4702.992885024134
 20
5365.3888734379079
 30
0.0
 41
100.0
 42
100.0
 43
100.0
 50
90.0
  0
TEXT
  8
3
  40
150
  5
8487
  62
0
  72
0
  71
0
 10
4277.99
 20
4374.89
 30
0.000000
  1
1450
  0
POINT
  5
8402
  8
DEFPOINTS
 62
     0
 10
4327.4978826749439
 20
3915.388873437907
 30
0.0
  0
POINT
  5
8403
  8
DEFPOINTS
 62
     0
 10
4327.4978826749439
 20
5365.3888734379079
 30
0.0
  0
POINT
  5
8404
  8
DEFPOINTS
 62
     0
 10
4702.992885024134
 20
5365.3888734379079
 30
0.0
  0
ENDBLK
  5
8138
  8
0
  0
BLOCK
  8
0
  2
*D11
 70
     1
 10
0.0
 20
0.0
 30
0.0
  3
*D11
  1

  0
LINE
  5
8405
  8
3
 62
     0
 10
4327.4978826749439
 20
5372.6979643798859
 30
0.0
 11
4327.4978826749439
 21
6821.2009080776952
 31
0.0
  0
LINE
  5
8406
  8
3
 62
     0
 10
3397.4978826749448
 20
6548.7958517004172
 30
0.0
 11
3397.4978826749448
 21
6821.2009080776952
 31
0.0
  0
LINE
  5
8407
  8
3
 62
     0
 10
4227.4978826749448
 20
6771.2009080776952
 30
0.0
 11
3497.4978826749448
 21
6771.2009080776952
 31
0.0
  0
INSERT
  5
8408
  8
3
 62
     0
  2
_OPEN
 10
4327.4978826749439
 20
6771.2009080776952
 30
0.0
 41
100.0
 42
100.0
 43
100.0
  0
INSERT
  5
8409
  8
3
 62
     0
  2
_OPEN
 10
3397.4978826749448
 20
6771.2009080776952
 30
0.0
 41
100.0
 42
100.0
 43
100.0
 50
180.0
  0
TEXT
  8
3
  40
150
  5
8488
  62
0
  72
0
  71
0
 10
3562.50
 20
6630.70
 30
0.000000
  1
930
  0
POINT
  5
840B
  8
DEFPOINTS
 62
     0
 10
4327.4978826749439
 20
5347.6979643798859
 30
0.0
  0
POINT
  5
840C
  8
DEFPOINTS
 62
     0
 10
3397.4978826749448
 20
6523.7958517004172
 30
0.0
  0
POINT
  5
840D
  8
DEFPOINTS
 62
     0
 10
3397.4978826749448
 20
6771.2009080776952
 30
0.0
  0
ENDBLK
  5
80F2
  8
0
  0
BLOCK
  8
0
  2
*D12
 70
     1
 10
0.0
 20
0.0
 30
0.0
  3
*D12
  1

  0
LINE
  5
840E
  8
3
 62
     0
 10
3397.4978826749448
 20
6548.7958517004172
 30
0.0
 11
3397.4978826749448
 21
6821.2009080776952
 31
0.0
  0
LINE
  5
840F
  8
3
 62
     0
 10
2190.4978826749439
 20
5417.7380893942118
 30
0.0
 11
2190.4978826749439
 21
6821.2009080776952
 31
0.0
  0
LINE
  5
8410
  8
3
 62
     0
 10
3297.4978826749448
 20
6771.2009080776952
 30
0.0
 11
2290.4978826749439
 21
6771.2009080776952
 31
0.0
  0
INSERT
  5
8411
  8
3
 62
     0
  2
_OPEN
 10
3397.4978826749448
 20
6771.2009080776952
 30
0.0
 41
100.0
 42
100.0
 43
100.0
  0
INSERT
  5
8412
  8
3
 62
     0
  2
_OPEN
 10
2190.4978826749439
 20
6771.2009080776952
 30
0.0
 41
100.0
 42
100.0
 43
100.0
 50
180.0
  0
TEXT
  8
3
  40
150
  5
8489
  62
0
  72
0
  71
0
 10
2494.00
 20
6630.70
 30
0.000000
  1
1207
  0
POINT
  5
8414
  8
DEFPOINTS
 62
     0
 10
3397.4978826749448
 20
6523.7958517004172
 30
0.0
  0
POINT
  5
8415
  8
DEFPOINTS
 62
     0
 10
2190.4978826749439
 20
5392.7380893942118
 30
0.0
  0
POINT
  5
8416
  8
DEFPOINTS
 62
     0
 10
2190.4978826749439
 20
6771.2009080776952
 30
0.0
  0
ENDBLK
  5
80E7
  8
0
  0
BLOCK
  8
0
  2
*D13
 70
     1
 10
0.0
 20
0.0
 30
0.0
  3
*D13
  1

  0
LINE
  5
8417
  8
3
 62
     0
 10
3320.4978826749439
 20
6409.3888734379079
 30
0.0
 11
5294.9253905517962
 21
6409.3888734379079
 31
0.0
  0
LINE
  5
8418
  8
3
 62
     0
 10
4480.7358332189888
 20
5406.388873437907
 30
0.0
 11
5294.9253905517944
 21
5406.388873437907
 31
0.0
  0
LINE
  5
8419
  8
3
 62
     0
 10
5244.9253905517953
 20
6309.388873437907
 30
0.0
 11
5244.9253905517944
 21
5506.388873437907
 31
0.0
  0
INSERT
  5
841A
  8
3
 62
     0
  2
_OPEN
 10
5244.9253905517953
 20
6409.3888734379079
 30
0.0
 41
100.0
 42
100.0
 43
100.0
 50
90.0
  0
INSERT
  5
841B
  8
3
 62
     0
  2
_OPEN
 10
5244.9253905517944
 20
5406.388873437907
 30
0.0
 41
100.0
 42
100.0
 43
100.0
 50
270.0
  0
TEXT
  8
3
  40
150
  5
848A
  62
0
  72
0
  71
0
 10
4819.93
 20
5642.39
 30
0.000000
  1
1003
  0
POINT
  5
841D
  8
DEFPOINTS
 62
     0
 10
3295.4978826749439
 20
6409.3888734379079
 30
0.0
  0
POINT
  5
841E
  8
DEFPOINTS
 62
     0
 10
4455.7358332189879
 20
5406.388873437907
 30
0.0
  0
POINT
  5
841F
  8
DEFPOINTS
 62
     0
 10
5244.9253905517944
 20
5406.388873437907
 30
0.0
  0
ENDBLK
  5
80DC
  8
0
  0
BLOCK
  8
0
  2
*D14
 70
     1
 10
0.0
 20
0.0
 30
0.0
  3
*D14
  1

  0
LINE
  5
8420
  8
3
 62
     0
 10
4480.7358332189888
 20
5406.388873437907
 30
0.0
 11
5293.6570310051457
 21
5406.388873437907
 31
0.0
  0
LINE
  5
8421
  8
3
 62
     0
 10
4272.4978826749448
 20
3816.388873437907
 30
0.0
 11
5293.6570310051457
 21
3816.3888734379061
 31
0.0
  0
LINE
  5
8422
  8
3
 62
     0
 10
5243.6570310051457
 20
5306.3888734379061
 30
0.0
 11
5243.6570310051457
 21
3916.3888734379061
 31
0.0
  0
INSERT
  5
8423
  8
3
 62
     0
  2
_OPEN
 10
5243.6570310051457
 20
5406.388873437907
 30
0.0
 41
100.0
 42
100.0
 43
100.0
 50
90.0
  0
INSERT
  5
8424
  8
3
 62
     0
  2
_OPEN
 10
5243.6570310051457
 20
3816.3888734379061
 30
0.0
 41
100.0
 42
100.0
 43
100.0
 50
270.0
  0
TEXT
  8
3
  40
150
  5
848B
  62
0
  72
0
  71
0
 10
4818.66
 20
4345.89
 30
0.000000
  1
1590
  0
POINT
  5
8426
  8
DEFPOINTS
 62
     0
 10
4455.7358332189879
 20
5406.388873437907
 30
0.0
  0
POINT
  5
8427
  8
DEFPOINTS
 62
     0
 10
4247.4978826749439
 20
3816.388873437907
 30
0.0
  0
POINT
  5
8428
  8
DEFPOINTS
 62
     0
 10
5243.6570310051457
 20
3816.3888734379061
 30
0.0
  0
ENDBLK
  5
80D1
  8
0
  0
BLOCK
  8
0
  2
*D15
 70
     1
 10
0.0
 20
0.0
 30
0.0
  3
*D15
  1

  0
LINE
  5
8429
  8
3
 62
     0
 10
4480.7358332189888
 20
5406.388873437907
 30
0.0
 11
5003.4906400911386
 21
5406.388873437907
 31
0.0
  0
LINE
  5
842A
  8
3
 62
     0
 10
4352.4978826749448
 20
3915.388873437907
 30
0.0
 11
5003.4906400911386
 21
3915.388873437907
 31
0.0
  0
LINE
  5
842B
  8
3
 62
     0
 10
4953.4906400911386
 20
5306.3888734379061
 30
0.0
 11
4953.4906400911386
 21
4015.388873437907
 31
0.0
  0
INSERT
  5
842C
  8
3
 62
     0
  2
_OPEN
 10
4953.4906400911386
 20
5406.388873437907
 30
0.0
 41
100.0
 42
100.0
 43
100.0
 50
90.0
  0
INSERT
  5
842D
  8
3
 62
     0
  2
_OPEN
 10
4953.4906400911386
 20
3915.388873437907
 30
0.0
 41
100.0
 42
100.0
 43
100.0
 50
270.0
  0
TEXT
  8
3
  40
150
  5
848C
  62
0
  72
0
  71
0
 10
4528.49
 20
4395.39
 30
0.000000
  1
1491
  0
POINT
  5
842F
  8
DEFPOINTS
 62
     0
 10
4455.7358332189879
 20
5406.388873437907
 30
0.0
  0
POINT
  5
8430
  8
DEFPOINTS
 62
     0
 10
4327.4978826749439
 20
3915.388873437907
 30
0.0
  0
POINT
  5
8431
  8
DEFPOINTS
 62
     0
 10
4953.4906400911386
 20
3915.388873437907
 30
0.0
  0
ENDBLK
  5
80BB
  8
0
  0
BLOCK
  8
0
  2
*D16
 70
     1
 10
0.0
 20
0.0
 30
0.0
  3
*D16
  1

  0
LINE
  5
8432
  8
3
 62
     0
 10
4272.4978826749448
 20
10017.662448473629
 30
0.0
 11
4749.8853384684999
 21
10017.662448473629
 31
0.0
  0
LINE
  5
8433
  8
3
 62
     0
 10
4272.4978826749448
 20
8617.6624484736349
 30
0.0
 11
4749.8853384684999
 21
8617.6624484736349
 31
0.0
  0
LINE
  5
8434
  8
3
 62
     0
 10
4699.8853384684999
 20
9917.6624484736349
 30
0.0
 11
4699.8853384684999
 21
8717.6624484736349
 31
0.0
  0
INSERT
  5
8435
  8
3
 62
     0
  2
_OPEN
 10
4699.8853384684999
 20
10017.662448473629
 30
0.0
 41
100.0
 42
100.0
 43
100.0
 50
90.0
  0
INSERT
  5
8436
  8
3
 62
     0
  2
_OPEN
 10
4699.8853384684999
 20
8617.6624484736349
 30
0.0
 41
100.0
 42
100.0
 43
100.0
 50
270.0
  0
TEXT
  8
3
  40
150
  5
848D
  62
0
  72
0
  71
0
 10
4274.89
 20
9051.89
 30
0.000000
  1
1400
  0
POINT
  5
8438
  8
DEFPOINTS
 62
     0
 10
4247.4978826749439
 20
10017.662448473629
 30
0.0
  0
POINT
  5
8439
  8
DEFPOINTS
 62
     0
 10
4247.4978826749439
 20
8617.6624484736349
 30
0.0
  0
POINT
  5
843A
  8
DEFPOINTS
 62
     0
 10
4699.8853384684999
 20
8617.6624484736349
 30
0.0
  0
ENDBLK
  5
80B0
  8
0
  0
BLOCK
  8
0
  2
*D17
 70
     1
 10
0.0
 20
0.0
 30
0.0
  3
*D17
  1

  0
LINE
  5
843B
  8
3
 62
     0
 10
4327.4978826749439
 20
5444.388873437907
 30
0.0
 11
4327.4978826749439
 21
7163.3665084381273
 31
0.0
  0
LINE
  5
843C
  8
3
 62
     0
 10
1497.4978826749441
 20
3991.388873437907
 30
0.0
 11
1497.4978826749441
 21
7163.3665084381273
 31
0.0
  0
LINE
  5
843D
  8
3
 62
     0
 10
4227.4978826749448
 20
7113.3665084381282
 30
0.0
 11
1597.497882674945
 21
7113.3665084381282
 31
0.0
  0
INSERT
  5
843E
  8
3
 62
     0
  2
_OPEN
 10
4327.4978826749439
 20
7113.3665084381282
 30
0.0
 41
100.0
 42
100.0
 43
100.0
  0
INSERT
  5
843F
  8
3
 62
     0
  2
_OPEN
 10
1497.4978826749441
 20
7113.3665084381282
 30
0.0
 41
100.0
 42
100.0
 43
100.0
 50
180.0
  0
TEXT
  8
3
  40
150
  5
848E
  62
0
  72
0
  71
0
 10
2740.20
 20
6972.87
 30
0.000000
  1
2830
  0
POINT
  5
8441
  8
DEFPOINTS
 62
     0
 10
4327.4978826749439
 20
5419.388873437907
 30
0.0
  0
POINT
  5
8442
  8
DEFPOINTS
 62
     0
 10
1497.4978826749441
 20
3966.388873437907
 30
0.0
  0
POINT
  5
8443
  8
DEFPOINTS
 62
     0
 10
1497.4978826749441
 20
7113.3665084381282
 30
0.0
  0
ENDBLK
  5
8204
  8
0
  0
BLOCK
  8
0
  2
*D18
 70
     1
 10
0.0
 20
0.0
 30
0.0
  3
*D18
  1

  0
LINE
  5
8444
  8
3
 62
     0
 10
1497.4978826749441
 20
3601.388873437907
 30
0.0
 11
1497.4978826749441
 21
3242.1220817180438
 31
0.0
  0
LINE
  5
8445
  8
3
 62
     0
 10
3397.4978826749448
 20
3601.388873437907
 30
0.0
 11
3397.4978826749448
 21
3242.1220817180438
 31
0.0
  0
LINE
  5
8446
  8
3
 62
     0
 10
1597.4978826749441
 20
3292.1220817180438
 30
0.0
 11
3297.4978826749448
 21
3292.1220817180438
 31
0.0
  0
INSERT
  5
8447
  8
3
 62
     0
  2
_OPEN
 10
1497.4978826749441
 20
3292.1220817180438
 30
0.0
 41
100.0
 42
100.0
 43
100.0
 50
180.0
  0
INSERT
  5
8448
  8
3
 62
     0
  2
_OPEN
 10
3397.4978826749448
 20
3292.1220817180438
 30
0.0
 41
100.0
 42
100.0
 43
100.0
  0
TEXT
  8
3
  40
150
  5
848F
  62
0
  72
0
  71
0
 10
2147.50
 20
3151.62
 30
0.000000
  1
1900
  0
POINT
  5
844A
  8
DEFPOINTS
 62
     0
 10
1497.4978826749441
 20
3626.388873437907
 30
0.0
  0
POINT
  5
844B
  8
DEFPOINTS
 62
     0
 10
3397.4978826749448
 20
3626.388873437907
 30
0.0
  0
POINT
  5
844C
  8
DEFPOINTS
 62
     0
 10
3397.4978826749448
 20
3292.1220817180438
 30
0.0
  0
ENDBLK
  5
8254
  8
0
  0
BLOCK
  8
0
  2
*D19
 70
     1
 10
0.0
 20
0.0
 30
0.0
  3
*D19
  1

  0
LINE
  5
844D
  8
3
 62
     0
 10
3397.4978826749448
 20
3601.388873437907
 30
0.0
 11
3397.4978826749448
 21
3242.1220817180438
 31
0.0
  0
LINE
  5
844E
  8
3
 62
     0
 10
4247.4978826749439
 20
3601.388873437907
 30
0.0
 11
4247.4978826749439
 21
3242.1220817180438
 31
0.0
  0
LINE
  5
844F
  8
3
 62
     0
 10
3497.4978826749448
 20
3292.1220817180438
 30
0.0
 11
4147.4978826749448
 21
3292.1220817180438
 31
0.0
  0
INSERT
  5
8450
  8
3
 62
     0
  2
_OPEN
 10
3397.4978826749448
 20
3292.1220817180438
 30
0.0
 41
100.0
 42
100.0
 43
100.0
 50
180.0
  0
INSERT
  5
8451
  8
3
 62
     0
  2
_OPEN
 10
4247.4978826749439
 20
3292.1220817180438
 30
0.0
 41
100.0
 42
100.0
 43
100.0
  0
TEXT
  8
3
  40
150
  5
8490
  62
0
  72
0
  71
0
 10
3522.50
 20
3151.62
 30
0.000000
  1
850
  0
POINT
  5
8453
  8
DEFPOINTS
 62
     0
 10
3397.4978826749448
 20
3626.388873437907
 30
0.0
  0
POINT
  5
8454
  8
DEFPOINTS
 62
     0
 10
4247.4978826749439
 20
3626.388873437907
 30
0.0
  0
POINT
  5
8455
  8
DEFPOINTS
 62
     0
 10
4247.4978826749439
 20
3292.1220817180438
 30
0.0
  0
ENDBLK
  5
8261
  8
0
  0
BLOCK
  8
0
  2
*D20
 70
     1
 10
0.0
 20
0.0
 30
0.0
  3
*D20
  1

  0
LINE
  5
8456
  8
3
 62
     0
 10
7035.699338448856
 20
3601.388873437907
 30
0.0
 11
7035.699338448856
 21
3242.1220817180438
 31
0.0
  0
LINE
  5
8457
  8
3
 62
     0
 10
7826.699338448856
 20
3601.3888734379079
 30
0.0
 11
7826.699338448856
 21
3242.1220817180438
 31
0.0
  0
LINE
  5
8458
  8
3
 62
     0
 10
7135.699338448856
 20
3292.1220817180438
 30
0.0
 11
7726.699338448856
 21
3292.1220817180438
 31
0.0
  0
INSERT
  5
8459
  8
3
 62
     0
  2
_OPEN
 10
7035.699338448856
 20
3292.1220817180438
 30
0.0
 41
100.0
 42
100.0
 43
100.0
 50
180.0
  0
INSERT
  5
845A
  8
3
 62
     0
  2
_OPEN
 10
7826.699338448856
 20
3292.1220817180438
 30
0.0
 41
100.0
 42
100.0
 43
100.0
  0
TEXT
  8
3
  40
150
  5
8491
  62
0
  72
0
  71
0
 10
7131.20
 20
3151.62
 30
0.000000
  1
791
  0
POINT
  5
845C
  8
DEFPOINTS
 62
     0
 10
7035.699338448856
 20
3626.388873437907
 30
0.0
  0
POINT
  5
845D
  8
DEFPOINTS
 62
     0
 10
7826.699338448856
 20
3626.3888734379079
 30
0.0
  0
POINT
  5
845E
  8
DEFPOINTS
 62
     0
 10
7826.699338448856
 20
3292.1220817180438
 30
0.0
  0
ENDBLK
  5
826E
  8
0
  0
BLOCK
  8
0
  2
*D21
 70
     1
 10
0.0
 20
0.0
 30
0.0
  3
*D21
  1

  0
LINE
  5
845F
  8
3
 62
     0
 10
7826.699338448856
 20
3601.3888734379079
 30
0.0
 11
7826.699338448856
 21
3242.1220817180438
 31
0.0
  0
LINE
  5
8460
  8
3
 62
     0
 10
8435.699338448856
 20
3601.3888734379079
 30
0.0
 11
8435.699338448856
 21
3242.1220817180438
 31
0.0
  0
LINE
  5
8461
  8
3
 62
     0
 10
7926.6993384488551
 20
3292.1220817180438
 30
0.0
 11
8335.699338448856
 21
3292.1220817180438
 31
0.0
  0
INSERT
  5
8462
  8
3
 62
     0
  2
_OPEN
 10
7826.699338448856
 20
3292.1220817180438
 30
0.0
 41
100.0
 42
100.0
 43
100.0
 50
180.0
  0
INSERT
  5
8463
  8
3
 62
     0
  2
_OPEN
 10
8435.699338448856
 20
3292.1220817180438
 30
0.0
 41
100.0
 42
100.0
 43
100.0
  0
TEXT
  8
3
  40
150
  5
8492
  62
0
  72
0
  71
0
 10
7831.20
 20
3151.62
 30
0.000000
  1
609
  0
POINT
  5
8465
  8
DEFPOINTS
 62
     0
 10
7826.699338448856
 20
3626.3888734379079
 30
0.0
  0
POINT
  5
8466
  8
DEFPOINTS
 62
     0
 10
8435.699338448856
 20
3626.3888734379079
 30
0.0
  0
POINT
  5
8467
  8
DEFPOINTS
 62
     0
 10
8435.699338448856
 20
3292.1220817180438
 30
0.0
  0
ENDBLK
  5
827D
  8
0
  0
BLOCK
  8
0
  2
_DOT
 70
     0
 10
0.0
 20
0.0
 30
0.0
  3
_DOT
  1

  0
POLYLINE
  5
8281
  8
0
  6
BYBLOCK
 62
     0
 66
     1
 10
0.0
 20
0.0
 30
0.0
 70
     1
 40
0.5
 41
0.5
  0
VERTEX
  5
8468
  8
0
  6
BYBLOCK
 62
     0
 10
-0.25
 20
0.0
 30
0.0
 42
1.0
  0
VERTEX
  5
8469
  8
0
  6
BYBLOCK
 62
     0
 10
0.25
 20
0.0
 30
0.0
 42
1.0
  0
SEQEND
  5
846A
  8
0
  6
BYBLOCK
 62
     0
  0
LINE
  5
8285
  8
0
  6
BYBLOCK
 62
     0
 10
-0.5
 20
0.0
 30
0.0
 11
-1.0
 21
0.0
 31
0.0
  0
ENDBLK
  5
8286
  8
0
  0
BLOCK
  8
0
  2
*D23
 70
     1
 10
0.0
 20
0.0
 30
0.0
  3
*D23
  1

  0
LINE
  5
846B
  8
3
 62
     0
 10
4272.4978826749448
 20
3701.388873437907
 30
0.0
 11
5296.3291202032988
 21
3701.3888734379061
 31
0.0
  0
LINE
  5
846C
  8
3
 62
     0
 10
4272.4978826749448
 20
3626.388873437907
 30
0.0
 11
5296.3291202032988
 21
3626.3888734379061
 31
0.0
  0
LINE
  5
846D
  8
3
 62
     0
 10
5246.3291202032997
 20
3801.3888734379061
 30
0.0
 11
5246.3291202032997
 21
3901.3888734379061
 31
0.0
  0
LINE
  5
846E
  8
3
 62
     0
 10
5246.3291202032997
 20
3526.3888734379061
 30
0.0
 11
5246.3291202032997
 21
3083.5317305807639
 31
0.0
  0
LINE
  5
846F
  8
3
 62
     0
 10
5246.3291202032997
 20
3701.3888734379061
 30
0.0
 11
5246.3291202032997
 21
3626.3888734379061
 31
0.0
  0
INSERT
  5
8470
  8
3
 62
     0
  2
_DOT
 10
5246.3291202032997
 20
3701.3888734379061
 30
0.0
 41
100.0
 42
100.0
 43
100.0
 50
270.0
  0
INSERT
  5
8471
  8
3
 62
     0
  2
_OPEN
 10
5246.3291202032997
 20
3626.3888734379061
 30
0.0
 41
100.0
 42
100.0
 43
100.0
 50
90.0
  0
TEXT
  8
3
  40
150
  5
8493
  62
0
  72
0
  71
0
 10
4821.33
 20
2989.46
 30
0.000000
  1
75
  0
POINT
  5
8473
  8
DEFPOINTS
 62
     0
 10
4247.4978826749439
 20
3701.388873437907
 30
0.0
  0
POINT
  5
8474
  8
DEFPOINTS
 62
     0
 10
4247.4978826749439
 20
3626.388873437907
 30
0.0
  0
POINT
  5
8475
  8
DEFPOINTS
 62
     0
 10
5246.3291202032997
 20
3626.3888734379061
 30
0.0
  0
ENDBLK
  5
8294
  8
0
  0
BLOCK
  8
0
  2
*D24
 70
     1
 10
0.0
 20
0.0
 30
0.0
  3
*D24
  1

  0
LINE
  5
8298
  8
0
  6
BYBLOCK
 62
     0
 10
4272.4978826749448
 20
3701.388873437907
 30
0.0
 11
5296.3291202032988
 21
3701.388873437907
 31
0.0
  0
LINE
  5
8299
  8
0
  6
BYBLOCK
 62
     0
 10
4272.4978826749448
 20
3816.388873437907
 30
0.0
 11
5296.3291202032988
 21
3816.388873437907
 31
0.0
  0
LINE
  5
829A
  8
0
  6
BYBLOCK
 62
     0
 10
5246.3291202032997
 20
3601.388873437907
 30
0.0
 11
5246.3291202032997
 21
3501.388873437907
 31
0.0
  0
LINE
  5
829B
  8
0
  6
BYBLOCK
 62
     0
 10
5246.3291202032997
 20
3916.388873437907
 30
0.0
 11
5246.3291202032997
 21
4016.3888734379061
 31
0.0
  0
TEXT
  5
829C
  8
3
 62
     0
 10
5535.6148344890144
 20
3498.1745877236208
 30
0.0
 40
150.0
  1
(115)
 50
90.0
  0
LINE
  5
829D
  8
0
  6
BYBLOCK
 62
     0
 10
5246.3291202032997
 20
3701.388873437907
 30
0.0
 11
5246.3291202032997
 21
3816.388873437907
 31
0.0
  0
INSERT
  5
829E
  8
0
  6
BYBLOCK
 62
     0
  2
_DOT
 10
5246.3291202032997
 20
3701.388873437907
 30
0.0
 41
100.0
 42
100.0
 43
100.0
 50
90.0
  0
INSERT
  5
829F
  8
0
  6
BYBLOCK
 62
     0
  2
_OPEN
 10
5246.3291202032997
 20
3816.388873437907
 30
0.0
 41
100.0
 42
100.0
 43
100.0
 50
270.0
  0
POINT
  5
82A0
  8
DEFPOINTS
  6
BYBLOCK
 62
     0
 10
4247.4978826749439
 20
3701.388873437907
 30
0.0
  0
POINT
  5
82A1
  8
DEFPOINTS
  6
BYBLOCK
 62
     0
 10
4247.4978826749439
 20
3816.388873437907
 30
0.0
  0
POINT
  5
82A2
  8
DEFPOINTS
  6
BYBLOCK
 62
     0
 10
5246.3291202032997
 20
3816.388873437907
 30
0.0
  0
ENDBLK
  5
82A3
  8
0
  0
BLOCK
  8
0
  2
*D25
 70
     1
 10
0.0
 20
0.0
 30
0.0
  3
*D25
  1

  0
LINE
  5
8476
  8
3
 62
     0
 10
3345.4978826749439
 20
6409.3888734379079
 30
0.0
 11
5762.6474543824525
 21
6409.3888734379079
 31
0.0
  0
LINE
  5
8477
  8
3
 62
     0
 10
4272.4978826749448
 20
3626.388873437907
 30
0.0
 11
5762.6474543824506
 21
3626.3888734379061
 31
0.0
  0
LINE
  5
8478
  8
3
 62
     0
 10
5712.6474543824534
 20
6309.388873437907
 30
0.0
 11
5712.6474543824525
 21
3726.3888734379061
 31
0.0
  0
INSERT
  5
8479
  8
3
 62
     0
  2
_OPEN
 10
5712.6474543824534
 20
6409.3888734379079
 30
0.0
 41
100.0
 42
100.0
 43
100.0
 50
90.0
  0
INSERT
  5
847A
  8
3
 62
     0
  2
_OPEN
 10
5712.6474543824525
 20
3626.3888734379061
 30
0.0
 41
100.0
 42
100.0
 43
100.0
 50
270.0
  0
TEXT
  8
3
  40
150
  5
8494
  62
0
  72
0
  71
0
 10
5248.36
 20
4752.39
 30
0.000000
  1
(2783)
  0
POINT
  5
847C
  8
DEFPOINTS
 62
     0
 10
3320.4978826749439
 20
6409.3888734379079
 30
0.0
  0
POINT
  5
847D
  8
DEFPOINTS
 62
     0
 10
4247.4978826749439
 20
3626.388873437907
 30
0.0
  0
POINT
  5
847E
  8
DEFPOINTS
 62
     0
 10
5712.6474543824525
 20
3626.3888734379061
 30
0.0
  0
ENDBLK
  5
82B0
  8
0
  0
ENDSEC
  0
SECTION
  2
ENTITIES
  0
INSERT
  5
7BD5
  8
0
  2
YA_N
 10
6.0
 20
5.0
 30
0.0
  0
INSERT
  5
7BD7
  8
0
  2
YA_N
 10
6.0
 20
5.0
 30
0.0
  0
LINE
  5
7BD9
  8
2
 10
3397.4978826749448
 20
10150.389095225401
 30
0.0
 11
3397.4978826749448
 21
8438.6624484736349
 31
0.0
  0
LINE
  5
7BDA
  8
1
 10
4327.4978826749439
 20
5419.388873437907
 30
0.0
 11
4327.4978826749439
 21
3861.388873437907
 31
0.0
  0
LINE
  5
7BDB
  8
1
 10
4327.4978826749439
 20
5365.3888734379079
 30
0.0
 11
4218.4016273983207
 21
5365.3888734379079
 31
0.0
  0
ARC
  5
7BDC
  8
1
 10
3499.4978826749439
 20
5304.3888734379079
 30
0.0
 40
1309.0
 50
180.0
 51
265.53086334447892
  0
ARC
  5
7BDD
  8
1
 10
3295.4978826749439
 20
5304.3888734379079
 30
0.0
 40
1105.0
 50
84.703619088147676
 51
180.0
  0
ARC
  5
7BDE
  8
1
 10
3311.9978826749439
 20
5491.8888734379079
 30
0.0
 40
917.5
 50
0.0
 51
84.652962196513741
  0
ARC
  5
7BDF
  8
1
 10
3482.6978826749441
 20
5491.8888734379079
 30
0.0
 40
746.49999999999989
 50
350.2437233818834
 51
0.0
  0
LINE
  5
7BE0
  8
1
 10
4327.4978826749439
 20
3915.388873437907
 30
0.0
 11
3397.4978826749448
 21
3999.2750201401959
 31
0.0
  0
LINE
  5
7BE1
  8
1
 10
4247.4978826749439
 20
3816.388873437907
 30
0.0
 11
1497.4978826749441
 21
3816.388873437907
 31
0.0
  0
LINE
  5
7BE2
  8
1
 10
4247.4978826749439
 20
3966.388873437907
 30
0.0
 11
1497.4978826749441
 21
3966.388873437907
 31
0.0
  0
LINE
  5
7BE3
  8
1
 10
4247.4978826749439
 20
3966.388873437907
 30
0.0
 11
4247.4978826749439
 21
3816.388873437907
 31
0.0
  0
LINE
  5
7BE4
  8
1
 10
1497.4978826749441
 20
3966.388873437907
 30
0.0
 11
1497.4978826749441
 21
3816.388873437907
 31
0.0
  0
LINE
  5
7BE5
  8
1
 10
4277.4978826749448
 20
5365.3888734379079
 30
0.0
 11
4277.4978826749448
 21
3919.8988813251258
 31
0.0
  0
LINE
  5
7BE6
  8
2
 10
6793.5016726039248
 20
5406.388873437907
 30
0.0
 11
8550.3259709091726
 21
5406.388873437907
 31
0.0
  0
LINE
  5
7BE7
  8
2
 10
7826.699338448856
 20
6616.8832908969316
 30
0.0
 11
7826.699338448856
 21
3626.3888734379079
 31
0.0
  0
LINE
  5
7BE8
  8
1
 10
7035.699338448856
 20
3966.388873437907
 30
0.0
 11
7296.6993384488569
 21
3966.388873437907
 31
0.0
  0
LINE
  5
7BE9
  8
1
 10
7035.699338448856
 20
3816.388873437907
 30
0.0
 11
8435.699338448856
 21
3816.3888734379079
 31
0.0
  0
LINE
  5
7BEA
  8
1
 10
7296.6993384488569
 20
3915.388873437907
 30
0.0
 11
8356.6993384488542
 21
3915.388873437907
 31
0.0
  0
LINE
  5
7BEB
  8
2
 10
3397.4978826749448
 20
3626.388873437907
 30
0.0
 11
3397.4978826749448
 21
6523.7958517004172
 31
0.0
  0
LINE
  5
7BEC
  8
2
 10
1797.497882674945
 20
4560.1954445991869
 30
0.0
 11
1797.497882674945
 21
3879.6611192959331
 31
0.0
  0
LINE
  5
7BED
  8
2
 10
2211.6474287293731
 20
4201.388873437907
 30
0.0
 11
1497.4978826749441
 21
4201.388873437907
 31
0.0
  0
LINE
  5
7BEE
  8
2
 10
6811.2473696046154
 20
4201.388873437907
 30
0.0
 11
7435.1373716678372
 21
4201.388873437907
 31
0.0
  0
CIRCLE
  5
7BEF
  8
1
 10
3397.4978826749448
 20
5406.388873437907
 30
0.0
 40
700.0
  0
CIRCLE
  5
7BF0
  8
1
 10
3397.4978826749448
 20
5406.388873437907
 30
0.0
 40
750.0
  0
LINE
  5
7BF1
  8
1
 10
8356.6993384488542
 20
4706.388873437907
 30
0.0
 11
8460.699338448856
 21
4706.388873437907
 31
0.0
  0
LINE
  5
7BF2
  8
1
 10
8460.699338448856
 20
6156.388873437907
 30
0.0
 11
8460.699338448856
 21
4656.388873437907
 31
0.0
  0
LINE
  5
7BF3
  8
1
 10
1635.4978826749441
 20
4091.3913782086502
 30
0.0
 11
1645.126936564697
 21
4100.9431429090901
 31
0.0
  0
LINE
  5
7BF4
  8
1
 10
1959.4978826749441
 20
4091.3913782086502
 30
0.0
 11
1949.868828785193
 21
4100.9431429090901
 31
0.0
  0
LINE
  5
7BF5
  8
1
 10
1635.4978826749441
 20
4021.3888734379061
 30
0.0
 11
1635.4978826749441
 21
4091.3913782086502
 31
0.0
  0
LINE
  5
7BF6
  8
1
 10
1546.6721905928459
 20
4021.3888734379061
 30
0.0
 11
1714.159563096696
 21
4021.3888734379061
 31
0.0
  0
ARC
  5
7BF7
  8
1
 10
1797.497882674945
 20
4201.388873437907
 30
0.0
 40
182.5
 50
285.78279193357162
 51
254.2172080664283
  0
LINE
  5
7BF8
  8
1
 10
1847.136284832309
 20
4025.7691734288678
 30
0.0
 11
1747.859480517579
 21
4025.7691734288678
 31
0.0
  0
LINE
  5
7BF9
  8
1
 10
1959.4978826749441
 20
4021.3888734379061
 30
0.0
 11
1959.4978826749441
 21
4091.3913782086502
 31
0.0
  0
LINE
  5
7BFA
  8
1
 10
1959.4978826749441
 20
4021.3888734379061
 30
0.0
 11
1899.4978826749441
 21
4021.3888734379061
 31
0.0
  0
CIRCLE
  5
7BFB
  8
1
 10
3397.4978826749439
 20
5406.388873437907
 30
0.0
 40
250.0
  0
CIRCLE
  5
7BFC
  8
1
 10
1797.497882674945
 20
4201.388873437907
 30
0.0
 40
106.0
  0
ARC
  5
7BFD
  8
1
 10
3397.4978826749448
 20
5406.388873437907
 30
0.0
 40
380.0
 50
293.05903587179409
 51
123.1788299696958
  0
ARC
  5
7BFE
  8
1
 10
1797.497882674945
 20
4201.388873437907
 30
0.0
 40
220.0
 50
123.1788299696958
 51
293.05903587179409
  0
LINE
  5
7BFF
  8
1
 10
3189.54135780656
 20
5724.4361714372217
 30
0.0
 11
1677.1019998564061
 21
4385.5215196480376
 31
0.0
  0
LINE
  5
7C00
  8
1
 10
3262.541683369539
 20
5616.8332230152719
 30
0.0
 11
1740.2764541694539
 21
4290.61727765871
 31
0.0
  0
LINE
  5
7C01
  8
1
 10
3497.4497900044448
 20
5177.2391053359179
 30
0.0
 11
1839.877491382653
 21
4104.2293717626644
 31
0.0
  0
LINE
  5
7C02
  8
1
 10
3546.3360477618012
 20
5056.7502019303392
 30
0.0
 11
1883.6673466725979
 21
3998.9664846703672
 31
0.0
  0
LINE
  5
7C03
  8
1
 10
1537.497882674943
 20
3966.388873437907
 30
0.0
 11
1546.6721905928459
 21
4021.3888734379061
 31
0.0
  0
LINE
  5
7C04
  8
1
 10
1714.159563096696
 20
4021.3888734379061
 30
0.0
 11
1714.159563096696
 21
4011.9125288763062
 31
0.0
  0
LINE
  5
7C05
  8
1
 10
1714.159563096696
 20
4011.9125288763062
 30
0.0
 11
1797.51066356247
 21
4011.9125288763062
 31
0.0
  0
LINE
  5
7C06
  8
1
 10
2057.4978826749461
 20
3966.388873437907
 30
0.0
 11
2048.3235747570411
 21
4021.3888734379061
 31
0.0
  0
LINE
  5
7C07
  8
1
 10
2048.3235747570429
 20
4021.3888734379061
 30
0.0
 11
1880.8362022531919
 21
4021.3888734379061
 31
0.0
  0
LINE
  5
7C08
  8
1
 10
1880.8362022531919
 20
4011.9125288763062
 30
0.0
 11
1797.4851017874189
 21
4011.9125288763062
 31
0.0
  0
LINE
  5
7C09
  8
1
 10
1880.8362022531919
 20
4021.3888734379061
 30
0.0
 11
1880.8362022531919
 21
4011.9125288763062
 31
0.0
  0
LINE
  5
7C0A
  8
1
 10
7026.9993384488562
 20
5486.388873437907
 30
0.0
 11
7026.9993384488562
 21
5326.388873437907
 31
0.0
  0
LINE
  5
7C0B
  8
1
 10
6926.9993384488553
 20
5656.388873437907
 30
0.0
 11
7004.8993384488549
 21
5656.388873437907
 31
0.0
  0
LINE
  5
7C0C
  8
1
 10
6926.9993384488553
 20
5156.388873437907
 30
0.0
 11
7004.8993384488549
 21
5156.388873437907
 31
0.0
  0
LINE
  5
7C0D
  8
1
 10
6926.9993384488553
 20
5656.388873437907
 30
0.0
 11
6926.9993384488553
 21
5156.388873437907
 31
0.0
  0
LINE
  5
7C0E
  8
1
 10
7004.8993384488549
 20
5656.388873437907
 30
0.0
 11
7004.8993384488549
 21
5156.388873437907
 31
0.0
  0
LINE
  5
7C0F
  8
1
 10
7004.8993384488549
 20
5486.388873437907
 30
0.0
 11
7026.9993384488562
 21
5486.388873437907
 31
0.0
  0
LINE
  5
7C10
  8
1
 10
7004.8993384488549
 20
5326.388873437907
 30
0.0
 11
7026.9993384488562
 21
5326.388873437907
 31
0.0
  0
LINE
  5
7C11
  8
1
 10
6926.9993384488553
 20
4307.3888734379079
 30
0.0
 11
7004.8993384488549
 21
4307.3888734379079
 31
0.0
  0
LINE
  5
7C12
  8
1
 10
6926.9993384488553
 20
4095.388873437907
 30
0.0
 11
7004.8993384488549
 21
4095.388873437907
 31
0.0
  0
LINE
  5
7C13
  8
1
 10
7019.9993384488553
 20
4261.388873437907
 30
0.0
 11
7019.9993384488553
 21
4141.388873437907
 31
0.0
  0
LINE
  5
7C14
  8
1
 10
7004.8993384488549
 20
4261.388873437907
 30
0.0
 11
7019.9993384488553
 21
4261.388873437907
 31
0.0
  0
LINE
  5
7C15
  8
1
 10
7004.8993384488549
 20
4141.3888734379061
 30
0.0
 11
7019.9993384488553
 21
4141.388873437907
 31
0.0
  0
LINE
  5
7C16
  8
1
 10
6856.6993384488551
 20
3981.388873437907
 30
0.0
 11
7076.9993384488562
 21
3981.388873437907
 31
0.0
  0
LINE
  5
7C17
  8
1
 10
6856.6993384488551
 20
5786.388873437907
 30
0.0
 11
7076.9993384488562
 21
5786.388873437907
 31
0.0
  0
LINE
  5
7C18
  8
1
 10
6856.6993384488551
 20
5786.388873437907
 30
0.0
 11
6856.6993384488551
 21
3981.388873437907
 31
0.0
  0
LINE
  5
7C19
  8
1
 10
7076.9993384488562
 20
5786.388873437907
 30
0.0
 11
7076.9993384488562
 21
3981.388873437907
 31
0.0
  0
LINE
  5
7C1A
  8
1
 10
7026.9993384488562
 20
5448.888873437907
 30
0.0
 11
7296.699338448856
 21
5448.888873437907
 31
0.0
  0
LINE
  5
7C1B
  8
1
 10
7026.9993384488562
 20
5363.888873437907
 30
0.0
 11
7296.699338448856
 21
5363.888873437907
 31
0.0
  0
LINE
  5
7C1C
  8
1
 10
4247.4978826749439
 20
3701.388873437907
 30
0.0
 11
4247.4978826749439
 21
3626.388873437907
 31
0.0
  0
LINE
  5
7C1D
  8
1
 10
4247.4978826749439
 20
3701.388873437907
 30
0.0
 11
1497.4978826749441
 21
3701.388873437907
 31
0.0
  0
LINE
  5
7C1E
  8
1
 10
1497.4978826749441
 20
3701.388873437907
 30
0.0
 11
1497.4978826749441
 21
3626.388873437907
 31
0.0
  0
LINE
  5
7C1F
  8
1
 10
4247.4978826749439
 20
3626.388873437907
 30
0.0
 11
1497.4978826749441
 21
3626.388873437907
 31
0.0
  0
LINE
  5
7C20
  8
1
 10
7035.699338448856
 20
3701.388873437907
 30
0.0
 11
8435.699338448856
 21
3701.3888734379079
 31
0.0
  0
LINE
  5
7C21
  8
1
 10
7035.699338448856
 20
3626.388873437907
 30
0.0
 11
8435.699338448856
 21
3626.3888734379079
 31
0.0
  0
LINE
  5
7C22
  8
1
 10
7035.6993384488569
 20
3966.388873437907
 30
0.0
 11
7035.699338448856
 21
3816.388873437907
 31
0.0
  0
LINE
  5
7C23
  8
1
 10
8435.6993384488578
 20
3966.388873437907
 30
0.0
 11
8435.699338448856
 21
3816.3888734379079
 31
0.0
  0
POINT
  5
7C24
  8
1
 10
1497.4978826749441
 20
3816.388873437907
 30
0.0
  0
POINT
  5
7C25
  8
1
 10
1497.4978826749441
 20
3701.388873437907
 30
0.0
  0
POINT
  5
7C26
  8
1
 10
1497.4978826749441
 20
3701.388873437907
 30
0.0
  0
POINT
  5
7C27
  8
1
 10
1497.4978826749441
 20
3626.388873437907
 30
0.0
  0
LINE
  5
7C28
  8
1
 10
7296.6993384488569
 20
6409.3888734379079
 30
0.0
 11
7296.6993384488569
 21
3915.388873437907
 31
0.0
  0
LINE
  5
7C29
  8
1
 10
8356.6993384488542
 20
6409.3888734379079
 30
0.0
 11
8356.6993384488542
 21
3915.388873437907
 31
0.0
  0
POINT
  5
7C2A
  8
1
 10
7826.699338448856
 20
6817.4527164861829
 30
0.0
  0
INSERT
  5
7C2B
  8
0
  6
BYBLOCK
 62
     2
  2
YA_N
 10
5372.4018783245183
 20
-226.14356067562309
 30
0.0
 41
90.0
 42
90.0
 43
90.0
 50
210.0117675348119
  0
LINE
  5
7C2C
  8
1
 10
7035.699338448856
 20
3701.388873437907
 30
0.0
 11
7035.699338448856
 21
3626.388873437907
 31
0.0
  0
LINE
  5
7C2D
  8
1
 10
8435.699338448856
 20
3701.3888734379079
 30
0.0
 11
8435.699338448856
 21
3626.3888734379079
 31
0.0
  0
LINE
  5
7C30
  8
1
 10
6926.9993384488553
 20
4307.3888734379079
 30
0.0
 11
6926.9993384488553
 21
4095.388873437907
 31
0.0
  0
LINE
  5
7C31
  8
1
 10
7004.8993384488549
 20
4307.3888734379079
 30
0.0
 11
7004.8993384488549
 21
4095.388873437907
 31
0.0
  0
LINE
  5
7C32
  8
2
 10
4450.1688599427744
 20
9408.6624484736312
 30
0.0
 11
2072.4639503063731
 21
9408.6624484736312
 31
0.0
  0
LINE
  5
7C33
  8
1
 10
4247.4978826749439
 20
10017.662448473629
 30
0.0
 11
4097.4978826749448
 21
10017.662448473629
 31
0.0
  0
LINE
  5
7C34
  8
1
 10
4247.4978826749439
 20
8617.6624484736349
 30
0.0
 11
1497.4978826749441
 21
8617.6624484736349
 31
0.0
  0
LINE
  5
7C35
  8
1
 10
1497.4978826749441
 20
9717.6624484736349
 30
0.0
 11
1497.4978826749441
 21
8617.6624484736349
 31
0.0
  0
LINE
  5
7C36
  8
1
 10
4247.4978826749439
 20
10017.662448473629
 30
0.0
 11
4247.4978826749439
 21
9938.6624484736349
 31
0.0
  0
LINE
  5
7C37
  8
2
 10
4455.7358332189879
 20
5406.388873437907
 30
0.0
 11
1994.4959983392901
 21
5406.3888734379061
 31
0.0
  0
LINE
  5
7C38
  8
1
 10
2547.4978826749448
 20
10017.662448473629
 30
0.0
 11
2547.4978826749448
 21
9938.6624484736349
 31
0.0
  0
LINE
  5
7C39
  8
1
 10
2190.4978826749439
 20
9717.6624484736349
 30
0.0
 11
1497.4978826749441
 21
9717.6624484736349
 31
0.0
  0
LINE
  5
7C3A
  8
1
 10
4327.4978826749439
 20
9938.6624484736349
 30
0.0
 11
2190.4978826749439
 21
9938.6624484736349
 31
0.0
  0
LINE
  5
7C3B
  8
1
 10
4327.4978826749439
 20
8878.6624484736349
 30
0.0
 11
2190.4978826749439
 21
8878.662448473633
 31
0.0
  0
LINE
  5
7C3C
  8
1
 10
4247.4978826749439
 20
8878.6624484736349
 30
0.0
 11
4247.4978826749439
 21
8617.6624484736349
 31
0.0
  0
LINE
  5
7C3D
  8
1
 10
4147.4978826749448
 20
10038.662448473629
 30
0.0
 11
2647.4978826749448
 21
10038.662448473629
 31
0.0
  0
LINE
  5
7C3E
  8
1
 10
2697.4978826749439
 20
10038.662448473629
 30
0.0
 11
2697.4978826749439
 21
9938.6624484736349
 31
0.0
  0
LINE
  5
7C3F
  8
1
 10
4097.4978826749448
 20
10038.662448473629
 30
0.0
 11
4097.4978826749448
 21
9938.6624484736349
 31
0.0
  0
LINE
  5
7C40
  8
1
 10
2697.4978826749439
 20
10017.662448473629
 30
0.0
 11
2547.4978826749448
 21
10017.662448473629
 31
0.0
  0
DIMENSION
  5
7C41
  8
3
  2
*D2
 10
7296.6993384488569
 20
6613.2338487549996
 30
0.0
 11
7826.699338448856
 21
6613.2338487549996
 31
0.0
 70
   128
 13
8356.6993384488542
 23
6353.5122829176989
 33
0.0
 14
7296.6993384488569
 24
6353.512282917698
 34
0.0
1001
ACAD
1000
DSTYLE
1002
{
1070
   287
1070
     3
1070
   287
1070
     3
1070
    40
1040
50.0
1070
   143
1040
0.039
1070
   172
1070
     1
1070
   271
1070
     0
1070
   279
1070
     0
1070
   288
1070
     1
1002
}
  0
DIMENSION
  5
7C42
  8
3
  2
*D3
 10
7826.699338448856
 20
6980.0322605751453
 30
0.0
 11
8143.699338448856
 21
7180.0322605751453
 31
0.0
 70
     0
 13
8460.699338448856
 23
6156.388873437907
 33
0.0
 14
7826.699338448856
 24
6817.4527164861829
 34
0.0
1001
ACAD
1000
DSTYLE
1002
{
1070
   288
1070
     1
1070
   172
1070
     1
1070
    40
1040
50.0
1070
   271
1070
     0
1070
   143
1040
0.039
1002
}
  0
DIMENSION
  5
7C43
  8
3
  2
*D4
 10
6856.6993384488551
 20
6980.0322605751453
 30
0.0
 11
7341.699338448856
 21
7230.0322605751453
 31
0.0
 70
     0
  1
MAX\P1030
 13
7826.699338448856
 23
6817.4527164861829
 33
0.0
 14
6856.6993384488551
 24
5786.388873437907
 34
0.0
1001
ACAD
1000
DSTYLE
1002
{
1070
   287
1070
     3
1070
   287
1070
     3
1070
    40
1040
50.0
1070
   143
1040
0.039
1070
   172
1070
     1
1070
   271
1070
     0
1070
   279
1070
     0
1070
   288
1070
     1
1002
}
  0
LINE
  5
7C44
  8
1
 10
8356.6993384488542
 20
6106.388873437907
 30
0.0
 11
8460.699338448856
 21
6106.388873437907
 31
0.0
  0
DIMENSION
  5
7C45
  8
3
  2
*D5
 10
8849.2515597572547
 20
4706.388873437907
 30
0.0
 11
8724.2515597572492
 21
5406.3888734379079
 31
0.0
 70
     0
 13
8460.699338448856
 23
6106.388873437907
 33
0.0
 14
8460.699338448856
 24
4706.388873437907
 34
0.0
 50
90.0
1001
ACAD
1000
DSTYLE
1002
{
1070
   287
1070
     3
1070
   287
1070
     3
1070
     3
1000
φ<>
1070
    40
1040
50.0
1070
   143
1040
0.039
1070
   172
1070
     1
1070
   271
1070
     0
1070
   279
1070
     0
1070
   288
1070
     1
1002
}
  0
LINE
  5
7C49
  8
2
 10
1797.497882674945
 20
8437.0773178748404
 30
0.0
 11
1797.497882674945
 21
9326.2495980721378
 31
0.0
  0
LINE
  5
7C4A
  8
1
 10
3354.9978826749439
 20
8608.9624484736341
 30
0.0
 11
3354.9978826749439
 21
8878.6624484736349
 31
0.0
  0
LINE
  5
7C4B
  8
1
 10
3439.9978826749439
 20
8608.9624484736341
 30
0.0
 11
3439.9978826749439
 21
8878.662448473633
 31
0.0
  0
LINE
  5
7C4C
  8
1
 10
1839.9978826749441
 20
8601.9624484736323
 30
0.0
 11
1839.9978826749441
 21
8701.8624484736338
 31
0.0
  0
LINE
  5
7C4D
  8
1
 10
1754.997882674945
 20
8601.9624484736323
 30
0.0
 11
1754.997882674943
 21
8701.8624484736338
 31
0.0
  0
LINE
  5
7C4E
  8
1
 10
3777.4978826749448
 20
8438.6624484736349
 30
0.0
 11
1577.4978826749441
 21
8438.6624484736349
 31
0.0
  0
LINE
  5
7C4F
  8
1
 10
3777.4978826749448
 20
8658.9624484736341
 30
0.0
 11
1577.4978826749441
 21
8658.9624484736341
 31
0.0
  0
LINE
  5
7C50
  8
1
 10
1857.4978826749441
 20
8601.9624484736323
 30
0.0
 11
1737.4978826749441
 21
8601.9624484736323
 31
0.0
  0
LINE
  5
7C51
  8
1
 10
1903.4978826749441
 20
8508.9624484736341
 30
0.0
 11
1691.4978826749441
 21
8508.9624484736341
 31
0.0
  0
LINE
  5
7C52
  8
1
 10
1903.4978826749441
 20
8586.8624484736356
 30
0.0
 11
1691.4978826749441
 21
8586.8624484736301
 31
0.0
  0
LINE
  5
7C53
  8
1
 10
1577.4978826749441
 20
8438.6624484736349
 30
0.0
 11
1577.4978826749441
 21
8658.9624484736341
 31
0.0
  0
LINE
  5
7C54
  8
1
 10
1737.4978826749441
 20
8586.8624484736301
 30
0.0
 11
1737.4978826749441
 21
8601.9624484736323
 31
0.0
  0
LINE
  5
7C55
  8
1
 10
1691.4978826749441
 20
8508.9624484736341
 30
0.0
 11
1691.4978826749441
 21
8586.8624484736301
 31
0.0
  0
LINE
  5
7C56
  8
1
 10
1857.4978826749441
 20
8586.8624484736301
 30
0.0
 11
1857.4978826749441
 21
8601.9624484736323
 31
0.0
  0
LINE
  5
7C57
  8
1
 10
1903.4978826749441
 20
8508.9624484736341
 30
0.0
 11
1903.4978826749441
 21
8586.8624484736301
 31
0.0
  0
LINE
  5
7C58
  8
1
 10
3647.4978826749448
 20
8508.9624484736341
 30
0.0
 11
3147.4978826749448
 21
8508.9624484736341
 31
0.0
  0
LINE
  5
7C59
  8
1
 10
3647.4978826749448
 20
8586.8624484736356
 30
0.0
 11
3147.4978826749448
 21
8586.8624484736356
 31
0.0
  0
LINE
  5
7C5A
  8
1
 10
3477.4978826749439
 20
8586.8624484736356
 30
0.0
 11
3477.4978826749439
 21
8608.9624484736341
 31
0.0
  0
LINE
  5
7C5B
  8
1
 10
3317.4978826749439
 20
8586.8624484736356
 30
0.0
 11
3317.4978826749439
 21
8608.9624484736341
 31
0.0
  0
LINE
  5
7C5C
  8
1
 10
3147.4978826749448
 20
8508.9624484736341
 30
0.0
 11
3147.4978826749448
 21
8586.8624484736356
 31
0.0
  0
LINE
  5
7C5D
  8
1
 10
3477.4978826749439
 20
8608.9624484736341
 30
0.0
 11
3317.4978826749439
 21
8608.9624484736341
 31
0.0
  0
LINE
  5
7C5E
  8
1
 10
3777.4978826749448
 20
8438.6624484736349
 30
0.0
 11
3777.4978826749448
 21
8658.9624484736323
 31
0.0
  0
LINE
  5
7C5F
  8
1
 10
3647.4978826749448
 20
8508.9624484736341
 30
0.0
 11
3647.4978826749448
 21
8586.8624484736356
 31
0.0
  0
LINE
  5
7C60
  8
1
 10
1979.9978826749441
 20
9301.3624484736338
 30
0.0
 11
1614.9978826749441
 21
9301.362448473632
 31
0.0
  0
LINE
  5
7C61
  8
1
 10
1979.9978826749441
 20
8701.8624484736374
 30
0.0
 11
1614.9978826749441
 21
8701.8624484736301
 31
0.0
  0
LINE
  5
7C62
  8
1
 10
1614.9978826749441
 20
8701.8624484736301
 30
0.0
 11
1614.9978826749441
 21
9301.362448473632
 31
0.0
  0
LINE
  5
7C63
  8
1
 10
1979.9978826749441
 20
8701.8624484736374
 30
0.0
 11
1979.9978826749441
 21
9301.3624484736338
 31
0.0
  0
DIMENSION
  5
7C64
  8
3
  2
*D6
 10
2547.4978826749448
 20
10382.178678949511
 30
0.0
 11
3397.4978826749448
 21
10507.178678949511
 31
0.0
 70
     0
 13
4247.4978826749439
 23
10017.662448473629
 33
0.0
 14
2547.4978826749448
 24
10017.662448473629
 34
0.0
1001
ACAD
1000
DSTYLE
1002
{
1070
   287
1070
     3
1070
   287
1070
     3
1070
    40
1040
50.0
1070
   143
1040
0.039
1070
   172
1070
     1
1070
   271
1070
     0
1070
   279
1070
     0
1070
   288
1070
     1
1002
}
  0
DIMENSION
  5
7C65
  8
3
  2
*D7
 10
1497.4978826749441
 20
10382.178678949511
 30
0.0
 11
2022.497882674945
 21
10507.178678949511
 31
0.0
 70
     0
 13
2547.4978826749448
 23
10017.662448473629
 33
0.0
 14
1497.4978826749441
 24
9717.6624484736349
 34
0.0
1001
ACAD
1000
DSTYLE
1002
{
1070
   287
1070
     3
1070
   287
1070
     3
1070
    40
1040
50.0
1070
   143
1040
0.039
1070
   172
1070
     1
1070
   271
1070
     0
1070
   279
1070
     0
1070
   288
1070
     1
1002
}
  0
DIMENSION
  5
7C66
  8
3
  2
*D8
 10
1180.9454675937679
 20
8617.6624484736349
 30
0.0
 11
1055.945467593767
 21
9167.662448473633
 31
0.0
 70
     0
 13
1497.4978826749441
 23
9717.6624484736349
 33
0.0
 14
1497.4978826749441
 24
8617.6624484736349
 34
0.0
 50
270.0
1001
ACAD
1000
DSTYLE
1002
{
1070
   287
1070
     3
1070
   287
1070
     3
1070
    40
1040
50.0
1070
   143
1040
0.039
1070
   172
1070
     1
1070
   271
1070
     0
1070
   279
1070
     0
1070
   288
1070
     1
1002
}
  0
DIMENSION
  5
7C67
  8
3
  2
*D9
 10
1497.4978826749441
 20
8033.3776007752067
 30
0.0
 11
2872.4978826749448
 21
8158.3776007752067
 31
0.0
 70
     0
 13
4247.4978826749439
 23
8617.6624484736349
 33
0.0
 14
1497.4978826749441
 24
8617.6624484736349
 34
0.0
1001
ACAD
1000
DSTYLE
1002
{
1070
   287
1070
     3
1070
   287
1070
     3
1070
    40
1040
50.0
1070
   143
1040
0.039
1070
   172
1070
     1
1070
   271
1070
     0
1070
   279
1070
     0
1070
   288
1070
     1
1002
}
  0
DIMENSION
  5
7C68
  8
3
  2
*D10
 10
4702.992885024134
 20
5365.3888734379079
 30
0.0
 11
4702.992885024134
 21
4640.388873437907
 31
0.0
 70
   128
 13
4327.4978826749439
 23
3915.388873437907
 33
0.0
 14
4327.4978826749439
 24
5365.3888734379079
 34
0.0
 50
270.0
1001
ACAD
1000
DSTYLE
1002
{
1070
   287
1070
     3
1070
   287
1070
     3
1070
    40
1040
50.0
1070
   143
1040
0.039
1070
   172
1070
     1
1070
   271
1070
     0
1070
   279
1070
     0
1070
   288
1070
     1
1002
}
  0
DIMENSION
  5
7C6E
  8
3
  2
*D11
 10
3397.4978826749448
 20
6771.2009080776952
 30
0.0
 11
3862.4978826749439
 21
6896.2009080776952
 31
0.0
 70
     0
 13
4327.4978826749439
 23
5347.6979643798859
 33
0.0
 14
3397.4978826749448
 24
6523.7958517004172
 34
0.0
1001
ACAD
1000
DSTYLE
1002
{
1070
   287
1070
     3
1070
   287
1070
     3
1070
    40
1040
50.0
1070
   143
1040
0.039
1070
   172
1070
     1
1070
   271
1070
     0
1070
   279
1070
     0
1070
   288
1070
     1
1002
}
  0
DIMENSION
  5
7C6F
  8
3
  2
*D12
 10
2190.4978826749439
 20
6771.2009080776952
 30
0.0
 11
2793.9978826749448
 21
6896.2009080776952
 31
0.0
 70
     0
 13
3397.4978826749448
 23
6523.7958517004172
 33
0.0
 14
2190.4978826749439
 24
5392.7380893942118
 34
0.0
1001
ACAD
1000
DSTYLE
1002
{
1070
   287
1070
     3
1070
   287
1070
     3
1070
    40
1040
50.0
1070
   143
1040
0.039
1070
   172
1070
     1
1070
   271
1070
     0
1070
   279
1070
     0
1070
   288
1070
     1
1002
}
  0
LINE
  5
7C70
  8
1
 10
4327.4978826749439
 20
9988.6624484736349
 30
0.0
 11
4327.4978826749439
 21
8828.6624484736349
 31
0.0
  0
LINE
  5
7C71
  8
1
 10
2190.4978826749439
 20
9938.6624484736349
 30
0.0
 11
2190.4978826749439
 21
8878.662448473633
 31
0.0
  0
LINE
  5
7C72
  8
1
 10
7296.6993384488569
 20
5365.3888734379079
 30
0.0
 11
8356.6993384488542
 21
5365.3888734379079
 31
0.0
  0
LINE
  5
7C73
  8
1
 10
8356.6993384488542
 20
3915.388873437907
 30
0.0
 11
7296.699338448856
 21
5365.3888734379079
 31
0.0
  0
LINE
  5
7C74
  8
1
 10
7296.6993384488569
 20
3915.388873437907
 30
0.0
 11
8356.6993384488542
 21
5365.3888734379079
 31
0.0
  0
LINE
  5
7C75
  8
1
 10
4277.4978826749448
 20
8878.6624484736349
 30
0.0
 11
4277.4978826749448
 21
9938.6624484736349
 31
0.0
  0
DIMENSION
  5
7C76
  8
3
  2
*D13
 10
5244.9253905517944
 20
5406.388873437907
 30
0.0
 11
5119.9253905517926
 21
5907.8888734379079
 31
0.0
 70
     0
 13
3295.4978826749439
 23
6409.3888734379079
 33
0.0
 14
4455.7358332189879
 24
5406.388873437907
 34
0.0
 50
90.0
1001
ACAD
1000
DSTYLE
1002
{
1070
   287
1070
     3
1070
   287
1070
     3
1070
    40
1040
50.0
1070
   143
1040
0.039
1070
   172
1070
     1
1070
   271
1070
     0
1070
   279
1070
     0
1070
   288
1070
     1
1002
}
  0
DIMENSION
  5
7C77
  8
3
  2
*D14
 10
5243.6570310051457
 20
3816.3888734379061
 30
0.0
 11
5118.6570310051447
 21
4611.3888734379079
 31
0.0
 70
     0
 13
4455.7358332189879
 23
5406.388873437907
 33
0.0
 14
4247.4978826749439
 24
3816.388873437907
 34
0.0
 50
90.0
1001
ACAD
1000
DSTYLE
1002
{
1070
   287
1070
     3
1070
   287
1070
     3
1070
    40
1040
50.0
1070
   143
1040
0.039
1070
   172
1070
     1
1070
   271
1070
     0
1070
   279
1070
     0
1070
   288
1070
     1
1002
}
  0
DIMENSION
  5
7C79
  8
3
  2
*D15
 10
4953.4906400911386
 20
3915.388873437907
 30
0.0
 11
4828.4906400911377
 21
4660.888873437907
 31
0.0
 70
     0
 13
4455.7358332189879
 23
5406.388873437907
 33
0.0
 14
4327.4978826749439
 24
3915.388873437907
 34
0.0
 50
90.0
1001
ACAD
1000
DSTYLE
1002
{
1070
   287
1070
     3
1070
   287
1070
     3
1070
    40
1040
50.0
1070
   143
1040
0.039
1070
   172
1070
     1
1070
   271
1070
     0
1070
   279
1070
     0
1070
   288
1070
     1
1002
}
  0
LINE
  5
7C7A
  8
1
 10
7296.6993384488569
 20
6409.3888734379079
 30
0.0
 11
8356.6993384488542
 21
6409.3888734379079
 31
0.0
  0
LINE
  5
7C7B
  8
1
 10
8356.6993384488542
 20
3966.388873437907
 30
0.0
 11
8435.699338448856
 21
3966.388873437907
 31
0.0
  0
LINE
  5
7E87
  8
4
 10
9250.0
 20
2500.0
 30
0.0
 11
9250.0
 21
1500.0
 31
0.0
  0
LINE
  5
7E88
  8
4
 10
5750.0
 20
2500.0
 30
0.0
 11
5750.0
 21
1500.0
 31
0.0
  0
LINE
  5
7E89
  8
4
 10
3250.0
 20
2500.0
 30
0.0
 11
3250.0
 21
1500.0
 31
0.0
  0
LINE
  5
7E8C
  8
4
 10
3250.0
 20
1500.0
 30
0.0
 11
9250.0
 21
1500.0
 31
0.0
  0
LINE
  5
7E8D
  8
4
 10
3250.0
 20
2000.0
 30
0.0
 11
9250.0
 21
2000.0
 31
0.0
  0
TEXT
  5
7E8E
  8
4
 10
3442.5104042345079
 20
2157.7151293330639
 30
0.0
 40
250.0
  1
機器名称
  0
TEXT
  5
7E8F
  8
4
 10
3431.2905301239871
 20
1608.225783660054
 30
0.0
 40
250.0
  1
機器型番
  0
TEXT
  5
7E90
  8
4
 10
5890.8926762949686
 20
2109.8309045216729
 30
0.0
 40
200.0
  1
ミツヤリミットロードファン
  0
TEXT
  5
7E91
  8
4
 10
5933.2724779274031
 20
1585.797921399716
 30
0.0
 40
250.0
  1
LL#9-4
  0
TEXT
  5
7E93
  8
4
 10
3863.874205800902
 20
11917.14420666257
 30
0.0
 40
269.99999999999989
  1
床置防振ベット
  0
TEXT
  5
7E94
  8
4
 10
1581.7415341960741
 20
12665.11101296876
 30
0.0
 40
306.0
  1
ベルト駆動式片吸込両持リミットロードファン
  0
LINE
  5
7E95
  8
4
 10
1250.0
 20
12347.043771324021
 30
0.0
 11
9250.0
 21
12347.043771324021
 31
0.0
  0
LINE
  5
7E96
  8
4
 10
1250.0
 20
13347.043771324021
 30
0.0
 11
9250.0
 21
13347.043771324021
 31
0.0
  0
LINE
  5
7E97
  8
4
 10
3250.0
 20
2500.0
 30
0.0
 11
9250.0
 21
2500.0
 31
0.0
  0
LINE
  5
7E98
  8
4
 10
1250.0
 20
13347.043771324021
 30
0.0
 11
1250.0
 21
12347.043771324021
 31
0.0
  0
TEXT
  5
7E99
  8
4
 10
1684.5800445873911
 20
11911.59738773171
 30
0.0
 40
269.99999999999989
  1
左回転上向
  0
TEXT
  5
7E9A
  8
4
 10
7344.8477962464494
 20
13530.30540747654
 30
0.0
 40
280.0
  1
No.
  0
TEXT
  5
7E9B
  8
4
 10
6556.4803130000646
 20
11917.14420666257
 30
0.0
 40
269.99999999999989
  1
縮尺：1/50
  0
LINE
  5
7E9C
  8
4
 10
9250.0
 20
13347.043771324021
 30
0.0
 11
9250.0
 21
12347.043771324021
 31
0.0
  0
LINE
  5
7E9D
  8
4
 10
10500.0
 20
14750.0
 30
0.0
 11
10500.0
 21
14750.0
 31
0.0
  0
LINE
  5
7E9E
  8
4
 10
7203.0871117993229
 20
13406.317915627
 30
0.0
 11
7203.0871117993229
 21
13933.26130774876
 31
0.0
  0
LINE
  5
7E9F
  8
4
 10
7203.0871117993229
 20
13933.26130774876
 30
0.0
 11
9250.0
 21
13933.26130774876
 31
0.0
  0
LINE
  5
7EA0
  8
4
 10
9250.0
 20
13933.26130774876
 30
0.0
 11
9250.0
 21
13406.317915627
 31
0.0
  0
LINE
  5
7EA1
  8
4
 10
9250.0
 20
13406.317915627
 30
0.0
 11
7203.0871117993229
 21
13406.317915627
 31
0.0
  0
LINE
  5
7EA2
  8
4
 10
0.0
 20
0.0
 30
0.0
 11
0.0
 21
14750.0
 31
0.0
  0
LINE
  5
7EA3
  8
4
 10
0.0
 20
14750.0
 30
0.0
 11
10500.0
 21
14750.0
 31
0.0
  0
LINE
  5
7EA4
  8
4
 10
10500.0
 20
14750.0
 30
0.0
 11
10500.0
 21
0.0
 31
0.0
  0
LINE
  5
7EA5
  8
4
 10
10500.0
 20
0.0
 30
0.0
 11
0.0
 21
0.0
 31
0.0
  0
DIMENSION
  5
8093
  8
3
  2
*D16
 10
4699.8853384684999
 20
8617.6624484736349
 30
0.0
 11
4699.885338468499
 21
9317.3934051463366
 31
0.0
 70
   128
 13
4247.4978826749439
 23
10017.662448473629
 33
0.0
 14
4247.4978826749439
 24
8617.6624484736349
 34
0.0
 50
90.0
1001
ACAD
1000
DSTYLE
1002
{
1070
   287
1070
     3
1070
   287
1070
     3
1070
    40
1040
50.0
1070
   143
1040
0.039
1070
   172
1070
     1
1070
   271
1070
     0
1070
   279
1070
     0
1070
   288
1070
     1
1002
}
  0
DIMENSION
  5
81F9
  8
3
  2
*D17
 10
1497.4978826749441
 20
7113.3665084381282
 30
0.0
 11
3040.2001048756651
 21
7113.3665084381282
 31
0.0
 70
   128
 13
4327.4978826749439
 23
5419.388873437907
 33
0.0
 14
1497.4978826749441
 24
3966.388873437907
 34
0.0
1001
ACAD
1000
DSTYLE
1002
{
1070
   287
1070
     3
1070
   287
1070
     3
1070
    40
1040
50.0
1070
   143
1040
0.039
1070
   172
1070
     1
1070
   271
1070
     0
1070
   279
1070
     0
1070
   288
1070
     1
1002
}
  0
LINE
  5
8237
  8
1
 10
7119.899338448854
 20
4383.8888734379061
 30
0.0
 11
7296.6993384488569
 21
4383.8888734379079
 31
0.0
  0
LINE
  5
8238
  8
1
 10
7119.8993384488567
 20
4018.888873437907
 30
0.0
 11
7296.6993384488569
 21
4018.888873437907
 31
0.0
  0
LINE
  5
8239
  8
1
 10
7119.8993384488567
 20
4018.888873437907
 30
0.0
 11
7119.899338448854
 21
4383.8888734379061
 31
0.0
  0
LINE
  5
823A
  8
1
 10
7019.9993384488562
 20
4158.888873437907
 30
0.0
 11
7119.8993384488558
 21
4158.888873437907
 31
0.0
  0
LINE
  5
823B
  8
1
 10
7019.9993384488562
 20
4243.8888734379061
 30
0.0
 11
7119.8993384488558
 21
4243.8888734379088
 31
0.0
  0
LINE
  5
823C
  8
1
 10
7004.8993384488549
 20
4095.388873437907
 30
0.0
 11
7004.899338448854
 21
4307.388873437907
 31
0.0
  0
LINE
  5
823D
  8
1
 10
7004.899338448854
 20
4261.388873437907
 30
0.0
 11
7019.9993384488562
 21
4261.388873437907
 31
0.0
  0
LINE
  5
823E
  8
1
 10
7019.9993384488562
 20
4141.3888734379061
 30
0.0
 11
7019.9993384488562
 21
4261.388873437907
 31
0.0
  0
LINE
  5
823F
  8
1
 10
7004.899338448854
 20
4141.3888734379061
 30
0.0
 11
7019.9993384488562
 21
4141.3888734379061
 31
0.0
  0
DIMENSION
  5
8255
  8
3
  2
*D18
 10
3397.4978826749448
 20
3292.1220817180438
 30
0.0
 11
2447.4978826749439
 21
3417.1220817180438
 31
0.0
 70
     0
 13
1497.4978826749441
 23
3626.388873437907
 33
0.0
 14
3397.4978826749448
 24
3626.388873437907
 34
0.0
1001
ACAD
1000
DSTYLE
1002
{
1070
   287
1070
     3
1070
   287
1070
     3
1070
    40
1040
50.0
1070
   143
1040
0.039
1070
   172
1070
     1
1070
   271
1070
     0
1070
   279
1070
     0
1002
}
  0
DIMENSION
  5
8262
  8
3
  2
*D19
 10
4247.4978826749439
 20
3292.1220817180438
 30
0.0
 11
3822.4978826749439
 21
3417.1220817180438
 31
0.0
 70
     0
 13
3397.4978826749448
 23
3626.388873437907
 33
0.0
 14
4247.4978826749439
 24
3626.388873437907
 34
0.0
1001
ACAD
1000
DSTYLE
1002
{
1070
   287
1070
     3
1070
   287
1070
     3
1070
    40
1040
50.0
1070
   143
1040
0.039
1070
   172
1070
     1
1070
   271
1070
     0
1070
   279
1070
     0
1002
}
  0
DIMENSION
  5
826F
  8
3
  2
*D20
 10
7826.699338448856
 20
3292.1220817180438
 30
0.0
 11
7431.1993384488551
 21
3417.1220817180438
 31
0.0
 70
     0
 13
7035.699338448856
 23
3626.388873437907
 33
0.0
 14
7826.699338448856
 24
3626.3888734379079
 34
0.0
1001
ACAD
1000
DSTYLE
1002
{
1070
   287
1070
     3
1070
   287
1070
     3
1070
    40
1040
50.0
1070
   143
1040
0.039
1070
   172
1070
     1
1070
   271
1070
     0
1070
   279
1070
     0
1002
}
  0
DIMENSION
  5
827E
  8
3
  2
*D21
 10
8435.699338448856
 20
3292.1220817180438
 30
0.0
 11
8131.1993384488569
 21
3417.1220817180438
 31
0.0
 70
     0
 13
7826.699338448856
 23
3626.3888734379079
 33
0.0
 14
8435.699338448856
 24
3626.3888734379079
 34
0.0
1001
ACAD
1000
DSTYLE
1002
{
1070
   287
1070
     3
1070
   287
1070
     3
1070
    40
1040
50.0
1070
   143
1040
0.039
1070
   172
1070
     1
1070
   271
1070
     0
1070
   279
1070
     0
1002
}
  0
DIMENSION
  5
8295
  8
3
  2
*D23
 10
5246.3291202032997
 20
3626.3888734379061
 30
0.0
 11
5121.3291202032988
 21
3254.960302009335
 31
0.0
 70
     0
 13
4247.4978826749439
 23
3701.388873437907
 33
0.0
 14
4247.4978826749439
 24
3626.388873437907
 34
0.0
 50
90.0
1001
ACAD
1000
DSTYLE
1002
{
1070
   287
1070
     3
1070
   287
1070
     3
1070
    40
1040
50.0
1070
   143
1040
0.039
1070
   172
1070
     1
1070
   271
1070
     0
1070
   279
1070
     0
1070
     6
1000
DOT
1002
}
  0
DIMENSION
  5
82A4
  8
3
  2
*D24
 10
5246.3291202032997
 20
3816.388873437907
 30
0.0
 11
5485.6148344890144
 21
3758.888873437907
 31
0.0
 70
     0
 13
4247.4978826749439
 23
3701.388873437907
 33
0.0
 14
4247.4978826749439
 24
3816.388873437907
 34
0.0
 50
90.0
1001
ACAD
1000
DSTYLE
1002
{
1070
   172
1070
     1
1070
    40
1040
50.0
1070
     3
1000
(<>)
1070
   271
1070
     0
1070
     6
1000
_DOT
1070
   143
1040
0.039
1002
}
  0
DIMENSION
  5
82B1
  8
3
  2
*D25
 10
5712.6474543824525
 20
3626.3888734379061
 30
0.0
 11
5548.361740096736
 21
5017.888873437907
 31
0.0
 70
     0
 13
3320.4978826749439
 23
6409.3888734379079
 33
0.0
 14
4247.4978826749439
 24
3626.388873437907
 34
0.0
 50
90.0
1001
ACAD
1000
DSTYLE
1002
{
1070
   287
1070
     3
1070
   287
1070
     3
1070
     3
1000
(<>)
1070
    40
1040
50.0
1070
   143
1040
0.039
1070
   172
1070
     1
1070
   271
1070
     0
1070
   279
1070
     0
1002
}
  0
ENDSEC
  0
EOF
