  0
SECTION
  2
HEADER
  9
$ACADVER
  1
AC1009
  9
$INSBASE
 10
0.0
 20
0.0
 30
0.0
  9
$EXTMIN
 10
0.0
 20
0.0
 30
0.0
  9
$EXTMAX
 10
10500.0
 20
14750.0
 30
0.0
  9
$LIMMIN
 10
0.0
 20
0.0
  9
$LIMMAX
 10
297.0
 20
210.0
  9
$ORTHOMODE
 70
     0
  9
$REGENMODE
 70
     1
  9
$FILLMODE
 70
     0
  9
$QTEXTMODE
 70
     0
  9
$MIRRTEXT
 70
     1
  9
$DRAGMODE
 70
     2
  9
$LTSCALE
 40
100.0
  9
$OSMODE
 70
    37
  9
$ATTMODE
 70
     1
  9
$TEXTSIZE
 40
180.0
  9
$TRACEWID
 40
0.05
  9
$TEXTSTYLE
  7
STANDARD
  9
$CLAYER
  8
3
  9
$CELTYPE
  6
BYLAYER
  9
$CECOLOR
 62
   256
  9
$DIMSCALE
 40
50.0
  9
$DIMASZ
 40
2.0
  9
$DIMEXO
 40
0.5
  9
$DIMDLI
 40
10.0
  9
$DIMRND
 40
0.0
  9
$DIMDLE
 40
0.0
  9
$DIMEXE
 40
1.0
  9
$DIMTP
 40
1.0
  9
$DIMTM
 40
1.0
  9
$DIMTXT
 40
3.0
  9
$DIMCEN
 40
0.0
  9
$DIMTSZ
 40
0.0
  9
$DIMTOL
 70
     0
  9
$DIMLIM
 70
     0
  9
$DIMTIH
 70
     0
  9
$DIMTOH
 70
     0
  9
$DIMSE1
 70
     0
  9
$DIMSE2
 70
     0
  9
$DIMTAD
 70
     1
  9
$DIMZIN
 70
     8
  9
$DIMBLK
  1

  9
$DIMASO
 70
     1
  9
$DIMSHO
 70
     1
  9
$DIMPOST
  1

  9
$DIMAPOST
  1

  9
$DIMALT
 70
     0
  9
$DIMALTD
 70
     2
  9
$DIMALTF
 40
0.039
  9
$DIMLFAC
 40
1.0
  9
$DIMTOFL
 70
     1
  9
$DIMTVP
 40
0.0
  9
$DIMTIX
 70
     0
  9
$DIMSOXD
 70
     0
  9
$DIMSAH
 70
     1
  9
$DIMBLK1
  1
OPEN
  9
$DIMBLK2
  1
OPEN
  9
$DIMSTYLE
  2
IGA
  9
$DIMCLRD
 70
     0
  9
$DIMCLRE
 70
     0
  9
$DIMCLRT
 70
     0
  9
$DIMTFAC
 40
10.0
  9
$DIMGAP
 40
1.0
  9
$LUNITS
 70
     2
  9
$LUPREC
 70
     3
  9
$SKETCHINC
 40
0.1
  9
$FILLETRAD
 40
50.0
  9
$AUNITS
 70
     0
  9
$AUPREC
 70
     0
  9
$MENU
  1
acad
  9
$ELEVATION
 40
0.0
  9
$PELEVATION
 40
0.0
  9
$THICKNESS
 40
0.0
  9
$LIMCHECK
 70
     0
  9
$BLIPMODE
 70
     0
  9
$CHAMFERA
 40
0.5
  9
$CHAMFERB
 40
0.5
  9
$SKPOLY
 70
     0
  9
$TDCREATE
 40
2451408.5588731482
  9
$TDUPDATE
 40
2454953.6890802188
  9
$TDINDWG
 40
0.0252612731
  9
$TDUSRTIMER
 40
0.0252612731
  9
$USRTIMER
 70
     1
  9
$ANGBASE
 50
0.0
  9
$ANGDIR
 70
     0
  9
$PDMODE
 70
     0
  9
$PDSIZE
 40
0.0
  9
$PLINEWID
 40
0.0
  9
$COORDS
 70
     1
  9
$SPLFRAME
 70
     0
  9
$SPLINETYPE
 70
     6
  9
$SPLINESEGS
 70
     8
  9
$ATTDIA
 70
     0
  9
$ATTREQ
 70
     1
  9
$HANDLING
 70
 10241
  9
$HANDSEED
  5
83E0
  9
$SURFTAB1
 70
     6
  9
$SURFTAB2
 70
     6
  9
$SURFTYPE
 70
     6
  9
$SURFU
 70
     6
  9
$SURFV
 70
     6
  9
$UCSNAME
  2

  9
$UCSORG
 10
0.0
 20
0.0
 30
0.0
  9
$UCSXDIR
 10
1.0
 20
0.0
 30
0.0
  9
$UCSYDIR
 10
0.0
 20
1.0
 30
0.0
  9
$PUCSNAME
  2

  9
$PUCSORG
 10
0.0
 20
0.0
 30
0.0
  9
$PUCSXDIR
 10
1.0
 20
0.0
 30
0.0
  9
$PUCSYDIR
 10
0.0
 20
1.0
 30
0.0
  9
$USERI1
 70
     0
  9
$USERI2
 70
     0
  9
$USERI3
 70
     0
  9
$USERI4
 70
     0
  9
$USERI5
 70
     0
  9
$USERR1
 40
0.0
  9
$USERR2
 40
0.0
  9
$USERR3
 40
0.0
  9
$USERR4
 40
0.0
  9
$USERR5
 40
0.0
  9
$WORLDVIEW
 70
     1
  9
$SHADEDGE
 70
     3
  9
$SHADEDIF
 70
    70
  9
$TILEMODE
 70
     1
  9
$MAXACTVP
 70
    16
  9
$PLIMCHECK
 70
     0
  9
$PEXTMIN
 10
1.0000000000000000E+020
 20
1.0000000000000000E+020
 30
1.0000000000000000E+020
  9
$PEXTMAX
 10
-1.0000000000000000E+020
 20
-1.0000000000000000E+020
 30
-1.0000000000000000E+020
  9
$PLIMMIN
 10
0.0
 20
0.0
  9
$PLIMMAX
 10
12.0
 20
9.0
  9
$UNITMODE
 70
     0
  9
$VISRETAIN
 70
     0
  9
$PLINEGEN
 70
     0
  9
$PSLTSCALE
 70
     1
  0
ENDSEC
  0
SECTION
  2
TABLES
  0
TABLE
  2
VPORT
 70
     2
  0
VPORT
  2
*ACTIVE
 70
     0
 10
0.0
 20
0.0
 11
1.0
 21
1.0
 12
24169.56567280848
 22
7928.148189990945
 13
0.0
 23
0.0
 14
10.0
 24
10.0
 15
10.0
 25
10.0
 16
0.0
 26
0.0
 36
1.0
 17
0.0
 27
0.0
 37
0.0
 40
19108.629940034589
 41
3.1666666666666661
 42
50.0
 43
0.0
 44
0.0
 50
0.0
 51
0.0
 71
     0
 72
   100
 73
     1
 74
     0
 75
     0
 76
     0
 77
     0
 78
     0
  0
ENDTAB
  0
TABLE
  2
LTYPE
 70
     2
  0
LTYPE
  2
CONTINUOUS
 70
     0
  3
Solid line
 72
    65
 73
     0
 40
0.0
  0
LTYPE
  2
CENTER
 70
     0
  3
____ _ ____ _ ____ _ ____ _ ____ _ ____ _ ____ 
 72
    65
 73
     4
 40
2.0
 49
1.25
 49
-0.25
 49
0.25
 49
-0.25
  0
ENDTAB
  0
TABLE
  2
LAYER
 70
     6
  0
LAYER
  2
0
 70
     0
 62
     7
  6
CONTINUOUS
  0
LAYER
  2
3
 70
     0
 62
     2
  6
CONTINUOUS
  0
LAYER
  2
2
 70
     0
 62
     3
  6
CENTER
  0
LAYER
  2
1
 70
     0
 62
     4
  6
CONTINUOUS
  0
LAYER
  2
4
 70
     0
 62
     7
  6
CONTINUOUS
  0
LAYER
  2
DEFPOINTS
 70
     0
 62
     7
  6
CONTINUOUS
  0
ENDTAB
  0
TABLE
  2
STYLE
 70
     1
  0
STYLE
  2
STANDARD
 70
     0
 40
0.0
 41
1.0
 50
0.0
 71
     0
 42
180.0
  3
simplex.shx
  4
extfont.shx
  0
ENDTAB
  0
TABLE
  2
VIEW
 70
     0
  0
ENDTAB
  0
TABLE
  2
UCS
 70
     0
  0
ENDTAB
  0
TABLE
  2
APPID
 70
     1
  0
APPID
  2
ACAD
 70
     0
  0
ENDTAB
  0
TABLE
  2
DIMSTYLE
 70
     1
  0
DIMSTYLE
  2
IGA
 70
     0
  3

  4

  5

  6
OPEN
  7
OPEN
 40
2.0
 41
2.0
 42
0.5
 43
10.0
 44
1.0
 45
0.0
 46
0.0
 47
1.0
 48
1.0
140
3.0
141
0.0
142
0.0
143
0.03937
144
1.0
145
0.0
146
10.0
147
1.0
 71
     0
 72
     0
 73
     0
 74
     0
 75
     0
 76
     0
 77
     1
 78
     8
170
     0
171
     2
172
     0
173
     1
174
     0
175
     0
176
     0
177
     0
178
     0
  0
ENDTAB
  0
ENDSEC
  0
SECTION
  2
BLOCKS
  0
BLOCK
  8
0
  2
$MODEL_SPACE
 70
     0
 10
0.0
 20
0.0
 30
0.0
  3
$MODEL_SPACE
  1

  0
ENDBLK
  5
1B
  8
0
  0
BLOCK
 67
     1
  8
0
  2
$PAPER_SPACE
 70
     0
 10
0.0
 20
0.0
 30
0.0
  3
$PAPER_SPACE
  1

  0
ENDBLK
  5
18
 67
     1
  8
0
  0
BLOCK
  8
0
  2
_OPEN
 70
     0
 10
0.0
 20
0.0
 30
0.0
  3
_OPEN
  1

  0
LINE
  5
79FD
  8
0
  6
BYBLOCK
 62
     0
 10
-1.0
 20
0.1666666666666666
 30
0.0
 11
0.0
 21
0.0
 31
0.0
  0
LINE
  5
79FE
  8
0
  6
BYBLOCK
 62
     0
 10
0.0
 20
0.0
 30
0.0
 11
-1.0
 21
-0.1666666666666666
 31
0.0
  0
LINE
  5
79FF
  8
0
  6
BYBLOCK
 62
     0
 10
0.0
 20
0.0
 30
0.0
 11
-1.0
 21
0.0
 31
0.0
  0
ENDBLK
  5
7A01
  8
0
  0
BLOCK
  8
0
  2
YA_N
 70
     0
 10
0.0
 20
0.0
 30
0.0
  3
YA_N
  1

  0
ENDBLK
  5
7A0C
  8
0
  0
BLOCK
  8
0
  2
*D2
 70
     1
 10
0.0
 20
0.0
 30
0.0
  3
*D2
  1

  0
LINE
  5
8321
  8
3
 62
     0
 10
8152.0383696180397
 20
6495.4553185230079
 30
0.0
 11
8152.0383696180397
 21
6822.8015978303047
 31
0.0
  0
LINE
  5
8322
  8
3
 62
     0
 10
7092.0383696180388
 20
6495.4553185230061
 30
0.0
 11
7092.0383696180388
 21
6822.8015978303047
 31
0.0
  0
LINE
  5
8323
  8
3
 62
     0
 10
8052.0383696180397
 20
6772.8015978303047
 30
0.0
 11
7192.0383696180388
 21
6772.8015978303047
 31
0.0
  0
INSERT
  5
8324
  8
3
 62
     0
  2
_OPEN
 10
8152.0383696180397
 20
6772.8015978303047
 30
0.0
 41
100.0
 42
100.0
 43
100.0
  0
INSERT
  5
8325
  8
3
 62
     0
  2
_OPEN
 10
7092.0383696180388
 20
6772.8015978303047
 30
0.0
 41
100.0
 42
100.0
 43
100.0
 50
180.0
  0
TEXT
  8
3
  40
150
  5
83CC
  62
0
  72
0
  71
0
 10
7322.04
 20
6632.30
 30
0.000000
  1
1060
  0
POINT
  5
8327
  8
DEFPOINTS
 62
     0
 10
8152.0383696180397
 20
6470.4553185230079
 30
0.0
  0
POINT
  5
8328
  8
DEFPOINTS
 62
     0
 10
7092.0383696180388
 20
6470.455318523007
 30
0.0
  0
POINT
  5
8329
  8
DEFPOINTS
 62
     0
 10
7092.0383696180388
 20
6772.8015978303047
 30
0.0
  0
ENDBLK
  5
8164
  8
0
  0
BLOCK
  8
0
  2
*D3
 70
     1
 10
0.0
 20
0.0
 30
0.0
  3
*D3
  1

  0
LINE
  5
8171
  8
0
  6
BYBLOCK
 62
     0
 10
8256.0383696180397
 20
5804.455318523007
 30
0.0
 11
8256.0383696180397
 21
7146.9752961804534
 31
0.0
  0
LINE
  5
8172
  8
0
  6
BYBLOCK
 62
     0
 10
7622.0383696180397
 20
6959.3957520914919
 30
0.0
 11
7622.0383696180397
 21
7146.9752961804534
 31
0.0
  0
LINE
  5
8173
  8
0
  6
BYBLOCK
 62
     0
 10
8156.0383696180388
 20
7096.9752961804534
 30
0.0
 11
7722.0383696180397
 21
7096.9752961804534
 31
0.0
  0
TEXT
  5
8174
  8
3
 62
     0
 10
7742.6097981894691
 20
7221.9752961804534
 30
0.0
 40
150.0
  1
634
  0
INSERT
  5
8175
  8
0
  6
BYBLOCK
 62
     0
  2
_OPEN
 10
8256.0383696180397
 20
7096.9752961804534
 30
0.0
 41
100.0
 42
100.0
 43
100.0
  0
INSERT
  5
8176
  8
0
  6
BYBLOCK
 62
     0
  2
_OPEN
 10
7622.0383696180397
 20
7096.9752961804534
 30
0.0
 41
100.0
 42
100.0
 43
100.0
 50
180.0
  0
POINT
  5
8177
  8
DEFPOINTS
  6
BYBLOCK
 62
     0
 10
8256.0383696180397
 20
5779.455318523007
 30
0.0
  0
POINT
  5
8178
  8
DEFPOINTS
  6
BYBLOCK
 62
     0
 10
7622.0383696180397
 20
6934.3957520914928
 30
0.0
  0
POINT
  5
8179
  8
DEFPOINTS
  6
BYBLOCK
 62
     0
 10
7622.0383696180397
 20
7096.9752961804534
 30
0.0
  0
ENDBLK
  5
817A
  8
0
  0
BLOCK
  8
0
  2
*D4
 70
     1
 10
0.0
 20
0.0
 30
0.0
  3
*D4
  1

  0
LINE
  5
832A
  8
3
 62
     0
 10
7622.0383696180397
 20
6959.3957520914919
 30
0.0
 11
7622.0383696180397
 21
7146.9752961804534
 31
0.0
  0
LINE
  5
832B
  8
3
 62
     0
 10
6652.0383696180397
 20
5434.4553185230061
 30
0.0
 11
6652.0383696180397
 21
7146.9752961804534
 31
0.0
  0
LINE
  5
832C
  8
3
 62
     0
 10
7522.0383696180406
 20
7096.9752961804534
 30
0.0
 11
6752.0383696180397
 21
7096.9752961804534
 31
0.0
  0
INSERT
  5
832D
  8
3
 62
     0
  2
_OPEN
 10
7622.0383696180397
 20
7096.9752961804534
 30
0.0
 41
100.0
 42
100.0
 43
100.0
  0
INSERT
  5
832E
  8
3
 62
     0
  2
_OPEN
 10
6652.0383696180397
 20
7096.9752961804534
 30
0.0
 41
100.0
 42
100.0
 43
100.0
 50
180.0
  0
TEXT
  8
3
  40
150
  5
83CD
  62
0
  72
0
  71
0
 10
6837.04
 20
7081.48
 30
0.000000
  1
MAX
  0
TEXT
  8
3
  40
150
  5
83CE
  62
0
  72
0
  71
0
 10
6837.04
 20
6886.48
 30
0.000000
  1
1030
  0
POINT
  5
8330
  8
DEFPOINTS
 62
     0
 10
7622.0383696180397
 20
6934.3957520914928
 30
0.0
  0
POINT
  5
8331
  8
DEFPOINTS
 62
     0
 10
6652.0383696180397
 20
5409.455318523007
 30
0.0
  0
POINT
  5
8332
  8
DEFPOINTS
 62
     0
 10
6652.0383696180397
 20
7096.9752961804534
 30
0.0
  0
ENDBLK
  5
819B
  8
0
  0
BLOCK
  8
0
  2
*D5
 70
     1
 10
0.0
 20
0.0
 30
0.0
  3
*D5
  1

  0
LINE
  5
8333
  8
3
 62
     0
 10
8281.0383696180397
 20
5729.455318523007
 30
0.0
 11
8694.5905909264366
 21
5729.455318523007
 31
0.0
  0
LINE
  5
8334
  8
3
 62
     0
 10
8281.0383696180397
 20
4329.455318523007
 30
0.0
 11
8694.5905909264366
 21
4329.455318523007
 31
0.0
  0
LINE
  5
8335
  8
3
 62
     0
 10
8644.5905909264366
 20
5629.455318523007
 30
0.0
 11
8644.5905909264366
 21
4429.455318523007
 31
0.0
  0
INSERT
  5
8336
  8
3
 62
     0
  2
_OPEN
 10
8644.5905909264366
 20
5729.455318523007
 30
0.0
 41
100.0
 42
100.0
 43
100.0
 50
90.0
  0
INSERT
  5
8337
  8
3
 62
     0
  2
_OPEN
 10
8644.5905909264366
 20
4329.455318523007
 30
0.0
 41
100.0
 42
100.0
 43
100.0
 50
270.0
  0
TEXT
  8
3
  40
150
  5
83CF
  62
0
  72
0
  71
0
 10
8219.59
 20
4763.96
 30
0.000000
  1
φ1400
  0
POINT
  5
8339
  8
DEFPOINTS
 62
     0
 10
8256.0383696180397
 20
5729.455318523007
 30
0.0
  0
POINT
  5
833A
  8
DEFPOINTS
 62
     0
 10
8256.0383696180397
 20
4329.455318523007
 30
0.0
  0
POINT
  5
833B
  8
DEFPOINTS
 62
     0
 10
8644.5905909264366
 20
4329.455318523007
 30
0.0
  0
ENDBLK
  5
8190
  8
0
  0
BLOCK
  8
0
  2
*D6
 70
     1
 10
0.0
 20
0.0
 30
0.0
  3
*D6
  1

  0
LINE
  5
833C
  8
3
 62
     0
 10
3032.5632390582082
 20
10680.483268492029
 30
0.0
 11
3032.5632390582082
 21
11069.999498967911
 31
0.0
  0
LINE
  5
833D
  8
3
 62
     0
 10
4732.5632390582077
 20
10680.483268492029
 30
0.0
 11
4732.5632390582077
 21
11069.999498967911
 31
0.0
  0
LINE
  5
833E
  8
3
 62
     0
 10
3132.5632390582082
 20
11019.999498967911
 30
0.0
 11
4632.5632390582077
 21
11019.999498967911
 31
0.0
  0
INSERT
  5
833F
  8
3
 62
     0
  2
_OPEN
 10
3032.5632390582082
 20
11019.999498967911
 30
0.0
 41
100.0
 42
100.0
 43
100.0
 50
180.0
  0
INSERT
  5
8340
  8
3
 62
     0
  2
_OPEN
 10
4732.5632390582077
 20
11019.999498967911
 30
0.0
 41
100.0
 42
100.0
 43
100.0
  0
TEXT
  8
3
  40
150
  5
83D0
  62
0
  72
0
  71
0
 10
3582.56
 20
10879.5
 30
0.000000
  1
1700
  0
POINT
  5
8342
  8
DEFPOINTS
 62
     0
 10
3032.5632390582082
 20
10655.483268492029
 30
0.0
  0
POINT
  5
8343
  8
DEFPOINTS
 62
     0
 10
4732.5632390582077
 20
10655.483268492029
 30
0.0
  0
POINT
  5
8344
  8
DEFPOINTS
 62
     0
 10
4732.5632390582077
 20
11019.999498967911
 30
0.0
  0
ENDBLK
  5
8113
  8
0
  0
BLOCK
  8
0
  2
*D7
 70
     1
 10
0.0
 20
0.0
 30
0.0
  3
*D7
  1

  0
LINE
  5
8345
  8
3
 62
     0
 10
4732.5632390582077
 20
10680.483268492029
 30
0.0
 11
4732.5632390582077
 21
11069.999498967911
 31
0.0
  0
LINE
  5
8346
  8
3
 62
     0
 10
5782.5632390582086
 20
10380.483268492029
 30
0.0
 11
5782.5632390582086
 21
11069.999498967911
 31
0.0
  0
LINE
  5
8347
  8
3
 62
     0
 10
4832.5632390582086
 20
11019.999498967911
 30
0.0
 11
5682.5632390582077
 21
11019.999498967911
 31
0.0
  0
INSERT
  5
8348
  8
3
 62
     0
  2
_OPEN
 10
4732.5632390582077
 20
11019.999498967911
 30
0.0
 41
100.0
 42
100.0
 43
100.0
 50
180.0
  0
INSERT
  5
8349
  8
3
 62
     0
  2
_OPEN
 10
5782.5632390582086
 20
11019.999498967911
 30
0.0
 41
100.0
 42
100.0
 43
100.0
  0
TEXT
  8
3
  40
150
  5
83D1
  62
0
  72
0
  71
0
 10
4957.56
 20
10879.5
 30
0.000000
  1
1050
  0
POINT
  5
834B
  8
DEFPOINTS
 62
     0
 10
4732.5632390582077
 20
10655.483268492029
 30
0.0
  0
POINT
  5
834C
  8
DEFPOINTS
 62
     0
 10
5782.5632390582086
 20
10355.483268492029
 30
0.0
  0
POINT
  5
834D
  8
DEFPOINTS
 62
     0
 10
5782.5632390582086
 20
11019.999498967911
 30
0.0
  0
ENDBLK
  5
8108
  8
0
  0
BLOCK
  8
0
  2
*D8
 70
     1
 10
0.0
 20
0.0
 30
0.0
  3
*D8
  1

  0
LINE
  5
834E
  8
3
 62
     0
 10
5807.5632390582077
 20
10355.483268492029
 30
0.0
 11
6296.9678781059029
 21
10355.483268492029
 31
0.0
  0
LINE
  5
834F
  8
3
 62
     0
 10
5807.5632390582077
 20
9255.4832684920311
 30
0.0
 11
6296.9678781059029
 21
9255.4832684920311
 31
0.0
  0
LINE
  5
8350
  8
3
 62
     0
 10
6246.9678781059038
 20
10255.483268492029
 30
0.0
 11
6246.9678781059029
 21
9355.4832684920311
 31
0.0
  0
INSERT
  5
8351
  8
3
 62
     0
  2
_OPEN
 10
6246.9678781059038
 20
10355.483268492029
 30
0.0
 41
100.0
 42
100.0
 43
100.0
 50
90.0
  0
INSERT
  5
8352
  8
3
 62
     0
  2
_OPEN
 10
6246.9678781059029
 20
9255.4832684920311
 30
0.0
 41
100.0
 42
100.0
 43
100.0
 50
270.0
  0
TEXT
  8
3
  40
150
  5
83D2
  62
0
  72
0
  71
0
 10
5821.97
 20
9539.98
 30
0.000000
  1
1100
  0
POINT
  5
8354
  8
DEFPOINTS
 62
     0
 10
5782.5632390582086
 20
10355.483268492029
 30
0.0
  0
POINT
  5
8355
  8
DEFPOINTS
 62
     0
 10
5782.5632390582086
 20
9255.4832684920311
 30
0.0
  0
POINT
  5
8356
  8
DEFPOINTS
 62
     0
 10
6246.9678781059029
 20
9255.4832684920311
 30
0.0
  0
ENDBLK
  5
80FD
  8
0
  0
BLOCK
  8
0
  2
*D9
 70
     1
 10
0.0
 20
0.0
 30
0.0
  3
*D9
  1

  0
LINE
  5
8357
  8
3
 62
     0
 10
3032.5632390582082
 20
9230.4832684920311
 30
0.0
 11
3032.5632390582082
 21
8621.1984207936039
 31
0.0
  0
LINE
  5
8358
  8
3
 62
     0
 10
5782.5632390582086
 20
9230.4832684920311
 30
0.0
 11
5782.5632390582086
 21
8621.1984207936039
 31
0.0
  0
LINE
  5
8359
  8
3
 62
     0
 10
3132.5632390582082
 20
8671.1984207936039
 30
0.0
 11
5682.5632390582077
 21
8671.1984207936039
 31
0.0
  0
INSERT
  5
835A
  8
3
 62
     0
  2
_OPEN
 10
3032.5632390582082
 20
8671.1984207936039
 30
0.0
 41
100.0
 42
100.0
 43
100.0
 50
180.0
  0
INSERT
  5
835B
  8
3
 62
     0
  2
_OPEN
 10
5782.5632390582086
 20
8671.1984207936039
 30
0.0
 41
100.0
 42
100.0
 43
100.0
  0
TEXT
  8
3
  40
150
  5
83D3
  62
0
  72
0
  71
0
 10
4107.56
 20
8530.70
 30
0.000000
  1
2750
  0
POINT
  5
835D
  8
DEFPOINTS
 62
     0
 10
3032.5632390582082
 20
9255.4832684920311
 30
0.0
  0
POINT
  5
835E
  8
DEFPOINTS
 62
     0
 10
5782.5632390582086
 20
9255.4832684920311
 30
0.0
  0
POINT
  5
835F
  8
DEFPOINTS
 62
     0
 10
5782.5632390582086
 20
8671.1984207936039
 30
0.0
  0
ENDBLK
  5
80F2
  8
0
  0
BLOCK
  8
0
  2
*D10
 70
     1
 10
0.0
 20
0.0
 30
0.0
  3
*D10
  1

  0
LINE
  5
8360
  8
3
 62
     0
 10
2927.5632390582082
 20
6520.455318523007
 30
0.0
 11
2527.0682367090199
 21
6520.455318523007
 31
0.0
  0
LINE
  5
8361
  8
3
 62
     0
 10
2927.5632390582082
 20
5070.455318523007
 30
0.0
 11
2527.0682367090199
 21
5070.455318523007
 31
0.0
  0
LINE
  5
8362
  8
3
 62
     0
 10
2577.0682367090199
 20
6420.455318523007
 30
0.0
 11
2577.0682367090199
 21
5170.455318523007
 31
0.0
  0
INSERT
  5
8363
  8
3
 62
     0
  2
_OPEN
 10
2577.0682367090199
 20
6520.455318523007
 30
0.0
 41
100.0
 42
100.0
 43
100.0
 50
90.0
  0
INSERT
  5
8364
  8
3
 62
     0
  2
_OPEN
 10
2577.0682367090199
 20
5070.455318523007
 30
0.0
 41
100.0
 42
100.0
 43
100.0
 50
270.0
  0
TEXT
  8
3
  40
150
  5
83D4
  62
0
  72
0
  71
0
 10
2152.07
 20
5529.96
 30
0.000000
  1
1450
  0
POINT
  5
8366
  8
DEFPOINTS
 62
     0
 10
2952.5632390582082
 20
6520.455318523007
 30
0.0
  0
POINT
  5
8367
  8
DEFPOINTS
 62
     0
 10
2952.5632390582082
 20
5070.455318523007
 30
0.0
  0
POINT
  5
8368
  8
DEFPOINTS
 62
     0
 10
2577.0682367090199
 20
5070.455318523007
 30
0.0
  0
ENDBLK
  5
80E7
  8
0
  0
BLOCK
  8
0
  2
*D11
 70
     1
 10
0.0
 20
0.0
 30
0.0
  3
*D11
  1

  0
LINE
  5
8369
  8
3
 62
     0
 10
2927.5632390582082
 20
6520.455318523007
 30
0.0
 11
2222.8849456882599
 21
6520.455318523007
 31
0.0
  0
LINE
  5
836A
  8
3
 62
     0
 10
2799.3252885141651
 20
5029.455318523007
 30
0.0
 11
2222.8849456882599
 21
5029.455318523007
 31
0.0
  0
LINE
  5
836B
  8
3
 62
     0
 10
2272.8849456882599
 20
6420.455318523007
 30
0.0
 11
2272.8849456882599
 21
5129.455318523007
 31
0.0
  0
INSERT
  5
836C
  8
3
 62
     0
  2
_OPEN
 10
2272.8849456882599
 20
6520.455318523007
 30
0.0
 41
100.0
 42
100.0
 43
100.0
 50
90.0
  0
INSERT
  5
836D
  8
3
 62
     0
  2
_OPEN
 10
2272.8849456882599
 20
5029.455318523007
 30
0.0
 41
100.0
 42
100.0
 43
100.0
 50
270.0
  0
TEXT
  8
3
  40
150
  5
83D5
  62
0
  72
0
  71
0
 10
1847.88
 20
5509.46
 30
0.000000
  1
1491
  0
POINT
  5
836F
  8
DEFPOINTS
 62
     0
 10
2952.5632390582082
 20
6520.455318523007
 30
0.0
  0
POINT
  5
8370
  8
DEFPOINTS
 62
     0
 10
2824.3252885141651
 20
5029.455318523007
 30
0.0
  0
POINT
  5
8371
  8
DEFPOINTS
 62
     0
 10
2272.8849456882599
 20
5029.455318523007
 30
0.0
  0
ENDBLK
  5
80BB
  8
0
  0
BLOCK
  8
0
  2
*D12
 70
     1
 10
0.0
 20
0.0
 30
0.0
  3
*D12
  1

  0
LINE
  5
8372
  8
3
 62
     0
 10
2799.3252885141651
 20
5029.455318523007
 30
0.0
 11
2222.8849456882599
 21
5029.455318523007
 31
0.0
  0
LINE
  5
8373
  8
3
 62
     0
 10
3007.5632390582082
 20
3989.455318523007
 30
0.0
 11
2222.8849456882599
 21
3989.455318523007
 31
0.0
  0
LINE
  5
8374
  8
3
 62
     0
 10
2272.8849456882599
 20
4929.455318523007
 30
0.0
 11
2272.8849456882599
 21
4089.455318523007
 31
0.0
  0
INSERT
  5
8375
  8
3
 62
     0
  2
_OPEN
 10
2272.8849456882599
 20
5029.455318523007
 30
0.0
 41
100.0
 42
100.0
 43
100.0
 50
90.0
  0
INSERT
  5
8376
  8
3
 62
     0
  2
_OPEN
 10
2272.8849456882599
 20
3989.455318523007
 30
0.0
 41
100.0
 42
100.0
 43
100.0
 50
270.0
  0
TEXT
  8
3
  40
150
  5
83D6
  62
0
  72
0
  71
0
 10
1847.88
 20
4243.96
 30
0.000000
  1
1040
  0
POINT
  5
8378
  8
DEFPOINTS
 62
     0
 10
2824.3252885141651
 20
5029.455318523007
 30
0.0
  0
POINT
  5
8379
  8
DEFPOINTS
 62
     0
 10
3032.5632390582082
 20
3989.455318523007
 30
0.0
  0
POINT
  5
837A
  8
DEFPOINTS
 62
     0
 10
2272.8849456882599
 20
3989.455318523007
 30
0.0
  0
ENDBLK
  5
80B0
  8
0
  0
BLOCK
  8
0
  2
*D13
 70
     1
 10
0.0
 20
0.0
 30
0.0
  3
*D13
  1

  0
LINE
  5
837B
  8
3
 62
     0
 10
2952.5632390582082
 20
6599.455318523007
 30
0.0
 11
2952.5632390582082
 21
6829.7699820523821
 31
0.0
  0
LINE
  5
837C
  8
3
 62
     0
 10
3882.5632390582082
 20
6557.3649256751041
 30
0.0
 11
3882.5632390582082
 21
6829.7699820523821
 31
0.0
  0
LINE
  5
837D
  8
3
 62
     0
 10
3052.5632390582082
 20
6779.7699820523821
 30
0.0
 11
3782.5632390582082
 21
6779.7699820523821
 31
0.0
  0
INSERT
  5
837E
  8
3
 62
     0
  2
_OPEN
 10
2952.5632390582082
 20
6779.7699820523821
 30
0.0
 41
100.0
 42
100.0
 43
100.0
 50
180.0
  0
INSERT
  5
837F
  8
3
 62
     0
  2
_OPEN
 10
3882.5632390582082
 20
6779.7699820523821
 30
0.0
 41
100.0
 42
100.0
 43
100.0
  0
TEXT
  8
3
  40
150
  5
83D7
  62
0
  72
0
  71
0
 10
3117.56
 20
6639.27
 30
0.000000
  1
930
  0
POINT
  5
8381
  8
DEFPOINTS
 62
     0
 10
2952.5632390582082
 20
6574.455318523007
 30
0.0
  0
POINT
  5
8382
  8
DEFPOINTS
 62
     0
 10
3882.5632390582082
 20
6532.3649256751032
 30
0.0
  0
POINT
  5
8383
  8
DEFPOINTS
 62
     0
 10
3882.5632390582082
 20
6779.7699820523821
 30
0.0
  0
ENDBLK
  5
8080
  8
0
  0
BLOCK
  8
0
  2
*D14
 70
     1
 10
0.0
 20
0.0
 30
0.0
  3
*D14
  1

  0
LINE
  5
8384
  8
3
 62
     0
 10
3882.5632390582082
 20
6557.3649256751041
 30
0.0
 11
3882.5632390582082
 21
6829.7699820523821
 31
0.0
  0
LINE
  5
8385
  8
3
 62
     0
 10
5089.5632390582077
 20
5156.455318523007
 30
0.0
 11
5089.5632390582077
 21
6829.7699820523821
 31
0.0
  0
LINE
  5
8386
  8
3
 62
     0
 10
3982.5632390582082
 20
6779.7699820523821
 30
0.0
 11
4989.5632390582086
 21
6779.7699820523821
 31
0.0
  0
INSERT
  5
8387
  8
3
 62
     0
  2
_OPEN
 10
3882.5632390582082
 20
6779.7699820523821
 30
0.0
 41
100.0
 42
100.0
 43
100.0
 50
180.0
  0
INSERT
  5
8388
  8
3
 62
     0
  2
_OPEN
 10
5089.5632390582077
 20
6779.7699820523821
 30
0.0
 41
100.0
 42
100.0
 43
100.0
  0
TEXT
  8
3
  40
150
  5
83D8
  62
0
  72
0
  71
0
 10
4186.06
 20
6639.27
 30
0.000000
  1
1207
  0
POINT
  5
838A
  8
DEFPOINTS
 62
     0
 10
3882.5632390582082
 20
6532.3649256751032
 30
0.0
  0
POINT
  5
838B
  8
DEFPOINTS
 62
     0
 10
5089.5632390582077
 20
5131.4553185230061
 30
0.0
  0
POINT
  5
838C
  8
DEFPOINTS
 62
     0
 10
5089.5632390582077
 20
6779.7699820523821
 30
0.0
  0
ENDBLK
  5
8075
  8
0
  0
BLOCK
  8
0
  2
*D15
 70
     1
 10
0.0
 20
0.0
 30
0.0
  3
*D15
  1

  0
LINE
  5
838D
  8
3
 62
     0
 10
3007.5632390582082
 20
10655.483268492029
 30
0.0
 11
2531.1060443956471
 21
10655.483268492029
 31
0.0
  0
LINE
  5
838E
  8
3
 62
     0
 10
3007.5632390582082
 20
9255.4832684920311
 30
0.0
 11
2531.1060443956471
 21
9255.4832684920311
 31
0.0
  0
LINE
  5
838F
  8
3
 62
     0
 10
2581.1060443956462
 20
10555.483268492029
 30
0.0
 11
2581.1060443956462
 21
9355.4832684920311
 31
0.0
  0
INSERT
  5
8390
  8
3
 62
     0
  2
_OPEN
 10
2581.1060443956462
 20
10655.483268492029
 30
0.0
 41
100.0
 42
100.0
 43
100.0
 50
90.0
  0
INSERT
  5
8391
  8
3
 62
     0
  2
_OPEN
 10
2581.1060443956462
 20
9255.4832684920311
 30
0.0
 41
100.0
 42
100.0
 43
100.0
 50
270.0
  0
TEXT
  8
3
  40
150
  5
83D9
  62
0
  72
0
  71
0
 10
2156.11
 20
9634.00
 30
0.000000
  1
1400
  0
POINT
  5
8393
  8
DEFPOINTS
 62
     0
 10
3032.5632390582082
 20
10655.483268492029
 30
0.0
  0
POINT
  5
8394
  8
DEFPOINTS
 62
     0
 10
3032.5632390582082
 20
9255.4832684920311
 30
0.0
  0
POINT
  5
8395
  8
DEFPOINTS
 62
     0
 10
2581.1060443956462
 20
9255.4832684920311
 30
0.0
  0
ENDBLK
  5
806A
  8
0
  0
BLOCK
  8
0
  2
*D16
 70
     1
 10
0.0
 20
0.0
 30
0.0
  3
*D16
  1

  0
LINE
  5
8396
  8
3
 62
     0
 10
2952.5632390582082
 20
6599.455318523007
 30
0.0
 11
2952.5632390582082
 21
7141.5613435479472
 31
0.0
  0
LINE
  5
8397
  8
3
 62
     0
 10
5782.5632390582086
 20
4164.455318523007
 30
0.0
 11
5782.5632390582086
 21
7141.5613435479472
 31
0.0
  0
LINE
  5
8398
  8
3
 62
     0
 10
3052.5632390582082
 20
7091.5613435479472
 30
0.0
 11
5682.5632390582077
 21
7091.5613435479472
 31
0.0
  0
INSERT
  5
8399
  8
3
 62
     0
  2
_OPEN
 10
2952.5632390582082
 20
7091.5613435479472
 30
0.0
 41
100.0
 42
100.0
 43
100.0
 50
180.0
  0
INSERT
  5
839A
  8
3
 62
     0
  2
_OPEN
 10
5782.5632390582086
 20
7091.5613435479472
 30
0.0
 41
100.0
 42
100.0
 43
100.0
  0
TEXT
  8
3
  40
150
  5
83DA
  62
0
  72
0
  71
0
 10
3995.15
 20
6951.06
 30
0.000000
  1
2830
  0
POINT
  5
839C
  8
DEFPOINTS
 62
     0
 10
2952.5632390582082
 20
6574.455318523007
 30
0.0
  0
POINT
  5
839D
  8
DEFPOINTS
 62
     0
 10
5782.5632390582086
 20
4139.455318523007
 30
0.0
  0
POINT
  5
839E
  8
DEFPOINTS
 62
     0
 10
5782.5632390582086
 20
7091.5613435479472
 30
0.0
  0
ENDBLK
  5
81A7
  8
0
  0
BLOCK
  8
0
  2
*D17
 70
     1
 10
0.0
 20
0.0
 30
0.0
  3
*D17
  1

  0
LINE
  5
839F
  8
3
 62
     0
 10
2927.5632390582082
 20
6520.455318523007
 30
0.0
 11
1804.833781541638
 21
6520.4553185230079
 31
0.0
  0
LINE
  5
83A0
  8
3
 62
     0
 10
3007.5632390582082
 20
3989.455318523007
 30
0.0
 11
1804.833781541638
 21
3989.455318523007
 31
0.0
  0
LINE
  5
83A1
  8
3
 62
     0
 10
1854.833781541638
 20
6420.4553185230079
 30
0.0
 11
1854.833781541638
 21
4089.455318523007
 31
0.0
  0
INSERT
  5
83A2
  8
3
 62
     0
  2
_OPEN
 10
1854.833781541638
 20
6520.4553185230079
 30
0.0
 41
100.0
 42
100.0
 43
100.0
 50
90.0
  0
INSERT
  5
83A3
  8
3
 62
     0
  2
_OPEN
 10
1854.833781541638
 20
3989.455318523007
 30
0.0
 41
100.0
 42
100.0
 43
100.0
 50
270.0
  0
TEXT
  8
3
  40
150
  5
83DB
  62
0
  72
0
  71
0
 10
1429.83
 20
4989.46
 30
0.000000
  1
2531
  0
POINT
  5
83A5
  8
DEFPOINTS
 62
     0
 10
2952.5632390582082
 20
6520.455318523007
 30
0.0
  0
POINT
  5
83A6
  8
DEFPOINTS
 62
     0
 10
3032.5632390582082
 20
3989.455318523007
 30
0.0
  0
POINT
  5
83A7
  8
DEFPOINTS
 62
     0
 10
1854.833781541638
 20
3989.455318523007
 30
0.0
  0
ENDBLK
  5
81ED
  8
0
  0
BLOCK
  8
0
  2
*D18
 70
     1
 10
0.0
 20
0.0
 30
0.0
  3
*D18
  1

  0
LINE
  5
83A8
  8
3
 62
     0
 10
3032.5632390582082
 20
3964.455318523007
 30
0.0
 11
3032.5632390582082
 21
3634.8883475152538
 31
0.0
  0
LINE
  5
83A9
  8
3
 62
     0
 10
3882.5632390582082
 20
3964.4553185230061
 30
0.0
 11
3882.5632390582082
 21
3634.8883475152538
 31
0.0
  0
LINE
  5
83AA
  8
3
 62
     0
 10
3132.5632390582082
 20
3684.8883475152538
 30
0.0
 11
3782.5632390582082
 21
3684.8883475152538
 31
0.0
  0
INSERT
  5
83AB
  8
3
 62
     0
  2
_OPEN
 10
3032.5632390582082
 20
3684.8883475152538
 30
0.0
 41
100.0
 42
100.0
 43
100.0
 50
180.0
  0
INSERT
  5
83AC
  8
3
 62
     0
  2
_OPEN
 10
3882.5632390582082
 20
3684.8883475152538
 30
0.0
 41
100.0
 42
100.0
 43
100.0
  0
TEXT
  8
3
  40
150
  5
83DC
  62
0
  72
0
  71
0
 10
3157.56
 20
3544.39
 30
0.000000
  1
850
  0
POINT
  5
83AE
  8
DEFPOINTS
 62
     0
 10
3032.5632390582082
 20
3989.455318523007
 30
0.0
  0
POINT
  5
83AF
  8
DEFPOINTS
 62
     0
 10
3882.5632390582082
 20
3989.4553185230061
 30
0.0
  0
POINT
  5
83B0
  8
DEFPOINTS
 62
     0
 10
3882.5632390582082
 20
3684.8883475152538
 30
0.0
  0
ENDBLK
  5
81FA
  8
0
  0
BLOCK
  8
0
  2
*D19
 70
     1
 10
0.0
 20
0.0
 30
0.0
  3
*D19
  1

  0
LINE
  5
83B1
  8
3
 62
     0
 10
3882.5632390582082
 20
3964.4553185230061
 30
0.0
 11
3882.5632390582082
 21
3634.8883475152538
 31
0.0
  0
LINE
  5
83B2
  8
3
 62
     0
 10
5782.5632390582086
 20
3964.455318523007
 30
0.0
 11
5782.5632390582086
 21
3634.8883475152538
 31
0.0
  0
LINE
  5
83B3
  8
3
 62
     0
 10
3982.5632390582082
 20
3684.8883475152538
 30
0.0
 11
5682.5632390582077
 21
3684.8883475152538
 31
0.0
  0
INSERT
  5
83B4
  8
3
 62
     0
  2
_OPEN
 10
3882.5632390582082
 20
3684.8883475152538
 30
0.0
 41
100.0
 42
100.0
 43
100.0
 50
180.0
  0
INSERT
  5
83B5
  8
3
 62
     0
  2
_OPEN
 10
5782.5632390582086
 20
3684.8883475152538
 30
0.0
 41
100.0
 42
100.0
 43
100.0
  0
TEXT
  8
3
  40
150
  5
83DD
  62
0
  72
0
  71
0
 10
4532.56
 20
3544.39
 30
0.000000
  1
1900
  0
POINT
  5
83B7
  8
DEFPOINTS
 62
     0
 10
3882.5632390582082
 20
3989.4553185230061
 30
0.0
  0
POINT
  5
83B8
  8
DEFPOINTS
 62
     0
 10
5782.5632390582086
 20
3989.455318523007
 30
0.0
  0
POINT
  5
83B9
  8
DEFPOINTS
 62
     0
 10
5782.5632390582086
 20
3684.8883475152538
 30
0.0
  0
ENDBLK
  5
8207
  8
0
  0
BLOCK
  8
0
  2
*D20
 70
     1
 10
0.0
 20
0.0
 30
0.0
  3
*D20
  1

  0
LINE
  5
83BA
  8
3
 62
     0
 10
6831.0383696180388
 20
3964.455318523007
 30
0.0
 11
6831.0383696180388
 21
3634.8883475152538
 31
0.0
  0
LINE
  5
83BB
  8
3
 62
     0
 10
7622.0383696180397
 20
3964.455318523007
 30
0.0
 11
7622.0383696180397
 21
3634.8883475152538
 31
0.0
  0
LINE
  5
83BC
  8
3
 62
     0
 10
6931.0383696180397
 20
3684.8883475152538
 30
0.0
 11
7522.0383696180406
 21
3684.8883475152538
 31
0.0
  0
INSERT
  5
83BD
  8
3
 62
     0
  2
_OPEN
 10
6831.0383696180388
 20
3684.8883475152538
 30
0.0
 41
100.0
 42
100.0
 43
100.0
 50
180.0
  0
INSERT
  5
83BE
  8
3
 62
     0
  2
_OPEN
 10
7622.0383696180397
 20
3684.8883475152538
 30
0.0
 41
100.0
 42
100.0
 43
100.0
  0
TEXT
  8
3
  40
150
  5
83DE
  62
0
  72
0
  71
0
 10
6926.54
 20
3544.39
 30
0.000000
  1
791
  0
POINT
  5
83C0
  8
DEFPOINTS
 62
     0
 10
6831.0383696180388
 20
3989.455318523007
 30
0.0
  0
POINT
  5
83C1
  8
DEFPOINTS
 62
     0
 10
7622.0383696180397
 20
3989.455318523007
 30
0.0
  0
POINT
  5
83C2
  8
DEFPOINTS
 62
     0
 10
7622.0383696180397
 20
3684.8883475152538
 30
0.0
  0
ENDBLK
  5
8214
  8
0
  0
BLOCK
  8
0
  2
*D21
 70
     1
 10
0.0
 20
0.0
 30
0.0
  3
*D21
  1

  0
LINE
  5
83C3
  8
3
 62
     0
 10
7622.0383696180397
 20
3964.455318523007
 30
0.0
 11
7622.0383696180397
 21
3634.8883475152538
 31
0.0
  0
LINE
  5
83C4
  8
3
 62
     0
 10
8231.0383696180397
 20
3964.4553185230079
 30
0.0
 11
8231.0383696180397
 21
3634.8883475152538
 31
0.0
  0
LINE
  5
83C5
  8
3
 62
     0
 10
7722.0383696180397
 20
3684.8883475152538
 30
0.0
 11
8131.0383696180388
 21
3684.8883475152538
 31
0.0
  0
INSERT
  5
83C6
  8
3
 62
     0
  2
_OPEN
 10
7622.0383696180397
 20
3684.8883475152538
 30
0.0
 41
100.0
 42
100.0
 43
100.0
 50
180.0
  0
INSERT
  5
83C7
  8
3
 62
     0
  2
_OPEN
 10
8231.0383696180397
 20
3684.8883475152538
 30
0.0
 41
100.0
 42
100.0
 43
100.0
  0
TEXT
  8
3
  40
150
  5
83DF
  62
0
  72
0
  71
0
 10
7626.54
 20
3544.39
 30
0.000000
  1
609
  0
POINT
  5
83C9
  8
DEFPOINTS
 62
     0
 10
7622.0383696180397
 20
3989.455318523007
 30
0.0
  0
POINT
  5
83CA
  8
DEFPOINTS
 62
     0
 10
8231.0383696180397
 20
3989.4553185230079
 30
0.0
  0
POINT
  5
83CB
  8
DEFPOINTS
 62
     0
 10
8231.0383696180397
 20
3684.8883475152538
 30
0.0
  0
ENDBLK
  5
8223
  8
0
  0
ENDSEC
  0
SECTION
  2
ENTITIES
  0
INSERT
  5
7BC6
  8
0
  2
YA_N
 10
6.0
 20
5.0
 30
0.0
  0
INSERT
  5
7BC8
  8
0
  2
YA_N
 10
6.0
 20
5.0
 30
0.0
  0
LINE
  5
7BCA
  8
2
 10
3882.5632390582082
 20
10788.2099152438
 30
0.0
 11
3882.5632390582082
 21
9076.4832684920311
 31
0.0
  0
LINE
  5
7BCB
  8
1
 10
2952.5632390582082
 20
5016.455318523007
 30
0.0
 11
2952.5632390582082
 21
6574.455318523007
 31
0.0
  0
LINE
  5
7BCC
  8
1
 10
2952.5632390582082
 20
5070.455318523007
 30
0.0
 11
3061.6594943348309
 21
5070.455318523007
 31
0.0
  0
ARC
  5
7BCD
  8
1
 10
3780.5632390582091
 20
5131.4553185230061
 30
0.0
 40
1309.0
 50
0.0
 51
85.530863344478945
  0
ARC
  5
7BCE
  8
1
 10
3984.5632390582091
 20
5131.4553185230061
 30
0.0
 40
1105.0
 50
264.7036190881476
 51
0.0
  0
ARC
  5
7BCF
  8
1
 10
3968.0632390582091
 20
4943.9553185230061
 30
0.0
 40
917.5
 50
180.0
 51
264.65296219651373
  0
ARC
  5
7BD0
  8
1
 10
3797.3632390582088
 20
4943.9553185230061
 30
0.0
 40
746.49999999999989
 50
170.24372338188331
 51
180.0
  0
LINE
  5
7BD1
  8
1
 10
2952.5632390582082
 20
6520.455318523007
 30
0.0
 11
3882.5632390582082
 21
6436.5691718207199
 31
0.0
  0
LINE
  5
7BD2
  8
1
 10
3032.5632390582082
 20
3989.455318523007
 30
0.0
 11
5782.5632390582086
 21
3989.455318523007
 31
0.0
  0
LINE
  5
7BD3
  8
1
 10
3032.5632390582082
 20
4139.455318523007
 30
0.0
 11
5782.5632390582086
 21
4139.455318523007
 31
0.0
  0
LINE
  5
7BD4
  8
1
 10
3032.5632390582082
 20
4139.455318523007
 30
0.0
 11
3032.5632390582082
 21
3989.455318523007
 31
0.0
  0
LINE
  5
7BD5
  8
1
 10
5782.5632390582086
 20
4139.455318523007
 30
0.0
 11
5782.5632390582086
 21
3989.455318523007
 31
0.0
  0
LINE
  5
7BD6
  8
1
 10
3002.5632390582082
 20
5070.455318523007
 30
0.0
 11
3002.5632390582082
 21
6515.9453106357887
 31
0.0
  0
LINE
  5
7BD7
  8
2
 10
6583.3098781530143
 20
5029.4553185230061
 30
0.0
 11
8412.0632165549014
 21
5029.455318523007
 31
0.0
  0
LINE
  5
7BD8
  8
2
 10
7622.0383696180397
 20
6733.8263265022424
 30
0.0
 11
7622.0383696180397
 21
3989.455318523007
 31
0.0
  0
LINE
  5
7BD9
  8
1
 10
6831.0383696180388
 20
4139.455318523007
 30
0.0
 11
8231.0383696180397
 21
4139.455318523007
 31
0.0
  0
LINE
  5
7BDA
  8
1
 10
6831.0383696180388
 20
3989.455318523007
 30
0.0
 11
8231.0383696180397
 21
3989.4553185230079
 31
0.0
  0
LINE
  5
7BDB
  8
1
 10
7092.0383696180388
 20
6520.4553185230079
 30
0.0
 11
8152.0383696180397
 21
6520.4553185230079
 31
0.0
  0
LINE
  5
7BDC
  8
2
 10
3882.5632390582082
 20
3989.4553185230061
 30
0.0
 11
3882.5632390582082
 21
6532.3649256751032
 31
0.0
  0
LINE
  5
7BDD
  8
2
 10
5482.5632390582077
 20
4812.4516371455684
 30
0.0
 11
5482.5632390582077
 21
4052.7275643810331
 31
0.0
  0
LINE
  5
7BDE
  8
2
 10
5068.4136930037803
 20
4374.455318523007
 30
0.0
 11
5782.5632390582086
 21
4374.455318523007
 31
0.0
  0
LINE
  5
7BDF
  8
2
 10
6650.4532390192462
 20
4374.455318523007
 30
0.0
 11
7530.479259160973
 21
4374.455318523007
 31
0.0
  0
CIRCLE
  5
7BE0
  8
1
 10
3882.5632390582082
 20
5029.4553185230088
 30
0.0
 40
700.0
  0
CIRCLE
  5
7BE1
  8
1
 10
3882.5632390582082
 20
5029.4553185230088
 30
0.0
 40
750.0
  0
LINE
  5
7BE2
  8
1
 10
8152.0383696180397
 20
4329.455318523007
 30
0.0
 11
8256.0383696180397
 21
4329.455318523007
 31
0.0
  0
LINE
  5
7BE3
  8
1
 10
8256.0383696180397
 20
5779.455318523007
 30
0.0
 11
8256.0383696180397
 21
4279.455318523007
 31
0.0
  0
LINE
  5
7BE4
  8
1
 10
5644.5632390582086
 20
4264.4578232937502
 30
0.0
 11
5634.9341851684567
 21
4274.009587994191
 31
0.0
  0
LINE
  5
7BE5
  8
1
 10
5320.5632390582086
 20
4264.4578232937502
 30
0.0
 11
5330.1922929479606
 21
4274.009587994191
 31
0.0
  0
LINE
  5
7BE6
  8
1
 10
5644.5632390582086
 20
4194.455318523007
 30
0.0
 11
5644.5632390582086
 21
4264.4578232937502
 31
0.0
  0
LINE
  5
7BE7
  8
1
 10
5733.3889311403072
 20
4194.455318523007
 30
0.0
 11
5565.9015586364567
 21
4194.455318523007
 31
0.0
  0
ARC
  5
7BE8
  8
1
 10
5482.5632390582077
 20
4374.455318523007
 30
0.0
 40
182.5
 50
285.78279193357162
 51
254.2172080664283
  0
LINE
  5
7BE9
  8
1
 10
5432.9248369008437
 20
4198.8356185139692
 30
0.0
 11
5532.2016412155726
 21
4198.8356185139692
 31
0.0
  0
LINE
  5
7BEA
  8
1
 10
5320.5632390582086
 20
4194.455318523007
 30
0.0
 11
5320.5632390582086
 21
4264.4578232937511
 31
0.0
  0
LINE
  5
7BEB
  8
1
 10
5320.5632390582086
 20
4194.455318523007
 30
0.0
 11
5380.5632390582086
 21
4194.455318523007
 31
0.0
  0
CIRCLE
  5
7BEC
  8
1
 10
3882.56323905821
 20
5029.455318523007
 30
0.0
 40
250.0
  0
CIRCLE
  5
7BED
  8
1
 10
5482.5632390582077
 20
4374.455318523007
 30
0.0
 40
106.0
  0
ARC
  5
7BEE
  8
1
 10
3882.5632390582082
 20
5029.455318523007
 30
0.0
 40
380.0
 50
56.821170030304152
 51
246.94096412820579
  0
ARC
  5
7BEF
  8
1
 10
5482.5632390582077
 20
4374.455318523007
 30
0.0
 40
220.0
 50
246.94096412820579
 51
56.821170030304152
  0
LINE
  5
7BF0
  8
1
 10
4090.519763926593
 20
5347.5026165223226
 30
0.0
 11
5602.9591218767473
 21
4558.5879647331367
 31
0.0
  0
LINE
  5
7BF1
  8
1
 10
4017.5194383636131
 20
5239.8996681003719
 30
0.0
 11
5539.7846675636993
 21
4463.68372274381
 31
0.0
  0
LINE
  5
7BF2
  8
1
 10
3782.611331728709
 20
4800.3055504210179
 30
0.0
 11
5440.1836303504997
 21
4277.2958168477644
 31
0.0
  0
LINE
  5
7BF3
  8
1
 10
3733.7250739713518
 20
4679.8166470154392
 30
0.0
 11
5396.3937750605546
 21
4172.0329297554672
 31
0.0
  0
LINE
  5
7BF4
  8
1
 10
5742.5632390582114
 20
4139.455318523007
 30
0.0
 11
5733.3889311403072
 21
4194.455318523007
 31
0.0
  0
LINE
  5
7BF5
  8
1
 10
5565.9015586364567
 20
4194.455318523007
 30
0.0
 11
5565.9015586364567
 21
4184.9789739614052
 31
0.0
  0
LINE
  5
7BF6
  8
1
 10
5565.9015586364567
 20
4184.9789739614052
 30
0.0
 11
5482.5504581706828
 21
4184.9789739614052
 31
0.0
  0
LINE
  5
7BF7
  8
1
 10
5222.5632390582068
 20
4139.455318523007
 30
0.0
 11
5231.7375469761118
 21
4194.455318523007
 31
0.0
  0
LINE
  5
7BF8
  8
1
 10
5231.73754697611
 20
4194.455318523007
 30
0.0
 11
5399.2249194799597
 21
4194.455318523007
 31
0.0
  0
LINE
  5
7BF9
  8
1
 10
5399.2249194799597
 20
4184.9789739614052
 30
0.0
 11
5482.5760199457354
 21
4184.9789739614052
 31
0.0
  0
LINE
  5
7BFA
  8
1
 10
5399.2249194799597
 20
4194.455318523007
 30
0.0
 11
5399.2249194799597
 21
4184.9789739614052
 31
0.0
  0
LINE
  5
7BFB
  8
1
 10
6822.338369618039
 20
5109.455318523007
 30
0.0
 11
6822.338369618039
 21
4949.455318523007
 31
0.0
  0
LINE
  5
7BFC
  8
1
 10
6722.338369618039
 20
5279.455318523007
 30
0.0
 11
6800.2383696180405
 21
5279.455318523007
 31
0.0
  0
LINE
  5
7BFD
  8
1
 10
6722.338369618039
 20
4779.455318523007
 30
0.0
 11
6800.2383696180405
 21
4779.455318523007
 31
0.0
  0
LINE
  5
7BFE
  8
1
 10
6722.338369618039
 20
5279.455318523007
 30
0.0
 11
6722.338369618039
 21
4779.455318523007
 31
0.0
  0
LINE
  5
7BFF
  8
1
 10
6800.2383696180405
 20
5279.455318523007
 30
0.0
 11
6800.2383696180405
 21
4779.455318523007
 31
0.0
  0
LINE
  5
7C00
  8
1
 10
6800.2383696180405
 20
5109.455318523007
 30
0.0
 11
6822.338369618039
 21
5109.455318523007
 31
0.0
  0
LINE
  5
7C01
  8
1
 10
6800.2383696180405
 20
4949.455318523007
 30
0.0
 11
6822.338369618039
 21
4949.455318523007
 31
0.0
  0
LINE
  5
7C02
  8
1
 10
6722.338369618039
 20
4480.4553185230079
 30
0.0
 11
6800.2383696180386
 21
4480.4553185230079
 31
0.0
  0
LINE
  5
7C03
  8
1
 10
6722.338369618039
 20
4268.455318523007
 30
0.0
 11
6800.2383696180386
 21
4268.455318523007
 31
0.0
  0
LINE
  5
7C04
  8
1
 10
6815.3383696180381
 20
4434.4553185230079
 30
0.0
 11
6815.3383696180381
 21
4314.4553185230079
 31
0.0
  0
LINE
  5
7C05
  8
1
 10
6800.2383696180386
 20
4434.4553185230061
 30
0.0
 11
6815.3383696180381
 21
4434.4553185230079
 31
0.0
  0
LINE
  5
7C06
  8
1
 10
6800.2383696180386
 20
4314.455318523007
 30
0.0
 11
6815.3383696180381
 21
4314.4553185230079
 31
0.0
  0
LINE
  5
7C07
  8
1
 10
6652.0383696180397
 20
4154.455318523007
 30
0.0
 11
6872.338369618039
 21
4154.455318523007
 31
0.0
  0
LINE
  5
7C08
  8
1
 10
6652.0383696180397
 20
5409.455318523007
 30
0.0
 11
6872.338369618039
 21
5409.455318523007
 31
0.0
  0
LINE
  5
7C09
  8
1
 10
6652.0383696180397
 20
5409.455318523007
 30
0.0
 11
6652.0383696180397
 21
4154.455318523007
 31
0.0
  0
LINE
  5
7C0A
  8
1
 10
6872.338369618039
 20
5409.455318523007
 30
0.0
 11
6872.338369618039
 21
4154.455318523007
 31
0.0
  0
LINE
  5
7C0B
  8
1
 10
6822.338369618039
 20
5071.955318523007
 30
0.0
 11
7092.0383696180388
 21
5071.955318523007
 31
0.0
  0
LINE
  5
7C0C
  8
1
 10
6822.338369618039
 20
4986.955318523007
 30
0.0
 11
7092.0383696180388
 21
4986.955318523007
 31
0.0
  0
LINE
  5
7C13
  8
1
 10
6831.0383696180388
 20
4139.455318523007
 30
0.0
 11
6831.0383696180388
 21
3989.455318523007
 31
0.0
  0
LINE
  5
7C14
  8
1
 10
8231.0383696180415
 20
4139.455318523007
 30
0.0
 11
8231.0383696180397
 21
3989.4553185230079
 31
0.0
  0
LINE
  5
7C19
  8
1
 10
7092.0383696180388
 20
6520.455318523007
 30
0.0
 11
7092.0383696180388
 21
4556.955318523007
 31
0.0
  0
LINE
  5
7C1A
  8
1
 10
8152.0383696180397
 20
6520.4553185230079
 30
0.0
 11
8152.0383696180397
 21
4139.455318523007
 31
0.0
  0
POINT
  5
7C1B
  8
1
 10
7622.0383696180397
 20
6934.3957520914928
 30
0.0
  0
INSERT
  5
7C1C
  8
0
  6
BYBLOCK
 62
     2
  2
YA_N
 10
5372.4018783245183
 20
-226.14356067562309
 30
0.0
 41
90.0
 42
90.0
 43
90.0
 50
210.0117675348119
  0
LINE
  5
7C21
  8
1
 10
6722.338369618039
 20
4480.4553185230079
 30
0.0
 11
6722.338369618039
 21
4268.455318523007
 31
0.0
  0
LINE
  5
7C22
  8
1
 10
6800.2383696180405
 20
4480.4553185230079
 30
0.0
 11
6800.2383696180386
 21
4268.455318523007
 31
0.0
  0
LINE
  5
7C23
  8
2
 10
2829.8922617903791
 20
10046.483268492029
 30
0.0
 11
5207.5971714267798
 21
10046.483268492029
 31
0.0
  0
LINE
  5
7C24
  8
1
 10
3032.5632390582082
 20
10655.483268492029
 30
0.0
 11
3182.5632390582082
 21
10655.483268492029
 31
0.0
  0
LINE
  5
7C25
  8
1
 10
3032.5632390582082
 20
9255.4832684920311
 30
0.0
 11
5782.5632390582086
 21
9255.4832684920311
 31
0.0
  0
LINE
  5
7C26
  8
1
 10
5782.5632390582086
 20
10355.483268492029
 30
0.0
 11
5782.5632390582086
 21
9255.4832684920311
 31
0.0
  0
LINE
  5
7C27
  8
1
 10
3032.5632390582082
 20
10655.483268492029
 30
0.0
 11
3032.5632390582082
 21
10576.483268492029
 31
0.0
  0
LINE
  5
7C28
  8
2
 10
2824.3252885141651
 20
5029.455318523007
 30
0.0
 11
5370.147492984951
 21
5029.455318523007
 31
0.0
  0
LINE
  5
7C29
  8
1
 10
4732.5632390582077
 20
10655.483268492029
 30
0.0
 11
4732.5632390582077
 21
10576.483268492029
 31
0.0
  0
LINE
  5
7C2A
  8
1
 10
5089.5632390582077
 20
10355.483268492029
 30
0.0
 11
5782.5632390582086
 21
10355.483268492029
 31
0.0
  0
LINE
  5
7C2B
  8
1
 10
2952.5632390582082
 20
10576.483268492029
 30
0.0
 11
5089.5632390582077
 21
10576.483268492029
 31
0.0
  0
LINE
  5
7C2C
  8
1
 10
2952.5632390582082
 20
9516.4832684920329
 30
0.0
 11
5089.5632390582077
 21
9516.4832684920311
 31
0.0
  0
LINE
  5
7C2D
  8
1
 10
3032.5632390582082
 20
9516.4832684920329
 30
0.0
 11
3032.5632390582082
 21
9255.4832684920311
 31
0.0
  0
LINE
  5
7C2E
  8
1
 10
3132.5632390582082
 20
10676.483268492029
 30
0.0
 11
4632.5632390582077
 21
10676.483268492029
 31
0.0
  0
LINE
  5
7C2F
  8
1
 10
4582.5632390582086
 20
10676.483268492029
 30
0.0
 11
4582.5632390582086
 21
10576.483268492029
 31
0.0
  0
LINE
  5
7C30
  8
1
 10
3182.5632390582082
 20
10676.483268492029
 30
0.0
 11
3182.5632390582082
 21
10576.483268492029
 31
0.0
  0
LINE
  5
7C31
  8
1
 10
4582.5632390582086
 20
10655.483268492029
 30
0.0
 11
4732.5632390582077
 21
10655.483268492029
 31
0.0
  0
DIMENSION
  5
7C32
  8
3
  2
*D2
 10
7092.0383696180388
 20
6772.8015978303047
 30
0.0
 11
7622.0383696180397
 21
6897.8015978303047
 31
0.0
 70
     0
 13
8152.0383696180397
 23
6470.4553185230079
 33
0.0
 14
7092.0383696180388
 24
6470.455318523007
 34
0.0
1001
ACAD
1000
DSTYLE
1002
{
1070
   287
1070
     3
1070
   287
1070
     3
1070
    40
1040
50.0
1070
   143
1040
0.039
1070
   172
1070
     1
1070
   271
1070
     0
1070
   279
1070
     0
1070
   288
1070
     1
1002
}
  0
DIMENSION
  5
7C33
  8
3
  2
*D3
 10
7622.0383696180397
 20
7096.9752961804534
 30
0.0
 11
7939.0383696180388
 21
7296.9752961804534
 31
0.0
 70
     0
 13
8256.0383696180397
 23
5779.455318523007
 33
0.0
 14
7622.0383696180397
 24
6934.3957520914928
 34
0.0
1001
ACAD
1000
DSTYLE
1002
{
1070
   288
1070
     1
1070
   172
1070
     1
1070
    40
1040
50.0
1070
   271
1070
     0
1070
   143
1040
0.039
1002
}
  0
DIMENSION
  5
7C34
  8
3
  2
*D4
 10
6652.0383696180397
 20
7096.9752961804534
 30
0.0
 11
7137.0383696180388
 21
7346.9752961804534
 31
0.0
 70
     0
  1
MAX\P1030
 13
7622.0383696180397
 23
6934.3957520914928
 33
0.0
 14
6652.0383696180397
 24
5409.455318523007
 34
0.0
1001
ACAD
1000
DSTYLE
1002
{
1070
   287
1070
     3
1070
   287
1070
     3
1070
    40
1040
50.0
1070
   143
1040
0.039
1070
   172
1070
     1
1070
   271
1070
     0
1070
   279
1070
     0
1070
   288
1070
     1
1002
}
  0
LINE
  5
7C35
  8
1
 10
8152.0383696180397
 20
5729.455318523007
 30
0.0
 11
8256.0383696180397
 21
5729.455318523007
 31
0.0
  0
DIMENSION
  5
7C36
  8
3
  2
*D5
 10
8644.5905909264366
 20
4329.455318523007
 30
0.0
 11
8519.5905909264347
 21
5029.4553185230079
 31
0.0
 70
     0
 13
8256.0383696180397
 23
5729.455318523007
 33
0.0
 14
8256.0383696180397
 24
4329.455318523007
 34
0.0
 50
90.0
1001
ACAD
1000
DSTYLE
1002
{
1070
   287
1070
     3
1070
   287
1070
     3
1070
     3
1000
φ<>
1070
    40
1040
50.0
1070
   143
1040
0.039
1070
   172
1070
     1
1070
   271
1070
     0
1070
   279
1070
     0
1070
   288
1070
     1
1002
}
  0
LINE
  5
7C3A
  8
2
 10
5482.5632390582077
 20
9074.8981378932385
 30
0.0
 11
5482.5632390582077
 21
9964.0704180905359
 31
0.0
  0
LINE
  5
7C3B
  8
1
 10
3925.0632390582091
 20
9246.7832684920322
 30
0.0
 11
3925.0632390582091
 21
9516.4832684920329
 31
0.0
  0
LINE
  5
7C3C
  8
1
 10
3840.0632390582082
 20
9246.7832684920322
 30
0.0
 11
3840.0632390582082
 21
9516.4832684920311
 31
0.0
  0
LINE
  5
7C3D
  8
1
 10
5440.0632390582086
 20
9239.7832684920304
 30
0.0
 11
5440.0632390582086
 21
9339.6832684920337
 31
0.0
  0
LINE
  5
7C3E
  8
1
 10
5525.0632390582086
 20
9239.7832684920304
 30
0.0
 11
5525.0632390582095
 21
9339.6832684920337
 31
0.0
  0
LINE
  5
7C3F
  8
1
 10
3502.5632390582091
 20
9076.4832684920311
 30
0.0
 11
5702.5632390582086
 21
9076.4832684920311
 31
0.0
  0
LINE
  5
7C40
  8
1
 10
3502.5632390582091
 20
9296.7832684920322
 30
0.0
 11
5702.5632390582086
 21
9296.7832684920322
 31
0.0
  0
LINE
  5
7C41
  8
1
 10
5422.5632390582086
 20
9239.7832684920304
 30
0.0
 11
5542.5632390582086
 21
9239.7832684920304
 31
0.0
  0
LINE
  5
7C42
  8
1
 10
5376.5632390582077
 20
9146.7832684920322
 30
0.0
 11
5588.5632390582086
 21
9146.7832684920322
 31
0.0
  0
LINE
  5
7C43
  8
1
 10
5376.5632390582077
 20
9224.6832684920319
 30
0.0
 11
5588.5632390582086
 21
9224.6832684920319
 31
0.0
  0
LINE
  5
7C44
  8
1
 10
5702.5632390582086
 20
9076.4832684920311
 30
0.0
 11
5702.5632390582086
 21
9296.7832684920322
 31
0.0
  0
LINE
  5
7C45
  8
1
 10
5542.5632390582086
 20
9224.6832684920319
 30
0.0
 11
5542.5632390582086
 21
9239.7832684920304
 31
0.0
  0
LINE
  5
7C46
  8
1
 10
5588.5632390582086
 20
9146.7832684920322
 30
0.0
 11
5588.5632390582086
 21
9224.6832684920319
 31
0.0
  0
LINE
  5
7C47
  8
1
 10
5422.5632390582086
 20
9224.6832684920319
 30
0.0
 11
5422.5632390582086
 21
9239.7832684920304
 31
0.0
  0
LINE
  5
7C48
  8
1
 10
5376.5632390582077
 20
9146.7832684920322
 30
0.0
 11
5376.5632390582077
 21
9224.6832684920319
 31
0.0
  0
LINE
  5
7C49
  8
1
 10
3632.5632390582082
 20
9146.7832684920322
 30
0.0
 11
4132.5632390582077
 21
9146.7832684920322
 31
0.0
  0
LINE
  5
7C4A
  8
1
 10
3632.5632390582082
 20
9224.6832684920319
 30
0.0
 11
4132.5632390582077
 21
9224.6832684920319
 31
0.0
  0
LINE
  5
7C4B
  8
1
 10
3802.5632390582082
 20
9224.6832684920319
 30
0.0
 11
3802.5632390582082
 21
9246.7832684920322
 31
0.0
  0
LINE
  5
7C4C
  8
1
 10
3962.5632390582091
 20
9224.6832684920319
 30
0.0
 11
3962.5632390582091
 21
9246.7832684920322
 31
0.0
  0
LINE
  5
7C4D
  8
1
 10
4132.5632390582077
 20
9146.7832684920322
 30
0.0
 11
4132.5632390582077
 21
9224.6832684920319
 31
0.0
  0
LINE
  5
7C4E
  8
1
 10
3802.5632390582082
 20
9246.7832684920322
 30
0.0
 11
3962.5632390582091
 21
9246.7832684920322
 31
0.0
  0
LINE
  5
7C4F
  8
1
 10
3502.5632390582091
 20
9076.4832684920311
 30
0.0
 11
3502.5632390582091
 21
9296.7832684920304
 31
0.0
  0
LINE
  5
7C50
  8
1
 10
3632.5632390582082
 20
9146.7832684920322
 30
0.0
 11
3632.5632390582082
 21
9224.6832684920319
 31
0.0
  0
LINE
  5
7C51
  8
1
 10
5300.0632390582086
 20
9939.1832684920319
 30
0.0
 11
5665.0632390582086
 21
9939.18326849203
 31
0.0
  0
LINE
  5
7C52
  8
1
 10
5300.0632390582086
 20
9339.6832684920337
 30
0.0
 11
5665.0632390582086
 21
9339.6832684920282
 31
0.0
  0
LINE
  5
7C53
  8
1
 10
5665.0632390582086
 20
9339.6832684920282
 30
0.0
 11
5665.0632390582086
 21
9939.18326849203
 31
0.0
  0
LINE
  5
7C54
  8
1
 10
5300.0632390582086
 20
9339.6832684920337
 30
0.0
 11
5300.0632390582086
 21
9939.1832684920319
 31
0.0
  0
DIMENSION
  5
7C55
  8
3
  2
*D6
 10
4732.5632390582077
 20
11019.999498967911
 30
0.0
 11
3882.5632390582082
 21
11144.999498967911
 31
0.0
 70
     0
 13
3032.5632390582082
 23
10655.483268492029
 33
0.0
 14
4732.5632390582077
 24
10655.483268492029
 34
0.0
1001
ACAD
1000
DSTYLE
1002
{
1070
   287
1070
     3
1070
   287
1070
     3
1070
    40
1040
50.0
1070
   143
1040
0.039
1070
   172
1070
     1
1070
   271
1070
     0
1070
   279
1070
     0
1070
   288
1070
     1
1002
}
  0
DIMENSION
  5
7C56
  8
3
  2
*D7
 10
5782.5632390582086
 20
11019.999498967911
 30
0.0
 11
5257.5632390582077
 21
11144.999498967911
 31
0.0
 70
     0
 13
4732.5632390582077
 23
10655.483268492029
 33
0.0
 14
5782.5632390582086
 24
10355.483268492029
 34
0.0
1001
ACAD
1000
DSTYLE
1002
{
1070
   287
1070
     3
1070
   287
1070
     3
1070
    40
1040
50.0
1070
   143
1040
0.039
1070
   172
1070
     1
1070
   271
1070
     0
1070
   279
1070
     0
1070
   288
1070
     1
1002
}
  0
DIMENSION
  5
7C57
  8
3
  2
*D8
 10
6246.9678781059029
 20
9255.4832684920311
 30
0.0
 11
6121.9678781059019
 21
9805.4832684920311
 31
0.0
 70
     0
 13
5782.5632390582086
 23
10355.483268492029
 33
0.0
 14
5782.5632390582086
 24
9255.4832684920311
 34
0.0
 50
90.0
1001
ACAD
1000
DSTYLE
1002
{
1070
   287
1070
     3
1070
   287
1070
     3
1070
    40
1040
50.0
1070
   143
1040
0.039
1070
   172
1070
     1
1070
   271
1070
     0
1070
   279
1070
     0
1070
   288
1070
     1
1002
}
  0
DIMENSION
  5
7C58
  8
3
  2
*D9
 10
5782.5632390582086
 20
8671.1984207936039
 30
0.0
 11
4407.5632390582077
 21
8796.1984207936039
 31
0.0
 70
     0
 13
3032.5632390582082
 23
9255.4832684920311
 33
0.0
 14
5782.5632390582086
 24
9255.4832684920311
 34
0.0
1001
ACAD
1000
DSTYLE
1002
{
1070
   287
1070
     3
1070
   287
1070
     3
1070
    40
1040
50.0
1070
   143
1040
0.039
1070
   172
1070
     1
1070
   271
1070
     0
1070
   279
1070
     0
1070
   288
1070
     1
1002
}
  0
DIMENSION
  5
7C59
  8
3
  2
*D10
 10
2577.0682367090199
 20
5070.455318523007
 30
0.0
 11
2577.0682367090189
 21
5795.455318523007
 31
0.0
 70
   128
 13
2952.5632390582082
 23
6520.455318523007
 33
0.0
 14
2952.5632390582082
 24
5070.455318523007
 34
0.0
 50
90.0
1001
ACAD
1000
DSTYLE
1002
{
1070
   287
1070
     3
1070
   287
1070
     3
1070
    40
1040
50.0
1070
   143
1040
0.039
1070
   172
1070
     1
1070
   271
1070
     0
1070
   279
1070
     0
1070
   288
1070
     1
1002
}
  0
DIMENSION
  5
7C5D
  8
3
  2
*D11
 10
2272.8849456882599
 20
5029.455318523007
 30
0.0
 11
2147.884945688259
 21
5774.9553185230079
 31
0.0
 70
     0
 13
2952.5632390582082
 23
6520.455318523007
 33
0.0
 14
2824.3252885141651
 24
5029.455318523007
 34
0.0
 50
270.0
1001
ACAD
1000
DSTYLE
1002
{
1070
   287
1070
     3
1070
   287
1070
     3
1070
    40
1040
50.0
1070
   143
1040
0.039
1070
   172
1070
     1
1070
   271
1070
     0
1070
   279
1070
     0
1070
   288
1070
     1
1002
}
  0
DIMENSION
  5
7C5E
  8
3
  2
*D12
 10
2272.8849456882599
 20
3989.455318523007
 30
0.0
 11
2147.884945688259
 21
4509.4553185230079
 31
0.0
 70
     0
 13
2824.3252885141651
 23
5029.455318523007
 33
0.0
 14
3032.5632390582082
 24
3989.455318523007
 34
0.0
 50
270.0
1001
ACAD
1000
DSTYLE
1002
{
1070
   287
1070
     3
1070
   287
1070
     3
1070
    40
1040
50.0
1070
   143
1040
0.039
1070
   172
1070
     1
1070
   271
1070
     0
1070
   279
1070
     0
1070
   288
1070
     1
1002
}
  0
DIMENSION
  5
7C62
  8
3
  2
*D13
 10
3882.5632390582082
 20
6779.7699820523821
 30
0.0
 11
3417.5632390582091
 21
6904.7699820523821
 31
0.0
 70
     0
 13
2952.5632390582082
 23
6574.455318523007
 33
0.0
 14
3882.5632390582082
 24
6532.3649256751032
 34
0.0
1001
ACAD
1000
DSTYLE
1002
{
1070
   287
1070
     3
1070
   287
1070
     3
1070
    40
1040
50.0
1070
   143
1040
0.039
1070
   172
1070
     1
1070
   271
1070
     0
1070
   279
1070
     0
1070
   288
1070
     1
1002
}
  0
DIMENSION
  5
7C63
  8
3
  2
*D14
 10
5089.5632390582077
 20
6779.7699820523821
 30
0.0
 11
4486.0632390582086
 21
6904.7699820523821
 31
0.0
 70
     0
 13
3882.5632390582082
 23
6532.3649256751032
 33
0.0
 14
5089.5632390582077
 24
5131.4553185230061
 34
0.0
1001
ACAD
1000
DSTYLE
1002
{
1070
   287
1070
     3
1070
   287
1070
     3
1070
    40
1040
50.0
1070
   143
1040
0.039
1070
   172
1070
     1
1070
   271
1070
     0
1070
   279
1070
     0
1070
   288
1070
     1
1002
}
  0
LINE
  5
7C64
  8
1
 10
2952.5632390582082
 20
10626.483268492029
 30
0.0
 11
2952.5632390582082
 21
9466.4832684920311
 31
0.0
  0
LINE
  5
7C65
  8
1
 10
5089.5632390582077
 20
10576.483268492029
 30
0.0
 11
5089.5632390582077
 21
9516.4832684920311
 31
0.0
  0
LINE
  5
7C66
  8
1
 10
7092.0383696180388
 20
5070.4553185230079
 30
0.0
 11
8152.0383696180397
 21
5070.4553185230079
 31
0.0
  0
LINE
  5
7C67
  8
1
 10
8152.0383696180397
 20
6520.4553185230079
 30
0.0
 11
7092.0383696180388
 21
5070.4553185230079
 31
0.0
  0
LINE
  5
7C68
  8
1
 10
7092.0383696180388
 20
6520.4553185230079
 30
0.0
 11
8152.0383696180397
 21
5070.4553185230079
 31
0.0
  0
LINE
  5
7C69
  8
1
 10
3002.5632390582082
 20
9516.4832684920329
 30
0.0
 11
3002.5632390582082
 21
10576.483268492029
 31
0.0
  0
LINE
  5
7E5E
  8
4
 10
9250.0
 20
2500.0
 30
0.0
 11
9250.0
 21
1500.0
 31
0.0
  0
LINE
  5
7E5F
  8
4
 10
5750.0
 20
2500.0
 30
0.0
 11
5750.0
 21
1500.0
 31
0.0
  0
LINE
  5
7E60
  8
4
 10
3250.0
 20
2500.0
 30
0.0
 11
3250.0
 21
1500.0
 31
0.0
  0
LINE
  5
7E63
  8
4
 10
3250.0
 20
1500.0
 30
0.0
 11
9250.0
 21
1500.0
 31
0.0
  0
LINE
  5
7E64
  8
4
 10
3250.0
 20
2000.0
 30
0.0
 11
9250.0
 21
2000.0
 31
0.0
  0
TEXT
  5
7E65
  8
4
 10
3442.5104042345079
 20
2157.7151293330639
 30
0.0
 40
250.0
  1
機器名称
  0
TEXT
  5
7E66
  8
4
 10
3431.2905301239871
 20
1608.225783660054
 30
0.0
 40
250.0
  1
機器型番
  0
TEXT
  5
7E67
  8
4
 10
5890.8926779607709
 20
2115.1081781773478
 30
0.0
 40
200.0
  1
ミツヤリミットロードファン
  0
TEXT
  5
7E68
  8
4
 10
5933.2724779274031
 20
1585.797921399716
 30
0.0
 40
250.0
  1
LLE#9-4
  0
TEXT
  5
7E6A
  8
4
 10
3995.8851099325689
 20
11917.14420666257
 30
0.0
 40
269.99999999999989
  1
床置ベット
  0
TEXT
  5
7E6B
  8
4
 10
1573.0065171259689
 20
12669.47492041572
 30
0.0
 40
306.0
  1
ベルト駆動式片吸込両持排煙ファン
  0
LINE
  5
7E6C
  8
4
 10
1250.0
 20
12347.043771324021
 30
0.0
 11
9250.0
 21
12347.043771324021
 31
0.0
  0
LINE
  5
7E6D
  8
4
 10
1250.0
 20
13347.043771324021
 30
0.0
 11
9250.0
 21
13347.043771324021
 31
0.0
  0
LINE
  5
7E6E
  8
4
 10
3250.0
 20
2500.0
 30
0.0
 11
9250.0
 21
2500.0
 31
0.0
  0
LINE
  5
7E6F
  8
4
 10
1250.0
 20
13347.043771324021
 30
0.0
 11
1250.0
 21
12347.043771324021
 31
0.0
  0
TEXT
  5
7E70
  8
4
 10
1816.5909487190579
 20
11911.59738773171
 30
0.0
 40
269.99999999999989
  1
左回転左横向
  0
TEXT
  5
7E71
  8
4
 10
7344.8477962464494
 20
13530.30540747654
 30
0.0
 40
280.0
  1
No.
  0
TEXT
  5
7E72
  8
4
 10
6556.4803130000646
 20
11917.14420666257
 30
0.0
 40
269.99999999999989
  1
縮尺：1/50
  0
LINE
  5
7E73
  8
4
 10
9250.0
 20
13347.043771324021
 30
0.0
 11
9250.0
 21
12347.043771324021
 31
0.0
  0
LINE
  5
7E74
  8
4
 10
10500.0
 20
14750.0
 30
0.0
 11
10500.0
 21
14750.0
 31
0.0
  0
LINE
  5
7E75
  8
4
 10
7203.0871117993229
 20
13406.317915627
 30
0.0
 11
7203.0871117993229
 21
13933.26130774876
 31
0.0
  0
LINE
  5
7E76
  8
4
 10
7203.0871117993229
 20
13933.26130774876
 30
0.0
 11
9250.0
 21
13933.26130774876
 31
0.0
  0
LINE
  5
7E77
  8
4
 10
9250.0
 20
13933.26130774876
 30
0.0
 11
9250.0
 21
13406.317915627
 31
0.0
  0
LINE
  5
7E78
  8
4
 10
9250.0
 20
13406.317915627
 30
0.0
 11
7203.0871117993229
 21
13406.317915627
 31
0.0
  0
LINE
  5
7E79
  8
4
 10
0.0
 20
0.0
 30
0.0
 11
0.0
 21
14750.0
 31
0.0
  0
LINE
  5
7E7A
  8
4
 10
0.0
 20
14750.0
 30
0.0
 11
10500.0
 21
14750.0
 31
0.0
  0
LINE
  5
7E7B
  8
4
 10
10500.0
 20
14750.0
 30
0.0
 11
10500.0
 21
0.0
 31
0.0
  0
LINE
  5
7E7C
  8
4
 10
10500.0
 20
0.0
 30
0.0
 11
0.0
 21
0.0
 31
0.0
  0
DIMENSION
  5
804E
  8
3
  2
*D15
 10
2581.1060443956462
 20
9255.4832684920311
 30
0.0
 11
2581.1060443956449
 21
9899.5023056394602
 31
0.0
 70
   128
 13
3032.5632390582082
 23
10655.483268492029
 33
0.0
 14
3032.5632390582082
 24
9255.4832684920311
 34
0.0
 50
90.0
1001
ACAD
1000
DSTYLE
1002
{
1070
   287
1070
     3
1070
   287
1070
     3
1070
    40
1040
50.0
1070
   143
1040
0.039
1070
   172
1070
     1
1070
   271
1070
     0
1070
   279
1070
     0
1070
   288
1070
     1
1002
}
  0
DIMENSION
  5
81A8
  8
3
  2
*D16
 10
5782.5632390582086
 20
7091.5613435479472
 30
0.0
 11
4295.1484129348237
 21
7091.5613435479472
 31
0.0
 70
   128
 13
2952.5632390582082
 23
6574.455318523007
 33
0.0
 14
5782.5632390582086
 24
4139.455318523007
 34
0.0
1001
ACAD
1000
DSTYLE
1002
{
1070
   287
1070
     3
1070
   287
1070
     3
1070
    40
1040
50.0
1070
   143
1040
0.039
1070
   172
1070
     1
1070
   271
1070
     0
1070
   279
1070
     0
1070
   288
1070
     1
1002
}
  0
LINE
  5
81CE
  8
1
 10
6915.2383696180441
 20
4556.955318523007
 30
0.0
 11
7514.7383696180405
 21
4556.955318523007
 31
0.0
  0
LINE
  5
81CF
  8
1
 10
6915.2383696180386
 20
4191.955318523007
 30
0.0
 11
7514.7383696180405
 21
4191.955318523007
 31
0.0
  0
LINE
  5
81D1
  8
1
 10
7514.7383696180405
 20
4556.955318523007
 30
0.0
 11
7514.7383696180405
 21
4191.955318523007
 31
0.0
  0
LINE
  5
81D2
  8
1
 10
6915.2383696180441
 20
4556.955318523007
 30
0.0
 11
6915.2383696180386
 21
4191.955318523007
 31
0.0
  0
LINE
  5
81D3
  8
1
 10
6815.3383696180408
 20
4434.4553185230061
 30
0.0
 11
6815.3383696180408
 21
4314.455318523007
 31
0.0
  0
LINE
  5
81D4
  8
1
 10
6800.2383696180405
 20
4314.455318523007
 30
0.0
 11
6815.3383696180408
 21
4314.455318523007
 31
0.0
  0
LINE
  5
81D5
  8
1
 10
6800.2383696180405
 20
4434.4553185230061
 30
0.0
 11
6815.3383696180408
 21
4434.4553185230061
 31
0.0
  0
LINE
  5
81D6
  8
1
 10
6815.3383696180408
 20
4416.955318523007
 30
0.0
 11
6915.2383696180386
 21
4416.955318523007
 31
0.0
  0
LINE
  5
81D7
  8
1
 10
6815.3383696180408
 20
4331.9553185230061
 30
0.0
 11
6915.2383696180386
 21
4331.9553185230052
 31
0.0
  0
LINE
  5
81D8
  8
1
 10
6800.2383696180405
 20
4480.455318523007
 30
0.0
 11
6800.2383696180405
 21
4268.455318523007
 31
0.0
  0
LINE
  5
81D9
  8
1
 10
7092.0383696180406
 20
4191.955318523007
 30
0.0
 11
7092.0383696180388
 21
4139.455318523007
 31
0.0
  0
DIMENSION
  5
81EE
  8
3
  2
*D17
 10
1854.833781541638
 20
3989.455318523007
 30
0.0
 11
1729.8337815416371
 21
5254.9553185230079
 31
0.0
 70
     0
 13
2952.5632390582082
 23
6520.455318523007
 33
0.0
 14
3032.5632390582082
 24
3989.455318523007
 34
0.0
 50
90.0
1001
ACAD
1000
DSTYLE
1002
{
1070
   287
1070
     3
1070
   287
1070
     3
1070
    40
1040
50.0
1070
   143
1040
0.039
1070
   172
1070
     1
1070
   271
1070
     0
1070
   279
1070
     0
1002
}
  0
DIMENSION
  5
81FB
  8
3
  2
*D18
 10
3882.5632390582082
 20
3684.8883475152538
 30
0.0
 11
3457.5632390582082
 21
3809.8883475152538
 31
0.0
 70
     0
 13
3032.5632390582082
 23
3989.455318523007
 33
0.0
 14
3882.5632390582082
 24
3989.4553185230061
 34
0.0
1001
ACAD
1000
DSTYLE
1002
{
1070
   287
1070
     3
1070
   287
1070
     3
1070
    40
1040
50.0
1070
   143
1040
0.039
1070
   172
1070
     1
1070
   271
1070
     0
1070
   279
1070
     0
1002
}
  0
DIMENSION
  5
8208
  8
3
  2
*D19
 10
5782.5632390582086
 20
3684.8883475152538
 30
0.0
 11
4832.5632390582086
 21
3809.8883475152538
 31
0.0
 70
     0
 13
3882.5632390582082
 23
3989.4553185230061
 33
0.0
 14
5782.5632390582086
 24
3989.455318523007
 34
0.0
1001
ACAD
1000
DSTYLE
1002
{
1070
   287
1070
     3
1070
   287
1070
     3
1070
    40
1040
50.0
1070
   143
1040
0.039
1070
   172
1070
     1
1070
   271
1070
     0
1070
   279
1070
     0
1002
}
  0
DIMENSION
  5
8215
  8
3
  2
*D20
 10
7622.0383696180397
 20
3684.8883475152538
 30
0.0
 11
7226.5383696180388
 21
3809.8883475152538
 31
0.0
 70
     0
 13
6831.0383696180388
 23
3989.455318523007
 33
0.0
 14
7622.0383696180397
 24
3989.455318523007
 34
0.0
1001
ACAD
1000
DSTYLE
1002
{
1070
   287
1070
     3
1070
   287
1070
     3
1070
    40
1040
50.0
1070
   143
1040
0.039
1070
   172
1070
     1
1070
   271
1070
     0
1070
   279
1070
     0
1002
}
  0
DIMENSION
  5
8224
  8
3
  2
*D21
 10
8231.0383696180397
 20
3684.8883475152538
 30
0.0
 11
7926.5383696180397
 21
3809.8883475152538
 31
0.0
 70
     0
 13
7622.0383696180397
 23
3989.455318523007
 33
0.0
 14
8231.0383696180397
 24
3989.4553185230079
 34
0.0
1001
ACAD
1000
DSTYLE
1002
{
1070
   287
1070
     3
1070
   287
1070
     3
1070
    40
1040
50.0
1070
   143
1040
0.039
1070
   172
1070
     1
1070
   271
1070
     0
1070
   279
1070
     0
1002
}
  0
ENDSEC
  0
EOF
