  0
SECTION
  2
HEADER
  9
$ACADVER
  1
AC1009
  9
$INSBASE
 10
0.0
 20
0.0
 30
0.0
  9
$EXTMIN
 10
1250.0
 20
1500.0
 30
0.0
  9
$EXTMAX
 10
9250.0
 20
13933.261307999999
 30
0.0
  9
$LIMMIN
 10
0.0
 20
0.0
  9
$LIMMAX
 10
297.0
 20
210.0
  9
$ORTHOMODE
 70
     0
  9
$REGENMODE
 70
     1
  9
$FILLMODE
 70
     0
  9
$QTEXTMODE
 70
     0
  9
$MIRRTEXT
 70
     1
  9
$DRAGMODE
 70
     2
  9
$LTSCALE
 40
100.0
  9
$OSMODE
 70
    37
  9
$ATTMODE
 70
     1
  9
$TEXTSIZE
 40
180.0
  9
$TRACEWID
 40
0.05
  9
$TEXTSTYLE
  7
STANDARD
  9
$CLAYER
  8
3
  9
$CELTYPE
  6
BYLAYER
  9
$CECOLOR
 62
   256
  9
$DIMSCALE
 40
45.0
  9
$DIMASZ
 40
2.0
  9
$DIMEXO
 40
0.5
  9
$DIMDLI
 40
10.0
  9
$DIMRND
 40
0.0
  9
$DIMDLE
 40
0.0
  9
$DIMEXE
 40
1.0
  9
$DIMTP
 40
1.0
  9
$DIMTM
 40
1.0
  9
$DIMTXT
 40
3.0
  9
$DIMCEN
 40
0.0
  9
$DIMTSZ
 40
0.0
  9
$DIMTOL
 70
     0
  9
$DIMLIM
 70
     0
  9
$DIMTIH
 70
     0
  9
$DIMTOH
 70
     0
  9
$DIMSE1
 70
     0
  9
$DIMSE2
 70
     0
  9
$DIMTAD
 70
     1
  9
$DIMZIN
 70
     8
  9
$DIMBLK
  1

  9
$DIMASO
 70
     1
  9
$DIMSHO
 70
     1
  9
$DIMPOST
  1
(<>)
  9
$DIMAPOST
  1

  9
$DIMALT
 70
     0
  9
$DIMALTD
 70
     2
  9
$DIMALTF
 40
0.039
  9
$DIMLFAC
 40
1.0
  9
$DIMTOFL
 70
     1
  9
$DIMTVP
 40
0.0
  9
$DIMTIX
 70
     0
  9
$DIMSOXD
 70
     0
  9
$DIMSAH
 70
     1
  9
$DIMBLK1
  1
OPEN
  9
$DIMBLK2
  1
OPEN
  9
$DIMSTYLE
  2
IGA
  9
$DIMCLRD
 70
     0
  9
$DIMCLRE
 70
     0
  9
$DIMCLRT
 70
     0
  9
$DIMTFAC
 40
10.0
  9
$DIMGAP
 40
1.0
  9
$LUNITS
 70
     2
  9
$LUPREC
 70
     3
  9
$SKETCHINC
 40
0.1
  9
$FILLETRAD
 40
50.0
  9
$AUNITS
 70
     0
  9
$AUPREC
 70
     0
  9
$MENU
  1
acad
  9
$ELEVATION
 40
0.0
  9
$PELEVATION
 40
0.0
  9
$THICKNESS
 40
0.0
  9
$LIMCHECK
 70
     0
  9
$BLIPMODE
 70
     0
  9
$CHAMFERA
 40
0.5
  9
$CHAMFERB
 40
0.5
  9
$SKPOLY
 70
     0
  9
$TDCREATE
 40
2450750.4909613421
  9
$TDUPDATE
 40
2454953.68887243
  9
$TDINDWG
 40
0.0068781019
  9
$TDUSRTIMER
 40
0.0068781019
  9
$USRTIMER
 70
     1
  9
$ANGBASE
 50
0.0
  9
$ANGDIR
 70
     0
  9
$PDMODE
 70
     0
  9
$PDSIZE
 40
0.0
  9
$PLINEWID
 40
0.0
  9
$COORDS
 70
     1
  9
$SPLFRAME
 70
     0
  9
$SPLINETYPE
 70
     6
  9
$SPLINESEGS
 70
     8
  9
$ATTDIA
 70
     0
  9
$ATTREQ
 70
     1
  9
$HANDLING
 70
 10241
  9
$HANDSEED
  5
7FB3
  9
$SURFTAB1
 70
     6
  9
$SURFTAB2
 70
     6
  9
$SURFTYPE
 70
     6
  9
$SURFU
 70
     6
  9
$SURFV
 70
     6
  9
$UCSNAME
  2

  9
$UCSORG
 10
0.0
 20
0.0
 30
0.0
  9
$UCSXDIR
 10
1.0
 20
0.0
 30
0.0
  9
$UCSYDIR
 10
0.0
 20
1.0
 30
0.0
  9
$PUCSNAME
  2

  9
$PUCSORG
 10
0.0
 20
0.0
 30
0.0
  9
$PUCSXDIR
 10
1.0
 20
0.0
 30
0.0
  9
$PUCSYDIR
 10
0.0
 20
1.0
 30
0.0
  9
$USERI1
 70
     0
  9
$USERI2
 70
     0
  9
$USERI3
 70
     0
  9
$USERI4
 70
     0
  9
$USERI5
 70
     0
  9
$USERR1
 40
0.0
  9
$USERR2
 40
0.0
  9
$USERR3
 40
0.0
  9
$USERR4
 40
0.0
  9
$USERR5
 40
0.0
  9
$WORLDVIEW
 70
     1
  9
$SHADEDGE
 70
     3
  9
$SHADEDIF
 70
    70
  9
$TILEMODE
 70
     1
  9
$MAXACTVP
 70
    16
  9
$PLIMCHECK
 70
     0
  9
$PEXTMIN
 10
1.0000000000000000E+020
 20
1.0000000000000000E+020
 30
1.0000000000000000E+020
  9
$PEXTMAX
 10
-1.0000000000000000E+020
 20
-1.0000000000000000E+020
 30
-1.0000000000000000E+020
  9
$PLIMMIN
 10
0.0
 20
0.0
  9
$PLIMMAX
 10
12.0
 20
9.0
  9
$UNITMODE
 70
     0
  9
$VISRETAIN
 70
     0
  9
$PLINEGEN
 70
     0
  9
$PSLTSCALE
 70
     1
  0
ENDSEC
  0
SECTION
  2
TABLES
  0
TABLE
  2
VPORT
 70
     2
  0
VPORT
  2
*ACTIVE
 70
     0
 10
0.0
 20
0.0
 11
1.0
 21
1.0
 12
20031.913396835251
 22
6411.0288101017386
 13
0.0
 23
0.0
 14
10.0
 24
10.0
 15
10.0
 25
10.0
 16
0.0
 26
0.0
 36
1.0
 17
0.0
 27
0.0
 37
0.0
 40
14053.125976849809
 41
3.1666666666666661
 42
50.0
 43
0.0
 44
0.0
 50
0.0
 51
0.0
 71
     0
 72
   100
 73
     1
 74
     0
 75
     0
 76
     0
 77
     0
 78
     0
  0
ENDTAB
  0
TABLE
  2
LTYPE
 70
     2
  0
LTYPE
  2
CONTINUOUS
 70
     0
  3
Solid line
 72
    65
 73
     0
 40
0.0
  0
LTYPE
  2
CENTER
 70
     0
  3
____ _ ____ _ ____ _ ____ _ ____ _ ____ _ ____ 
 72
    65
 73
     4
 40
2.0
 49
1.25
 49
-0.25
 49
0.25
 49
-0.25
  0
ENDTAB
  0
TABLE
  2
LAYER
 70
     6
  0
LAYER
  2
0
 70
     0
 62
     7
  6
CONTINUOUS
  0
LAYER
  2
3
 70
     0
 62
     2
  6
CONTINUOUS
  0
LAYER
  2
2
 70
     0
 62
     3
  6
CENTER
  0
LAYER
  2
1
 70
     0
 62
     4
  6
CONTINUOUS
  0
LAYER
  2
4
 70
     0
 62
     7
  6
CONTINUOUS
  0
LAYER
  2
DEFPOINTS
 70
     0
 62
     7
  6
CONTINUOUS
  0
ENDTAB
  0
TABLE
  2
STYLE
 70
     1
  0
STYLE
  2
STANDARD
 70
     0
 40
0.0
 41
1.0
 50
0.0
 71
     0
 42
180.0
  3
simplex.shx
  4
extfont.shx
  0
ENDTAB
  0
TABLE
  2
VIEW
 70
     0
  0
ENDTAB
  0
TABLE
  2
UCS
 70
     0
  0
ENDTAB
  0
TABLE
  2
APPID
 70
     1
  0
APPID
  2
ACAD
 70
     0
  0
ENDTAB
  0
TABLE
  2
DIMSTYLE
 70
     1
  0
DIMSTYLE
  2
IGA
 70
     0
  3

  4

  5

  6
OPEN
  7
OPEN
 40
2.0
 41
2.0
 42
0.5
 43
10.0
 44
1.0
 45
0.0
 46
0.0
 47
1.0
 48
1.0
140
3.0
141
0.0
142
0.0
143
0.03937
144
1.0
145
0.0
146
10.0
147
1.0
 71
     0
 72
     0
 73
     0
 74
     0
 75
     0
 76
     0
 77
     1
 78
     8
170
     0
171
     2
172
     0
173
     1
174
     0
175
     0
176
     0
177
     0
178
     0
  0
ENDTAB
  0
ENDSEC
  0
SECTION
  2
BLOCKS
  0
BLOCK
  8
0
  2
$MODEL_SPACE
 70
     0
 10
0.0
 20
0.0
 30
0.0
  3
$MODEL_SPACE
  1

  0
ENDBLK
  5
1B
  8
0
  0
BLOCK
 67
     1
  8
0
  2
$PAPER_SPACE
 70
     0
 10
0.0
 20
0.0
 30
0.0
  3
$PAPER_SPACE
  1

  0
ENDBLK
  5
18
 67
     1
  8
0
  0
BLOCK
  8
0
  2
_OPEN
 70
     0
 10
0.0
 20
0.0
 30
0.0
  3
_OPEN
  1

  0
LINE
  5
7AE9
  8
0
  6
BYBLOCK
 62
     0
 10
-1.0
 20
0.166667
 30
0.0
 11
0.0
 21
0.0
 31
0.0
  0
LINE
  5
7AEA
  8
0
  6
BYBLOCK
 62
     0
 10
0.0
 20
0.0
 30
0.0
 11
-1.0
 21
-0.166667
 31
0.0
  0
LINE
  5
7AEB
  8
0
  6
BYBLOCK
 62
     0
 10
0.0
 20
0.0
 30
0.0
 11
-1.0
 21
0.0
 31
0.0
  0
ENDBLK
  5
7AEC
  8
0
  0
BLOCK
  8
0
  2
*D1
 70
     1
 10
0.0
 20
0.0
 30
0.0
  3
*D1
  1

  0
LINE
  5
7EFC
  8
3
  6
CONTINUOUS
 62
     0
 10
3432.6190558603221
 20
5964.4962960000003
 30
0.0
 11
3432.6190558603221
 21
6204.9722609999999
 31
0.0
  0
LINE
  5
7EFD
  8
3
  6
CONTINUOUS
 62
     0
 10
4712.6190558603212
 20
5964.4962960000003
 30
0.0
 11
4712.6190558603212
 21
6204.9722609999999
 31
0.0
  0
LINE
  5
7EFE
  8
3
  6
CONTINUOUS
 62
     0
 10
3522.6190558603221
 20
6159.9722609999999
 30
0.0
 11
4622.6190558603212
 21
6159.9722609999999
 31
0.0
  0
INSERT
  5
7EFF
  8
3
  6
CONTINUOUS
 62
     0
  2
_OPEN
 10
3432.6190558603221
 20
6159.9722609999999
 30
0.0
 41
90.0
 42
90.0
 43
90.0
 50
180.0
  0
INSERT
  5
7F00
  8
3
  6
CONTINUOUS
 62
     0
  2
_OPEN
 10
4712.6190558603212
 20
6159.9722609999999
 30
0.0
 41
90.0
 42
90.0
 43
90.0
  0
TEXT
  8
3
  40
135
  5
7FA0
  62
0
  72
0
  71
0
 10
3788.17
 20
6033.52
 30
0.000000
  1
1280
  0
POINT
  5
7F02
  8
DEFPOINTS
  6
CONTINUOUS
 62
     0
 10
3432.6190558603221
 20
5941.9962960000012
 30
0.0
  0
POINT
  5
7F03
  8
DEFPOINTS
  6
CONTINUOUS
 62
     0
 10
4712.6190558603212
 20
5941.9962960000012
 30
0.0
  0
POINT
  5
7F04
  8
DEFPOINTS
  6
CONTINUOUS
 62
     0
 10
4712.6190558603212
 20
6159.9722609999999
 30
0.0
  0
ENDBLK
  5
7B62
  8
0
  0
BLOCK
  8
0
  2
*D2
 70
     1
 10
0.0
 20
0.0
 30
0.0
  3
*D2
  1

  0
LINE
  5
7F05
  8
3
  6
CONTINUOUS
 62
     0
 10
2481.6190558603221
 20
5139.4962960000003
 30
0.0
 11
2481.6190558603221
 21
6471.8944709999996
 31
0.0
  0
LINE
  5
7F06
  8
3
  6
CONTINUOUS
 62
     0
 10
3378.6190558603221
 20
5881.0012109999998
 30
0.0
 11
3378.6190558603221
 21
6471.8944709999996
 31
0.0
  0
LINE
  5
7F07
  8
3
  6
CONTINUOUS
 62
     0
 10
2571.6190558603221
 20
6426.8944709999996
 30
0.0
 11
3288.6190558603212
 21
6426.8944709999996
 31
0.0
  0
INSERT
  5
7F08
  8
3
  6
CONTINUOUS
 62
     0
  2
_OPEN
 10
2481.6190558603221
 20
6426.8944709999996
 30
0.0
 41
90.0
 42
90.0
 43
90.0
 50
180.0
  0
INSERT
  5
7F09
  8
3
  6
CONTINUOUS
 62
     0
  2
_OPEN
 10
3378.6190558603221
 20
6426.8944709999996
 30
0.0
 41
90.0
 42
90.0
 43
90.0
  0
TEXT
  8
3
  40
135
  5
7FA1
  62
0
  72
0
  71
0
 10
2639.77
 20
6300.44
 30
0.000000
  1
897
  0
POINT
  5
7F0B
  8
DEFPOINTS
  6
CONTINUOUS
 62
     0
 10
2481.6190558603221
 20
5116.9962960000003
 30
0.0
  0
POINT
  5
7F0C
  8
DEFPOINTS
  6
CONTINUOUS
 62
     0
 10
3378.6190558603221
 20
5858.5012109999998
 30
0.0
  0
POINT
  5
7F0D
  8
DEFPOINTS
  6
CONTINUOUS
 62
     0
 10
3378.6190558603221
 20
6426.8944709999996
 30
0.0
  0
ENDBLK
  5
7D10
  8
0
  0
BLOCK
  8
0
  2
*D3
 70
     1
 10
0.0
 20
0.0
 30
0.0
  3
*D3
  1

  0
LINE
  5
7F0E
  8
3
  6
CONTINUOUS
 62
     0
 10
4712.6190558603212
 20
5964.4962960000003
 30
0.0
 11
4712.6190558603212
 21
6471.8944709999996
 31
0.0
  0
LINE
  5
7F0F
  8
3
  6
CONTINUOUS
 62
     0
 10
3468.6190558603221
 20
6426.8944709999996
 30
0.0
 11
4622.6190558603212
 21
6426.8944709999996
 31
0.0
  0
INSERT
  5
7F10
  8
3
  6
CONTINUOUS
 62
     0
  2
_OPEN
 10
3378.6190558603221
 20
6426.8944709999996
 30
0.0
 41
90.0
 42
90.0
 43
90.0
 50
180.0
  0
INSERT
  5
7F11
  8
3
  6
CONTINUOUS
 62
     0
  2
_OPEN
 10
4712.6190558603212
 20
6426.8944709999996
 30
0.0
 41
90.0
 42
90.0
 43
90.0
  0
TEXT
  8
3
  40
135
  5
7FA2
  62
0
  72
0
  71
0
 10
3775.62
 20
6300.44
 30
0.000000
  1
1334
  0
POINT
  5
7F13
  8
DEFPOINTS
  6
CONTINUOUS
 62
     0
 10
3378.6190558603221
 20
5858.5012109999998
 30
0.0
  0
POINT
  5
7F14
  8
DEFPOINTS
  6
CONTINUOUS
 62
     0
 10
4712.6190558603212
 20
5941.9962960000012
 30
0.0
  0
POINT
  5
7F15
  8
DEFPOINTS
  6
CONTINUOUS
 62
     0
 10
4712.6190558603212
 20
6426.8944709999996
 30
0.0
  0
ENDBLK
  5
7BA0
  8
0
  0
BLOCK
  8
0
  2
*D4
 70
     1
 10
0.0
 20
0.0
 30
0.0
  3
*D4
  1

  0
LINE
  5
7F16
  8
3
  6
CONTINUOUS
 62
     0
 10
2628.6190558603221
 20
8558.1307410616046
 30
0.0
 11
2628.6190558603221
 21
8037.4675960616059
 31
0.0
  0
LINE
  5
7F17
  8
3
  6
CONTINUOUS
 62
     0
 10
5178.6190558603221
 20
8558.1307410616046
 30
0.0
 11
5178.6190558603221
 21
8037.4675960616059
 31
0.0
  0
LINE
  5
7F18
  8
3
  6
CONTINUOUS
 62
     0
 10
2718.6190558603221
 20
8082.4675960616059
 30
0.0
 11
5088.619055860323
 21
8082.4675960616059
 31
0.0
  0
INSERT
  5
7F19
  8
3
  6
CONTINUOUS
 62
     0
  2
_OPEN
 10
2628.6190558603221
 20
8082.4675960616059
 30
0.0
 41
90.0
 42
90.0
 43
90.0
 50
180.0
  0
INSERT
  5
7F1A
  8
3
  6
CONTINUOUS
 62
     0
  2
_OPEN
 10
5178.6190558603221
 20
8082.4675960616059
 30
0.0
 41
90.0
 42
90.0
 43
90.0
  0
TEXT
  8
3
  40
135
  5
7FA3
  62
0
  72
0
  71
0
 10
3617.52
 20
7956.02
 30
0.000000
  1
2550
  0
POINT
  5
7F1C
  8
DEFPOINTS
  6
CONTINUOUS
 62
     0
 10
2628.6190558603221
 20
8580.6307410616046
 30
0.0
  0
POINT
  5
7F1D
  8
DEFPOINTS
  6
CONTINUOUS
 62
     0
 10
5178.6190558603221
 20
8580.6307410616046
 30
0.0
  0
POINT
  5
7F1E
  8
DEFPOINTS
  6
CONTINUOUS
 62
     0
 10
5178.6190558603221
 20
8082.4675960616059
 30
0.0
  0
ENDBLK
  5
7CA8
  8
0
  0
BLOCK
  8
0
  2
*D5
 70
     1
 10
0.0
 20
0.0
 30
0.0
  3
*D5
  1

  0
LINE
  5
7F1F
  8
3
  6
CONTINUOUS
 62
     0
 10
5201.1190558603221
 20
9860.6307410616046
 30
0.0
 11
5553.9999908603231
 21
9860.6307410616046
 31
0.0
  0
LINE
  5
7F20
  8
3
  6
CONTINUOUS
 62
     0
 10
5201.1190558603221
 20
8580.6307410616046
 30
0.0
 11
5553.9999908603231
 21
8580.6307410616046
 31
0.0
  0
LINE
  5
7F21
  8
3
  6
CONTINUOUS
 62
     0
 10
5508.9999908603231
 20
9770.6307410616046
 30
0.0
 11
5508.9999908603231
 21
8670.6307410616046
 31
0.0
  0
INSERT
  5
7F22
  8
3
  6
CONTINUOUS
 62
     0
  2
_OPEN
 10
5508.9999908603231
 20
9860.6307410616046
 30
0.0
 41
90.0
 42
90.0
 43
90.0
 50
90.0
  0
INSERT
  5
7F23
  8
3
  6
CONTINUOUS
 62
     0
  2
_OPEN
 10
5508.9999908603231
 20
8580.6307410616046
 30
0.0
 41
90.0
 42
90.0
 43
90.0
 50
270.0
  0
TEXT
  8
3
  40
135
  5
7FA4
  62
0
  72
0
  71
0
 10
5126.50
 20
9004.01
 30
0.000000
  1
1280
  0
POINT
  5
7F25
  8
DEFPOINTS
  6
CONTINUOUS
 62
     0
 10
5178.6190558603221
 20
9860.6307410616046
 30
0.0
  0
POINT
  5
7F26
  8
DEFPOINTS
  6
CONTINUOUS
 62
     0
 10
5178.6190558603221
 20
8580.6307410616046
 30
0.0
  0
POINT
  5
7F27
  8
DEFPOINTS
  6
CONTINUOUS
 62
     0
 10
5508.9999908603231
 20
8580.6307410616046
 30
0.0
  0
ENDBLK
  5
7C9D
  8
0
  0
BLOCK
  8
0
  2
*D6
 70
     1
 10
0.0
 20
0.0
 30
0.0
  3
*D6
  1

  0
LINE
  5
7F28
  8
3
  6
CONTINUOUS
 62
     0
 10
6792.8902149999994
 20
5964.4962960000003
 30
0.0
 11
6792.8902149999994
 21
6143.720112
 31
0.0
  0
LINE
  5
7F29
  8
3
  6
CONTINUOUS
 62
     0
 10
7742.8902150000004
 20
5964.4962960000003
 30
0.0
 11
7742.8902150000004
 21
6143.720112
 31
0.0
  0
LINE
  5
7F2A
  8
3
  6
CONTINUOUS
 62
     0
 10
6882.8902150000004
 20
6098.720112
 30
0.0
 11
7652.8902150000013
 21
6098.720112
 31
0.0
  0
INSERT
  5
7F2B
  8
3
  6
CONTINUOUS
 62
     0
  2
_OPEN
 10
6792.8902149999994
 20
6098.720112
 30
0.0
 41
90.0
 42
90.0
 43
90.0
 50
180.0
  0
INSERT
  5
7F2C
  8
3
  6
CONTINUOUS
 62
     0
  2
_OPEN
 10
7742.8902150000004
 20
6098.720112
 30
0.0
 41
90.0
 42
90.0
 43
90.0
  0
TEXT
  8
3
  40
135
  5
7FA5
  62
0
  72
0
  71
0
 10
6963.26
 20
5972.27
 30
0.000000
  1
950
  0
POINT
  5
7F2E
  8
DEFPOINTS
  6
CONTINUOUS
 62
     0
 10
6792.8902149999994
 20
5941.9962960000012
 30
0.0
  0
POINT
  5
7F2F
  8
DEFPOINTS
  6
CONTINUOUS
 62
     0
 10
7742.8902150000004
 20
5941.9962960000012
 30
0.0
  0
POINT
  5
7F30
  8
DEFPOINTS
  6
CONTINUOUS
 62
     0
 10
7742.8902150000004
 20
6098.720112
 30
0.0
  0
ENDBLK
  5
7BCA
  8
0
  0
BLOCK
  8
0
  2
*D7
 70
     1
 10
0.0
 20
0.0
 30
0.0
  3
*D7
  1

  0
LINE
  5
7F31
  8
3
  6
CONTINUOUS
 62
     0
 10
6427.8902149999994
 20
5517.4962960000003
 30
0.0
 11
6427.8902149999994
 21
6484.043684731123
 31
0.0
  0
LINE
  5
7F32
  8
3
  6
CONTINUOUS
 62
     0
 10
7267.8902150000004
 20
6310.9177399999999
 30
0.0
 11
7267.8902150000004
 21
6484.043684731123
 31
0.0
  0
LINE
  5
7F33
  8
3
  6
CONTINUOUS
 62
     0
 10
6517.8902150000004
 20
6439.0436847311221
 30
0.0
 11
7177.8902150000013
 21
6439.0436847311221
 31
0.0
  0
INSERT
  5
7F34
  8
3
  6
CONTINUOUS
 62
     0
  2
_OPEN
 10
6427.8902149999994
 20
6439.0436847311221
 30
0.0
 41
90.0
 42
90.0
 43
90.0
 50
180.0
  0
INSERT
  5
7F35
  8
3
  6
CONTINUOUS
 62
     0
  2
_OPEN
 10
7267.8902150000004
 20
6439.0436847311221
 30
0.0
 41
90.0
 42
90.0
 43
90.0
  0
TEXT
  8
3
  40
135
  5
7FA6
  62
0
  72
0
  71
0
 10
6574.59
 20
6425.09
 30
0.000000
  1
MAX
  0
TEXT
  8
3
  40
135
  5
7FA7
  62
0
  72
0
  71
0
 10
6574.59
 20
6249.59
 30
0.000000
  1
890
  0
POINT
  5
7F37
  8
DEFPOINTS
  6
CONTINUOUS
 62
     0
 10
6427.8902149999994
 20
5494.9962960000003
 30
0.0
  0
POINT
  5
7F38
  8
DEFPOINTS
  6
CONTINUOUS
 62
     0
 10
7267.8902150000004
 20
6288.417739999999
 30
0.0
  0
POINT
  5
7F39
  8
DEFPOINTS
  6
CONTINUOUS
 62
     0
 10
7267.8902150000004
 20
6439.0436847311221
 30
0.0
  0
ENDBLK
  5
7D8B
  8
0
  0
BLOCK
  8
0
  2
*D8
 70
     1
 10
0.0
 20
0.0
 30
0.0
  3
*D8
  1

  0
LINE
  5
7F3A
  8
3
  6
CONTINUOUS
 62
     0
 10
7845.8902150000004
 20
5814.4962960000003
 30
0.0
 11
7845.8902150000004
 21
6484.043684731123
 31
0.0
  0
LINE
  5
7F3B
  8
3
  6
CONTINUOUS
 62
     0
 10
7357.8902150000013
 20
6439.0436847311221
 30
0.0
 11
7755.8902150000004
 21
6439.0436847311221
 31
0.0
  0
TEXT
  8
3
  40
135
  5
7FA8
  62
0
  72
0
  71
0
 10
7285.13
 20
6313.20
 30
0.000000
  1
578
  0
INSERT
  5
7F3D
  8
3
  6
CONTINUOUS
 62
     0
  2
_OPEN
 10
7267.8902150000004
 20
6439.0436847311221
 30
0.0
 41
90.0
 42
90.0
 43
90.0
 50
180.0
  0
INSERT
  5
7F3E
  8
3
  6
CONTINUOUS
 62
     0
  2
_OPEN
 10
7845.8902150000004
 20
6439.0436847311221
 30
0.0
 41
90.0
 42
90.0
 43
90.0
  0
POINT
  5
7F3F
  8
DEFPOINTS
  6
CONTINUOUS
 62
     0
 10
7267.8902150000004
 20
6288.417739999999
 30
0.0
  0
POINT
  5
7F40
  8
DEFPOINTS
  6
CONTINUOUS
 62
     0
 10
7845.8902150000004
 20
5791.9962960000003
 30
0.0
  0
POINT
  5
7F41
  8
DEFPOINTS
  6
CONTINUOUS
 62
     0
 10
7845.8902150000004
 20
6439.0436847311221
 30
0.0
  0
ENDBLK
  5
7D80
  8
0
  0
BLOCK
  8
0
  2
*D9
 70
     1
 10
0.0
 20
0.0
 30
0.0
  3
*D9
  1

  0
LINE
  5
7F42
  8
3
  6
CONTINUOUS
 62
     0
 10
7868.3902150000013
 20
5741.9962960000003
 30
0.0
 11
8262.0826610000022
 21
5741.9962960000003
 31
0.0
  0
LINE
  5
7F43
  8
3
  6
CONTINUOUS
 62
     0
 10
7868.3902150000013
 20
4491.9962960000003
 30
0.0
 11
8262.0826610000022
 21
4491.9962960000003
 31
0.0
  0
LINE
  5
7F44
  8
3
  6
CONTINUOUS
 62
     0
 10
8217.0826610000022
 20
5651.9962960000003
 30
0.0
 11
8217.0826610000022
 21
4581.9962960000003
 31
0.0
  0
INSERT
  5
7F45
  8
3
  6
CONTINUOUS
 62
     0
  2
_OPEN
 10
8217.0826610000022
 20
5741.9962960000003
 30
0.0
 41
90.0
 42
90.0
 43
90.0
 50
90.0
  0
INSERT
  5
7F46
  8
3
  6
CONTINUOUS
 62
     0
  2
_OPEN
 10
8217.0826610000022
 20
4491.9962960000003
 30
0.0
 41
90.0
 42
90.0
 43
90.0
 50
270.0
  0
TEXT
  8
3
  40
135
  5
7FA9
  62
0
  72
0
  71
0
 10
7834.58
 20
4937.68
 30
0.000000
  1
φ1250
  0
POINT
  5
7F48
  8
DEFPOINTS
  6
CONTINUOUS
 62
     0
 10
7845.8902150000004
 20
5741.9962960000003
 30
0.0
  0
POINT
  5
7F49
  8
DEFPOINTS
  6
CONTINUOUS
 62
     0
 10
7845.8902150000004
 20
4491.9962960000003
 30
0.0
  0
POINT
  5
7F4A
  8
DEFPOINTS
  6
CONTINUOUS
 62
     0
 10
8217.0826610000022
 20
4491.9962960000003
 30
0.0
  0
ENDBLK
  5
7D76
  8
0
  0
BLOCK
  8
0
  2
*D10
 70
     1
 10
0.0
 20
0.0
 30
0.0
  3
*D10
  1

  0
LINE
  5
7F4B
  8
3
 62
     0
 10
2481.6190558603221
 20
5161.9962960000003
 30
0.0
 11
2481.6190558603221
 21
6763.3300190619739
 31
0.0
  0
LINE
  5
7F4C
  8
3
 62
     0
 10
5178.6190558603221
 20
4179.4962960000003
 30
0.0
 11
5178.6190558603221
 21
6763.3300190619739
 31
0.0
  0
LINE
  5
7F4D
  8
3
 62
     0
 10
2571.6190558603221
 20
6718.3300190619748
 30
0.0
 11
5088.619055860323
 21
6718.3300190619748
 31
0.0
  0
INSERT
  5
7F4E
  8
3
 62
     0
  2
_OPEN
 10
2481.6190558603221
 20
6718.3300190619748
 30
0.0
 41
90.0
 42
90.0
 43
90.0
 50
180.0
  0
INSERT
  5
7F4F
  8
3
 62
     0
  2
_OPEN
 10
5178.6190558603221
 20
6718.3300190619748
 30
0.0
 41
90.0
 42
90.0
 43
90.0
  0
TEXT
  8
3
  40
135
  5
7FAA
  62
0
  72
0
  71
0
 10
3563.91
 20
6591.88
 30
0.000000
  1
2697
  0
POINT
  5
7F51
  8
DEFPOINTS
 62
     0
 10
2481.6190558603221
 20
5139.4962960000003
 30
0.0
  0
POINT
  5
7F52
  8
DEFPOINTS
 62
     0
 10
5178.6190558603221
 20
4156.9962960000003
 30
0.0
  0
POINT
  5
7F53
  8
DEFPOINTS
 62
     0
 10
5178.6190558603221
 20
6718.3300190619748
 30
0.0
  0
ENDBLK
  5
7D1C
  8
0
  0
BLOCK
  8
0
  2
*D11
 70
     1
 10
0.0
 20
0.0
 30
0.0
  3
*D11
  1

  0
LINE
  5
7F54
  8
3
 62
     0
 10
3360.1190558603221
 20
5941.9962960000012
 30
0.0
 11
2045.3348231910859
 21
5941.9962960000012
 31
0.0
  0
LINE
  5
7F55
  8
3
 62
     0
 10
2317.1493448603219
 20
5116.9962960000003
 30
0.0
 11
2045.3348231910859
 21
5116.9962960000012
 31
0.0
  0
LINE
  5
7F56
  8
3
 62
     0
 10
2090.3348231910859
 20
5851.9962960000003
 30
0.0
 11
2090.3348231910859
 21
5206.9962960000003
 31
0.0
  0
INSERT
  5
7F57
  8
3
 62
     0
  2
_OPEN
 10
2090.3348231910859
 20
5941.9962960000012
 30
0.0
 41
90.0
 42
90.0
 43
90.0
 50
90.0
  0
INSERT
  5
7F58
  8
3
 62
     0
  2
_OPEN
 10
2090.3348231910859
 20
5116.9962960000003
 30
0.0
 41
90.0
 42
90.0
 43
90.0
 50
270.0
  0
TEXT
  8
3
  40
135
  5
7FAB
  62
0
  72
0
  71
0
 10
1707.83
 20
5311.58
 30
0.000000
  1
825
  0
POINT
  5
7F5A
  8
DEFPOINTS
 62
     0
 10
3382.6190558603221
 20
5941.9962960000012
 30
0.0
  0
POINT
  5
7F5B
  8
DEFPOINTS
 62
     0
 10
2339.6493448603219
 20
5116.9962960000003
 30
0.0
  0
POINT
  5
7F5C
  8
DEFPOINTS
 62
     0
 10
2090.3348231910859
 20
5116.9962960000003
 30
0.0
  0
ENDBLK
  5
7D29
  8
0
  0
BLOCK
  8
0
  2
*D12
 70
     1
 10
0.0
 20
0.0
 30
0.0
  3
*D12
  1

  0
LINE
  5
7F5D
  8
3
 62
     0
 10
2606.1190558603221
 20
4006.9962959999998
 30
0.0
 11
2045.334823191085
 21
4006.9962959999998
 31
0.0
  0
LINE
  5
7F5E
  8
3
 62
     0
 10
2090.334823191085
 20
5026.9962960000003
 30
0.0
 11
2090.334823191085
 21
4096.9962960000003
 31
0.0
  0
INSERT
  5
7F5F
  8
3
 62
     0
  2
_OPEN
 10
2090.334823191085
 20
5116.9962960000003
 30
0.0
 41
90.0
 42
90.0
 43
90.0
 50
90.0
  0
INSERT
  5
7F60
  8
3
 62
     0
  2
_OPEN
 10
2090.334823191085
 20
4006.9962959999998
 30
0.0
 41
90.0
 42
90.0
 43
90.0
 50
270.0
  0
TEXT
  8
3
  40
135
  5
7FAC
  62
0
  72
0
  71
0
 10
1707.83
 20
4323.05
 30
0.000000
  1
1110
  0
POINT
  5
7F62
  8
DEFPOINTS
 62
     0
 10
2339.6493448603219
 20
5116.9962960000003
 30
0.0
  0
POINT
  5
7F63
  8
DEFPOINTS
 62
     0
 10
2628.6190558603221
 20
4006.9962959999998
 30
0.0
  0
POINT
  5
7F64
  8
DEFPOINTS
 62
     0
 10
2090.334823191085
 20
4006.9962959999998
 30
0.0
  0
ENDBLK
  5
7D35
  8
0
  0
BLOCK
  8
0
  2
*D13
 70
     1
 10
0.0
 20
0.0
 30
0.0
  3
*D13
  1

  0
LINE
  5
7F65
  8
3
 62
     0
 10
2628.6190558603221
 20
3794.4962959999998
 30
0.0
 11
2628.6190558603221
 21
3463.8385822123601
 31
0.0
  0
LINE
  5
7F66
  8
3
 62
     0
 10
3378.6190558603221
 20
3794.4962959999998
 30
0.0
 11
3378.6190558603221
 21
3463.8385822123601
 31
0.0
  0
LINE
  5
7F67
  8
3
 62
     0
 10
2718.6190558603221
 20
3508.8385822123601
 30
0.0
 11
3288.6190558603221
 21
3508.8385822123601
 31
0.0
  0
INSERT
  5
7F68
  8
3
 62
     0
  2
_OPEN
 10
2628.6190558603221
 20
3508.8385822123601
 30
0.0
 41
90.0
 42
90.0
 43
90.0
 50
180.0
  0
INSERT
  5
7F69
  8
3
 62
     0
  2
_OPEN
 10
3378.6190558603221
 20
3508.8385822123601
 30
0.0
 41
90.0
 42
90.0
 43
90.0
  0
TEXT
  8
3
  40
135
  5
7FAD
  62
0
  72
0
  71
0
 10
2733.62
 20
3382.39
 30
0.000000
  1
750
  0
POINT
  5
7F6B
  8
DEFPOINTS
 62
     0
 10
2628.6190558603221
 20
3816.9962960000012
 30
0.0
  0
POINT
  5
7F6C
  8
DEFPOINTS
 62
     0
 10
3378.6190558603221
 20
3816.9962960000012
 30
0.0
  0
POINT
  5
7F6D
  8
DEFPOINTS
 62
     0
 10
3378.6190558603221
 20
3508.8385822123601
 30
0.0
  0
ENDBLK
  5
7D9F
  8
0
  0
BLOCK
  8
0
  2
*D14
 70
     1
 10
0.0
 20
0.0
 30
0.0
  3
*D14
  1

  0
LINE
  5
7F6E
  8
3
 62
     0
 10
3378.6190558603221
 20
3794.4962959999998
 30
0.0
 11
3378.6190558603221
 21
3463.8385822123601
 31
0.0
  0
LINE
  5
7F6F
  8
3
 62
     0
 10
5178.6190558603221
 20
3794.4962959999998
 30
0.0
 11
5178.6190558603221
 21
3463.8385822123601
 31
0.0
  0
LINE
  5
7F70
  8
3
 62
     0
 10
3468.6190558603221
 20
3508.8385822123601
 30
0.0
 11
5088.619055860323
 21
3508.8385822123601
 31
0.0
  0
INSERT
  5
7F71
  8
3
 62
     0
  2
_OPEN
 10
3378.6190558603221
 20
3508.8385822123601
 30
0.0
 41
90.0
 42
90.0
 43
90.0
 50
180.0
  0
INSERT
  5
7F72
  8
3
 62
     0
  2
_OPEN
 10
5178.6190558603221
 20
3508.8385822123601
 30
0.0
 41
90.0
 42
90.0
 43
90.0
  0
TEXT
  8
3
  40
135
  5
7FAE
  62
0
  72
0
  71
0
 10
4008.62
 20
3382.39
 30
0.000000
  1
1800
  0
POINT
  5
7F74
  8
DEFPOINTS
 62
     0
 10
3378.6190558603221
 20
3816.9962960000012
 30
0.0
  0
POINT
  5
7F75
  8
DEFPOINTS
 62
     0
 10
5178.6190558603221
 20
3816.9962960000012
 30
0.0
  0
POINT
  5
7F76
  8
DEFPOINTS
 62
     0
 10
5178.6190558603221
 20
3508.8385822123601
 30
0.0
  0
ENDBLK
  5
7DAC
  8
0
  0
BLOCK
  8
0
  2
*D15
 70
     1
 10
0.0
 20
0.0
 30
0.0
  3
*D15
  1

  0
LINE
  5
7F77
  8
3
 62
     0
 10
6540.8902149999994
 20
3794.4962959999998
 30
0.0
 11
6540.8902149999994
 21
3463.8385822123601
 31
0.0
  0
LINE
  5
7F78
  8
3
 62
     0
 10
7267.8902150000004
 20
3794.4962959999998
 30
0.0
 11
7267.8902150000004
 21
3463.8385822123601
 31
0.0
  0
LINE
  5
7F79
  8
3
 62
     0
 10
6630.8902149999994
 20
3508.8385822123601
 30
0.0
 11
7177.8902150000013
 21
3508.8385822123601
 31
0.0
  0
INSERT
  5
7F7A
  8
3
 62
     0
  2
_OPEN
 10
6540.8902149999994
 20
3508.8385822123601
 30
0.0
 41
90.0
 42
90.0
 43
90.0
 50
180.0
  0
INSERT
  5
7F7B
  8
3
 62
     0
  2
_OPEN
 10
7267.8902150000004
 20
3508.8385822123601
 30
0.0
 41
90.0
 42
90.0
 43
90.0
  0
TEXT
  8
3
  40
135
  5
7FAF
  62
0
  72
0
  71
0
 10
6634.39
 20
3382.39
 30
0.000000
  1
727
  0
POINT
  5
7F7D
  8
DEFPOINTS
 62
     0
 10
6540.8902149999994
 20
3816.9962960000012
 30
0.0
  0
POINT
  5
7F7E
  8
DEFPOINTS
 62
     0
 10
7267.8902150000004
 20
3816.9962959999998
 30
0.0
  0
POINT
  5
7F7F
  8
DEFPOINTS
 62
     0
 10
7267.8902150000004
 20
3508.8385822123601
 30
0.0
  0
ENDBLK
  5
7DB9
  8
0
  0
BLOCK
  8
0
  2
*D16
 70
     1
 10
0.0
 20
0.0
 30
0.0
  3
*D16
  1

  0
LINE
  5
7F80
  8
3
 62
     0
 10
7267.8902150000004
 20
3794.4962959999998
 30
0.0
 11
7267.8902150000004
 21
3463.8385822123601
 31
0.0
  0
LINE
  5
7F81
  8
3
 62
     0
 10
7820.8902150000004
 20
3794.4962959999998
 30
0.0
 11
7820.8902150000004
 21
3463.8385822123601
 31
0.0
  0
LINE
  5
7F82
  8
3
 62
     0
 10
7357.8902150000013
 20
3508.8385822123601
 30
0.0
 11
7730.8902150000013
 21
3508.8385822123601
 31
0.0
  0
INSERT
  5
7F83
  8
3
 62
     0
  2
_OPEN
 10
7267.8902150000004
 20
3508.8385822123601
 30
0.0
 41
90.0
 42
90.0
 43
90.0
 50
180.0
  0
INSERT
  5
7F84
  8
3
 62
     0
  2
_OPEN
 10
7820.8902150000004
 20
3508.8385822123601
 30
0.0
 41
90.0
 42
90.0
 43
90.0
  0
TEXT
  8
3
  40
135
  5
7FB0
  62
0
  72
0
  71
0
 10
7274.39
 20
3382.39
 30
0.000000
  1
553
  0
POINT
  5
7F86
  8
DEFPOINTS
 62
     0
 10
7267.8902150000004
 20
3816.9962959999998
 30
0.0
  0
POINT
  5
7F87
  8
DEFPOINTS
 62
     0
 10
7820.8902150000004
 20
3816.9962960000012
 30
0.0
  0
POINT
  5
7F88
  8
DEFPOINTS
 62
     0
 10
7820.8902150000004
 20
3508.8385822123601
 30
0.0
  0
ENDBLK
  5
7DC8
  8
0
  0
BLOCK
  8
0
  2
_DOT
 70
     0
 10
0.0
 20
0.0
 30
0.0
  3
_DOT
  1

  0
POLYLINE
  5
7DCC
  8
0
  6
BYBLOCK
 62
     0
 66
     1
 10
0.0
 20
0.0
 30
0.0
 70
     1
 40
0.5
 41
0.5
  0
VERTEX
  5
7F89
  8
0
  6
BYBLOCK
 62
     0
 10
-0.25
 20
0.0
 30
0.0
 42
1.0
  0
VERTEX
  5
7F8A
  8
0
  6
BYBLOCK
 62
     0
 10
0.25
 20
0.0
 30
0.0
 42
1.0
  0
SEQEND
  5
7F8B
  8
0
  6
BYBLOCK
 62
     0
  0
LINE
  5
7DD0
  8
0
  6
BYBLOCK
 62
     0
 10
-0.5
 20
0.0
 30
0.0
 11
-1.0
 21
0.0
 31
0.0
  0
ENDBLK
  5
7DD1
  8
0
  0
BLOCK
  8
0
  2
*D18
 70
     1
 10
0.0
 20
0.0
 30
0.0
  3
*D18
  1

  0
LINE
  5
7F8C
  8
3
 62
     0
 10
2606.1190558603221
 20
3891.9962959999998
 30
0.0
 11
2044.787587563216
 21
3891.9962959999998
 31
0.0
  0
LINE
  5
7F8D
  8
3
 62
     0
 10
2606.1190558603221
 20
3816.9962960000012
 30
0.0
 11
2044.787587563216
 21
3816.9962960000012
 31
0.0
  0
LINE
  5
7F8E
  8
3
 62
     0
 10
2089.7875875632162
 20
3981.9962959999998
 30
0.0
 11
2089.7875875632162
 21
4071.9962959999998
 31
0.0
  0
LINE
  5
7F8F
  8
3
 62
     0
 10
2089.7875875632162
 20
3726.9962959999998
 30
0.0
 11
2089.7875875632162
 21
3328.4248674285718
 31
0.0
  0
LINE
  5
7F90
  8
3
 62
     0
 10
2089.7875875632162
 20
3891.9962959999998
 30
0.0
 11
2089.7875875632162
 21
3816.9962960000012
 31
0.0
  0
INSERT
  5
7F91
  8
3
 62
     0
  2
_DOT
 10
2089.7875875632162
 20
3891.9962959999998
 30
0.0
 41
90.0
 42
90.0
 43
90.0
 50
270.0
  0
INSERT
  5
7F92
  8
3
 62
     0
  2
_OPEN
 10
2089.7875875632162
 20
3816.9962960000012
 30
0.0
 41
90.0
 42
90.0
 43
90.0
 50
90.0
  0
TEXT
  8
3
  40
135
  5
7FB1
  62
0
  72
0
  71
0
 10
1707.29
 20
3243.76
 30
0.000000
  1
75
  0
POINT
  5
7F94
  8
DEFPOINTS
 62
     0
 10
2628.6190558603221
 20
3891.9962959999998
 30
0.0
  0
POINT
  5
7F95
  8
DEFPOINTS
 62
     0
 10
2628.6190558603221
 20
3816.9962960000012
 30
0.0
  0
POINT
  5
7F96
  8
DEFPOINTS
 62
     0
 10
2089.7875875632162
 20
3816.9962960000012
 30
0.0
  0
ENDBLK
  5
7DDF
  8
0
  0
BLOCK
  8
0
  2
*D19
 70
     1
 10
0.0
 20
0.0
 30
0.0
  3
*D19
  1

  0
LINE
  5
7DE3
  8
0
  6
BYBLOCK
 62
     0
 10
2606.1190558603221
 20
3891.9962959999998
 30
0.0
 11
2044.787587563216
 21
3891.9962959999998
 31
0.0
  0
LINE
  5
7DE4
  8
0
  6
BYBLOCK
 62
     0
 10
2606.1190558603221
 20
4006.9962959999998
 30
0.0
 11
2044.787587563216
 21
4006.9962959999998
 31
0.0
  0
LINE
  5
7DE5
  8
0
  6
BYBLOCK
 62
     0
 10
2089.7875875632162
 20
3801.9962959999998
 30
0.0
 11
2089.7875875632162
 21
3711.9962959999998
 31
0.0
  0
LINE
  5
7DE6
  8
0
  6
BYBLOCK
 62
     0
 10
2089.7875875632162
 20
4096.9962960000003
 30
0.0
 11
2089.7875875632162
 21
4186.9962960000003
 31
0.0
  0
TEXT
  5
7DE7
  8
3
 62
     0
 10
1919.4304447060731
 20
3714.853438857142
 30
0.0
 40
135.0
  1
(115)
 50
90.0
  0
LINE
  5
7DE8
  8
0
  6
BYBLOCK
 62
     0
 10
2089.7875875632162
 20
3891.9962959999998
 30
0.0
 11
2089.7875875632162
 21
4006.9962959999998
 31
0.0
  0
INSERT
  5
7DE9
  8
0
  6
BYBLOCK
 62
     0
  2
_DOT
 10
2089.7875875632162
 20
3891.9962959999998
 30
0.0
 41
90.0
 42
90.0
 43
90.0
 50
90.0
  0
INSERT
  5
7DEA
  8
0
  6
BYBLOCK
 62
     0
  2
_OPEN
 10
2089.7875875632162
 20
4006.9962959999998
 30
0.0
 41
90.0
 42
90.0
 43
90.0
 50
270.0
  0
POINT
  5
7DEB
  8
DEFPOINTS
  6
BYBLOCK
 62
     0
 10
2628.6190558603221
 20
3891.9962959999998
 30
0.0
  0
POINT
  5
7DEC
  8
DEFPOINTS
  6
BYBLOCK
 62
     0
 10
2628.6190558603221
 20
4006.9962959999998
 30
0.0
  0
POINT
  5
7DED
  8
DEFPOINTS
  6
BYBLOCK
 62
     0
 10
2089.7875875632162
 20
4006.9962959999998
 30
0.0
  0
ENDBLK
  5
7DEE
  8
0
  0
BLOCK
  8
0
  2
*D20
 70
     1
 10
0.0
 20
0.0
 30
0.0
  3
*D20
  1

  0
LINE
  5
7F97
  8
3
 62
     0
 10
3360.1190558603221
 20
5941.9962960000012
 30
0.0
 11
1630.2849211490029
 21
5941.9962960000012
 31
0.0
  0
LINE
  5
7F98
  8
3
 62
     0
 10
2606.1190558603221
 20
3816.9962960000012
 30
0.0
 11
1630.2849211490029
 21
3816.9962960000012
 31
0.0
  0
LINE
  5
7F99
  8
3
 62
     0
 10
1675.2849211490029
 20
5851.9962960000021
 30
0.0
 11
1675.2849211490029
 21
3906.9962959999998
 31
0.0
  0
INSERT
  5
7F9A
  8
3
 62
     0
  2
_OPEN
 10
1675.2849211490029
 20
5941.9962960000012
 30
0.0
 41
90.0
 42
90.0
 43
90.0
 50
90.0
  0
INSERT
  5
7F9B
  8
3
 62
     0
  2
_OPEN
 10
1675.2849211490029
 20
3816.9962960000012
 30
0.0
 41
90.0
 42
90.0
 43
90.0
 50
270.0
  0
TEXT
  8
3
  40
135
  5
7FB2
  62
0
  72
0
  71
0
 10
1257.43
 20
4640.55
 30
0.000000
  1
(2125)
  0
POINT
  5
7F9D
  8
DEFPOINTS
 62
     0
 10
3382.6190558603221
 20
5941.9962960000012
 30
0.0
  0
POINT
  5
7F9E
  8
DEFPOINTS
 62
     0
 10
2628.6190558603221
 20
3816.9962960000012
 30
0.0
  0
POINT
  5
7F9F
  8
DEFPOINTS
 62
     0
 10
1675.2849211490029
 20
3816.9962960000012
 30
0.0
  0
ENDBLK
  5
7DFB
  8
0
  0
ENDSEC
  0
SECTION
  2
ENTITIES
  0
LINE
  5
7A75
  8
1
  6
CONTINUOUS
 10
2628.6190558603221
 20
3816.9962960000012
 30
0.0
 11
5178.6190558603221
 21
3816.9962960000012
 31
0.0
  0
LINE
  5
7A76
  8
1
  6
CONTINUOUS
 10
2628.6190558603221
 20
3891.9962959999998
 30
0.0
 11
5178.6190558603221
 21
3891.9962959999998
 31
0.0
  0
LINE
  5
7A77
  8
1
  6
CONTINUOUS
 10
4671.3211368603224
 20
4187.9692080000004
 30
0.0
 11
3237.2162678603222
 21
4766.4406630000003
 31
0.0
  0
LINE
  5
7A78
  8
1
  6
CONTINUOUS
 10
4708.729281860321
 20
4280.7087940000001
 30
0.0
 11
3274.6244128603221
 21
4859.180249
 31
0.0
  0
LINE
  5
7A79
  8
1
  6
CONTINUOUS
 10
4875.4782788603216
 20
4575.1637870000004
 30
0.0
 11
3587.9953568603219
 21
5431.7113490000002
 31
0.0
  0
LINE
  5
7A7A
  8
1
  6
CONTINUOUS
 10
4820.0877228603222
 20
4491.9058370000002
 30
0.0
 11
3532.604800860322
 21
5348.453399
 31
0.0
  0
LINE
  5
7A7B
  8
1
  6
CONTINUOUS
 10
4003.6190558603221
 20
9860.6307410616046
 30
0.0
 11
5178.6190558603221
 21
9860.6307410616046
 31
0.0
  0
LINE
  5
7A7C
  8
1
  6
CONTINUOUS
 10
4633.6190558603221
 20
8580.6307410616046
 30
0.0
 11
3656.6190558603221
 21
8580.6307410616046
 31
0.0
  0
LINE
  5
7A7D
  8
1
  6
CONTINUOUS
 10
3432.6190558603221
 20
9782.6307410616064
 30
0.0
 11
4712.6190558603212
 21
8832.6307410616046
 31
0.0
  0
LINE
  5
7A7E
  8
1
  6
CONTINUOUS
 10
4712.6190558603212
 20
9782.6307410616064
 30
0.0
 11
3432.6190558603221
 21
8832.6307410616046
 31
0.0
  0
LINE
  5
7A7F
  8
1
  6
CONTINUOUS
 10
3382.6190558603221
 20
5941.9962960000012
 30
0.0
 11
4768.6190558603221
 21
5941.9962960000012
 31
0.0
  0
POLYLINE
  5
7A80
  8
1
  6
CONTINUOUS
 66
     1
 10
0.0
 20
0.0
 30
0.0
  0
VERTEX
  5
7EF5
  8
1
  6
CONTINUOUS
 10
4712.6190558603212
 20
5941.9962960000012
 30
0.0
  0
VERTEX
  5
7EF6
  8
1
  6
CONTINUOUS
 10
4639.6190558603221
 20
5116.9962960000003
 30
0.0
 42
-0.391657
  0
VERTEX
  5
7EF7
  8
1
  6
CONTINUOUS
 10
3469.6190558603221
 20
4034.462743
 30
0.0
 42
-0.4387800000000001
  0
VERTEX
  5
7EF8
  8
1
  6
CONTINUOUS
 10
2481.5104998603219
 20
5108.3386759999994
 30
0.0
 42
-0.390066
  0
VERTEX
  5
7EF9
  8
1
  6
CONTINUOUS
 10
3301.6190558603221
 20
5862.9475249999996
 30
0.0
 42
-0.049316
  0
VERTEX
  5
7EFA
  8
1
  6
CONTINUOUS
 10
3432.6190558603221
 20
5849.9953409999989
 30
0.0
 42
-0.393627
  0
SEQEND
  5
7EFB
  8
1
  6
CONTINUOUS
  0
LINE
  5
7A88
  8
1
  6
CONTINUOUS
 10
2628.6190558603221
 20
4006.9962959999998
 30
0.0
 11
5178.6190558603221
 21
4006.9962959999998
 31
0.0
  0
LINE
  5
7A89
  8
1
  6
CONTINUOUS
 10
3432.6190558603221
 20
5891.9962960000012
 30
0.0
 11
4712.6190558603212
 21
5891.9962960000012
 31
0.0
  0
LINE
  5
7A8A
  8
1
  6
CONTINUOUS
 10
2628.6190558603221
 20
4156.9962960000003
 30
0.0
 11
5178.6190558603221
 21
4156.9962960000003
 31
0.0
  0
ARC
  5
7A8B
  8
1
  6
CONTINUOUS
 10
4753.6190558603221
 20
4391.9962960000012
 30
0.0
 40
199.0
 50
320.126825
 51
219.87317499999989
  0
LINE
  5
7A8C
  8
1
  6
CONTINUOUS
 10
4528.6190558603203
 20
4211.9962960000003
 30
0.0
 11
4978.6190558603221
 21
4211.9962960000003
 31
0.0
  0
LINE
  5
7A8D
  8
1
  6
CONTINUOUS
 10
4952.7170698603213
 20
8752.1639340616057
 30
0.0
 11
4554.521041860321
 21
8752.1639340616057
 31
0.0
  0
LINE
  5
7A8E
  8
1
  6
CONTINUOUS
 10
2478.0855028603219
 20
9782.6307410616064
 30
0.0
 11
4712.6190558603212
 21
9782.6307410616064
 31
0.0
  0
LINE
  5
7A8F
  8
1
  6
CONTINUOUS
 10
2478.0855028603219
 20
8832.6307410616046
 30
0.0
 11
4712.6190558603212
 21
8832.6307410616046
 31
0.0
  0
LINE
  5
7A90
  8
1
  6
CONTINUOUS
 10
3000.6190558603221
 20
8467.6307410616046
 30
0.0
 11
5073.6190558603221
 21
8467.6307410616046
 31
0.0
  0
LINE
  5
7A91
  8
1
  6
CONTINUOUS
 10
3000.6190558603221
 20
8707.6307410616046
 30
0.0
 11
5073.6190558603221
 21
8707.6307410616046
 31
0.0
  0
ARC
  5
7A92
  8
1
  6
CONTINUOUS
 10
3378.6190558603221
 20
5116.9962960000003
 30
0.0
 40
378.0
 50
56.364635
 51
248.0324479999999
  0
CIRCLE
  5
7A93
  8
1
  6
CONTINUOUS
 10
3378.6190558603221
 20
5116.9962960000003
 30
0.0
 40
625.0
  0
CIRCLE
  5
7A94
  8
1
  6
CONTINUOUS
 10
3378.6190558603221
 20
5116.9962960000003
 30
0.0
 40
675.0
  0
CIRCLE
  5
7A95
  8
1
  6
CONTINUOUS
 10
3378.6190558603221
 20
5116.9962960000003
 30
0.0
 40
278.0
  0
LINE
  5
7A96
  8
2
  6
CENTER
 10
2339.6493448603219
 20
5116.9962960000003
 30
0.0
 11
4795.421547860321
 21
5116.9962960000003
 31
0.0
  0
LINE
  5
7A97
  8
1
  6
CONTINUOUS
 10
2628.6190558603221
 20
3891.9962959999998
 30
0.0
 11
2628.6190558603221
 21
3816.9962960000012
 31
0.0
  0
LINE
  5
7A98
  8
1
  6
CONTINUOUS
 10
2628.6190558603221
 20
4156.9962960000003
 30
0.0
 11
2628.6190558603221
 21
4006.9962959999998
 31
0.0
  0
LINE
  5
7A99
  8
2
  6
CENTER
 10
3378.6190558603221
 20
3816.9962960000012
 30
0.0
 11
3378.6190558603221
 21
5987.6830069999996
 31
0.0
  0
LINE
  5
7A9A
  8
1
  6
CONTINUOUS
 10
4528.6190558603203
 20
4156.9962960000003
 30
0.0
 11
4528.6190558603203
 21
4211.9962960000003
 31
0.0
  0
LINE
  5
7A9B
  8
1
  6
CONTINUOUS
 10
3432.6190558603221
 20
5849.9953409999989
 30
0.0
 11
3432.6190558603221
 21
5941.9962960000012
 31
0.0
  0
LINE
  5
7A9C
  8
1
  6
CONTINUOUS
 10
2703.6190558603221
 20
9885.6307410616046
 30
0.0
 11
4053.6190558603221
 21
9885.6307410616046
 31
0.0
  0
LINE
  5
7A9D
  8
1
  6
CONTINUOUS
 10
3656.6190558603221
 20
8637.6307410616046
 30
0.0
 11
3100.6190558603221
 21
8637.6307410616046
 31
0.0
  0
LINE
  5
7A9E
  8
1
  6
CONTINUOUS
 10
3656.6190558603221
 20
8537.6307410616046
 30
0.0
 11
3100.6190558603221
 21
8537.6307410616046
 31
0.0
  0
LINE
  5
7A9F
  8
1
  6
CONTINUOUS
 10
2478.0855028603219
 20
8832.6307410616046
 30
0.0
 11
2478.0855028603219
 21
9782.6307410616064
 31
0.0
  0
LINE
  5
7AA0
  8
1
  6
CONTINUOUS
 10
3100.6190558603221
 20
8580.6307410616046
 30
0.0
 11
2628.6190558603221
 21
8580.6307410616046
 31
0.0
  0
LINE
  5
7AA1
  8
1
  6
CONTINUOUS
 10
2628.6190558603221
 20
8580.6307410616046
 30
0.0
 11
2628.6190558603221
 21
8832.6307410616046
 31
0.0
  0
LINE
  5
7AA2
  8
1
  6
CONTINUOUS
 10
3351.1190558603212
 20
8637.6307410616046
 30
0.0
 11
3351.1190558603212
 21
8832.6307410616046
 31
0.0
  0
LINE
  5
7AA3
  8
1
  6
CONTINUOUS
 10
3000.6190558603221
 20
8467.6307410616046
 30
0.0
 11
3000.6190558603221
 21
8707.6307410616046
 31
0.0
  0
LINE
  5
7AA4
  8
1
  6
CONTINUOUS
 10
3100.6190558603221
 20
8537.6307410616046
 30
0.0
 11
3100.6190558603221
 21
8637.6307410616046
 31
0.0
  0
LINE
  5
7AA5
  8
1
  6
CONTINUOUS
 10
2628.6190558603221
 20
9782.6307410616064
 30
0.0
 11
2628.6190558603221
 21
9860.6307410616046
 31
0.0
  0
LINE
  5
7AA6
  8
1
  6
CONTINUOUS
 10
2628.6190558603221
 20
9860.6307410616046
 30
0.0
 11
2753.6190558603221
 21
9860.6307410616046
 31
0.0
  0
LINE
  5
7AA7
  8
1
  6
CONTINUOUS
 10
2753.6190558603221
 20
9782.6307410616064
 30
0.0
 11
2753.6190558603221
 21
9885.6307410616046
 31
0.0
  0
LINE
  5
7AA8
  8
1
  6
CONTINUOUS
 10
3432.6190558603221
 20
8832.6307410616046
 30
0.0
 11
3432.6190558603221
 21
9782.6307410616064
 31
0.0
  0
LINE
  5
7AA9
  8
1
  6
CONTINUOUS
 10
3406.1190558603221
 20
8637.6307410616046
 30
0.0
 11
3406.1190558603221
 21
8832.6307410616046
 31
0.0
  0
LINE
  5
7AAA
  8
1
  6
CONTINUOUS
 10
3656.6190558603221
 20
8537.6307410616046
 30
0.0
 11
3656.6190558603221
 21
8637.6307410616046
 31
0.0
  0
LINE
  5
7AAB
  8
1
  6
CONTINUOUS
 10
4554.521041860321
 20
8752.1639340616057
 30
0.0
 11
4554.521041860321
 21
8832.6307410616046
 31
0.0
  0
LINE
  5
7AAC
  8
1
  6
CONTINUOUS
 10
4003.6190558603221
 20
9782.6307410616064
 30
0.0
 11
4003.6190558603221
 21
9885.6307410616046
 31
0.0
  0
ARC
  5
7AAD
  8
1
  6
CONTINUOUS
 10
4753.6190558603221
 20
4391.9962960000012
 30
0.0
 40
220.0
 50
248.0324479999999
 51
56.364635
  0
CIRCLE
  5
7AAE
  8
1
  6
CONTINUOUS
 10
4753.6190558603221
 20
4391.9962960000012
 30
0.0
 40
120.0
  0
LINE
  5
7AAF
  8
2
  6
CENTER
 10
4753.6190558603221
 20
4271.9962960000003
 30
0.0
 11
4753.6190558603221
 21
4511.9962960000003
 31
0.0
  0
LINE
  5
7AB0
  8
1
  6
CONTINUOUS
 10
4915.6190558603221
 20
4211.9962960000003
 30
0.0
 11
4855.6190558603221
 21
4211.9962960000003
 31
0.0
  0
LINE
  5
7AB1
  8
1
  6
CONTINUOUS
 10
4591.6190558603221
 20
4254.4954790000002
 30
0.0
 11
4600.8934448603213
 21
4264.4193079999986
 31
0.0
  0
LINE
  5
7AB2
  8
1
  6
CONTINUOUS
 10
4591.6190558603221
 20
4211.9962960000003
 30
0.0
 11
4591.6190558603221
 21
4254.4954790000002
 31
0.0
  0
LINE
  5
7AB3
  8
2
  6
CENTER
 10
4873.6190558603221
 20
4391.9962960000012
 30
0.0
 11
4633.6190558603221
 21
4391.9962960000012
 31
0.0
  0
LINE
  5
7AB4
  8
1
  6
CONTINUOUS
 10
5178.6190558603221
 20
3891.9962959999998
 30
0.0
 11
5178.6190558603221
 21
3816.9962960000012
 31
0.0
  0
LINE
  5
7AB5
  8
1
  6
CONTINUOUS
 10
5178.6190558603221
 20
4156.9962960000003
 30
0.0
 11
5178.6190558603221
 21
4006.9962959999998
 31
0.0
  0
LINE
  5
7AB6
  8
1
  6
CONTINUOUS
 10
4915.6190558603221
 20
4254.4954790000002
 30
0.0
 11
4906.3446668603219
 21
4264.4193079999986
 31
0.0
  0
LINE
  5
7AB7
  8
1
  6
CONTINUOUS
 10
4915.6190558603221
 20
4211.9962960000003
 30
0.0
 11
4915.6190558603221
 21
4254.4954790000002
 31
0.0
  0
LINE
  5
7AB8
  8
1
  6
CONTINUOUS
 10
4978.6190558603221
 20
4156.9962960000003
 30
0.0
 11
4978.6190558603221
 21
4211.9962960000003
 31
0.0
  0
LINE
  5
7AB9
  8
1
  6
CONTINUOUS
 10
4712.6190558603212
 20
8832.6307410616046
 30
0.0
 11
4712.6190558603212
 21
9782.6307410616064
 31
0.0
  0
LINE
  5
7ABA
  8
1
  6
CONTINUOUS
 10
5178.6190558603221
 20
9860.6307410616046
 30
0.0
 11
5178.6190558603221
 21
8580.6307410616046
 31
0.0
  0
LINE
  5
7ABB
  8
1
  6
CONTINUOUS
 10
4726.1190558603221
 20
8637.6307410616046
 30
0.0
 11
4726.1190558603221
 21
8752.1639340616057
 31
0.0
  0
LINE
  5
7ABC
  8
1
  6
CONTINUOUS
 10
4781.1190558603221
 20
8637.6307410616046
 30
0.0
 11
4781.1190558603221
 21
8752.1639340616057
 31
0.0
  0
LINE
  5
7ABD
  8
1
  6
CONTINUOUS
 10
5178.6190558603221
 20
8580.6307410616046
 30
0.0
 11
4873.6190558603221
 21
8580.6307410616046
 31
0.0
  0
LINE
  5
7ABE
  8
1
  6
CONTINUOUS
 10
4873.6190558603221
 20
8537.6307410616046
 30
0.0
 11
4873.6190558603221
 21
8637.6307410616046
 31
0.0
  0
LINE
  5
7ABF
  8
1
  6
CONTINUOUS
 10
4633.6190558603221
 20
8537.6307410616046
 30
0.0
 11
4633.6190558603221
 21
8637.6307410616046
 31
0.0
  0
LINE
  5
7AC0
  8
1
  6
CONTINUOUS
 10
4873.6190558603221
 20
8637.6307410616046
 30
0.0
 11
4633.6190558603221
 21
8637.6307410616046
 31
0.0
  0
LINE
  5
7AC1
  8
1
  6
CONTINUOUS
 10
4873.6190558603221
 20
8537.6307410616046
 30
0.0
 11
4633.6190558603221
 21
8537.6307410616046
 31
0.0
  0
LINE
  5
7AC2
  8
1
  6
CONTINUOUS
 10
5073.6190558603221
 20
8467.6307410616046
 30
0.0
 11
5073.6190558603221
 21
8707.6307410616046
 31
0.0
  0
LINE
  5
7AC3
  8
1
  6
CONTINUOUS
 10
4952.7170698603213
 20
9351.6639340616057
 30
0.0
 11
4712.6190558603212
 21
9351.6639340616057
 31
0.0
  0
LINE
  5
7AC4
  8
1
  6
CONTINUOUS
 10
4952.7170698603213
 20
8752.1639340616057
 30
0.0
 11
4952.7170698603213
 21
9351.6639340616057
 31
0.0
  0
LINE
  5
7AC5
  8
1
  6
CONTINUOUS
 10
6742.8902150000004
 20
5941.9962960000012
 30
0.0
 11
7792.8902149999994
 21
5941.9962960000012
 31
0.0
  0
LINE
  5
7AC6
  8
1
  6
CONTINUOUS
 10
7820.8902150000004
 20
4156.9962960000003
 30
0.0
 11
6540.8902149999994
 21
4156.9962960000003
 31
0.0
  0
LINE
  5
7AC7
  8
1
  6
CONTINUOUS
 10
7820.8902150000004
 20
4006.9962959999998
 30
0.0
 11
6540.8902149999994
 21
4006.9962959999998
 31
0.0
  0
LINE
  5
7AC8
  8
1
  6
CONTINUOUS
 10
6792.8902149999994
 20
5891.9962960000012
 30
0.0
 11
7742.8902150000004
 21
5891.9962960000012
 31
0.0
  0
LINE
  5
7AC9
  8
1
  6
CONTINUOUS
 10
7820.8902150000004
 20
3891.9962959999998
 30
0.0
 11
6540.8902149999994
 21
3891.9962959999998
 31
0.0
  0
LINE
  5
7ACA
  8
1
  6
CONTINUOUS
 10
7820.8902150000004
 20
3816.9962960000012
 30
0.0
 11
6540.8902149999994
 21
3816.9962960000012
 31
0.0
  0
LINE
  5
7ACB
  8
1
  6
CONTINUOUS
 10
6597.8902149999994
 20
4838.9962960000012
 30
0.0
 11
6597.8902149999994
 21
5394.9962960000003
 31
0.0
  0
LINE
  5
7ACC
  8
1
  6
CONTINUOUS
 10
6497.8902149999994
 20
4838.9962960000012
 30
0.0
 11
6497.8902149999994
 21
5394.9962960000003
 31
0.0
  0
LINE
  5
7ACD
  8
1
  6
CONTINUOUS
 10
6667.8902149999994
 20
4171.9962960000003
 30
0.0
 11
6667.8902149999994
 21
5494.9962960000003
 31
0.0
  0
LINE
  5
7ACE
  8
1
  6
CONTINUOUS
 10
6427.8902149999994
 20
4171.9962960000003
 30
0.0
 11
6427.8902149999994
 21
5494.9962960000003
 31
0.0
  0
LINE
  5
7ACF
  8
1
  6
CONTINUOUS
 10
6792.8902149999994
 20
4156.9962960000003
 30
0.0
 11
6792.8902149999994
 21
5941.9962960000012
 31
0.0
  0
LINE
  5
7AD0
  8
1
  6
CONTINUOUS
 10
6497.8902149999994
 20
4271.9962960000003
 30
0.0
 11
6497.8902149999994
 21
4511.9962960000003
 31
0.0
  0
LINE
  5
7AD1
  8
1
  6
CONTINUOUS
 10
6597.8902149999994
 20
4271.9962960000003
 30
0.0
 11
6597.8902149999994
 21
4511.9962960000003
 31
0.0
  0
LINE
  5
7AD2
  8
1
  6
CONTINUOUS
 10
6427.8902149999994
 20
4171.9962960000003
 30
0.0
 11
6667.8902149999994
 21
4171.9962960000003
 31
0.0
  0
LINE
  5
7AD3
  8
1
  6
CONTINUOUS
 10
6497.8902149999994
 20
4271.9962960000003
 30
0.0
 11
6597.8902149999994
 21
4271.9962960000003
 31
0.0
  0
LINE
  5
7AD6
  8
1
  6
CONTINUOUS
 10
6597.8902149999994
 20
4364.4962960000003
 30
0.0
 11
6792.8902149999994
 21
4364.4962960000003
 31
0.0
  0
LINE
  5
7AD7
  8
1
  6
CONTINUOUS
 10
6540.8902149999994
 20
4006.9962959999998
 30
0.0
 11
6540.8902149999994
 21
4156.9962960000003
 31
0.0
  0
LINE
  5
7AD8
  8
1
  6
CONTINUOUS
 10
6540.8902149999994
 20
3816.9962960000012
 30
0.0
 11
6540.8902149999994
 21
3891.9962959999998
 31
0.0
  0
LINE
  5
7AD9
  8
1
  6
CONTINUOUS
 10
6497.8902149999994
 20
4838.9962960000012
 30
0.0
 11
6597.8902149999994
 21
4838.9962960000012
 31
0.0
  0
LINE
  5
7ADA
  8
1
  6
CONTINUOUS
 10
6497.8902149999994
 20
4511.9962960000003
 30
0.0
 11
6597.8902149999994
 21
4511.9962960000003
 31
0.0
  0
LINE
  5
7ADB
  8
1
  6
CONTINUOUS
 10
6597.8902149999994
 20
4419.4962960000012
 30
0.0
 11
6792.8902149999994
 21
4419.4962960000012
 31
0.0
  0
LINE
  5
7ADC
  8
1
  6
CONTINUOUS
 10
6597.8902149999994
 20
5089.4962960000003
 30
0.0
 11
6792.8902149999994
 21
5089.4962960000003
 31
0.0
  0
LINE
  5
7ADD
  8
1
  6
CONTINUOUS
 10
6597.8902149999994
 20
5144.4962960000003
 30
0.0
 11
6792.8902149999994
 21
5144.4962960000003
 31
0.0
  0
LINE
  5
7ADE
  8
1
  6
CONTINUOUS
 10
6427.8902149999994
 20
5494.9962960000003
 30
0.0
 11
6667.8902149999994
 21
5494.9962960000003
 31
0.0
  0
LINE
  5
7ADF
  8
1
  6
CONTINUOUS
 10
6497.8902149999994
 20
5394.9962960000003
 30
0.0
 11
6597.8902149999994
 21
5394.9962960000003
 31
0.0
  0
LINE
  5
7AE0
  8
1
  6
CONTINUOUS
 10
7845.8902150000004
 20
4441.9962960000012
 30
0.0
 11
7845.8902150000004
 21
5791.9962960000003
 31
0.0
  0
LINE
  5
7AE1
  8
1
  6
CONTINUOUS
 10
7742.8902150000004
 20
4156.9962960000003
 30
0.0
 11
7742.8902150000004
 21
5941.9962960000012
 31
0.0
  0
LINE
  5
7AE2
  8
1
  6
CONTINUOUS
 10
7820.8902150000004
 20
4006.9962959999998
 30
0.0
 11
7820.8902150000004
 21
4156.9962960000003
 31
0.0
  0
LINE
  5
7AE3
  8
1
  6
CONTINUOUS
 10
7820.8902150000004
 20
3816.9962960000012
 30
0.0
 11
7820.8902150000004
 21
3891.9962959999998
 31
0.0
  0
LINE
  5
7AE4
  8
1
  6
CONTINUOUS
 10
7742.8902150000004
 20
4491.9962960000003
 30
0.0
 11
7845.8902150000004
 21
4491.9962960000003
 31
0.0
  0
LINE
  5
7AE5
  8
1
  6
CONTINUOUS
 10
7742.8902150000004
 20
5741.9962960000003
 30
0.0
 11
7845.8902150000004
 21
5741.9962960000003
 31
0.0
  0
DIMENSION
  5
7B63
  8
3
  6
CONTINUOUS
  2
*D1
 10
4712.6190558603212
 20
6159.9722609999999
 30
0.0
 11
4058.1661328603209
 21
6159.9722609999999
 31
0.0
 70
   128
 13
3432.6190558603221
 23
5941.9962960000012
 33
0.0
 14
4712.6190558603212
 24
5941.9962960000012
 34
0.0
1001
ACAD
1000
DSTYLE
1002
{
1070
   287
1070
     3
1070
   287
1070
     3
1070
    40
1040
45.0
1070
   143
1040
0.039
1070
   172
1070
     1
1070
   271
1070
     0
1070
   279
1070
     0
1070
   288
1070
     1
1002
}
  0
DIMENSION
  5
7B95
  8
3
  6
CONTINUOUS
  2
*D2
 10
3378.6190558603221
 20
6426.8944709999996
 30
0.0
 11
2909.7681328603221
 21
6426.8944709999996
 31
0.0
 70
   128
 13
2481.6190558603221
 23
5116.9962960000003
 33
0.0
 14
3378.6190558603221
 24
5858.5012109999998
 34
0.0
1001
ACAD
1000
DSTYLE
1002
{
1070
   287
1070
     3
1070
   287
1070
     3
1070
    40
1040
45.0
1070
   143
1040
0.039
1070
   172
1070
     1
1070
   271
1070
     0
1070
   279
1070
     0
1070
   288
1070
     1
1002
}
  0
DIMENSION
  5
7BA1
  8
3
  6
CONTINUOUS
  2
*D3
 10
4712.6190558603212
 20
6426.8944709999996
 30
0.0
 11
4045.6190558603212
 21
6539.3944709999996
 31
0.0
 70
     0
 13
3378.6190558603221
 23
5858.5012109999998
 33
0.0
 14
4712.6190558603212
 24
5941.9962960000012
 34
0.0
1001
ACAD
1000
DSTYLE
1002
{
1070
   287
1070
     4
1070
   287
1070
     4
1070
    40
1040
45.0
1070
    75
1070
     1
1070
   143
1040
0.039
1070
   172
1070
     1
1070
   271
1070
     0
1070
   279
1070
     1
1070
   288
1070
     1
1002
}
  0
DIMENSION
  5
7BAE
  8
3
  6
CONTINUOUS
  2
*D4
 10
5178.6190558603221
 20
8082.4675960616059
 30
0.0
 11
3887.5165588603209
 21
8082.4675960616059
 31
0.0
 70
   128
 13
2628.6190558603221
 23
8580.6307410616046
 33
0.0
 14
5178.6190558603221
 24
8580.6307410616046
 34
0.0
1001
ACAD
1000
DSTYLE
1002
{
1070
   287
1070
     3
1070
   287
1070
     3
1070
    40
1040
45.0
1070
   143
1040
0.039
1070
   172
1070
     1
1070
   271
1070
     0
1070
   279
1070
     0
1070
   288
1070
     1
1002
}
  0
DIMENSION
  5
7BBB
  8
3
  6
CONTINUOUS
  2
*D5
 10
5508.9999908603231
 20
8580.6307410616046
 30
0.0
 11
5508.9999908603222
 21
9242.9632250616069
 31
0.0
 70
   128
 13
5178.6190558603221
 23
9860.6307410616046
 33
0.0
 14
5178.6190558603221
 24
8580.6307410616046
 34
0.0
 50
90.0
1001
ACAD
1000
DSTYLE
1002
{
1070
   287
1070
     3
1070
   287
1070
     3
1070
    40
1040
45.0
1070
   143
1040
0.039
1070
   172
1070
     1
1070
   271
1070
     0
1070
   279
1070
     0
1070
   288
1070
     1
1002
}
  0
LINE
  5
7BBC
  8
2
  6
CENTER
 10
2386.990933860322
 20
9307.6307410616064
 30
0.0
 11
4834.9001278603218
 21
9307.6307410616064
 31
0.0
  0
LINE
  5
7BBD
  8
2
  6
CENTER
 10
3378.6190558603221
 20
8360.3155510616052
 30
0.0
 11
3378.6190558603221
 21
10024.5309920616
 31
0.0
  0
LINE
  5
7BBE
  8
2
  6
CENTER
 10
7267.8902150000004
 20
6118.1104640000003
 30
0.0
 11
7267.8902150000004
 21
3816.9962959999998
 31
0.0
  0
DIMENSION
  5
7BCB
  8
3
  6
CONTINUOUS
  2
*D6
 10
7742.8902150000004
 20
6098.720112
 30
0.0
 11
7233.2612639999988
 21
6098.720112
 31
0.0
 70
   128
 13
6792.8902149999994
 23
5941.9962960000012
 33
0.0
 14
7742.8902150000004
 24
5941.9962960000012
 34
0.0
1001
ACAD
1000
DSTYLE
1002
{
1070
   287
1070
     3
1070
   287
1070
     3
1070
    40
1040
45.0
1070
   143
1040
0.039
1070
   172
1070
     1
1070
   271
1070
     0
1070
   279
1070
     0
1070
   288
1070
     1
1002
}
  0
DIMENSION
  5
7BD8
  8
3
  6
CONTINUOUS
  2
*D7
 10
7267.8902150000004
 20
6439.0436847311221
 30
0.0
 11
6844.59105
 21
6439.0436847311221
 31
0.0
 70
   128
  1
MAX\P890
 13
6427.8902149999994
 23
5494.9962960000003
 33
0.0
 14
7267.8902150000004
 24
6288.417739999999
 34
0.0
1001
ACAD
1000
DSTYLE
1002
{
1070
   287
1070
     3
1070
   287
1070
     3
1070
    40
1040
45.0
1070
   143
1040
0.039
1070
   172
1070
     1
1070
   271
1070
     0
1070
   279
1070
     0
1070
   288
1070
     1
1002
}
  0
DIMENSION
  5
7BE6
  8
3
  6
CONTINUOUS
  2
*D8
 10
7845.8902150000004
 20
6439.0436847311221
 30
0.0
 11
7555.1287400000001
 21
6439.6472237311209
 31
0.0
 70
   128
 13
7267.8902150000004
 23
6288.417739999999
 33
0.0
 14
7845.8902150000004
 24
5791.9962960000003
 34
0.0
1001
ACAD
1000
DSTYLE
1002
{
1070
   287
1070
     4
1070
   287
1070
     4
1070
    40
1040
45.0
1070
    75
1070
     1
1070
   143
1040
0.039
1070
   172
1070
     1
1070
   271
1070
     0
1070
   279
1070
     1
1070
   288
1070
     1
1002
}
  0
DIMENSION
  5
7C09
  8
3
  6
CONTINUOUS
  2
*D9
 10
8217.0826610000022
 20
4491.9962960000003
 30
0.0
 11
8217.0826610000004
 21
5176.6252029999996
 31
0.0
 70
   128
 13
7845.8902150000004
 23
5741.9962960000003
 33
0.0
 14
7845.8902150000004
 24
4491.9962960000003
 34
0.0
 50
90.0
1001
ACAD
1000
DSTYLE
1002
{
1070
   287
1070
     3
1070
   287
1070
     3
1070
     3
1000
φ<>
1070
    40
1040
45.0
1070
   143
1040
0.039
1070
   172
1070
     1
1070
   271
1070
     0
1070
   279
1070
     0
1070
   288
1070
     1
1002
}
  0
LINE
  5
7C3B
  8
2
  6
CENTER
 10
6302.2775260000008
 20
5116.9962960000003
 30
0.0
 11
7969.1069989999996
 21
5116.9962960000003
 31
0.0
  0
LINE
  5
7C3C
  8
4
  6
CONTINUOUS
 10
9250.0
 20
2500.0
 30
0.0
 11
9250.0
 21
1500.0
 31
0.0
  0
LINE
  5
7C3D
  8
4
  6
CONTINUOUS
 10
5750.0
 20
2500.0
 30
0.0
 11
5750.0
 21
1500.0
 31
0.0
  0
LINE
  5
7C3E
  8
4
  6
CONTINUOUS
 10
3250.0
 20
2500.0
 30
0.0
 11
3250.0
 21
1500.0
 31
0.0
  0
LINE
  5
7C41
  8
4
  6
CONTINUOUS
 10
3250.0
 20
1500.0
 30
0.0
 11
9250.0
 21
1500.0
 31
0.0
  0
LINE
  5
7C42
  8
4
  6
CONTINUOUS
 10
3250.0
 20
2000.0
 30
0.0
 11
9250.0
 21
2000.0
 31
0.0
  0
TEXT
  5
7C43
  8
4
  6
CONTINUOUS
 10
3442.5104040000001
 20
2157.7151289999988
 30
0.0
 40
250.0
  1
機器名称
  0
TEXT
  5
7C44
  8
4
  6
CONTINUOUS
 10
3431.2905300000002
 20
1608.225782999999
 30
0.0
 40
250.0
  1
機器型番
  0
TEXT
  5
7C45
  8
4
  6
CONTINUOUS
 10
5888.393728
 20
2112.8588439999999
 30
0.0
 40
211.11111099999991
  1
ミツヤリミットロードファン
  0
TEXT
  5
7C46
  8
4
  6
CONTINUOUS
 10
5933.2724779999999
 20
1585.7979210000001
 30
0.0
 40
250.0
  1
LLE#8-4
  0
TEXT
  5
7C48
  8
4
  6
CONTINUOUS
 10
3847.6259999999988
 20
11917.14420699999
 30
0.0
 40
270.0
  1
床置防振ベット
  0
TEXT
  5
7C49
  8
4
  6
CONTINUOUS
 10
1580.837966999999
 20
12669.404881
 30
0.0
 40
300.0
  1
ベルト駆動式片吸込両持排煙ファン
  0
LINE
  5
7C4A
  8
4
  6
CONTINUOUS
 10
1250.0
 20
12347.04377099999
 30
0.0
 11
9250.0
 21
12347.04377099999
 31
0.0
  0
LINE
  5
7C4B
  8
4
  6
CONTINUOUS
 10
1250.0
 20
13347.043771000001
 30
0.0
 11
9250.0
 21
13347.043771000001
 31
0.0
  0
LINE
  5
7C4C
  8
4
  6
CONTINUOUS
 10
3250.0
 20
2500.0
 30
0.0
 11
9250.0
 21
2500.0
 31
0.0
  0
LINE
  5
7C4D
  8
4
  6
CONTINUOUS
 10
1250.0
 20
13347.043771000001
 30
0.0
 11
1250.0
 21
12347.04377099999
 31
0.0
  0
TEXT
  5
7C4E
  8
4
  6
CONTINUOUS
 10
1668.3318389999999
 20
11911.597388
 30
0.0
 40
270.0
  1
左回転上向
  0
TEXT
  5
7C4F
  8
4
  6
CONTINUOUS
 10
7344.8477969999994
 20
13530.305408
 30
0.0
 40
280.0
  1
No.
  0
TEXT
  5
7C50
  8
4
  6
CONTINUOUS
 10
6556.480313
 20
11917.14420699999
 30
0.0
 40
270.0
  1
縮尺：1/50
  0
LINE
  5
7C51
  8
4
  6
CONTINUOUS
 10
9250.0
 20
13347.043771000001
 30
0.0
 11
9250.0
 21
12347.04377099999
 31
0.0
  0
LINE
  5
7C53
  8
4
  6
CONTINUOUS
 10
7203.0871120000002
 20
13406.317916
 30
0.0
 11
7203.0871120000002
 21
13933.261307999999
 31
0.0
  0
LINE
  5
7C54
  8
4
  6
CONTINUOUS
 10
7203.0871120000002
 20
13933.261307999999
 30
0.0
 11
9250.0
 21
13933.261307999999
 31
0.0
  0
LINE
  5
7C55
  8
4
  6
CONTINUOUS
 10
9250.0
 20
13933.261307999999
 30
0.0
 11
9250.0
 21
13406.317916
 31
0.0
  0
LINE
  5
7C56
  8
4
  6
CONTINUOUS
 10
9250.0
 20
13406.317916
 30
0.0
 11
7203.0871120000002
 21
13406.317916
 31
0.0
  0
DIMENSION
  5
7D1D
  8
3
  2
*D10
 10
5178.6190558603221
 20
6718.3300190619748
 30
0.0
 11
3833.914092455067
 21
6718.3300190619748
 31
0.0
 70
   128
 13
2481.6190558603221
 23
5139.4962960000003
 33
0.0
 14
5178.6190558603221
 24
4156.9962960000003
 34
0.0
1001
ACAD
1000
DSTYLE
1002
{
1070
   287
1070
     3
1070
   287
1070
     3
1070
    40
1040
45.0
1070
   143
1040
0.039
1070
   172
1070
     1
1070
   271
1070
     0
1070
   279
1070
     0
1070
   288
1070
     1
1002
}
  0
DIMENSION
  5
7D2A
  8
3
  2
*D11
 10
2090.3348231910859
 20
5116.9962960000003
 30
0.0
 11
2090.334823191085
 21
5550.5332392061237
 31
0.0
 70
   128
 13
3382.6190558603221
 23
5941.9962960000012
 33
0.0
 14
2339.6493448603219
 24
5116.9962960000003
 34
0.0
 50
90.0
1001
ACAD
1000
DSTYLE
1002
{
1070
   287
1070
     3
1070
   287
1070
     3
1070
    40
1040
45.0
1070
   143
1040
0.039
1070
   172
1070
     1
1070
   271
1070
     0
1070
   279
1070
     0
1070
   288
1070
     1
1002
}
  0
DIMENSION
  5
7D36
  8
3
  2
*D12
 10
2090.334823191085
 20
4006.9962959999998
 30
0.0
 11
1977.834823191085
 21
4561.9962960000012
 31
0.0
 70
     0
 13
2339.6493448603219
 23
5116.9962960000003
 33
0.0
 14
2628.6190558603221
 24
4006.9962959999998
 34
0.0
 50
90.0
1001
ACAD
1000
DSTYLE
1002
{
1070
   287
1070
     4
1070
   287
1070
     4
1070
    40
1040
45.0
1070
    75
1070
     1
1070
   143
1040
0.039
1070
   172
1070
     1
1070
   271
1070
     0
1070
   279
1070
     1
1070
   288
1070
     1
1002
}
  0
DIMENSION
  5
7DA0
  8
3
  2
*D13
 10
3378.6190558603221
 20
3508.8385822123601
 30
0.0
 11
3003.6190558603221
 21
3621.3385822123591
 31
0.0
 70
     0
 13
2628.6190558603221
 23
3816.9962960000012
 33
0.0
 14
3378.6190558603221
 24
3816.9962960000012
 34
0.0
1001
ACAD
1000
DSTYLE
1002
{
1070
   287
1070
     3
1070
   287
1070
     3
1070
    40
1040
45.0
1070
   143
1040
0.039
1070
   172
1070
     1
1070
   271
1070
     0
1070
   279
1070
     0
1002
}
  0
DIMENSION
  5
7DAD
  8
3
  2
*D14
 10
5178.6190558603221
 20
3508.8385822123601
 30
0.0
 11
4278.6190558603221
 21
3621.3385822123591
 31
0.0
 70
     0
 13
3378.6190558603221
 23
3816.9962960000012
 33
0.0
 14
5178.6190558603221
 24
3816.9962960000012
 34
0.0
1001
ACAD
1000
DSTYLE
1002
{
1070
   287
1070
     3
1070
   287
1070
     3
1070
    40
1040
45.0
1070
   143
1040
0.039
1070
   172
1070
     1
1070
   271
1070
     0
1070
   279
1070
     0
1002
}
  0
DIMENSION
  5
7DBA
  8
3
  2
*D15
 10
7267.8902150000004
 20
3508.8385822123601
 30
0.0
 11
6904.3902149999994
 21
3621.3385822123591
 31
0.0
 70
     0
 13
6540.8902149999994
 23
3816.9962960000012
 33
0.0
 14
7267.8902150000004
 24
3816.9962959999998
 34
0.0
1001
ACAD
1000
DSTYLE
1002
{
1070
   287
1070
     3
1070
   287
1070
     3
1070
    40
1040
45.0
1070
   143
1040
0.039
1070
   172
1070
     1
1070
   271
1070
     0
1070
   279
1070
     0
1002
}
  0
DIMENSION
  5
7DC9
  8
3
  2
*D16
 10
7820.8902150000004
 20
3508.8385822123601
 30
0.0
 11
7544.3902149999994
 21
3621.3385822123591
 31
0.0
 70
     0
 13
7267.8902150000004
 23
3816.9962959999998
 33
0.0
 14
7820.8902150000004
 24
3816.9962960000012
 34
0.0
1001
ACAD
1000
DSTYLE
1002
{
1070
   287
1070
     3
1070
   287
1070
     3
1070
    40
1040
45.0
1070
   143
1040
0.039
1070
   172
1070
     1
1070
   271
1070
     0
1070
   279
1070
     0
1002
}
  0
DIMENSION
  5
7DE0
  8
3
  2
*D18
 10
2089.7875875632162
 20
3816.9962960000012
 30
0.0
 11
1977.2875875632151
 21
3482.710581714286
 31
0.0
 70
     0
 13
2628.6190558603221
 23
3891.9962959999998
 33
0.0
 14
2628.6190558603221
 24
3816.9962960000012
 34
0.0
 50
90.0
1001
ACAD
1000
DSTYLE
1002
{
1070
   287
1070
     3
1070
   287
1070
     3
1070
    40
1040
45.0
1070
   143
1040
0.039
1070
   172
1070
     1
1070
   271
1070
     0
1070
   279
1070
     0
1070
     6
1000
DOT
1002
}
  0
DIMENSION
  5
7DEF
  8
3
  2
*D19
 10
2089.7875875632162
 20
4006.9962959999998
 30
0.0
 11
1874.4304447060731
 21
3949.4962959999998
 31
0.0
 70
     0
 13
2628.6190558603221
 23
3891.9962959999998
 33
0.0
 14
2628.6190558603221
 24
4006.9962959999998
 34
0.0
 50
90.0
1001
ACAD
1000
DSTYLE
1002
{
1070
   172
1070
     1
1070
    40
1040
45.0
1070
     3
1000
(<>)
1070
   271
1070
     0
1070
     6
1000
_DOT
1070
   143
1040
0.039
1002
}
  0
DIMENSION
  5
7DFC
  8
3
  2
*D20
 10
1675.2849211490029
 20
3816.9962960000012
 30
0.0
 11
1527.4277782918591
 21
4879.4962960000012
 31
0.0
 70
     0
 13
3382.6190558603221
 23
5941.9962960000012
 33
0.0
 14
2628.6190558603221
 24
3816.9962960000012
 34
0.0
 50
90.0
1001
ACAD
1000
DSTYLE
1002
{
1070
   287
1070
     3
1070
   287
1070
     3
1070
     3
1000
(<>)
1070
    40
1040
45.0
1070
   143
1040
0.039
1070
   172
1070
     1
1070
   271
1070
     0
1070
   279
1070
     0
1002
}
  0
ENDSEC
  0
EOF
