  0
SECTION
  2
HEADER
  9
$ACADVER
  1
AC1009
  9
$INSBASE
 10
0.0
 20
0.0
 30
0.0
  9
$EXTMIN
 10
1262.626262727272
 20
1515.151515454545
 30
0.0
  9
$EXTMAX
 10
9343.4343436363633
 20
14074.00132090909
 30
0.0
  9
$LIMMIN
 10
0.0
 20
0.0
  9
$LIMMAX
 10
297.0
 20
210.0
  9
$ORTHOMODE
 70
     0
  9
$REGENMODE
 70
     1
  9
$FILLMODE
 70
     0
  9
$QTEXTMODE
 70
     0
  9
$MIRRTEXT
 70
     1
  9
$DRAGMODE
 70
     2
  9
$LTSCALE
 40
100.0
  9
$OSMODE
 70
    37
  9
$ATTMODE
 70
     1
  9
$TEXTSIZE
 40
180.0
  9
$TRACEWID
 40
0.05
  9
$TEXTSTYLE
  7
STANDARD
  9
$CLAYER
  8
3
  9
$CELTYPE
  6
BYLAYER
  9
$CECOLOR
 62
   256
  9
$DIMSCALE
 40
45.0
  9
$DIMASZ
 40
2.0
  9
$DIMEXO
 40
0.5
  9
$DIMDLI
 40
10.0
  9
$DIMRND
 40
0.0
  9
$DIMDLE
 40
0.0
  9
$DIMEXE
 40
1.0
  9
$DIMTP
 40
1.0
  9
$DIMTM
 40
1.0
  9
$DIMTXT
 40
3.0
  9
$DIMCEN
 40
0.0
  9
$DIMTSZ
 40
0.0
  9
$DIMTOL
 70
     0
  9
$DIMLIM
 70
     0
  9
$DIMTIH
 70
     0
  9
$DIMTOH
 70
     0
  9
$DIMSE1
 70
     0
  9
$DIMSE2
 70
     0
  9
$DIMTAD
 70
     1
  9
$DIMZIN
 70
     8
  9
$DIMBLK
  1

  9
$DIMASO
 70
     1
  9
$DIMSHO
 70
     1
  9
$DIMPOST
  1

  9
$DIMAPOST
  1

  9
$DIMALT
 70
     0
  9
$DIMALTD
 70
     2
  9
$DIMALTF
 40
0.039
  9
$DIMLFAC
 40
1.0
  9
$DIMTOFL
 70
     1
  9
$DIMTVP
 40
0.0
  9
$DIMTIX
 70
     0
  9
$DIMSOXD
 70
     0
  9
$DIMSAH
 70
     1
  9
$DIMBLK1
  1
OPEN
  9
$DIMBLK2
  1
OPEN
  9
$DIMSTYLE
  2
IGA
  9
$DIMCLRD
 70
     0
  9
$DIMCLRE
 70
     0
  9
$DIMCLRT
 70
     0
  9
$DIMTFAC
 40
10.0
  9
$DIMGAP
 40
1.0
  9
$LUNITS
 70
     2
  9
$LUPREC
 70
     3
  9
$SKETCHINC
 40
0.1
  9
$FILLETRAD
 40
50.0
  9
$AUNITS
 70
     0
  9
$AUPREC
 70
     0
  9
$MENU
  1
acad
  9
$ELEVATION
 40
0.0
  9
$PELEVATION
 40
0.0
  9
$THICKNESS
 40
0.0
  9
$LIMCHECK
 70
     0
  9
$BLIPMODE
 70
     0
  9
$CHAMFERA
 40
0.5
  9
$CHAMFERB
 40
0.5
  9
$SKPOLY
 70
     0
  9
$TDCREATE
 40
2450750.5650421302
  9
$TDUPDATE
 40
2454953.6887660879
  9
$TDINDWG
 40
0.0177823958
  9
$TDUSRTIMER
 40
0.0177823958
  9
$USRTIMER
 70
     1
  9
$ANGBASE
 50
0.0
  9
$ANGDIR
 70
     0
  9
$PDMODE
 70
     0
  9
$PDSIZE
 40
0.0
  9
$PLINEWID
 40
0.0
  9
$COORDS
 70
     1
  9
$SPLFRAME
 70
     0
  9
$SPLINETYPE
 70
     6
  9
$SPLINESEGS
 70
     8
  9
$ATTDIA
 70
     0
  9
$ATTREQ
 70
     1
  9
$HANDLING
 70
 10241
  9
$HANDSEED
  5
7F29
  9
$SURFTAB1
 70
     6
  9
$SURFTAB2
 70
     6
  9
$SURFTYPE
 70
     6
  9
$SURFU
 70
     6
  9
$SURFV
 70
     6
  9
$UCSNAME
  2

  9
$UCSORG
 10
0.0
 20
0.0
 30
0.0
  9
$UCSXDIR
 10
1.0
 20
0.0
 30
0.0
  9
$UCSYDIR
 10
0.0
 20
1.0
 30
0.0
  9
$PUCSNAME
  2

  9
$PUCSORG
 10
0.0
 20
0.0
 30
0.0
  9
$PUCSXDIR
 10
1.0
 20
0.0
 30
0.0
  9
$PUCSYDIR
 10
0.0
 20
1.0
 30
0.0
  9
$USERI1
 70
     0
  9
$USERI2
 70
     0
  9
$USERI3
 70
     0
  9
$USERI4
 70
     0
  9
$USERI5
 70
     0
  9
$USERR1
 40
0.0
  9
$USERR2
 40
0.0
  9
$USERR3
 40
0.0
  9
$USERR4
 40
0.0
  9
$USERR5
 40
0.0
  9
$WORLDVIEW
 70
     1
  9
$SHADEDGE
 70
     3
  9
$SHADEDIF
 70
    70
  9
$TILEMODE
 70
     1
  9
$MAXACTVP
 70
    16
  9
$PLIMCHECK
 70
     0
  9
$PEXTMIN
 10
1.0000000000000000E+020
 20
1.0000000000000000E+020
 30
1.0000000000000000E+020
  9
$PEXTMAX
 10
-1.0000000000000000E+020
 20
-1.0000000000000000E+020
 30
-1.0000000000000000E+020
  9
$PLIMMIN
 10
0.0
 20
0.0
  9
$PLIMMAX
 10
12.0
 20
9.0
  9
$UNITMODE
 70
     0
  9
$VISRETAIN
 70
     0
  9
$PLINEGEN
 70
     0
  9
$PSLTSCALE
 70
     1
  0
ENDSEC
  0
SECTION
  2
TABLES
  0
TABLE
  2
VPORT
 70
     2
  0
VPORT
  2
*ACTIVE
 70
     0
 10
0.0
 20
0.0
 11
1.0
 21
1.0
 12
24601.62645018677
 22
8012.0088994110547
 13
0.0
 23
0.0
 14
10.0
 24
10.0
 15
10.0
 25
10.0
 16
0.0
 26
0.0
 36
1.0
 17
0.0
 27
0.0
 37
0.0
 40
19578.334188861729
 41
3.1666666666666661
 42
50.0
 43
0.0
 44
0.0
 50
0.0
 51
0.0
 71
     0
 72
   100
 73
     1
 74
     0
 75
     0
 76
     0
 77
     0
 78
     0
  0
ENDTAB
  0
TABLE
  2
LTYPE
 70
     2
  0
LTYPE
  2
CONTINUOUS
 70
     0
  3
Solid line
 72
    65
 73
     0
 40
0.0
  0
LTYPE
  2
CENTER
 70
     0
  3
____ _ ____ _ ____ _ ____ _ ____ _ ____ _ ____ 
 72
    65
 73
     4
 40
2.0
 49
1.25
 49
-0.25
 49
0.25
 49
-0.25
  0
ENDTAB
  0
TABLE
  2
LAYER
 70
     6
  0
LAYER
  2
0
 70
     0
 62
     7
  6
CONTINUOUS
  0
LAYER
  2
3
 70
     0
 62
     2
  6
CONTINUOUS
  0
LAYER
  2
2
 70
     0
 62
     3
  6
CENTER
  0
LAYER
  2
1
 70
     0
 62
     4
  6
CONTINUOUS
  0
LAYER
  2
4
 70
     0
 62
     7
  6
CONTINUOUS
  0
LAYER
  2
DEFPOINTS
 70
     0
 62
     7
  6
CONTINUOUS
  0
ENDTAB
  0
TABLE
  2
STYLE
 70
     1
  0
STYLE
  2
STANDARD
 70
     0
 40
0.0
 41
1.0
 50
0.0
 71
     0
 42
180.0
  3
simplex.shx
  4
extfont.shx
  0
ENDTAB
  0
TABLE
  2
VIEW
 70
     0
  0
ENDTAB
  0
TABLE
  2
UCS
 70
     0
  0
ENDTAB
  0
TABLE
  2
APPID
 70
     1
  0
APPID
  2
ACAD
 70
     0
  0
ENDTAB
  0
TABLE
  2
DIMSTYLE
 70
     1
  0
DIMSTYLE
  2
IGA
 70
     0
  3

  4

  5

  6
OPEN
  7
OPEN
 40
2.0
 41
2.0
 42
0.5
 43
10.0
 44
1.0
 45
0.0
 46
0.0
 47
1.0
 48
1.0
140
3.0
141
0.0
142
0.0
143
0.03937
144
1.0
145
0.0
146
10.0
147
1.0
 71
     0
 72
     0
 73
     0
 74
     0
 75
     0
 76
     0
 77
     1
 78
     8
170
     0
171
     2
172
     0
173
     1
174
     0
175
     0
176
     0
177
     0
178
     0
  0
ENDTAB
  0
ENDSEC
  0
SECTION
  2
BLOCKS
  0
BLOCK
  8
0
  2
$MODEL_SPACE
 70
     0
 10
0.0
 20
0.0
 30
0.0
  3
$MODEL_SPACE
  1

  0
ENDBLK
  5
1B
  8
0
  0
BLOCK
 67
     1
  8
0
  2
$PAPER_SPACE
 70
     0
 10
0.0
 20
0.0
 30
0.0
  3
$PAPER_SPACE
  1

  0
ENDBLK
  5
18
 67
     1
  8
0
  0
BLOCK
  8
0
  2
_OPEN
 70
     0
 10
0.0
 20
0.0
 30
0.0
  3
_OPEN
  1

  0
LINE
  5
7AEE
  8
0
  6
BYBLOCK
 62
     0
 10
-1.0
 20
0.166667
 30
0.0
 11
0.0
 21
0.0
 31
0.0
  0
LINE
  5
7AEF
  8
0
  6
BYBLOCK
 62
     0
 10
0.0
 20
0.0
 30
0.0
 11
-1.0
 21
-0.166667
 31
0.0
  0
LINE
  5
7AF0
  8
0
  6
BYBLOCK
 62
     0
 10
0.0
 20
0.0
 30
0.0
 11
-1.0
 21
0.0
 31
0.0
  0
ENDBLK
  5
7AF1
  8
0
  0
BLOCK
  8
0
  2
*D1
 70
     1
 10
0.0
 20
0.0
 30
0.0
  3
*D1
  1

  0
LINE
  5
7E6E
  8
3
  6
CONTINUOUS
 62
     0
 10
3159.9051751818511
 20
4724.7883311410806
 30
0.0
 11
3159.9051751818511
 21
4323.2374971410809
 31
0.0
  0
LINE
  5
7E6F
  8
3
  6
CONTINUOUS
 62
     0
 10
3909.9051751818511
 20
4538.4198831410813
 30
0.0
 11
3909.9051751818511
 21
4323.2374971410809
 31
0.0
  0
LINE
  5
7E70
  8
3
  6
CONTINUOUS
 62
     0
 10
3249.9051751818511
 20
4368.2374971410809
 30
0.0
 11
3819.9051751818511
 21
4368.2374971410809
 31
0.0
  0
INSERT
  5
7E71
  8
3
  6
CONTINUOUS
 62
     0
  2
_OPEN
 10
3159.9051751818511
 20
4368.2374971410809
 30
0.0
 41
90.0
 42
90.0
 43
90.0
 50
180.0
  0
INSERT
  5
7E72
  8
3
  6
CONTINUOUS
 62
     0
  2
_OPEN
 10
3909.9051751818511
 20
4368.2374971410809
 30
0.0
 41
90.0
 42
90.0
 43
90.0
  0
TEXT
  8
3
  40
135
  5
7F15
  62
0
  72
0
  71
0
 10
3268.75
 20
4241.79
 30
0.000000
  1
750
  0
POINT
  5
7E74
  8
DEFPOINTS
  6
CONTINUOUS
 62
     0
 10
3159.9051751818511
 20
4747.2883311410806
 30
0.0
  0
POINT
  5
7E75
  8
DEFPOINTS
  6
CONTINUOUS
 62
     0
 10
3909.9051751818511
 20
4560.9198831410813
 30
0.0
  0
POINT
  5
7E76
  8
DEFPOINTS
  6
CONTINUOUS
 62
     0
 10
3909.9051751818511
 20
4368.2374971410809
 30
0.0
  0
ENDBLK
  5
7AFE
  8
0
  0
BLOCK
  8
0
  2
*D2
 70
     1
 10
0.0
 20
0.0
 30
0.0
  3
*D2
  1

  0
LINE
  5
7E77
  8
3
  6
CONTINUOUS
 62
     0
 10
5709.9051751818506
 20
4724.7883311410806
 30
0.0
 11
5709.9051751818506
 21
4323.2374971410809
 31
0.0
  0
LINE
  5
7E78
  8
3
  6
CONTINUOUS
 62
     0
 10
3999.9051751818502
 20
4368.2374971410809
 30
0.0
 11
5619.9051751818506
 21
4368.2374971410809
 31
0.0
  0
INSERT
  5
7E79
  8
3
  6
CONTINUOUS
 62
     0
  2
_OPEN
 10
3909.9051751818511
 20
4368.2374971410809
 30
0.0
 41
90.0
 42
90.0
 43
90.0
 50
180.0
  0
INSERT
  5
7E7A
  8
3
  6
CONTINUOUS
 62
     0
  2
_OPEN
 10
5709.9051751818506
 20
4368.2374971410809
 30
0.0
 41
90.0
 42
90.0
 43
90.0
  0
TEXT
  8
3
  40
135
  5
7F16
  62
0
  72
0
  71
0
 10
4539.91
 20
4241.79
 30
0.000000
  1
1800
  0
POINT
  5
7E7C
  8
DEFPOINTS
  6
CONTINUOUS
 62
     0
 10
3909.9051751818511
 20
4560.9198831410813
 30
0.0
  0
POINT
  5
7E7D
  8
DEFPOINTS
  6
CONTINUOUS
 62
     0
 10
5709.9051751818506
 20
4747.2883311410806
 30
0.0
  0
POINT
  5
7E7E
  8
DEFPOINTS
  6
CONTINUOUS
 62
     0
 10
5709.9051751818506
 20
4368.2374971410809
 30
0.0
  0
ENDBLK
  5
7D01
  8
0
  0
BLOCK
  8
0
  2
*D3
 70
     1
 10
0.0
 20
0.0
 30
0.0
  3
*D3
  1

  0
LINE
  5
7E7F
  8
3
  6
CONTINUOUS
 62
     0
 10
3062.4051751818511
 20
6337.2883311410806
 30
0.0
 11
2710.7475391818521
 21
6337.2883311410806
 31
0.0
  0
LINE
  5
7E80
  8
3
  6
CONTINUOUS
 62
     0
 10
3062.4051751818511
 20
5057.2883311410806
 30
0.0
 11
2710.7475391818521
 21
5057.2883311410806
 31
0.0
  0
LINE
  5
7E81
  8
3
  6
CONTINUOUS
 62
     0
 10
2755.7475391818521
 20
6247.2883311410806
 30
0.0
 11
2755.7475391818521
 21
5147.2883311410824
 31
0.0
  0
INSERT
  5
7E82
  8
3
  6
CONTINUOUS
 62
     0
  2
_OPEN
 10
2755.7475391818521
 20
6337.2883311410806
 30
0.0
 41
90.0
 42
90.0
 43
90.0
 50
90.0
  0
INSERT
  5
7E83
  8
3
  6
CONTINUOUS
 62
     0
  2
_OPEN
 10
2755.7475391818521
 20
5057.2883311410806
 30
0.0
 41
90.0
 42
90.0
 43
90.0
 50
270.0
  0
TEXT
  8
3
  40
135
  5
7F17
  62
0
  72
0
  71
0
 10
2373.25
 20
5490.67
 30
0.000000
  1
1280
  0
POINT
  5
7E85
  8
DEFPOINTS
  6
CONTINUOUS
 62
     0
 10
3084.9051751818511
 20
6337.2883311410806
 30
0.0
  0
POINT
  5
7E86
  8
DEFPOINTS
  6
CONTINUOUS
 62
     0
 10
3084.9051751818511
 20
5057.2883311410806
 30
0.0
  0
POINT
  5
7E87
  8
DEFPOINTS
  6
CONTINUOUS
 62
     0
 10
2755.7475391818521
 20
5057.2883311410806
 30
0.0
  0
ENDBLK
  5
7B17
  8
0
  0
BLOCK
  8
0
  2
*D4
 70
     1
 10
0.0
 20
0.0
 30
0.0
  3
*D4
  1

  0
LINE
  5
7E88
  8
3
  6
CONTINUOUS
 62
     0
 10
3896.062795181851
 20
7288.3968871410816
 30
0.0
 11
2100.3468141818512
 21
7288.3968871410816
 31
0.0
  0
LINE
  5
7E89
  8
3
  6
CONTINUOUS
 62
     0
 10
3145.9002601818502
 20
6391.2883311410806
 30
0.0
 11
2100.3468141818512
 21
6391.2883311410806
 31
0.0
  0
LINE
  5
7E8A
  8
3
  6
CONTINUOUS
 62
     0
 10
2145.3468141818512
 20
7198.3968871410807
 30
0.0
 11
2145.3468141818512
 21
6481.2883311410806
 31
0.0
  0
INSERT
  5
7E8B
  8
3
  6
CONTINUOUS
 62
     0
  2
_OPEN
 10
2145.3468141818512
 20
7288.3968871410816
 30
0.0
 41
90.0
 42
90.0
 43
90.0
 50
90.0
  0
INSERT
  5
7E8C
  8
3
  6
CONTINUOUS
 62
     0
  2
_OPEN
 10
2145.3468141818512
 20
6391.2883311410806
 30
0.0
 41
90.0
 42
90.0
 43
90.0
 50
270.0
  0
TEXT
  8
3
  40
135
  5
7F18
  62
0
  72
0
  71
0
 10
1762.85
 20
6628.75
 30
0.000000
  1
897
  0
POINT
  5
7E8E
  8
DEFPOINTS
  6
CONTINUOUS
 62
     0
 10
3918.5627951818501
 20
7288.3968871410816
 30
0.0
  0
POINT
  5
7E8F
  8
DEFPOINTS
  6
CONTINUOUS
 62
     0
 10
3168.4002601818502
 20
6391.2883311410806
 30
0.0
  0
POINT
  5
7E90
  8
DEFPOINTS
  6
CONTINUOUS
 62
     0
 10
2145.3468141818512
 20
6391.2883311410806
 30
0.0
  0
ENDBLK
  5
7C55
  8
0
  0
BLOCK
  8
0
  2
*D5
 70
     1
 10
0.0
 20
0.0
 30
0.0
  3
*D5
  1

  0
LINE
  5
7E91
  8
3
  6
CONTINUOUS
 62
     0
 10
3137.4051751818511
 20
4841.2883311410824
 30
0.0
 11
2100.3468141818498
 21
4841.2883311410824
 31
0.0
  0
LINE
  5
7E92
  8
3
  6
CONTINUOUS
 62
     0
 10
2145.3468141818498
 20
6301.2883311410824
 30
0.0
 11
2145.3468141818498
 21
4931.2883311410824
 31
0.0
  0
INSERT
  5
7E93
  8
3
  6
CONTINUOUS
 62
     0
  2
_OPEN
 10
2145.3468141818498
 20
6391.2883311410806
 30
0.0
 41
90.0
 42
90.0
 43
90.0
 50
90.0
  0
INSERT
  5
7E94
  8
3
  6
CONTINUOUS
 62
     0
  2
_OPEN
 10
2145.3468141818498
 20
4841.2883311410824
 30
0.0
 41
90.0
 42
90.0
 43
90.0
 50
270.0
  0
TEXT
  8
3
  40
135
  5
7F19
  62
0
  72
0
  71
0
 10
1762.85
 20
5377.34
 30
0.000000
  1
1550
  0
POINT
  5
7E96
  8
DEFPOINTS
  6
CONTINUOUS
 62
     0
 10
3168.4002601818502
 20
6391.2883311410806
 30
0.0
  0
POINT
  5
7E97
  8
DEFPOINTS
  6
CONTINUOUS
 62
     0
 10
3159.9051751818511
 20
4841.2883311410824
 30
0.0
  0
POINT
  5
7E98
  8
DEFPOINTS
  6
CONTINUOUS
 62
     0
 10
2145.3468141818498
 20
4841.2883311410824
 30
0.0
  0
ENDBLK
  5
7D27
  8
0
  0
BLOCK
  8
0
  2
*D6
 70
     1
 10
0.0
 20
0.0
 30
0.0
  3
*D6
  1

  0
LINE
  5
7E99
  8
3
  6
CONTINUOUS
 62
     0
 10
3137.4051751818511
 20
4747.2883311410806
 30
0.0
 11
2100.3468141818498
 21
4747.2883311410806
 31
0.0
  0
LINE
  5
7E9A
  8
3
  6
CONTINUOUS
 62
     0
 10
2145.3468141818498
 20
4931.2883311410824
 30
0.0
 11
2145.3468141818498
 21
5021.2883311410806
 31
0.0
  0
LINE
  5
7E9B
  8
3
  6
CONTINUOUS
 62
     0
 10
2145.3468141818498
 20
4657.2883311410806
 30
0.0
 11
2145.3468141818498
 21
4567.2883311410806
 31
0.0
  0
TEXT
  8
3
  40
135
  5
7F1A
  62
0
  72
0
  71
0
 10
1762.85
 20
4329.81
 30
0.000000
  1
94
  0
LINE
  5
7E9D
  8
3
  6
CONTINUOUS
 62
     0
 10
2145.3468141818498
 20
4841.2883311410824
 30
0.0
 11
2145.3468141818498
 21
4747.2883311410806
 31
0.0
  0
INSERT
  5
7E9E
  8
3
  6
CONTINUOUS
 62
     0
  2
_OPEN
 10
2145.3468141818498
 20
4841.2883311410824
 30
0.0
 41
90.0
 42
90.0
 43
90.0
 50
270.0
  0
INSERT
  5
7E9F
  8
3
  6
CONTINUOUS
 62
     0
  2
_OPEN
 10
2145.3468141818498
 20
4747.2883311410806
 30
0.0
 41
90.0
 42
90.0
 43
90.0
 50
90.0
  0
POINT
  5
7EA0
  8
DEFPOINTS
  6
CONTINUOUS
 62
     0
 10
3159.9051751818511
 20
4841.2883311410824
 30
0.0
  0
POINT
  5
7EA1
  8
DEFPOINTS
  6
CONTINUOUS
 62
     0
 10
3159.9051751818511
 20
4747.2883311410806
 30
0.0
  0
POINT
  5
7EA2
  8
DEFPOINTS
  6
CONTINUOUS
 62
     0
 10
2145.3468141818498
 20
4747.2883311410806
 30
0.0
  0
ENDBLK
  5
7C6B
  8
0
  0
BLOCK
  8
0
  2
*D7
 70
     1
 10
0.0
 20
0.0
 30
0.0
  3
*D7
  1

  0
LINE
  5
7EA3
  8
3
  6
CONTINUOUS
 62
     0
 10
3084.9051751818511
 20
6409.7883311410806
 30
0.0
 11
3084.9051751818511
 21
7564.6411401410796
 31
0.0
  0
LINE
  5
7EA4
  8
3
  6
CONTINUOUS
 62
     0
 10
3909.9051751818511
 20
7310.1293551410799
 30
0.0
 11
3909.9051751818511
 21
7564.6411401410796
 31
0.0
  0
LINE
  5
7EA5
  8
3
  6
CONTINUOUS
 62
     0
 10
3174.905175181852
 20
7519.6411401410815
 30
0.0
 11
3819.9051751818511
 21
7519.6411401410815
 31
0.0
  0
INSERT
  5
7EA6
  8
3
  6
CONTINUOUS
 62
     0
  2
_OPEN
 10
3084.9051751818511
 20
7519.6411401410815
 30
0.0
 41
90.0
 42
90.0
 43
90.0
 50
180.0
  0
INSERT
  5
7EA7
  8
3
  6
CONTINUOUS
 62
     0
  2
_OPEN
 10
3909.9051751818511
 20
7519.6411401410815
 30
0.0
 41
90.0
 42
90.0
 43
90.0
  0
TEXT
  8
3
  40
135
  5
7F1B
  62
0
  72
0
  71
0
 10
3206.18
 20
7393.19
 30
0.000000
  1
825
  0
POINT
  5
7EA9
  8
DEFPOINTS
  6
CONTINUOUS
 62
     0
 10
3084.9051751818511
 20
6387.2883311410824
 30
0.0
  0
POINT
  5
7EAA
  8
DEFPOINTS
  6
CONTINUOUS
 62
     0
 10
3909.9051751818511
 20
7287.6293551410809
 30
0.0
  0
POINT
  5
7EAB
  8
DEFPOINTS
  6
CONTINUOUS
 62
     0
 10
3909.9051751818511
 20
7519.6411401410815
 30
0.0
  0
ENDBLK
  5
7B74
  8
0
  0
BLOCK
  8
0
  2
*D8
 70
     1
 10
0.0
 20
0.0
 30
0.0
  3
*D8
  1

  0
LINE
  5
7EAC
  8
3
  6
CONTINUOUS
 62
     0
 10
4988.9051751818506
 20
6413.7883311410806
 30
0.0
 11
4988.9051751818506
 21
7564.6411401410796
 31
0.0
  0
LINE
  5
7EAD
  8
3
  6
CONTINUOUS
 62
     0
 10
3999.9051751818502
 20
7519.6411401410815
 30
0.0
 11
4898.9051751818506
 21
7519.6411401410815
 31
0.0
  0
INSERT
  5
7EAE
  8
3
  6
CONTINUOUS
 62
     0
  2
_OPEN
 10
3909.9051751818511
 20
7519.6411401410815
 30
0.0
 41
90.0
 42
90.0
 43
90.0
 50
180.0
  0
INSERT
  5
7EAF
  8
3
  6
CONTINUOUS
 62
     0
  2
_OPEN
 10
4988.9051751818506
 20
7519.6411401410815
 30
0.0
 41
90.0
 42
90.0
 43
90.0
  0
TEXT
  8
3
  40
135
  5
7F1C
  62
0
  72
0
  71
0
 10
4179.41
 20
7393.19
 30
0.000000
  1
1079
  0
POINT
  5
7EB1
  8
DEFPOINTS
  6
CONTINUOUS
 62
     0
 10
3909.9051751818511
 20
7287.6293551410809
 30
0.0
  0
POINT
  5
7EB2
  8
DEFPOINTS
  6
CONTINUOUS
 62
     0
 10
4988.9051751818506
 20
6391.2883311410806
 30
0.0
  0
POINT
  5
7EB3
  8
DEFPOINTS
  6
CONTINUOUS
 62
     0
 10
4988.9051751818506
 20
7519.6411401410815
 30
0.0
  0
ENDBLK
  5
7D45
  8
0
  0
BLOCK
  8
0
  2
*D9
 70
     1
 10
0.0
 20
0.0
 30
0.0
  3
*D9
  1

  0
LINE
  5
7EB4
  8
3
  6
CONTINUOUS
 62
     0
 10
3159.9051751818511
 20
9409.7771540000012
 30
0.0
 11
3159.9051751818511
 21
8932.2584230000011
 31
0.0
  0
LINE
  5
7EB5
  8
3
  6
CONTINUOUS
 62
     0
 10
5709.9051751818506
 20
9409.7771540000012
 30
0.0
 11
5709.9051751818506
 21
8932.2584230000011
 31
0.0
  0
LINE
  5
7EB6
  8
3
  6
CONTINUOUS
 62
     0
 10
3249.9051751818511
 20
8977.2584229999993
 30
0.0
 11
5619.9051751818506
 21
8977.2584229999993
 31
0.0
  0
INSERT
  5
7EB7
  8
3
  6
CONTINUOUS
 62
     0
  2
_OPEN
 10
3159.9051751818511
 20
8977.2584229999993
 30
0.0
 41
90.0
 42
90.0
 43
90.0
 50
180.0
  0
INSERT
  5
7EB8
  8
3
  6
CONTINUOUS
 62
     0
  2
_OPEN
 10
5709.9051751818506
 20
8977.2584229999993
 30
0.0
 41
90.0
 42
90.0
 43
90.0
  0
TEXT
  8
3
  40
135
  5
7F1D
  62
0
  72
0
  71
0
 10
4040.46
 20
8850.81
 30
0.000000
  1
2550
  0
POINT
  5
7EBA
  8
DEFPOINTS
  6
CONTINUOUS
 62
     0
 10
3159.9051751818511
 20
9432.2771540000012
 30
0.0
  0
POINT
  5
7EBB
  8
DEFPOINTS
  6
CONTINUOUS
 62
     0
 10
5709.9051751818506
 20
9432.2771540000012
 30
0.0
  0
POINT
  5
7EBC
  8
DEFPOINTS
  6
CONTINUOUS
 62
     0
 10
5709.9051751818506
 20
8977.2584229999993
 30
0.0
  0
ENDBLK
  5
7CEC
  8
0
  0
BLOCK
  8
0
  2
*D10
 70
     1
 10
0.0
 20
0.0
 30
0.0
  3
*D10
  1

  0
LINE
  5
7EBD
  8
3
  6
CONTINUOUS
 62
     0
 10
5732.4051751818506
 20
10712.277153999999
 30
0.0
 11
6110.9241751818527
 21
10712.277153999999
 31
0.0
  0
LINE
  5
7EBE
  8
3
  6
CONTINUOUS
 62
     0
 10
5727.4051751818497
 20
9432.2771540000012
 30
0.0
 11
6110.9241751818508
 21
9432.2771540000012
 31
0.0
  0
LINE
  5
7EBF
  8
3
  6
CONTINUOUS
 62
     0
 10
6065.9241751818518
 20
10622.277153999999
 30
0.0
 11
6065.9241751818518
 21
9522.2771540000012
 31
0.0
  0
INSERT
  5
7EC0
  8
3
  6
CONTINUOUS
 62
     0
  2
_OPEN
 10
6065.9241751818518
 20
10712.277153999999
 30
0.0
 41
90.0
 42
90.0
 43
90.0
 50
90.0
  0
INSERT
  5
7EC1
  8
3
  6
CONTINUOUS
 62
     0
  2
_OPEN
 10
6065.9241751818518
 20
9432.2771540000012
 30
0.0
 41
90.0
 42
90.0
 43
90.0
 50
270.0
  0
TEXT
  8
3
  40
135
  5
7F1E
  62
0
  72
0
  71
0
 10
5683.42
 20
9780.03
 30
0.000000
  1
1280
  0
POINT
  5
7EC3
  8
DEFPOINTS
  6
CONTINUOUS
 62
     0
 10
5709.9051751818506
 20
10712.277153999999
 30
0.0
  0
POINT
  5
7EC4
  8
DEFPOINTS
  6
CONTINUOUS
 62
     0
 10
5704.9051751818506
 20
9432.2771540000012
 30
0.0
  0
POINT
  5
7EC5
  8
DEFPOINTS
  6
CONTINUOUS
 62
     0
 10
6065.9241751818518
 20
9432.2771540000012
 30
0.0
  0
ENDBLK
  5
7CF7
  8
0
  0
BLOCK
  8
0
  2
*D11
 70
     1
 10
0.0
 20
0.0
 30
0.0
  3
*D11
  1

  0
LINE
  5
7EC6
  8
3
  6
CONTINUOUS
 62
     0
 10
7404.0464791818504
 20
7242.7883311410806
 30
0.0
 11
7404.0464791818504
 21
7503.8962251410812
 31
0.0
  0
LINE
  5
7EC7
  8
3
  6
CONTINUOUS
 62
     0
 10
8354.0464791818504
 20
7242.7883311410806
 30
0.0
 11
8354.0464791818504
 21
7503.8962251410812
 31
0.0
  0
LINE
  5
7EC8
  8
3
  6
CONTINUOUS
 62
     0
 10
7494.0464791818513
 20
7458.8962251410812
 30
0.0
 11
8264.0464791818504
 21
7458.8962251410812
 31
0.0
  0
INSERT
  5
7EC9
  8
3
  6
CONTINUOUS
 62
     0
  2
_OPEN
 10
7404.0464791818504
 20
7458.8962251410812
 30
0.0
 41
90.0
 42
90.0
 43
90.0
 50
180.0
  0
INSERT
  5
7ECA
  8
3
  6
CONTINUOUS
 62
     0
  2
_OPEN
 10
8354.0464791818504
 20
7458.8962251410812
 30
0.0
 41
90.0
 42
90.0
 43
90.0
  0
TEXT
  8
3
  40
135
  5
7F1F
  62
0
  72
0
  71
0
 10
7555.64
 20
7332.45
 30
0.000000
  1
950
  0
POINT
  5
7ECC
  8
DEFPOINTS
  6
CONTINUOUS
 62
     0
 10
7404.0464791818504
 20
7220.2883311410806
 30
0.0
  0
POINT
  5
7ECD
  8
DEFPOINTS
  6
CONTINUOUS
 62
     0
 10
8354.0464791818504
 20
7220.2883311410806
 30
0.0
  0
POINT
  5
7ECE
  8
DEFPOINTS
  6
CONTINUOUS
 62
     0
 10
8354.0464791818504
 20
7458.8962251410812
 30
0.0
  0
ENDBLK
  5
7BAA
  8
0
  0
BLOCK
  8
0
  2
*D12
 70
     1
 10
0.0
 20
0.0
 30
0.0
  3
*D12
  1

  0
LINE
  5
7ECF
  8
3
  6
CONTINUOUS
 62
     0
 10
7039.0464791818522
 20
6791.7883311410824
 30
0.0
 11
7039.0464791818522
 21
7764.3268491410818
 31
0.0
  0
LINE
  5
7ED0
  8
3
  6
CONTINUOUS
 62
     0
 10
7879.0464791818513
 20
7683.8352211410802
 30
0.0
 11
7879.0464791818513
 21
7764.3268491410818
 31
0.0
  0
LINE
  5
7ED1
  8
3
  6
CONTINUOUS
 62
     0
 10
7129.0464791818513
 20
7719.3268491410818
 30
0.0
 11
7789.0464791818504
 21
7719.3268491410818
 31
0.0
  0
INSERT
  5
7ED2
  8
3
  6
CONTINUOUS
 62
     0
  2
_OPEN
 10
7039.0464791818522
 20
7719.3268491410818
 30
0.0
 41
90.0
 42
90.0
 43
90.0
 50
180.0
  0
INSERT
  5
7ED3
  8
3
  6
CONTINUOUS
 62
     0
  2
_OPEN
 10
7879.0464791818513
 20
7719.3268491410818
 30
0.0
 41
90.0
 42
90.0
 43
90.0
  0
TEXT
  8
3
  40
135
  5
7F20
  62
0
  72
0
  71
0
 10
7181.95
 20
7705.38
 30
0.000000
  1
MAX
  0
TEXT
  8
3
  40
135
  5
7F21
  62
0
  72
0
  71
0
 10
7181.95
 20
7529.88
 30
0.000000
  1
890
  0
POINT
  5
7ED5
  8
DEFPOINTS
  6
CONTINUOUS
 62
     0
 10
7039.0464791818522
 20
6769.2883311410806
 30
0.0
  0
POINT
  5
7ED6
  8
DEFPOINTS
  6
CONTINUOUS
 62
     0
 10
7879.0464791818513
 20
7661.3352211410793
 30
0.0
  0
POINT
  5
7ED7
  8
DEFPOINTS
  6
CONTINUOUS
 62
     0
 10
7879.0464791818513
 20
7719.3268491410818
 30
0.0
  0
ENDBLK
  5
7D5D
  8
0
  0
BLOCK
  8
0
  2
*D13
 70
     1
 10
0.0
 20
0.0
 30
0.0
  3
*D13
  1

  0
LINE
  5
7ED8
  8
3
  6
CONTINUOUS
 62
     0
 10
8457.0464791818504
 20
7088.7883311410806
 30
0.0
 11
8457.0464791818504
 21
7764.3268491410818
 31
0.0
  0
LINE
  5
7ED9
  8
3
  6
CONTINUOUS
 62
     0
 10
7969.0464791818504
 20
7719.3268491410818
 30
0.0
 11
8367.0464791818486
 21
7719.3268491410818
 31
0.0
  0
TEXT
  8
3
  40
135
  5
7F22
  62
0
  72
0
  71
0
 10
7911.95
 20
7593.74
 30
0.000000
  1
578
  0
INSERT
  5
7EDB
  8
3
  6
CONTINUOUS
 62
     0
  2
_OPEN
 10
7879.0464791818513
 20
7719.3268491410818
 30
0.0
 41
90.0
 42
90.0
 43
90.0
 50
180.0
  0
INSERT
  5
7EDC
  8
3
  6
CONTINUOUS
 62
     0
  2
_OPEN
 10
8457.0464791818504
 20
7719.3268491410818
 30
0.0
 41
90.0
 42
90.0
 43
90.0
  0
POINT
  5
7EDD
  8
DEFPOINTS
  6
CONTINUOUS
 62
     0
 10
7879.0464791818513
 20
7661.3352211410793
 30
0.0
  0
POINT
  5
7EDE
  8
DEFPOINTS
  6
CONTINUOUS
 62
     0
 10
8457.0464791818504
 20
7066.2883311410824
 30
0.0
  0
POINT
  5
7EDF
  8
DEFPOINTS
  6
CONTINUOUS
 62
     0
 10
8457.0464791818504
 20
7719.3268491410818
 30
0.0
  0
ENDBLK
  5
7C87
  8
0
  0
BLOCK
  8
0
  2
*D14
 70
     1
 10
0.0
 20
0.0
 30
0.0
  3
*D14
  1

  0
LINE
  5
7EE0
  8
3
  6
CONTINUOUS
 62
     0
 10
8479.5464791818504
 20
7016.2883311410824
 30
0.0
 11
8861.3451581818535
 21
7016.2883311410824
 31
0.0
  0
LINE
  5
7EE1
  8
3
  6
CONTINUOUS
 62
     0
 10
8479.5464791818504
 20
5766.2883311410806
 30
0.0
 11
8861.3451581818535
 21
5766.2883311410806
 31
0.0
  0
LINE
  5
7EE2
  8
3
  6
CONTINUOUS
 62
     0
 10
8816.3451581818517
 20
6926.2883311410824
 30
0.0
 11
8816.3451581818517
 21
5856.2883311410806
 31
0.0
  0
INSERT
  5
7EE3
  8
3
  6
CONTINUOUS
 62
     0
  2
_OPEN
 10
8816.3451581818517
 20
7016.2883311410824
 30
0.0
 41
90.0
 42
90.0
 43
90.0
 50
90.0
  0
INSERT
  5
7EE4
  8
3
  6
CONTINUOUS
 62
     0
  2
_OPEN
 10
8816.3451581818517
 20
5766.2883311410806
 30
0.0
 41
90.0
 42
90.0
 43
90.0
 50
270.0
  0
TEXT
  8
3
  40
135
  5
7F23
  62
0
  72
0
  71
0
 10
8433.85
 20
6109.64
 30
0.000000
  1
φ1250
  0
POINT
  5
7EE6
  8
DEFPOINTS
  6
CONTINUOUS
 62
     0
 10
8457.0464791818504
 20
7016.2883311410824
 30
0.0
  0
POINT
  5
7EE7
  8
DEFPOINTS
  6
CONTINUOUS
 62
     0
 10
8457.0464791818504
 20
5766.2883311410806
 30
0.0
  0
POINT
  5
7EE8
  8
DEFPOINTS
  6
CONTINUOUS
 62
     0
 10
8816.3451581818517
 20
5766.2883311410806
 30
0.0
  0
ENDBLK
  5
7D68
  8
0
  0
BLOCK
  8
0
  2
*D15
 70
     1
 10
0.0
 20
0.0
 30
0.0
  3
*D15
  1

  0
LINE
  5
7EE9
  8
3
  6
CONTINUOUS
 62
     0
 10
7152.0464791818513
 20
4724.7883311410806
 30
0.0
 11
7152.0464791818513
 21
4358.5527281410796
 31
0.0
  0
LINE
  5
7EEA
  8
3
  6
CONTINUOUS
 62
     0
 10
7879.0464791818513
 20
4564.5125231410811
 30
0.0
 11
7879.0464791818513
 21
4358.5527281410796
 31
0.0
  0
LINE
  5
7EEB
  8
3
  6
CONTINUOUS
 62
     0
 10
7242.0464791818513
 20
4403.5527281410814
 30
0.0
 11
7789.0464791818504
 21
4403.5527281410814
 31
0.0
  0
INSERT
  5
7EEC
  8
3
  6
CONTINUOUS
 62
     0
  2
_OPEN
 10
7152.0464791818513
 20
4403.5527281410814
 30
0.0
 41
90.0
 42
90.0
 43
90.0
 50
180.0
  0
INSERT
  5
7EED
  8
3
  6
CONTINUOUS
 62
     0
  2
_OPEN
 10
7879.0464791818513
 20
4403.5527281410814
 30
0.0
 41
90.0
 42
90.0
 43
90.0
  0
TEXT
  8
3
  40
135
  5
7F24
  62
0
  72
0
  71
0
 10
7251.06
 20
4277.10
 30
0.000000
  1
727
  0
POINT
  5
7EEF
  8
DEFPOINTS
  6
CONTINUOUS
 62
     0
 10
7152.0464791818513
 20
4747.2883311410806
 30
0.0
  0
POINT
  5
7EF0
  8
DEFPOINTS
  6
CONTINUOUS
 62
     0
 10
7879.0464791818513
 20
4587.0125231410811
 30
0.0
  0
POINT
  5
7EF1
  8
DEFPOINTS
  6
CONTINUOUS
 62
     0
 10
7879.0464791818513
 20
4403.5527281410814
 30
0.0
  0
ENDBLK
  5
7BF5
  8
0
  0
BLOCK
  8
0
  2
*D16
 70
     1
 10
0.0
 20
0.0
 30
0.0
  3
*D16
  1

  0
LINE
  5
7EF2
  8
3
  6
CONTINUOUS
 62
     0
 10
8432.0464791818504
 20
4724.7883311410806
 30
0.0
 11
8432.0464791818504
 21
4358.5527281410796
 31
0.0
  0
LINE
  5
7EF3
  8
3
  6
CONTINUOUS
 62
     0
 10
7969.0464791818504
 20
4403.5527281410814
 30
0.0
 11
8342.0464791818504
 21
4403.5527281410814
 31
0.0
  0
TEXT
  8
3
  40
135
  5
7F25
  62
0
  72
0
  71
0
 10
7894.29
 20
4277.10
 30
0.000000
  1
553
  0
INSERT
  5
7EF5
  8
3
  6
CONTINUOUS
 62
     0
  2
_OPEN
 10
7879.0464791818513
 20
4403.5527281410814
 30
0.0
 41
90.0
 42
90.0
 43
90.0
 50
180.0
  0
INSERT
  5
7EF6
  8
3
  6
CONTINUOUS
 62
     0
  2
_OPEN
 10
8432.0464791818504
 20
4403.5527281410814
 30
0.0
 41
90.0
 42
90.0
 43
90.0
  0
POINT
  5
7EF7
  8
DEFPOINTS
  6
CONTINUOUS
 62
     0
 10
7879.0464791818513
 20
4587.0125231410811
 30
0.0
  0
POINT
  5
7EF8
  8
DEFPOINTS
  6
CONTINUOUS
 62
     0
 10
8432.0464791818504
 20
4747.2883311410806
 30
0.0
  0
POINT
  5
7EF9
  8
DEFPOINTS
  6
CONTINUOUS
 62
     0
 10
8432.0464791818504
 20
4403.5527281410814
 30
0.0
  0
ENDBLK
  5
7C1A
  8
0
  0
BLOCK
  8
0
  2
*D17
 70
     1
 10
0.0
 20
0.0
 30
0.0
  3
*D17
  1

  0
LINE
  5
7EFA
  8
3
  6
CONTINUOUS
 62
     0
 10
3145.9002601818502
 20
6391.2883311410806
 30
0.0
 11
2417.402976181852
 21
6391.2883311410806
 31
0.0
  0
LINE
  5
7EFB
  8
3
  6
CONTINUOUS
 62
     0
 10
3062.4051751818511
 20
5057.2883311410806
 30
0.0
 11
2417.402976181851
 21
5057.2883311410806
 31
0.0
  0
LINE
  5
7EFC
  8
3
  6
CONTINUOUS
 62
     0
 10
2462.402976181852
 20
6301.2883311410824
 30
0.0
 11
2462.402976181852
 21
5147.2883311410824
 31
0.0
  0
INSERT
  5
7EFD
  8
3
  6
CONTINUOUS
 62
     0
  2
_OPEN
 10
2462.402976181852
 20
6391.2883311410806
 30
0.0
 41
90.0
 42
90.0
 43
90.0
 50
90.0
  0
INSERT
  5
7EFE
  8
3
  6
CONTINUOUS
 62
     0
  2
_OPEN
 10
2462.402976181851
 20
5057.2883311410806
 30
0.0
 41
90.0
 42
90.0
 43
90.0
 50
270.0
  0
TEXT
  8
3
  40
135
  5
7F26
  62
0
  72
0
  71
0
 10
2079.90
 20
5548.87
 30
0.000000
  1
1334
  0
POINT
  5
7F00
  8
DEFPOINTS
  6
CONTINUOUS
 62
     0
 10
3168.4002601818502
 20
6391.2883311410806
 30
0.0
  0
POINT
  5
7F01
  8
DEFPOINTS
  6
CONTINUOUS
 62
     0
 10
3084.9051751818511
 20
5057.2883311410806
 30
0.0
  0
POINT
  5
7F02
  8
DEFPOINTS
  6
CONTINUOUS
 62
     0
 10
2462.402976181851
 20
5057.2883311410806
 30
0.0
  0
ENDBLK
  5
7C77
  8
0
  0
BLOCK
  8
0
  2
*D18
 70
     1
 10
0.0
 20
0.0
 30
0.0
  3
*D18
  1

  0
LINE
  5
7F03
  8
3
 62
     0
 10
3873.5627951818501
 20
7288.3968871410816
 30
0.0
 11
1791.7525280960699
 21
7288.3968871410816
 31
0.0
  0
LINE
  5
7F04
  8
3
 62
     0
 10
3137.4051751818511
 20
4747.2883311410806
 30
0.0
 11
1791.752528096069
 21
4747.2883311410824
 31
0.0
  0
LINE
  5
7F05
  8
3
 62
     0
 10
1836.7525280960699
 20
7198.3968871410834
 30
0.0
 11
1836.752528096069
 21
4837.2883311410824
 31
0.0
  0
INSERT
  5
7F06
  8
3
 62
     0
  2
_OPEN
 10
1836.7525280960699
 20
7288.3968871410816
 30
0.0
 41
90.0
 42
90.0
 43
90.0
 50
90.0
  0
INSERT
  5
7F07
  8
3
 62
     0
  2
_OPEN
 10
1836.752528096069
 20
4747.2883311410824
 30
0.0
 41
90.0
 42
90.0
 43
90.0
 50
270.0
  0
TEXT
  8
3
  40
135
  5
7F27
  62
0
  72
0
  71
0
 10
1454.25
 20
5800.78
 30
0.000000
  1
2541
  0
POINT
  5
7F09
  8
DEFPOINTS
 62
     0
 10
3896.062795181851
 20
7288.3968871410816
 30
0.0
  0
POINT
  5
7F0A
  8
DEFPOINTS
 62
     0
 10
3159.9051751818511
 20
4747.2883311410806
 30
0.0
  0
POINT
  5
7F0B
  8
DEFPOINTS
 62
     0
 10
1836.752528096069
 20
4747.2883311410824
 30
0.0
  0
ENDBLK
  5
7D33
  8
0
  0
BLOCK
  8
0
  2
*D19
 70
     1
 10
0.0
 20
0.0
 30
0.0
  3
*D19
  1

  0
LINE
  5
7F0C
  8
3
 62
     0
 10
3084.9051751818511
 20
6409.7883311410806
 30
0.0
 11
3084.9051751818511
 21
7821.7457346624096
 31
0.0
  0
LINE
  5
7F0D
  8
3
 62
     0
 10
5709.9051751818506
 20
5013.7883311410824
 30
0.0
 11
5709.9051751818506
 21
7821.7457346624096
 31
0.0
  0
LINE
  5
7F0E
  8
3
 62
     0
 10
3174.905175181852
 20
7776.7457346624115
 30
0.0
 11
5619.9051751818506
 21
7776.7457346624115
 31
0.0
  0
INSERT
  5
7F0F
  8
3
 62
     0
  2
_OPEN
 10
3084.9051751818511
 20
7776.7457346624115
 30
0.0
 41
90.0
 42
90.0
 43
90.0
 50
180.0
  0
INSERT
  5
7F10
  8
3
 62
     0
  2
_OPEN
 10
5709.9051751818506
 20
7776.7457346624115
 30
0.0
 41
90.0
 42
90.0
 43
90.0
  0
TEXT
  8
3
  40
135
  5
7F28
  62
0
  72
0
  71
0
 10
4097.68
 20
7650.30
 30
0.000000
  1
2625
  0
POINT
  5
7F12
  8
DEFPOINTS
 62
     0
 10
3084.9051751818511
 20
6387.2883311410824
 30
0.0
  0
POINT
  5
7F13
  8
DEFPOINTS
 62
     0
 10
5709.9051751818506
 20
4991.2883311410806
 30
0.0
  0
POINT
  5
7F14
  8
DEFPOINTS
 62
     0
 10
5709.9051751818506
 20
7776.7457346624115
 30
0.0
  0
ENDBLK
  5
7D51
  8
0
  0
ENDSEC
  0
SECTION
  2
ENTITIES
  0
LINE
  5
7A78
  8
1
  6
CONTINUOUS
 10
3159.9051751818511
 20
4747.2883311410806
 30
0.0
 11
5709.9051751818506
 21
4747.2883311410806
 31
0.0
  0
LINE
  5
7A79
  8
1
  6
CONTINUOUS
 10
3159.9051751818511
 20
4822.2883311410824
 30
0.0
 11
5709.9051751818506
 21
4822.2883311410824
 31
0.0
  0
POLYLINE
  5
7A7A
  8
1
  6
CONTINUOUS
 66
     1
 10
0.0
 20
0.0
 30
0.0
  0
VERTEX
  5
7E67
  8
1
  6
CONTINUOUS
 10
3084.9051751818511
 20
5057.2883311410806
 30
0.0
  0
VERTEX
  5
7E68
  8
1
  6
CONTINUOUS
 10
3909.9051751818511
 20
5130.2883311410806
 30
0.0
 42
0.391657
  0
VERTEX
  5
7E69
  8
1
  6
CONTINUOUS
 10
4992.4387281818508
 20
6300.2883311410824
 30
0.0
 42
0.4387800000000001
  0
VERTEX
  5
7E6A
  8
1
  6
CONTINUOUS
 10
3918.5627951818501
 20
7288.3968871410816
 30
0.0
 42
0.390066
  0
VERTEX
  5
7E6B
  8
1
  6
CONTINUOUS
 10
3163.9539461818508
 20
6468.2883311410806
 30
0.0
 42
0.049316
  0
VERTEX
  5
7E6C
  8
1
  6
CONTINUOUS
 10
3176.906130181851
 20
6337.2883311410806
 30
0.0
 42
0.393627
  0
SEQEND
  5
7E6D
  8
1
  6
CONTINUOUS
  0
LINE
  5
7A82
  8
1
  6
CONTINUOUS
 10
3159.9051751818511
 20
4841.2883311410824
 30
0.0
 11
5709.9051751818506
 21
4841.2883311410824
 31
0.0
  0
LINE
  5
7A83
  8
1
  6
CONTINUOUS
 10
3159.9051751818511
 20
4991.2883311410806
 30
0.0
 11
5709.9051751818506
 21
4991.2883311410806
 31
0.0
  0
CIRCLE
  5
7A84
  8
1
  6
CONTINUOUS
 10
3909.9051751818511
 20
6391.2883311410806
 30
0.0
 40
625.0
  0
CIRCLE
  5
7A85
  8
1
  6
CONTINUOUS
 10
3909.9051751818511
 20
6391.2883311410806
 30
0.0
 40
675.0
  0
LINE
  5
7A86
  8
1
  6
CONTINUOUS
 10
3084.9051751818511
 20
6387.2883311410824
 30
0.0
 11
3084.9051751818511
 21
5001.2883311410824
 31
0.0
  0
LINE
  5
7A87
  8
1
  6
CONTINUOUS
 10
3134.9051751818511
 20
6337.2883311410806
 30
0.0
 11
3134.9051751818511
 21
5057.2883311410806
 31
0.0
  0
LINE
  5
7A88
  8
1
  6
CONTINUOUS
 10
3159.9051751818511
 20
4822.2883311410824
 30
0.0
 11
3159.9051751818511
 21
4747.2883311410806
 31
0.0
  0
LINE
  5
7A89
  8
1
  6
CONTINUOUS
 10
3159.9051751818511
 20
4991.2883311410806
 30
0.0
 11
3159.9051751818511
 21
4841.2883311410824
 31
0.0
  0
LINE
  5
7A8A
  8
1
  6
CONTINUOUS
 10
3176.906130181851
 20
6337.2883311410806
 30
0.0
 11
3084.9051751818511
 21
6337.2883311410806
 31
0.0
  0
LINE
  5
7A8B
  8
1
  6
CONTINUOUS
 10
5168.3694501818509
 20
5039.6886931410809
 30
0.0
 11
3709.6756121818498
 21
6070.6762261410813
 31
0.0
  0
LINE
  5
7A8C
  8
1
  6
CONTINUOUS
 10
5221.340234181851
 20
5124.5067101410823
 30
0.0
 11
3762.6463961818508
 21
6155.4942431410809
 31
0.0
  0
LINE
  5
7A8D
  8
1
  6
CONTINUOUS
 10
5433.4895811818496
 20
5388.530971141081
 30
0.0
 11
4165.200200181851
 21
6670.050685141081
 31
0.0
  0
LINE
  5
7A8E
  8
1
  6
CONTINUOUS
 10
5365.9512151818508
 20
5314.784316141081
 30
0.0
 11
4097.6618341818521
 21
6596.3040301410811
 31
0.0
  0
ARC
  5
7A8F
  8
1
  6
CONTINUOUS
 10
3909.9051751818511
 20
6391.2883311410806
 30
0.0
 40
378.0
 50
47.516049000000002
 51
238.01428300000001
  0
CIRCLE
  5
7A90
  8
1
  6
CONTINUOUS
 10
3909.9051751818511
 20
6391.2883311410806
 30
0.0
 40
278.0
  0
LINE
  5
7A91
  8
2
  6
CENTER
 10
3909.9051751818511
 20
10833.634654
 30
0.0
 11
3909.9051751818511
 21
9237.6890470000017
 31
0.0
  0
LINE
  5
7A92
  8
2
  6
CENTER
 10
8556.4897701818481
 20
6391.2883311410806
 30
0.0
 11
6883.0546541818521
 21
6391.2883311410806
 31
0.0
  0
ARC
  5
7A93
  8
1
  6
CONTINUOUS
 10
5284.9051751818506
 20
5226.2883311410806
 30
0.0
 40
220.0
 50
238.01428300000001
 51
47.516049000000002
  0
ARC
  5
7A94
  8
1
  6
CONTINUOUS
 10
5284.9051751818506
 20
5226.2883311410806
 30
0.0
 40
199.0
 50
320.126825
 51
219.87317499999989
  0
LINE
  5
7A95
  8
1
  6
CONTINUOUS
 10
5059.9051751818497
 20
5046.2883311410806
 30
0.0
 11
5509.9051751818506
 21
5046.2883311410806
 31
0.0
  0
CIRCLE
  5
7A96
  8
1
  6
CONTINUOUS
 10
5284.9051751818506
 20
5226.2883311410806
 30
0.0
 40
120.0
  0
LINE
  5
7A97
  8
2
  6
CENTER
 10
5404.9051751818506
 20
5226.2883311410806
 30
0.0
 11
5164.9051751818497
 21
5226.2883311410806
 31
0.0
  0
LINE
  5
7A98
  8
1
  6
CONTINUOUS
 10
5122.9051751818506
 20
5088.7875141410796
 30
0.0
 11
5132.1795641818508
 21
5098.7113431410808
 31
0.0
  0
LINE
  5
7A99
  8
1
  6
CONTINUOUS
 10
5122.9051751818506
 20
5046.2883311410806
 30
0.0
 11
5122.9051751818506
 21
5088.7875141410796
 31
0.0
  0
LINE
  5
7A9A
  8
1
  6
CONTINUOUS
 10
5059.9051751818497
 20
4991.2883311410806
 30
0.0
 11
5059.9051751818497
 21
5046.2883311410806
 31
0.0
  0
LINE
  5
7A9B
  8
2
  6
CENTER
 10
5284.9051751818506
 20
5106.2883311410806
 30
0.0
 11
5284.9051751818506
 21
5346.2883311410824
 31
0.0
  0
LINE
  5
7A9C
  8
1
  6
CONTINUOUS
 10
5446.9051751818497
 20
5088.7875141410796
 30
0.0
 11
5437.6307861818505
 21
5098.7113431410808
 31
0.0
  0
LINE
  5
7A9D
  8
1
  6
CONTINUOUS
 10
5446.9051751818497
 20
5046.2883311410806
 30
0.0
 11
5386.9051751818506
 21
5046.2883311410806
 31
0.0
  0
LINE
  5
7A9E
  8
1
  6
CONTINUOUS
 10
5446.9051751818497
 20
5046.2883311410806
 30
0.0
 11
5446.9051751818497
 21
5088.7875141410796
 31
0.0
  0
LINE
  5
7A9F
  8
1
  6
CONTINUOUS
 10
5709.9051751818506
 20
4822.2883311410824
 30
0.0
 11
5709.9051751818506
 21
4747.2883311410806
 31
0.0
  0
LINE
  5
7AA0
  8
1
  6
CONTINUOUS
 10
5709.9051751818506
 20
4991.2883311410806
 30
0.0
 11
5709.9051751818506
 21
4841.2883311410824
 31
0.0
  0
LINE
  5
7AA1
  8
1
  6
CONTINUOUS
 10
5509.9051751818506
 20
4991.2883311410806
 30
0.0
 11
5509.9051751818506
 21
5046.2883311410806
 31
0.0
  0
LINE
  5
7AA2
  8
1
  6
CONTINUOUS
 10
3631.9051751818511
 20
9432.2771540000012
 30
0.0
 11
3159.9051751818511
 21
9432.2771540000012
 31
0.0
  0
LINE
  5
7AA3
  8
1
  6
CONTINUOUS
 10
3084.9051751818511
 20
10634.277153999999
 30
0.0
 11
4992.4387281818508
 21
10634.277153999999
 31
0.0
  0
LINE
  5
7AA4
  8
1
  6
CONTINUOUS
 10
3084.9051751818511
 20
9684.2771540000012
 30
0.0
 11
4992.4387281818508
 21
9684.2771540000012
 31
0.0
  0
LINE
  5
7AA5
  8
1
  6
CONTINUOUS
 10
3234.9051751818511
 20
10737.277153999999
 30
0.0
 11
4584.9051751818506
 21
10737.277153999999
 31
0.0
  0
LINE
  5
7AA6
  8
1
  6
CONTINUOUS
 10
3134.9051751818511
 20
9684.2771540000012
 30
0.0
 11
3134.9051751818511
 21
10634.277153999999
 31
0.0
  0
LINE
  5
7AA7
  8
1
  6
CONTINUOUS
 10
3084.9051751818511
 20
9634.2771540000012
 30
0.0
 11
3084.9051751818511
 21
10684.277153999999
 31
0.0
  0
LINE
  5
7AA8
  8
1
  6
CONTINUOUS
 10
3159.9051751818511
 20
9432.2771540000012
 30
0.0
 11
3159.9051751818511
 21
9684.2771540000012
 31
0.0
  0
LINE
  5
7AA9
  8
1
  6
CONTINUOUS
 10
3159.9051751818511
 20
10634.277153999999
 30
0.0
 11
3159.9051751818511
 21
10712.277153999999
 31
0.0
  0
LINE
  5
7AAA
  8
1
  6
CONTINUOUS
 10
3159.9051751818511
 20
10712.277153999999
 30
0.0
 11
3284.9051751818511
 21
10712.277153999999
 31
0.0
  0
LINE
  5
7AAB
  8
1
  6
CONTINUOUS
 10
3284.9051751818511
 20
10634.277153999999
 30
0.0
 11
3284.9051751818511
 21
10737.277153999999
 31
0.0
  0
LINE
  5
7AAC
  8
1
  6
CONTINUOUS
 10
4534.9051751818497
 20
10712.277153999999
 30
0.0
 11
5709.9051751818506
 21
10712.277153999999
 31
0.0
  0
LINE
  5
7AAD
  8
1
  6
CONTINUOUS
 10
5164.9051751818497
 20
9432.2771540000012
 30
0.0
 11
4187.9051751818506
 21
9432.2771540000012
 31
0.0
  0
LINE
  5
7AAE
  8
1
  6
CONTINUOUS
 10
3531.9051751818511
 20
9319.2771540000012
 30
0.0
 11
5604.9051751818506
 21
9319.2771540000012
 31
0.0
  0
LINE
  5
7AAF
  8
1
  6
CONTINUOUS
 10
3531.9051751818511
 20
9559.2771540000012
 30
0.0
 11
5604.9051751818506
 21
9559.2771540000012
 31
0.0
  0
LINE
  5
7AB0
  8
1
  6
CONTINUOUS
 10
4187.9051751818506
 20
9489.2771540000012
 30
0.0
 11
3631.9051751818511
 21
9489.2771540000012
 31
0.0
  0
LINE
  5
7AB1
  8
1
  6
CONTINUOUS
 10
4187.9051751818506
 20
9389.2771540000012
 30
0.0
 11
3631.9051751818511
 21
9389.2771540000012
 31
0.0
  0
LINE
  5
7AB2
  8
1
  6
CONTINUOUS
 10
3937.4051751818502
 20
9489.2771540000012
 30
0.0
 11
3937.4051751818502
 21
9684.2771540000012
 31
0.0
  0
LINE
  5
7AB3
  8
1
  6
CONTINUOUS
 10
3882.4051751818511
 20
9489.2771540000012
 30
0.0
 11
3882.4051751818511
 21
9684.2771540000012
 31
0.0
  0
LINE
  5
7AB4
  8
1
  6
CONTINUOUS
 10
3631.9051751818511
 20
9389.2771540000012
 30
0.0
 11
3631.9051751818511
 21
9489.2771540000012
 31
0.0
  0
LINE
  5
7AB5
  8
1
  6
CONTINUOUS
 10
3531.9051751818511
 20
9319.2771540000012
 30
0.0
 11
3531.9051751818511
 21
9559.2771540000012
 31
0.0
  0
LINE
  5
7AB6
  8
1
  6
CONTINUOUS
 10
4187.9051751818506
 20
9389.2771540000012
 30
0.0
 11
4187.9051751818506
 21
9489.2771540000012
 31
0.0
  0
LINE
  5
7AB7
  8
1
  6
CONTINUOUS
 10
4534.9051751818497
 20
10634.277153999999
 30
0.0
 11
4534.9051751818497
 21
10737.277153999999
 31
0.0
  0
LINE
  5
7AB8
  8
1
  6
CONTINUOUS
 10
5709.9051751818506
 20
10712.277153999999
 30
0.0
 11
5709.9051751818506
 21
9432.2771540000012
 31
0.0
  0
LINE
  5
7AB9
  8
1
  6
CONTINUOUS
 10
4992.4387281818508
 20
9684.2771540000012
 30
0.0
 11
4992.4387281818508
 21
10634.277153999999
 31
0.0
  0
LINE
  5
7ABA
  8
1
  6
CONTINUOUS
 10
5484.0031891818508
 20
10203.310347000001
 30
0.0
 11
5085.8071611818496
 21
10203.310347000001
 31
0.0
  0
LINE
  5
7ABB
  8
1
  6
CONTINUOUS
 10
5484.0031891818508
 20
9603.8103470000005
 30
0.0
 11
5085.8071611818496
 21
9603.8103470000005
 31
0.0
  0
LINE
  5
7ABC
  8
1
  6
CONTINUOUS
 10
5404.9051751818506
 20
9489.2771540000012
 30
0.0
 11
5164.9051751818497
 21
9489.2771540000012
 31
0.0
  0
LINE
  5
7ABD
  8
1
  6
CONTINUOUS
 10
5404.9051751818506
 20
9389.2771540000012
 30
0.0
 11
5164.9051751818497
 21
9389.2771540000012
 31
0.0
  0
LINE
  5
7ABE
  8
1
  6
CONTINUOUS
 10
5164.9051751818497
 20
9389.2771540000012
 30
0.0
 11
5164.9051751818497
 21
9489.2771540000012
 31
0.0
  0
LINE
  5
7ABF
  8
1
  6
CONTINUOUS
 10
5085.8071611818496
 20
9603.8103470000005
 30
0.0
 11
5085.8071611818496
 21
10203.310347000001
 31
0.0
  0
LINE
  5
7AC0
  8
1
  6
CONTINUOUS
 10
5257.4051751818506
 20
9489.2771540000012
 30
0.0
 11
5257.4051751818506
 21
9603.8103470000005
 31
0.0
  0
LINE
  5
7AC1
  8
1
  6
CONTINUOUS
 10
5312.4051751818506
 20
9489.2771540000012
 30
0.0
 11
5312.4051751818506
 21
9603.8103470000005
 31
0.0
  0
LINE
  5
7AC2
  8
1
  6
CONTINUOUS
 10
5709.9051751818506
 20
9432.2771540000012
 30
0.0
 11
5404.9051751818506
 21
9432.2771540000012
 31
0.0
  0
LINE
  5
7AC3
  8
1
  6
CONTINUOUS
 10
5404.9051751818506
 20
9389.2771540000012
 30
0.0
 11
5404.9051751818506
 21
9489.2771540000012
 31
0.0
  0
LINE
  5
7AC4
  8
1
  6
CONTINUOUS
 10
5604.9051751818506
 20
9319.2771540000012
 30
0.0
 11
5604.9051751818506
 21
9559.2771540000012
 31
0.0
  0
LINE
  5
7AC5
  8
1
  6
CONTINUOUS
 10
5484.0031891818508
 20
9603.8103470000005
 30
0.0
 11
5484.0031891818508
 21
10203.310347000001
 31
0.0
  0
LINE
  5
7AC6
  8
1
  6
CONTINUOUS
 10
7404.0464791818504
 20
6337.2883311410806
 30
0.0
 11
8354.0464791818504
 21
5057.2883311410806
 31
0.0
  0
LINE
  5
7AC7
  8
1
  6
CONTINUOUS
 10
7404.0464791818504
 20
5057.2883311410806
 30
0.0
 11
8354.0464791818504
 21
6337.2883311410806
 31
0.0
  0
LINE
  5
7AC8
  8
1
  6
CONTINUOUS
 10
7404.0464791818504
 20
5057.2883311410806
 30
0.0
 11
8354.0464791818504
 21
5057.2883311410806
 31
0.0
  0
LINE
  5
7AC9
  8
1
  6
CONTINUOUS
 10
7404.0464791818504
 20
7220.2883311410806
 30
0.0
 11
8354.0464791818504
 21
7220.2883311410806
 31
0.0
  0
LINE
  5
7ACA
  8
1
  6
CONTINUOUS
 10
8432.0464791818504
 20
4841.2883311410824
 30
0.0
 11
7152.0464791818513
 21
4841.2883311410824
 31
0.0
  0
LINE
  5
7ACB
  8
1
  6
CONTINUOUS
 10
7404.0464791818504
 20
6337.2883311410806
 30
0.0
 11
8354.0464791818504
 21
6337.2883311410806
 31
0.0
  0
LINE
  5
7ACC
  8
1
  6
CONTINUOUS
 10
8432.0464791818504
 20
4822.2883311410824
 30
0.0
 11
7152.0464791818513
 21
4822.2883311410824
 31
0.0
  0
LINE
  5
7ACD
  8
1
  6
CONTINUOUS
 10
8432.0464791818504
 20
4747.2883311410806
 30
0.0
 11
7152.0464791818513
 21
4747.2883311410806
 31
0.0
  0
LINE
  5
7AD1
  8
1
  6
CONTINUOUS
 10
7209.0464791818522
 20
6113.2883311410806
 30
0.0
 11
7209.0464791818522
 21
6669.2883311410806
 31
0.0
  0
LINE
  5
7AD2
  8
1
  6
CONTINUOUS
 10
7109.0464791818522
 20
6113.2883311410806
 30
0.0
 11
7109.0464791818522
 21
6669.2883311410806
 31
0.0
  0
LINE
  5
7AD3
  8
1
  6
CONTINUOUS
 10
7279.0464791818504
 20
5126.2883311410824
 30
0.0
 11
7279.0464791818504
 21
6769.2883311410806
 31
0.0
  0
LINE
  5
7AD4
  8
1
  6
CONTINUOUS
 10
7039.0464791818522
 20
5126.2883311410824
 30
0.0
 11
7039.0464791818522
 21
6769.2883311410806
 31
0.0
  0
LINE
  5
7AD5
  8
1
  6
CONTINUOUS
 10
7404.0464791818504
 20
5057.2883311410806
 30
0.0
 11
7404.0464791818504
 21
7220.2883311410806
 31
0.0
  0
LINE
  5
7AD6
  8
1
  6
CONTINUOUS
 10
7109.0464791818522
 20
5226.2883311410806
 30
0.0
 11
7109.0464791818522
 21
5466.2883311410824
 31
0.0
  0
LINE
  5
7AD7
  8
1
  6
CONTINUOUS
 10
7209.0464791818522
 20
5226.2883311410806
 30
0.0
 11
7209.0464791818522
 21
5466.2883311410824
 31
0.0
  0
LINE
  5
7AD8
  8
1
  6
CONTINUOUS
 10
7039.0464791818522
 20
5126.2883311410824
 30
0.0
 11
7279.0464791818504
 21
5126.2883311410824
 31
0.0
  0
LINE
  5
7AD9
  8
1
  6
CONTINUOUS
 10
7109.0464791818522
 20
5226.2883311410806
 30
0.0
 11
7209.0464791818522
 21
5226.2883311410806
 31
0.0
  0
LINE
  5
7ADA
  8
1
  6
CONTINUOUS
 10
8432.0464791818504
 20
4991.2883311410806
 30
0.0
 11
7152.0464791818513
 21
4991.2883311410806
 31
0.0
  0
LINE
  5
7ADB
  8
1
  6
CONTINUOUS
 10
7152.0464791818513
 20
4841.2883311410824
 30
0.0
 11
7152.0464791818513
 21
4991.2883311410806
 31
0.0
  0
LINE
  5
7ADC
  8
1
  6
CONTINUOUS
 10
7152.0464791818513
 20
4747.2883311410806
 30
0.0
 11
7152.0464791818513
 21
4822.2883311410824
 31
0.0
  0
LINE
  5
7ADD
  8
1
  6
CONTINUOUS
 10
7209.0464791818522
 20
5318.7883311410824
 30
0.0
 11
7404.0464791818504
 21
5318.7883311410824
 31
0.0
  0
LINE
  5
7ADE
  8
1
  6
CONTINUOUS
 10
7109.0464791818522
 20
6113.2883311410806
 30
0.0
 11
7209.0464791818522
 21
6113.2883311410806
 31
0.0
  0
LINE
  5
7ADF
  8
1
  6
CONTINUOUS
 10
7109.0464791818522
 20
5466.2883311410824
 30
0.0
 11
7209.0464791818522
 21
5466.2883311410824
 31
0.0
  0
LINE
  5
7AE0
  8
1
  6
CONTINUOUS
 10
7209.0464791818522
 20
5373.7883311410806
 30
0.0
 11
7404.0464791818504
 21
5373.7883311410806
 31
0.0
  0
LINE
  5
7AE1
  8
1
  6
CONTINUOUS
 10
7039.0464791818522
 20
6769.2883311410806
 30
0.0
 11
7279.0464791818504
 21
6769.2883311410806
 31
0.0
  0
LINE
  5
7AE2
  8
1
  6
CONTINUOUS
 10
7109.0464791818522
 20
6669.2883311410806
 30
0.0
 11
7209.0464791818522
 21
6669.2883311410806
 31
0.0
  0
LINE
  5
7AE3
  8
1
  6
CONTINUOUS
 10
7209.0464791818522
 20
6363.7883311410824
 30
0.0
 11
7404.0464791818504
 21
6363.7883311410824
 31
0.0
  0
LINE
  5
7AE4
  8
1
  6
CONTINUOUS
 10
7209.0464791818522
 20
6418.7883311410806
 30
0.0
 11
7404.0464791818504
 21
6418.7883311410806
 31
0.0
  0
LINE
  5
7AE5
  8
1
  6
CONTINUOUS
 10
8457.0464791818504
 20
5716.2883311410824
 30
0.0
 11
8457.0464791818504
 21
7066.2883311410824
 31
0.0
  0
LINE
  5
7AE6
  8
1
  6
CONTINUOUS
 10
8354.0464791818504
 20
5057.2883311410806
 30
0.0
 11
8354.0464791818504
 21
7220.2883311410806
 31
0.0
  0
LINE
  5
7AE7
  8
1
  6
CONTINUOUS
 10
8432.0464791818504
 20
4991.2883311410806
 30
0.0
 11
8354.0464791818504
 21
4991.2883311410806
 31
0.0
  0
LINE
  5
7AE8
  8
1
  6
CONTINUOUS
 10
8432.0464791818504
 20
4841.2883311410824
 30
0.0
 11
8432.0464791818504
 21
4991.2883311410806
 31
0.0
  0
LINE
  5
7AE9
  8
1
  6
CONTINUOUS
 10
8432.0464791818504
 20
4747.2883311410806
 30
0.0
 11
8432.0464791818504
 21
4822.2883311410824
 31
0.0
  0
LINE
  5
7AEA
  8
1
  6
CONTINUOUS
 10
8354.0464791818504
 20
5766.2883311410806
 30
0.0
 11
8457.0464791818504
 21
5766.2883311410806
 31
0.0
  0
LINE
  5
7AEB
  8
1
  6
CONTINUOUS
 10
8354.0464791818504
 20
7016.2883311410824
 30
0.0
 11
8457.0464791818504
 21
7016.2883311410824
 31
0.0
  0
DIMENSION
  5
7AFF
  8
3
  6
CONTINUOUS
  2
*D1
 10
3909.9051751818511
 20
4368.2374971410809
 30
0.0
 11
3538.7517461818502
 21
4368.2374971410809
 31
0.0
 70
   128
 13
3159.9051751818511
 23
4747.2883311410806
 33
0.0
 14
3909.9051751818511
 24
4560.9198831410813
 34
0.0
1001
ACAD
1000
DSTYLE
1002
{
1070
   287
1070
     3
1070
   287
1070
     3
1070
    40
1040
45.0
1070
   143
1040
0.039
1070
   172
1070
     1
1070
   271
1070
     0
1070
   279
1070
     0
1070
   288
1070
     1
1002
}
  0
DIMENSION
  5
7B0B
  8
3
  6
CONTINUOUS
  2
*D2
 10
5709.9051751818506
 20
4368.2374971410809
 30
0.0
 11
4809.9051751818497
 21
4480.7374971410809
 31
0.0
 70
     0
 13
3909.9051751818511
 23
4560.9198831410813
 33
0.0
 14
5709.9051751818506
 24
4747.2883311410806
 34
0.0
1001
ACAD
1000
DSTYLE
1002
{
1070
   287
1070
     4
1070
   287
1070
     4
1070
    40
1040
45.0
1070
    75
1070
     1
1070
   143
1040
0.039
1070
   172
1070
     1
1070
   271
1070
     0
1070
   279
1070
     1
1070
   288
1070
     1
1002
}
  0
DIMENSION
  5
7B18
  8
3
  6
CONTINUOUS
  2
*D3
 10
2755.7475391818521
 20
5057.2883311410806
 30
0.0
 11
2755.7475391818521
 21
5729.6235111410806
 31
0.0
 70
   128
 13
3084.9051751818511
 23
6337.2883311410806
 33
0.0
 14
3084.9051751818511
 24
5057.2883311410806
 34
0.0
 50
90.0
1001
ACAD
1000
DSTYLE
1002
{
1070
   287
1070
     3
1070
   287
1070
     3
1070
    40
1040
45.0
1070
   143
1040
0.039
1070
   172
1070
     1
1070
   271
1070
     0
1070
   279
1070
     0
1070
   288
1070
     1
1002
}
  0
DIMENSION
  5
7B25
  8
3
  6
CONTINUOUS
  2
*D4
 10
2145.3468141818512
 20
6391.2883311410806
 30
0.0
 11
2145.3468141818498
 21
6867.7008951410808
 31
0.0
 70
   128
 13
3918.5627951818501
 23
7288.3968871410816
 33
0.0
 14
3168.4002601818502
 24
6391.2883311410806
 34
0.0
 50
90.0
1001
ACAD
1000
DSTYLE
1002
{
1070
   287
1070
     3
1070
   287
1070
     3
1070
    40
1040
45.0
1070
   143
1040
0.039
1070
   172
1070
     1
1070
   271
1070
     0
1070
   279
1070
     0
1070
   288
1070
     1
1002
}
  0
DIMENSION
  5
7B31
  8
3
  6
CONTINUOUS
  2
*D5
 10
2145.3468141818498
 20
4841.2883311410824
 30
0.0
 11
2032.8468141818489
 21
5616.2883311410824
 31
0.0
 70
     0
 13
3168.4002601818502
 23
6391.2883311410806
 33
0.0
 14
3159.9051751818511
 24
4841.2883311410824
 34
0.0
 50
90.0
1001
ACAD
1000
DSTYLE
1002
{
1070
   287
1070
     4
1070
   287
1070
     4
1070
    40
1040
45.0
1070
    75
1070
     1
1070
   143
1040
0.039
1070
   172
1070
     1
1070
   271
1070
     0
1070
   279
1070
     1
1070
   288
1070
     1
1002
}
  0
DIMENSION
  5
7B41
  8
3
  6
CONTINUOUS
  2
*D6
 10
2145.3468141818498
 20
4747.2883311410806
 30
0.0
 11
2145.3468141818498
 21
4568.764653141081
 31
0.0
 70
   128
 13
3159.9051751818511
 23
4841.2883311410824
 33
0.0
 14
3159.9051751818511
 24
4747.2883311410806
 34
0.0
 50
90.0
1001
ACAD
1000
DSTYLE
1002
{
1070
   287
1070
     4
1070
   287
1070
     4
1070
    40
1040
45.0
1070
    75
1070
     1
1070
   143
1040
0.039
1070
   172
1070
     1
1070
   271
1070
     0
1070
   279
1070
     1
1070
   288
1070
     1
1002
}
  0
DIMENSION
  5
7B75
  8
3
  6
CONTINUOUS
  2
*D7
 10
3909.9051751818511
 20
7519.6411401410815
 30
0.0
 11
3476.1834321818501
 21
7519.6411401410815
 31
0.0
 70
   128
 13
3084.9051751818511
 23
6387.2883311410824
 33
0.0
 14
3909.9051751818511
 24
7287.6293551410809
 34
0.0
1001
ACAD
1000
DSTYLE
1002
{
1070
   287
1070
     3
1070
   287
1070
     3
1070
    40
1040
45.0
1070
   143
1040
0.039
1070
   172
1070
     1
1070
   271
1070
     0
1070
   279
1070
     0
1070
   288
1070
     1
1002
}
  0
DIMENSION
  5
7B81
  8
3
  6
CONTINUOUS
  2
*D8
 10
4988.9051751818506
 20
7519.6411401410815
 30
0.0
 11
4449.4051751818497
 21
7632.1411401410815
 31
0.0
 70
     0
 13
3909.9051751818511
 23
7287.6293551410809
 33
0.0
 14
4988.9051751818506
 24
6391.2883311410806
 34
0.0
1001
ACAD
1000
DSTYLE
1002
{
1070
   287
1070
     4
1070
   287
1070
     4
1070
    40
1040
45.0
1070
    75
1070
     1
1070
   143
1040
0.039
1070
   172
1070
     1
1070
   271
1070
     0
1070
   279
1070
     1
1070
   288
1070
     1
1002
}
  0
DIMENSION
  5
7B8E
  8
3
  6
CONTINUOUS
  2
*D9
 10
5709.9051751818506
 20
8977.2584229999993
 30
0.0
 11
4310.4623421818515
 21
8977.2584229999993
 31
0.0
 70
   128
 13
3159.9051751818511
 23
9432.2771540000012
 33
0.0
 14
5709.9051751818506
 24
9432.2771540000012
 34
0.0
1001
ACAD
1000
DSTYLE
1002
{
1070
   287
1070
     3
1070
   287
1070
     3
1070
    40
1040
45.0
1070
   143
1040
0.039
1070
   172
1070
     1
1070
   271
1070
     0
1070
   279
1070
     0
1070
   288
1070
     1
1002
}
  0
DIMENSION
  5
7B9B
  8
3
  6
CONTINUOUS
  2
*D10
 10
6065.9241751818518
 20
9432.2771540000012
 30
0.0
 11
6065.9241751818518
 21
10018.98092
 31
0.0
 70
   128
 13
5709.9051751818506
 23
10712.277153999999
 33
0.0
 14
5704.9051751818506
 24
9432.2771540000012
 34
0.0
 50
90.0
1001
ACAD
1000
DSTYLE
1002
{
1070
   287
1070
     3
1070
   287
1070
     3
1070
    40
1040
45.0
1070
   143
1040
0.039
1070
   172
1070
     1
1070
   271
1070
     0
1070
   279
1070
     0
1070
   288
1070
     1
1002
}
  0
LINE
  5
7B9C
  8
2
  6
CENTER
 10
2978.4778661818509
 20
10159.277153999999
 30
0.0
 11
5109.9796041818508
 21
10159.277153999999
 31
0.0
  0
LINE
  5
7B9D
  8
2
  6
CENTER
 10
3909.9051751818511
 20
7396.3572701410822
 30
0.0
 11
3909.9051751818511
 21
4508.8337641410808
 31
0.0
  0
LINE
  5
7B9E
  8
2
  6
CENTER
 10
7879.0464791818513
 20
7484.1058121410806
 30
0.0
 11
7879.0464791818513
 21
4587.0125231410811
 31
0.0
  0
DIMENSION
  5
7BAB
  8
3
  6
CONTINUOUS
  2
*D11
 10
8354.0464791818504
 20
7458.8962251410812
 30
0.0
 11
7825.6389391818502
 21
7458.8962251410812
 31
0.0
 70
   128
 13
7404.0464791818504
 23
7220.2883311410806
 33
0.0
 14
8354.0464791818504
 24
7220.2883311410806
 34
0.0
1001
ACAD
1000
DSTYLE
1002
{
1070
   287
1070
     3
1070
   287
1070
     3
1070
    40
1040
45.0
1070
   143
1040
0.039
1070
   172
1070
     1
1070
   271
1070
     0
1070
   279
1070
     0
1070
   288
1070
     1
1002
}
  0
DIMENSION
  5
7BB8
  8
3
  6
CONTINUOUS
  2
*D12
 10
7879.0464791818513
 20
7719.3268491410818
 30
0.0
 11
7451.9514911818496
 21
7719.3268491410818
 31
0.0
 70
   128
  1
MAX\P890
 13
7039.0464791818522
 23
6769.2883311410806
 33
0.0
 14
7879.0464791818513
 24
7661.3352211410793
 34
0.0
1001
ACAD
1000
DSTYLE
1002
{
1070
   287
1070
     3
1070
   287
1070
     3
1070
    40
1040
45.0
1070
   143
1040
0.039
1070
   172
1070
     1
1070
   271
1070
     0
1070
   279
1070
     0
1070
   288
1070
     1
1002
}
  0
DIMENSION
  5
7BC6
  8
3
  6
CONTINUOUS
  2
*D13
 10
8457.0464791818504
 20
7719.3268491410818
 30
0.0
 11
8181.9455641818522
 21
7720.1905191410797
 31
0.0
 70
   128
 13
7879.0464791818513
 23
7661.3352211410793
 33
0.0
 14
8457.0464791818504
 24
7066.2883311410824
 34
0.0
1001
ACAD
1000
DSTYLE
1002
{
1070
   287
1070
     4
1070
   287
1070
     4
1070
    40
1040
45.0
1070
    75
1070
     1
1070
   143
1040
0.039
1070
   172
1070
     1
1070
   271
1070
     0
1070
   279
1070
     1
1070
   288
1070
     1
1002
}
  0
DIMENSION
  5
7BE9
  8
3
  6
CONTINUOUS
  2
*D14
 10
8816.3451581818517
 20
5766.2883311410806
 30
0.0
 11
8816.3451581818517
 21
6348.5891781410819
 31
0.0
 70
   128
 13
8457.0464791818504
 23
7016.2883311410824
 33
0.0
 14
8457.0464791818504
 24
5766.2883311410806
 34
0.0
 50
90.0
1001
ACAD
1000
DSTYLE
1002
{
1070
   287
1070
     3
1070
   287
1070
     3
1070
     3
1000
φ<>
1070
    40
1040
45.0
1070
   143
1040
0.039
1070
   172
1070
     1
1070
   271
1070
     0
1070
   279
1070
     0
1070
   288
1070
     1
1002
}
  0
DIMENSION
  5
7BF6
  8
3
  6
CONTINUOUS
  2
*D15
 10
7879.0464791818513
 20
4403.5527281410814
 30
0.0
 11
7521.0596691818509
 21
4403.5527281410814
 31
0.0
 70
   128
 13
7152.0464791818513
 23
4747.2883311410806
 33
0.0
 14
7879.0464791818513
 24
4587.0125231410811
 34
0.0
1001
ACAD
1000
DSTYLE
1002
{
1070
   287
1070
     3
1070
   287
1070
     3
1070
    40
1040
45.0
1070
   143
1040
0.039
1070
   172
1070
     1
1070
   271
1070
     0
1070
   279
1070
     0
1070
   288
1070
     1
1002
}
  0
DIMENSION
  5
7C04
  8
3
  6
CONTINUOUS
  2
*D16
 10
8432.0464791818504
 20
4403.5527281410814
 30
0.0
 11
8164.2852561818518
 21
4403.5527281410814
 31
0.0
 70
   128
 13
7879.0464791818513
 23
4587.0125231410811
 33
0.0
 14
8432.0464791818504
 24
4747.2883311410806
 34
0.0
1001
ACAD
1000
DSTYLE
1002
{
1070
   287
1070
     4
1070
   287
1070
     4
1070
    40
1040
45.0
1070
    75
1070
     1
1070
   143
1040
0.039
1070
   172
1070
     1
1070
   271
1070
     0
1070
   279
1070
     1
1070
   288
1070
     1
1002
}
  0
LINE
  5
7C1B
  8
2
  6
CENTER
 10
5200.2184671818504
 20
6391.2883311410806
 30
0.0
 11
3006.195993181851
 21
6391.2883311410806
 31
0.0
  0
LINE
  5
7C1C
  8
4
  6
CONTINUOUS
 10
9343.4343436363633
 20
2525.2525254545449
 30
0.0
 11
9343.4343436363633
 21
1515.151515454545
 31
0.0
  0
LINE
  5
7C1D
  8
4
  6
CONTINUOUS
 10
5808.0808081818168
 20
2525.2525254545449
 30
0.0
 11
5808.0808081818159
 21
1515.151515454545
 31
0.0
  0
LINE
  5
7C1E
  8
4
  6
CONTINUOUS
 10
3282.8282827272728
 20
2525.2525254545449
 30
0.0
 11
3282.8282827272728
 21
1515.151515454545
 31
0.0
  0
LINE
  5
7C21
  8
4
  6
CONTINUOUS
 10
3282.8282827272728
 20
1515.151515454545
 30
0.0
 11
9343.4343436363633
 21
1515.151515454545
 31
0.0
  0
LINE
  5
7C22
  8
4
  6
CONTINUOUS
 10
3282.8282827272728
 20
2020.202019999999
 30
0.0
 11
9343.4343436363633
 21
2020.202019999999
 31
0.0
  0
TEXT
  5
7C23
  8
4
  6
CONTINUOUS
 10
3477.2832363636371
 20
2179.5102309090912
 30
0.0
 40
252.5252527272726
  1
機器名称
  0
TEXT
  5
7C24
  8
4
  6
CONTINUOUS
 10
3465.95003
 20
1624.4704881818179
 30
0.0
 40
252.5252527272726
  1
機器型番
  0
TEXT
  5
7C25
  8
4
  6
CONTINUOUS
 10
5947.8724527272716
 20
2134.2008527272728
 30
0.0
 40
213.24354636363631
  1
ミツヤリミットロードファン
  0
TEXT
  5
7C26
  8
4
  6
CONTINUOUS
 10
5993.2045236363629
 20
1601.8160818181809
 30
0.0
 40
252.5252527272726
  1
LLE#8-4
  0
TEXT
  5
7C28
  8
4
  6
CONTINUOUS
 10
3696.7314809090899
 20
12037.51940090909
 30
0.0
 40
272.72727272727269
  1
床置防振ベット
  0
TEXT
  5
7C29
  8
4
  6
CONTINUOUS
 10
1596.8060272727271
 20
12797.37866727272
 30
0.0
 40
303.03030272727273
  1
ベルト駆動式片吸込両持排煙ファン
  0
LINE
  5
7C2A
  8
4
  6
CONTINUOUS
 10
1262.626262727272
 20
12471.761384545451
 30
0.0
 11
9343.4343436363633
 21
12471.761384545451
 31
0.0
  0
LINE
  5
7C2B
  8
4
  6
CONTINUOUS
 10
1262.626262727272
 20
13481.862394545449
 30
0.0
 11
9343.4343436363633
 21
13481.862394545449
 31
0.0
  0
LINE
  5
7C2C
  8
4
  6
CONTINUOUS
 10
3282.8282827272728
 20
2525.2525254545449
 30
0.0
 11
9343.4343436363633
 21
2525.2525254545449
 31
0.0
  0
LINE
  5
7C2D
  8
4
  6
CONTINUOUS
 10
1262.626262727272
 20
13481.862394545449
 30
0.0
 11
1262.626262727272
 21
12471.761384545451
 31
0.0
  0
TEXT
  5
7C2E
  8
4
  6
CONTINUOUS
 10
1495.424246363636
 20
12031.91655363636
 30
0.0
 40
272.72727272727269
  1
右回転左横向
  0
TEXT
  5
7C2F
  8
4
  6
CONTINUOUS
 10
7419.0381790909078
 20
13666.975159999991
 30
0.0
 40
282.82828272727272
  1
No.
  0
TEXT
  5
7C30
  8
4
  6
CONTINUOUS
 10
6622.7073872727269
 20
12037.51940090909
 30
0.0
 40
272.72727272727269
  1
縮尺：1/50
  0
LINE
  5
7C31
  8
4
  6
CONTINUOUS
 10
9343.4343436363633
 20
13481.862394545449
 30
0.0
 11
9343.4343436363633
 21
12471.761384545451
 31
0.0
  0
LINE
  5
7C33
  8
4
  6
CONTINUOUS
 10
7275.8455672727259
 20
13541.73526909091
 30
0.0
 11
7275.8455672727259
 21
14074.00132090909
 31
0.0
  0
LINE
  5
7C34
  8
4
  6
CONTINUOUS
 10
7275.8455672727259
 20
14074.00132090909
 30
0.0
 11
9343.4343436363633
 21
14074.00132090909
 31
0.0
  0
LINE
  5
7C35
  8
4
  6
CONTINUOUS
 10
9343.4343436363633
 20
14074.00132090909
 30
0.0
 11
9343.4343436363633
 21
13541.73526909091
 31
0.0
  0
LINE
  5
7C36
  8
4
  6
CONTINUOUS
 10
9343.4343436363633
 20
13541.73526909091
 30
0.0
 11
7275.8455672727259
 21
13541.73526909091
 31
0.0
  0
DIMENSION
  5
7C78
  8
3
  6
CONTINUOUS
  2
*D17
 10
2462.402976181851
 20
5057.2883311410806
 30
0.0
 11
2462.402976181851
 21
5787.8162691410816
 31
0.0
 70
   128
 13
3168.4002601818502
 23
6391.2883311410806
 33
0.0
 14
3084.9051751818511
 24
5057.2883311410806
 34
0.0
 50
90.0
1001
ACAD
1000
DSTYLE
1002
{
1070
   287
1070
     3
1070
   287
1070
     3
1070
    40
1040
45.0
1070
   143
1040
0.039
1070
   172
1070
     1
1070
   271
1070
     0
1070
   279
1070
     0
1070
   288
1070
     1
1002
}
  0
DIMENSION
  5
7D34
  8
3
  2
*D18
 10
1836.752528096069
 20
4747.2883311410824
 30
0.0
 11
1836.752528096069
 21
6039.7268718419909
 31
0.0
 70
   128
 13
3896.062795181851
 23
7288.3968871410816
 33
0.0
 14
3159.9051751818511
 24
4747.2883311410806
 34
0.0
 50
90.0
1001
ACAD
1000
DSTYLE
1002
{
1070
   287
1070
     3
1070
   287
1070
     3
1070
    40
1040
45.0
1070
   143
1040
0.039
1070
   172
1070
     1
1070
   271
1070
     0
1070
   279
1070
     0
1070
   288
1070
     1
1002
}
  0
DIMENSION
  5
7D52
  8
3
  2
*D19
 10
5709.9051751818506
 20
7776.7457346624115
 30
0.0
 11
4367.6784209023253
 21
7776.7457346624115
 31
0.0
 70
   128
 13
3084.9051751818511
 23
6387.2883311410824
 33
0.0
 14
5709.9051751818506
 24
4991.2883311410806
 34
0.0
1001
ACAD
1000
DSTYLE
1002
{
1070
   287
1070
     3
1070
   287
1070
     3
1070
    40
1040
45.0
1070
   143
1040
0.039
1070
   172
1070
     1
1070
   271
1070
     0
1070
   279
1070
     0
1070
   288
1070
     1
1002
}
  0
ENDSEC
  0
EOF
