  0
SECTION
  2
HEADER
  9
$ACADVER
  1
AC1009
  9
$INSBASE
 10
0.0
 20
0.0
 30
0.0
  9
$EXTMIN
 10
1250.0
 20
1500.0
 30
0.0
  9
$EXTMAX
 10
9450.0
 20
13933.261307999999
 30
0.0
  9
$LIMMIN
 10
0.0
 20
0.0
  9
$LIMMAX
 10
297.0
 20
210.0
  9
$ORTHOMODE
 70
     0
  9
$REGENMODE
 70
     1
  9
$FILLMODE
 70
     0
  9
$QTEXTMODE
 70
     0
  9
$MIRRTEXT
 70
     1
  9
$DRAGMODE
 70
     2
  9
$LTSCALE
 40
100.0
  9
$OSMODE
 70
    37
  9
$ATTMODE
 70
     1
  9
$TEXTSIZE
 40
180.0
  9
$TRACEWID
 40
0.05
  9
$TEXTSTYLE
  7
STANDARD
  9
$CLAYER
  8
3
  9
$CELTYPE
  6
BYLAYER
  9
$CECOLOR
 62
   256
  9
$DIMSCALE
 40
45.0
  9
$DIMASZ
 40
2.0
  9
$DIMEXO
 40
0.5
  9
$DIMDLI
 40
10.0
  9
$DIMRND
 40
0.0
  9
$DIMDLE
 40
0.0
  9
$DIMEXE
 40
1.0
  9
$DIMTP
 40
1.0
  9
$DIMTM
 40
1.0
  9
$DIMTXT
 40
3.0
  9
$DIMCEN
 40
0.0
  9
$DIMTSZ
 40
0.0
  9
$DIMTOL
 70
     0
  9
$DIMLIM
 70
     0
  9
$DIMTIH
 70
     0
  9
$DIMTOH
 70
     0
  9
$DIMSE1
 70
     0
  9
$DIMSE2
 70
     0
  9
$DIMTAD
 70
     1
  9
$DIMZIN
 70
     8
  9
$DIMBLK
  1

  9
$DIMASO
 70
     1
  9
$DIMSHO
 70
     1
  9
$DIMPOST
  1

  9
$DIMAPOST
  1

  9
$DIMALT
 70
     0
  9
$DIMALTD
 70
     2
  9
$DIMALTF
 40
0.039
  9
$DIMLFAC
 40
1.0
  9
$DIMTOFL
 70
     1
  9
$DIMTVP
 40
0.0
  9
$DIMTIX
 70
     0
  9
$DIMSOXD
 70
     0
  9
$DIMSAH
 70
     1
  9
$DIMBLK1
  1
OPEN
  9
$DIMBLK2
  1
OPEN
  9
$DIMSTYLE
  2
IGA
  9
$DIMCLRD
 70
     0
  9
$DIMCLRE
 70
     0
  9
$DIMCLRT
 70
     0
  9
$DIMTFAC
 40
10.0
  9
$DIMGAP
 40
1.0
  9
$LUNITS
 70
     2
  9
$LUPREC
 70
     3
  9
$SKETCHINC
 40
0.1
  9
$FILLETRAD
 40
50.0
  9
$AUNITS
 70
     0
  9
$AUPREC
 70
     0
  9
$MENU
  1
acad
  9
$ELEVATION
 40
0.0
  9
$PELEVATION
 40
0.0
  9
$THICKNESS
 40
0.0
  9
$LIMCHECK
 70
     0
  9
$BLIPMODE
 70
     0
  9
$CHAMFERA
 40
0.5
  9
$CHAMFERB
 40
0.5
  9
$SKPOLY
 70
     0
  9
$TDCREATE
 40
2450750.545972106
  9
$TDUPDATE
 40
2454953.6887163538
  9
$TDINDWG
 40
0.006824213
  9
$TDUSRTIMER
 40
0.006824213
  9
$USRTIMER
 70
     1
  9
$ANGBASE
 50
0.0
  9
$ANGDIR
 70
     0
  9
$PDMODE
 70
     0
  9
$PDSIZE
 40
0.0
  9
$PLINEWID
 40
0.0
  9
$COORDS
 70
     1
  9
$SPLFRAME
 70
     0
  9
$SPLINETYPE
 70
     6
  9
$SPLINESEGS
 70
     8
  9
$ATTDIA
 70
     0
  9
$ATTREQ
 70
     1
  9
$HANDLING
 70
 10241
  9
$HANDSEED
  5
7EA7
  9
$SURFTAB1
 70
     6
  9
$SURFTAB2
 70
     6
  9
$SURFTYPE
 70
     6
  9
$SURFU
 70
     6
  9
$SURFV
 70
     6
  9
$UCSNAME
  2

  9
$UCSORG
 10
0.0
 20
0.0
 30
0.0
  9
$UCSXDIR
 10
1.0
 20
0.0
 30
0.0
  9
$UCSYDIR
 10
0.0
 20
1.0
 30
0.0
  9
$PUCSNAME
  2

  9
$PUCSORG
 10
0.0
 20
0.0
 30
0.0
  9
$PUCSXDIR
 10
1.0
 20
0.0
 30
0.0
  9
$PUCSYDIR
 10
0.0
 20
1.0
 30
0.0
  9
$USERI1
 70
     0
  9
$USERI2
 70
     0
  9
$USERI3
 70
     0
  9
$USERI4
 70
     0
  9
$USERI5
 70
     0
  9
$USERR1
 40
0.0
  9
$USERR2
 40
0.0
  9
$USERR3
 40
0.0
  9
$USERR4
 40
0.0
  9
$USERR5
 40
0.0
  9
$WORLDVIEW
 70
     1
  9
$SHADEDGE
 70
     3
  9
$SHADEDIF
 70
    70
  9
$TILEMODE
 70
     1
  9
$MAXACTVP
 70
    16
  9
$PLIMCHECK
 70
     0
  9
$PEXTMIN
 10
1.0000000000000000E+020
 20
1.0000000000000000E+020
 30
1.0000000000000000E+020
  9
$PEXTMAX
 10
-1.0000000000000000E+020
 20
-1.0000000000000000E+020
 30
-1.0000000000000000E+020
  9
$PLIMMIN
 10
0.0
 20
0.0
  9
$PLIMMAX
 10
12.0
 20
9.0
  9
$UNITMODE
 70
     0
  9
$VISRETAIN
 70
     0
  9
$PLINEGEN
 70
     0
  9
$PSLTSCALE
 70
     1
  0
ENDSEC
  0
SECTION
  2
TABLES
  0
TABLE
  2
VPORT
 70
     2
  0
VPORT
  2
*ACTIVE
 70
     0
 10
0.0
 20
0.0
 11
1.0
 21
1.0
 12
21745.509269095281
 22
6963.6855430319802
 13
0.0
 23
0.0
 14
10.0
 24
10.0
 15
10.0
 25
10.0
 16
0.0
 26
0.0
 36
1.0
 17
0.0
 27
0.0
 37
0.0
 40
17614.100761141079
 41
3.1666666666666661
 42
50.0
 43
0.0
 44
0.0
 50
0.0
 51
0.0
 71
     0
 72
   100
 73
     1
 74
     0
 75
     0
 76
     0
 77
     0
 78
     2
  0
ENDTAB
  0
TABLE
  2
LTYPE
 70
     2
  0
LTYPE
  2
CONTINUOUS
 70
     0
  3
Solid line
 72
    65
 73
     0
 40
0.0
  0
LTYPE
  2
CENTER
 70
     0
  3
____ _ ____ _ ____ _ ____ _ ____ _ ____ _ ____ 
 72
    65
 73
     4
 40
2.0
 49
1.25
 49
-0.25
 49
0.25
 49
-0.25
  0
ENDTAB
  0
TABLE
  2
LAYER
 70
     6
  0
LAYER
  2
0
 70
     0
 62
     7
  6
CONTINUOUS
  0
LAYER
  2
3
 70
     0
 62
     2
  6
CONTINUOUS
  0
LAYER
  2
2
 70
     0
 62
     3
  6
CENTER
  0
LAYER
  2
1
 70
     0
 62
     4
  6
CONTINUOUS
  0
LAYER
  2
4
 70
     0
 62
     7
  6
CONTINUOUS
  0
LAYER
  2
DEFPOINTS
 70
     0
 62
     7
  6
CONTINUOUS
  0
ENDTAB
  0
TABLE
  2
STYLE
 70
     1
  0
STYLE
  2
STANDARD
 70
     0
 40
0.0
 41
1.0
 50
0.0
 71
     0
 42
180.0
  3
simplex.shx
  4
extfont.shx
  0
ENDTAB
  0
TABLE
  2
VIEW
 70
     0
  0
ENDTAB
  0
TABLE
  2
UCS
 70
     0
  0
ENDTAB
  0
TABLE
  2
APPID
 70
     1
  0
APPID
  2
ACAD
 70
     0
  0
ENDTAB
  0
TABLE
  2
DIMSTYLE
 70
     1
  0
DIMSTYLE
  2
IGA
 70
     0
  3

  4

  5

  6
OPEN
  7
OPEN
 40
2.0
 41
2.0
 42
0.5
 43
10.0
 44
1.0
 45
0.0
 46
0.0
 47
1.0
 48
1.0
140
3.0
141
0.0
142
0.0
143
0.03937
144
1.0
145
0.0
146
10.0
147
1.0
 71
     0
 72
     0
 73
     0
 74
     0
 75
     0
 76
     0
 77
     1
 78
     8
170
     0
171
     2
172
     0
173
     1
174
     0
175
     0
176
     0
177
     0
178
     0
  0
ENDTAB
  0
ENDSEC
  0
SECTION
  2
BLOCKS
  0
BLOCK
  8
0
  2
$MODEL_SPACE
 70
     0
 10
0.0
 20
0.0
 30
0.0
  3
$MODEL_SPACE
  1

  0
ENDBLK
  5
1B
  8
0
  0
BLOCK
 67
     1
  8
0
  2
$PAPER_SPACE
 70
     0
 10
0.0
 20
0.0
 30
0.0
  3
$PAPER_SPACE
  1

  0
ENDBLK
  5
18
 67
     1
  8
0
  0
BLOCK
  8
0
  2
_OPEN
 70
     0
 10
0.0
 20
0.0
 30
0.0
  3
_OPEN
  1

  0
LINE
  5
7AE8
  8
0
  6
BYBLOCK
 62
     0
 10
-1.0
 20
0.166667
 30
0.0
 11
0.0
 21
0.0
 31
0.0
  0
LINE
  5
7AE9
  8
0
  6
BYBLOCK
 62
     0
 10
0.0
 20
0.0
 30
0.0
 11
-1.0
 21
-0.166667
 31
0.0
  0
LINE
  5
7AEA
  8
0
  6
BYBLOCK
 62
     0
 10
0.0
 20
0.0
 30
0.0
 11
-1.0
 21
0.0
 31
0.0
  0
ENDBLK
  5
7AEB
  8
0
  0
BLOCK
  8
0
  2
*D1
 70
     1
 10
0.0
 20
0.0
 30
0.0
  3
*D1
  1

  0
LINE
  5
7DF5
  8
3
  6
CONTINUOUS
 62
     0
 10
2051.173874999999
 20
4194.5039419999994
 30
0.0
 11
2051.173874999999
 21
3755.1604090000001
 31
0.0
  0
LINE
  5
7DF6
  8
3
  6
CONTINUOUS
 62
     0
 10
3851.173875
 20
4034.0870569999988
 30
0.0
 11
3851.173875
 21
3755.1604090000001
 31
0.0
  0
LINE
  5
7DF7
  8
3
  6
CONTINUOUS
 62
     0
 10
2141.173875
 20
3800.1604090000001
 30
0.0
 11
3761.173875
 21
3800.1604090000001
 31
0.0
  0
INSERT
  5
7DF8
  8
3
  6
CONTINUOUS
 62
     0
  2
_OPEN
 10
2051.173874999999
 20
3800.1604090000001
 30
0.0
 41
90.0
 42
90.0
 43
90.0
 50
180.0
  0
INSERT
  5
7DF9
  8
3
  6
CONTINUOUS
 62
     0
  2
_OPEN
 10
3851.173875
 20
3800.1604090000001
 30
0.0
 41
90.0
 42
90.0
 43
90.0
  0
TEXT
  8
3
  40
135
  5
7E94
  62
0
  72
0
  71
0
 10
2747.85
 20
3673.71
 30
0.000000
  1
1800
  0
POINT
  5
7DFB
  8
DEFPOINTS
  6
CONTINUOUS
 62
     0
 10
2051.173874999999
 20
4217.0039420000003
 30
0.0
  0
POINT
  5
7DFC
  8
DEFPOINTS
  6
CONTINUOUS
 62
     0
 10
3851.173875
 20
4056.5870570000002
 30
0.0
  0
POINT
  5
7DFD
  8
DEFPOINTS
  6
CONTINUOUS
 62
     0
 10
3851.173875
 20
3800.1604090000001
 30
0.0
  0
ENDBLK
  5
7C8C
  8
0
  0
BLOCK
  8
0
  2
*D2
 70
     1
 10
0.0
 20
0.0
 30
0.0
  3
*D2
  1

  0
LINE
  5
7DFE
  8
3
  6
CONTINUOUS
 62
     0
 10
4601.1738750000004
 20
4194.5039419999994
 30
0.0
 11
4601.1738750000004
 21
3755.1604090000001
 31
0.0
  0
LINE
  5
7DFF
  8
3
  6
CONTINUOUS
 62
     0
 10
3941.173875
 20
3800.1604090000001
 30
0.0
 11
4511.1738750000004
 21
3800.1604090000001
 31
0.0
  0
INSERT
  5
7E00
  8
3
  6
CONTINUOUS
 62
     0
  2
_OPEN
 10
3851.173875
 20
3800.1604090000001
 30
0.0
 41
90.0
 42
90.0
 43
90.0
 50
180.0
  0
INSERT
  5
7E01
  8
3
  6
CONTINUOUS
 62
     0
  2
_OPEN
 10
4601.1738750000004
 20
3800.1604090000001
 30
0.0
 41
90.0
 42
90.0
 43
90.0
  0
TEXT
  8
3
  40
135
  5
7E95
  62
0
  72
0
  71
0
 10
3956.17
 20
3673.71
 30
0.000000
  1
750
  0
POINT
  5
7E03
  8
DEFPOINTS
  6
CONTINUOUS
 62
     0
 10
3851.173875
 20
4056.5870570000002
 30
0.0
  0
POINT
  5
7E04
  8
DEFPOINTS
  6
CONTINUOUS
 62
     0
 10
4601.1738750000004
 20
4217.0039420000003
 30
0.0
  0
POINT
  5
7E05
  8
DEFPOINTS
  6
CONTINUOUS
 62
     0
 10
4601.1738750000004
 20
3800.1604090000001
 30
0.0
  0
ENDBLK
  5
7B04
  8
0
  0
BLOCK
  8
0
  2
*D3
 70
     1
 10
0.0
 20
0.0
 30
0.0
  3
*D3
  1

  0
LINE
  5
7E06
  8
3
  6
CONTINUOUS
 62
     0
 10
2517.173875
 20
6268.5039420000003
 30
0.0
 11
2517.173875
 21
6606.563588
 31
0.0
  0
LINE
  5
7E07
  8
3
  6
CONTINUOUS
 62
     0
 10
3797.173875
 20
6268.5039420000003
 30
0.0
 11
3797.173875
 21
6606.563588
 31
0.0
  0
LINE
  5
7E08
  8
3
  6
CONTINUOUS
 62
     0
 10
2607.173875
 20
6561.563588
 30
0.0
 11
3707.173875
 21
6561.563588
 31
0.0
  0
INSERT
  5
7E09
  8
3
  6
CONTINUOUS
 62
     0
  2
_OPEN
 10
2517.173875
 20
6561.563588
 30
0.0
 41
90.0
 42
90.0
 43
90.0
 50
180.0
  0
INSERT
  5
7E0A
  8
3
  6
CONTINUOUS
 62
     0
  2
_OPEN
 10
3797.173875
 20
6561.563588
 30
0.0
 41
90.0
 42
90.0
 43
90.0
  0
TEXT
  8
3
  40
135
  5
7E96
  62
0
  72
0
  71
0
 10
2857.99
 20
6435.11
 30
0.000000
  1
1280
  0
POINT
  5
7E0C
  8
DEFPOINTS
  6
CONTINUOUS
 62
     0
 10
2517.173875
 20
6246.0039420000003
 30
0.0
  0
POINT
  5
7E0D
  8
DEFPOINTS
  6
CONTINUOUS
 62
     0
 10
3797.173875
 20
6246.0039420000003
 30
0.0
  0
POINT
  5
7E0E
  8
DEFPOINTS
  6
CONTINUOUS
 62
     0
 10
3797.173875
 20
6561.563588
 30
0.0
  0
ENDBLK
  5
7B1E
  8
0
  0
BLOCK
  8
0
  2
*D4
 70
     1
 10
0.0
 20
0.0
 30
0.0
  3
*D4
  1

  0
LINE
  5
7E0F
  8
3
  6
CONTINUOUS
 62
     0
 10
2517.173875
 20
6268.5039420000003
 30
0.0
 11
2517.173875
 21
6867.8537340000003
 31
0.0
  0
LINE
  5
7E10
  8
3
  6
CONTINUOUS
 62
     0
 10
3851.173875
 20
6185.0088569999989
 30
0.0
 11
3851.173875
 21
6867.8537340000003
 31
0.0
  0
LINE
  5
7E11
  8
3
  6
CONTINUOUS
 62
     0
 10
2607.173875
 20
6822.8537340000003
 30
0.0
 11
3761.173875
 21
6822.8537340000003
 31
0.0
  0
INSERT
  5
7E12
  8
3
  6
CONTINUOUS
 62
     0
  2
_OPEN
 10
2517.173875
 20
6822.8537340000003
 30
0.0
 41
90.0
 42
90.0
 43
90.0
 50
180.0
  0
INSERT
  5
7E13
  8
3
  6
CONTINUOUS
 62
     0
  2
_OPEN
 10
3851.173875
 20
6822.8537340000003
 30
0.0
 41
90.0
 42
90.0
 43
90.0
  0
TEXT
  8
3
  40
135
  5
7E97
  62
0
  72
0
  71
0
 10
2899.29
 20
6696.40
 30
0.000000
  1
1334
  0
POINT
  5
7E15
  8
DEFPOINTS
  6
CONTINUOUS
 62
     0
 10
2517.173875
 20
6246.0039420000003
 30
0.0
  0
POINT
  5
7E16
  8
DEFPOINTS
  6
CONTINUOUS
 62
     0
 10
3851.173875
 20
6162.5088569999998
 30
0.0
  0
POINT
  5
7E17
  8
DEFPOINTS
  6
CONTINUOUS
 62
     0
 10
3851.173875
 20
6822.8537340000003
 30
0.0
  0
ENDBLK
  5
7B2B
  8
0
  0
BLOCK
  8
0
  2
*D5
 70
     1
 10
0.0
 20
0.0
 30
0.0
  3
*D5
  1

  0
LINE
  5
7E18
  8
3
  6
CONTINUOUS
 62
     0
 10
4748.2824309999996
 20
5434.8463220000012
 30
0.0
 11
4748.2824309999996
 21
6867.8537340000003
 31
0.0
  0
LINE
  5
7E19
  8
3
  6
CONTINUOUS
 62
     0
 10
3941.173875
 20
6822.8537340000003
 30
0.0
 11
4658.2824309999996
 21
6822.8537340000003
 31
0.0
  0
INSERT
  5
7E1A
  8
3
  6
CONTINUOUS
 62
     0
  2
_OPEN
 10
3851.173875
 20
6822.8537340000003
 30
0.0
 41
90.0
 42
90.0
 43
90.0
 50
180.0
  0
INSERT
  5
7E1B
  8
3
  6
CONTINUOUS
 62
     0
  2
_OPEN
 10
4748.2824309999996
 20
6822.8537340000003
 30
0.0
 41
90.0
 42
90.0
 43
90.0
  0
TEXT
  8
3
  40
135
  5
7E98
  62
0
  72
0
  71
0
 10
4029.73
 20
6696.40
 30
0.000000
  1
897
  0
POINT
  5
7E1D
  8
DEFPOINTS
  6
CONTINUOUS
 62
     0
 10
3851.173875
 20
6162.5088569999998
 30
0.0
  0
POINT
  5
7E1E
  8
DEFPOINTS
  6
CONTINUOUS
 62
     0
 10
4748.2824309999996
 20
5412.3463220000012
 30
0.0
  0
POINT
  5
7E1F
  8
DEFPOINTS
  6
CONTINUOUS
 62
     0
 10
4748.2824309999996
 20
6822.8537340000003
 30
0.0
  0
ENDBLK
  5
7B37
  8
0
  0
BLOCK
  8
0
  2
*D6
 70
     1
 10
0.0
 20
0.0
 30
0.0
  3
*D6
  1

  0
LINE
  5
7E20
  8
3
  6
CONTINUOUS
 62
     0
 10
3819.673875
 20
6246.0039420000003
 30
0.0
 11
5210.5014720000017
 21
6246.0039420000003
 31
0.0
  0
LINE
  5
7E21
  8
3
  6
CONTINUOUS
 62
     0
 10
4770.0148979999994
 20
5421.0039420000003
 30
0.0
 11
5210.5014719999999
 21
5421.0039420000003
 31
0.0
  0
LINE
  5
7E22
  8
3
  6
CONTINUOUS
 62
     0
 10
5165.5014720000017
 20
6156.0039420000003
 30
0.0
 11
5165.5014720000008
 21
5511.0039420000012
 31
0.0
  0
INSERT
  5
7E23
  8
3
  6
CONTINUOUS
 62
     0
  2
_OPEN
 10
5165.5014720000017
 20
6246.0039420000003
 30
0.0
 41
90.0
 42
90.0
 43
90.0
 50
90.0
  0
INSERT
  5
7E24
  8
3
  6
CONTINUOUS
 62
     0
  2
_OPEN
 10
5165.5014720000008
 20
5421.0039420000003
 30
0.0
 41
90.0
 42
90.0
 43
90.0
 50
270.0
  0
TEXT
  8
3
  40
135
  5
7E99
  62
0
  72
0
  71
0
 10
4783.00
 20
5573.81
 30
0.000000
  1
825
  0
POINT
  5
7E26
  8
DEFPOINTS
  6
CONTINUOUS
 62
     0
 10
3797.173875
 20
6246.0039420000003
 30
0.0
  0
POINT
  5
7E27
  8
DEFPOINTS
  6
CONTINUOUS
 62
     0
 10
4747.5148979999994
 20
5421.0039420000003
 30
0.0
  0
POINT
  5
7E28
  8
DEFPOINTS
  6
CONTINUOUS
 62
     0
 10
5165.5014720000008
 20
5421.0039420000003
 30
0.0
  0
ENDBLK
  5
7B44
  8
0
  0
BLOCK
  8
0
  2
*D7
 70
     1
 10
0.0
 20
0.0
 30
0.0
  3
*D7
  1

  0
LINE
  5
7E29
  8
3
  6
CONTINUOUS
 62
     0
 10
4623.6738750000004
 20
4311.0039420000012
 30
0.0
 11
5210.5014719999999
 21
4311.0039420000012
 31
0.0
  0
LINE
  5
7E2A
  8
3
  6
CONTINUOUS
 62
     0
 10
5165.501471999999
 20
5331.0039420000003
 30
0.0
 11
5165.501471999999
 21
4401.0039420000003
 31
0.0
  0
INSERT
  5
7E2B
  8
3
  6
CONTINUOUS
 62
     0
  2
_OPEN
 10
5165.501471999999
 20
5421.0039420000003
 30
0.0
 41
90.0
 42
90.0
 43
90.0
 50
90.0
  0
INSERT
  5
7E2C
  8
3
  6
CONTINUOUS
 62
     0
  2
_OPEN
 10
5165.501471999999
 20
4311.0039420000012
 30
0.0
 41
90.0
 42
90.0
 43
90.0
 50
270.0
  0
TEXT
  8
3
  40
135
  5
7E9A
  62
0
  72
0
  71
0
 10
4783.00
 20
4627.05
 30
0.000000
  1
1110
  0
POINT
  5
7E2E
  8
DEFPOINTS
  6
CONTINUOUS
 62
     0
 10
4747.5148979999994
 20
5421.0039420000003
 30
0.0
  0
POINT
  5
7E2F
  8
DEFPOINTS
  6
CONTINUOUS
 62
     0
 10
4601.1738750000004
 20
4311.0039420000012
 30
0.0
  0
POINT
  5
7E30
  8
DEFPOINTS
  6
CONTINUOUS
 62
     0
 10
5165.501471999999
 20
4311.0039420000012
 30
0.0
  0
ENDBLK
  5
7B50
  8
0
  0
BLOCK
  8
0
  2
*D8
 70
     1
 10
0.0
 20
0.0
 30
0.0
  3
*D8
  1

  0
LINE
  5
7E31
  8
3
  6
CONTINUOUS
 62
     0
 10
4623.6738750000004
 20
4311.0039420000012
 30
0.0
 11
5210.5014719999999
 21
4311.0039420000012
 31
0.0
  0
LINE
  5
7E32
  8
3
  6
CONTINUOUS
 62
     0
 10
4623.6738750000004
 20
4217.0039420000003
 30
0.0
 11
5210.5014719999999
 21
4217.0039420000003
 31
0.0
  0
LINE
  5
7E33
  8
3
  6
CONTINUOUS
 62
     0
 10
5165.5014720000008
 20
4401.0039420000003
 30
0.0
 11
5165.5014720000008
 21
4491.0039420000003
 31
0.0
  0
LINE
  5
7E34
  8
3
  6
CONTINUOUS
 62
     0
 10
5165.5014720000008
 20
4127.0039420000003
 30
0.0
 11
5165.5014720000008
 21
3722.0039419999998
 31
0.0
  0
LINE
  5
7E35
  8
3
  6
CONTINUOUS
 62
     0
 10
5165.5014720000008
 20
4311.0039420000012
 30
0.0
 11
5165.5014720000008
 21
4217.0039420000003
 31
0.0
  0
INSERT
  5
7E36
  8
3
  6
CONTINUOUS
 62
     0
  2
_OPEN
 10
5165.5014720000008
 20
4311.0039420000012
 30
0.0
 41
90.0
 42
90.0
 43
90.0
 50
270.0
  0
INSERT
  5
7E37
  8
3
  6
CONTINUOUS
 62
     0
  2
_OPEN
 10
5165.5014720000008
 20
4217.0039420000003
 30
0.0
 41
90.0
 42
90.0
 43
90.0
 50
90.0
  0
TEXT
  8
3
  40
135
  5
7E9B
  62
0
  72
0
  71
0
 10
4783.00
 20
3640.55
 30
0.000000
  1
94
  0
POINT
  5
7E39
  8
DEFPOINTS
  6
CONTINUOUS
 62
     0
 10
4601.1738750000004
 20
4311.0039420000012
 30
0.0
  0
POINT
  5
7E3A
  8
DEFPOINTS
  6
CONTINUOUS
 62
     0
 10
4601.1738750000004
 20
4217.0039420000003
 30
0.0
  0
POINT
  5
7E3B
  8
DEFPOINTS
  6
CONTINUOUS
 62
     0
 10
5165.5014720000008
 20
4217.0039420000003
 30
0.0
  0
ENDBLK
  5
7CB7
  8
0
  0
BLOCK
  8
0
  2
*D9
 70
     1
 10
0.0
 20
0.0
 30
0.0
  3
*D9
  1

  0
LINE
  5
7E3C
  8
3
  6
CONTINUOUS
 62
     0
 10
3819.673875
 20
6246.0039420000003
 30
0.0
 11
5503.781140028319
 21
6246.0039420000003
 31
0.0
  0
LINE
  5
7E3D
  8
3
  6
CONTINUOUS
 62
     0
 10
4623.6738750000004
 20
4217.0039420000003
 30
0.0
 11
5503.7811400283181
 21
4217.0039420000003
 31
0.0
  0
LINE
  5
7E3E
  8
3
  6
CONTINUOUS
 62
     0
 10
5458.781140028319
 20
6156.0039420000003
 30
0.0
 11
5458.7811400283172
 21
4307.0039420000003
 31
0.0
  0
INSERT
  5
7E3F
  8
3
  6
CONTINUOUS
 62
     0
  2
_OPEN
 10
5458.781140028319
 20
6246.0039420000003
 30
0.0
 41
90.0
 42
90.0
 43
90.0
 50
90.0
  0
INSERT
  5
7E40
  8
3
  6
CONTINUOUS
 62
     0
  2
_OPEN
 10
5458.7811400283172
 20
4217.0039420000003
 30
0.0
 41
90.0
 42
90.0
 43
90.0
 50
270.0
  0
TEXT
  8
3
  40
135
  5
7E9C
  62
0
  72
0
  71
0
 10
5076.28
 20
4861.05
 30
0.000000
  1
2029
  0
POINT
  5
7E42
  8
DEFPOINTS
  6
CONTINUOUS
 62
     0
 10
3797.173875
 20
6246.0039420000003
 30
0.0
  0
POINT
  5
7E43
  8
DEFPOINTS
  6
CONTINUOUS
 62
     0
 10
4601.1738750000004
 20
4217.0039420000003
 30
0.0
  0
POINT
  5
7E44
  8
DEFPOINTS
  6
CONTINUOUS
 62
     0
 10
5458.7811400283172
 20
4217.0039420000003
 30
0.0
  0
ENDBLK
  5
7CC2
  8
0
  0
BLOCK
  8
0
  2
*D10
 70
     1
 10
0.0
 20
0.0
 30
0.0
  3
*D10
  1

  0
LINE
  5
7E45
  8
3
  6
CONTINUOUS
 62
     0
 10
2051.173874999999
 20
8683.5039419999994
 30
0.0
 11
2051.173874999999
 21
8105.0
 31
0.0
  0
LINE
  5
7E46
  8
3
  6
CONTINUOUS
 62
     0
 10
4601.1738750000004
 20
8683.5039419999994
 30
0.0
 11
4601.1738750000004
 21
8105.0
 31
0.0
  0
LINE
  5
7E47
  8
3
  6
CONTINUOUS
 62
     0
 10
2141.173875
 20
8150.0
 30
0.0
 11
4511.1738750000004
 21
8150.0
 31
0.0
  0
INSERT
  5
7E48
  8
3
  6
CONTINUOUS
 62
     0
  2
_OPEN
 10
2051.173874999999
 20
8150.0
 30
0.0
 41
90.0
 42
90.0
 43
90.0
 50
180.0
  0
INSERT
  5
7E49
  8
3
  6
CONTINUOUS
 62
     0
  2
_OPEN
 10
4601.1738750000004
 20
8150.0
 30
0.0
 41
90.0
 42
90.0
 43
90.0
  0
TEXT
  8
3
  40
135
  5
7E9D
  62
0
  72
0
  71
0
 10
3110.00
 20
8023.55
 30
0.000000
  1
2550
  0
POINT
  5
7E4B
  8
DEFPOINTS
  6
CONTINUOUS
 62
     0
 10
2051.173874999999
 20
8706.0039419999994
 30
0.0
  0
POINT
  5
7E4C
  8
DEFPOINTS
  6
CONTINUOUS
 62
     0
 10
4601.1738750000004
 20
8706.0039419999994
 30
0.0
  0
POINT
  5
7E4D
  8
DEFPOINTS
  6
CONTINUOUS
 62
     0
 10
4601.1738750000004
 20
8150.0
 30
0.0
  0
ENDBLK
  5
7C81
  8
0
  0
BLOCK
  8
0
  2
*D11
 70
     1
 10
0.0
 20
0.0
 30
0.0
  3
*D11
  1

  0
LINE
  5
7E4E
  8
3
  6
CONTINUOUS
 62
     0
 10
4623.6738750000004
 20
9986.0039419999994
 30
0.0
 11
5175.0
 21
9986.0039419999994
 31
0.0
  0
LINE
  5
7E4F
  8
3
  6
CONTINUOUS
 62
     0
 10
4623.6738750000004
 20
8706.0039419999994
 30
0.0
 11
5175.0
 21
8706.0039419999994
 31
0.0
  0
LINE
  5
7E50
  8
3
  6
CONTINUOUS
 62
     0
 10
5130.0000000000009
 20
9896.0039419999994
 30
0.0
 11
5130.0000000000009
 21
8796.0039419999994
 31
0.0
  0
INSERT
  5
7E51
  8
3
  6
CONTINUOUS
 62
     0
  2
_OPEN
 10
5130.0000000000009
 20
9986.0039419999994
 30
0.0
 41
90.0
 42
90.0
 43
90.0
 50
90.0
  0
INSERT
  5
7E52
  8
3
  6
CONTINUOUS
 62
     0
  2
_OPEN
 10
5130.0000000000009
 20
8706.0039419999994
 30
0.0
 41
90.0
 42
90.0
 43
90.0
 50
270.0
  0
TEXT
  8
3
  40
135
  5
7E9E
  62
0
  72
0
  71
0
 10
4747.50
 20
9111.05
 30
0.000000
  1
1280
  0
POINT
  5
7E54
  8
DEFPOINTS
  6
CONTINUOUS
 62
     0
 10
4601.1738750000004
 20
9986.0039419999994
 30
0.0
  0
POINT
  5
7E55
  8
DEFPOINTS
  6
CONTINUOUS
 62
     0
 10
4601.1738750000004
 20
8706.0039419999994
 30
0.0
  0
POINT
  5
7E56
  8
DEFPOINTS
  6
CONTINUOUS
 62
     0
 10
5130.0000000000009
 20
8706.0039419999994
 30
0.0
  0
ENDBLK
  5
7BA2
  8
0
  0
BLOCK
  8
0
  2
*D12
 70
     1
 10
0.0
 20
0.0
 30
0.0
  3
*D12
  1

  0
LINE
  5
7E57
  8
3
  6
CONTINUOUS
 62
     0
 10
7109.1470280000012
 20
6268.5039420000003
 30
0.0
 11
7109.1470280000012
 21
6495.0
 31
0.0
  0
LINE
  5
7E58
  8
3
  6
CONTINUOUS
 62
     0
 10
8059.1470280000012
 20
6268.5039420000003
 30
0.0
 11
8059.1470280000012
 21
6495.0
 31
0.0
  0
LINE
  5
7E59
  8
3
  6
CONTINUOUS
 62
     0
 10
7199.1470280000003
 20
6450.0
 30
0.0
 11
7969.1470280000003
 21
6450.0
 31
0.0
  0
INSERT
  5
7E5A
  8
3
  6
CONTINUOUS
 62
     0
  2
_OPEN
 10
7109.1470280000012
 20
6450.0
 30
0.0
 41
90.0
 42
90.0
 43
90.0
 50
180.0
  0
INSERT
  5
7E5B
  8
3
  6
CONTINUOUS
 62
     0
  2
_OPEN
 10
8059.1470280000012
 20
6450.0
 30
0.0
 41
90.0
 42
90.0
 43
90.0
  0
TEXT
  8
3
  40
135
  5
7E9F
  62
0
  72
0
  71
0
 10
7280.00
 20
6323.55
 30
0.000000
  1
950
  0
POINT
  5
7E5D
  8
DEFPOINTS
  6
CONTINUOUS
 62
     0
 10
7109.1470280000012
 20
6246.0039420000003
 30
0.0
  0
POINT
  5
7E5E
  8
DEFPOINTS
  6
CONTINUOUS
 62
     0
 10
8059.1470280000012
 20
6246.0039420000003
 30
0.0
  0
POINT
  5
7E5F
  8
DEFPOINTS
  6
CONTINUOUS
 62
     0
 10
8059.1470280000012
 20
6450.0
 30
0.0
  0
ENDBLK
  5
7BB1
  8
0
  0
BLOCK
  8
0
  2
*D13
 70
     1
 10
0.0
 20
0.0
 30
0.0
  3
*D13
  1

  0
LINE
  5
7E60
  8
3
  6
CONTINUOUS
 62
     0
 10
6744.1470280000003
 20
5821.5039420000003
 30
0.0
 11
6744.1470280000003
 21
6804.0329793790961
 31
0.0
  0
LINE
  5
7E61
  8
3
  6
CONTINUOUS
 62
     0
 10
7584.1470280000012
 20
6673.8258201667159
 30
0.0
 11
7584.1470280000012
 21
6804.0329793790961
 31
0.0
  0
LINE
  5
7E62
  8
3
  6
CONTINUOUS
 62
     0
 10
6834.1470280000012
 20
6759.0329793790961
 30
0.0
 11
7494.1470280000003
 21
6759.0329793790961
 31
0.0
  0
INSERT
  5
7E63
  8
3
  6
CONTINUOUS
 62
     0
  2
_OPEN
 10
6744.1470280000003
 20
6759.0329793790961
 30
0.0
 41
90.0
 42
90.0
 43
90.0
 50
180.0
  0
INSERT
  5
7E64
  8
3
  6
CONTINUOUS
 62
     0
  2
_OPEN
 10
7584.1470280000012
 20
6759.0329793790961
 30
0.0
 41
90.0
 42
90.0
 43
90.0
  0
TEXT
  8
3
  40
135
  5
7EA0
  62
0
  72
0
  71
0
 10
6900.00
 20
6745.08
 30
0.000000
  1
MAX
  0
TEXT
  8
3
  40
135
  5
7EA1
  62
0
  72
0
  71
0
 10
6900.00
 20
6569.58
 30
0.000000
  1
890
  0
POINT
  5
7E66
  8
DEFPOINTS
  6
CONTINUOUS
 62
     0
 10
6744.1470280000003
 20
5799.0039420000003
 30
0.0
  0
POINT
  5
7E67
  8
DEFPOINTS
  6
CONTINUOUS
 62
     0
 10
7584.1470280000012
 20
6651.3258201667149
 30
0.0
  0
POINT
  5
7E68
  8
DEFPOINTS
  6
CONTINUOUS
 62
     0
 10
7584.1470280000012
 20
6759.0329793790961
 30
0.0
  0
ENDBLK
  5
7CF7
  8
0
  0
BLOCK
  8
0
  2
*D14
 70
     1
 10
0.0
 20
0.0
 30
0.0
  3
*D14
  1

  0
LINE
  5
7E69
  8
3
  6
CONTINUOUS
 62
     0
 10
8162.1470280000012
 20
6118.5039420000003
 30
0.0
 11
8162.1470280000012
 21
6804.0329793790961
 31
0.0
  0
LINE
  5
7E6A
  8
3
  6
CONTINUOUS
 62
     0
 10
7674.1470280000003
 20
6759.0329793790961
 30
0.0
 11
8072.1470280000012
 21
6759.0329793790961
 31
0.0
  0
TEXT
  8
3
  40
135
  5
7EA2
  62
0
  72
0
  71
0
 10
7580.00
 20
6632.58
 30
0.000000
  1
578
  0
INSERT
  5
7E6C
  8
3
  6
CONTINUOUS
 62
     0
  2
_OPEN
 10
7584.1470280000012
 20
6759.0329793790961
 30
0.0
 41
90.0
 42
90.0
 43
90.0
 50
180.0
  0
INSERT
  5
7E6D
  8
3
  6
CONTINUOUS
 62
     0
  2
_OPEN
 10
8162.1470280000012
 20
6759.0329793790961
 30
0.0
 41
90.0
 42
90.0
 43
90.0
  0
POINT
  5
7E6E
  8
DEFPOINTS
  6
CONTINUOUS
 62
     0
 10
7584.1470280000012
 20
6651.3258201667149
 30
0.0
  0
POINT
  5
7E6F
  8
DEFPOINTS
  6
CONTINUOUS
 62
     0
 10
8162.1470280000012
 20
6096.0039420000003
 30
0.0
  0
POINT
  5
7E70
  8
DEFPOINTS
  6
CONTINUOUS
 62
     0
 10
8162.1470280000012
 20
6759.0329793790961
 30
0.0
  0
ENDBLK
  5
7CE1
  8
0
  0
BLOCK
  8
0
  2
*D15
 70
     1
 10
0.0
 20
0.0
 30
0.0
  3
*D15
  1

  0
LINE
  5
7E71
  8
3
  6
CONTINUOUS
 62
     0
 10
8184.6470280000003
 20
6046.0039420000003
 30
0.0
 11
8565.0000000000036
 21
6046.0039420000003
 31
0.0
  0
LINE
  5
7E72
  8
3
  6
CONTINUOUS
 62
     0
 10
8184.6470280000003
 20
4796.0039420000003
 30
0.0
 11
8565.0000000000036
 21
4796.0039420000003
 31
0.0
  0
LINE
  5
7E73
  8
3
  6
CONTINUOUS
 62
     0
 10
8520.0000000000018
 20
5956.0039420000003
 30
0.0
 11
8520.0000000000018
 21
4886.0039420000012
 31
0.0
  0
INSERT
  5
7E74
  8
3
  6
CONTINUOUS
 62
     0
  2
_OPEN
 10
8520.0000000000018
 20
6046.0039420000003
 30
0.0
 41
90.0
 42
90.0
 43
90.0
 50
90.0
  0
INSERT
  5
7E75
  8
3
  6
CONTINUOUS
 62
     0
  2
_OPEN
 10
8520.0000000000018
 20
4796.0039420000003
 30
0.0
 41
90.0
 42
90.0
 43
90.0
 50
270.0
  0
TEXT
  8
3
  40
135
  5
7EA3
  62
0
  72
0
  71
0
 10
8137.50
 20
5201.05
 30
0.000000
  1
φ1250
  0
POINT
  5
7E77
  8
DEFPOINTS
  6
CONTINUOUS
 62
     0
 10
8162.1470280000012
 20
6046.0039420000003
 30
0.0
  0
POINT
  5
7E78
  8
DEFPOINTS
  6
CONTINUOUS
 62
     0
 10
8162.1470280000012
 20
4796.0039420000003
 30
0.0
  0
POINT
  5
7E79
  8
DEFPOINTS
  6
CONTINUOUS
 62
     0
 10
8520.0000000000018
 20
4796.0039420000003
 30
0.0
  0
ENDBLK
  5
7CAA
  8
0
  0
BLOCK
  8
0
  2
*D16
 70
     1
 10
0.0
 20
0.0
 30
0.0
  3
*D16
  1

  0
LINE
  5
7E7A
  8
3
  6
CONTINUOUS
 62
     0
 10
6857.1470279999994
 20
4194.5039419999994
 30
0.0
 11
6857.1470279999994
 21
3865.0
 31
0.0
  0
LINE
  5
7E7B
  8
3
  6
CONTINUOUS
 62
     0
 10
7584.1470280000012
 20
4194.5039419999994
 30
0.0
 11
7584.1470280000012
 21
3865.0
 31
0.0
  0
LINE
  5
7E7C
  8
3
  6
CONTINUOUS
 62
     0
 10
6947.1470280000003
 20
3910.0
 30
0.0
 11
7494.1470280000003
 21
3910.0
 31
0.0
  0
INSERT
  5
7E7D
  8
3
  6
CONTINUOUS
 62
     0
  2
_OPEN
 10
6857.1470279999994
 20
3910.0
 30
0.0
 41
90.0
 42
90.0
 43
90.0
 50
180.0
  0
INSERT
  5
7E7E
  8
3
  6
CONTINUOUS
 62
     0
  2
_OPEN
 10
7584.1470280000012
 20
3910.0
 30
0.0
 41
90.0
 42
90.0
 43
90.0
  0
TEXT
  8
3
  40
135
  5
7EA4
  62
0
  72
0
  71
0
 10
6950.00
 20
3783.55
 30
0.000000
  1
727
  0
POINT
  5
7E80
  8
DEFPOINTS
  6
CONTINUOUS
 62
     0
 10
6857.1470279999994
 20
4217.0039420000003
 30
0.0
  0
POINT
  5
7E81
  8
DEFPOINTS
  6
CONTINUOUS
 62
     0
 10
7584.1470280000012
 20
4217.0039420000003
 30
0.0
  0
POINT
  5
7E82
  8
DEFPOINTS
  6
CONTINUOUS
 62
     0
 10
7584.1470280000012
 20
3910.0
 30
0.0
  0
ENDBLK
  5
7BFC
  8
0
  0
BLOCK
  8
0
  2
*D17
 70
     1
 10
0.0
 20
0.0
 30
0.0
  3
*D17
  1

  0
LINE
  5
7E83
  8
3
  6
CONTINUOUS
 62
     0
 10
8137.1470280000012
 20
4194.5039419999994
 30
0.0
 11
8137.1470280000012
 21
3865.0
 31
0.0
  0
LINE
  5
7E84
  8
3
  6
CONTINUOUS
 62
     0
 10
7674.1470280000003
 20
3910.0
 30
0.0
 11
8047.1470280000012
 21
3910.0
 31
0.0
  0
TEXT
  8
3
  40
135
  5
7EA5
  62
0
  72
0
  71
0
 10
7570.00
 20
3783.55
 30
0.000000
  1
553
  0
INSERT
  5
7E86
  8
3
  6
CONTINUOUS
 62
     0
  2
_OPEN
 10
7584.1470280000012
 20
3910.0
 30
0.0
 41
90.0
 42
90.0
 43
90.0
 50
180.0
  0
INSERT
  5
7E87
  8
3
  6
CONTINUOUS
 62
     0
  2
_OPEN
 10
8137.1470280000012
 20
3910.0
 30
0.0
 41
90.0
 42
90.0
 43
90.0
  0
POINT
  5
7E88
  8
DEFPOINTS
  6
CONTINUOUS
 62
     0
 10
7584.1470280000012
 20
4217.0039420000003
 30
0.0
  0
POINT
  5
7E89
  8
DEFPOINTS
  6
CONTINUOUS
 62
     0
 10
8137.1470280000012
 20
4217.0039420000003
 30
0.0
  0
POINT
  5
7E8A
  8
DEFPOINTS
  6
CONTINUOUS
 62
     0
 10
8137.1470280000012
 20
3910.0
 30
0.0
  0
ENDBLK
  5
7C21
  8
0
  0
BLOCK
  8
0
  2
*D18
 70
     1
 10
0.0
 20
0.0
 30
0.0
  3
*D18
  1

  0
LINE
  5
7E8B
  8
3
 62
     0
 10
2051.173874999999
 20
4483.5039420000003
 30
0.0
 11
2051.173874999999
 21
7153.3671171209999
 31
0.0
  0
LINE
  5
7E8C
  8
3
 62
     0
 10
4748.2824309999996
 20
5457.3463220000012
 30
0.0
 11
4748.2824309999996
 21
7153.3671171209999
 31
0.0
  0
LINE
  5
7E8D
  8
3
 62
     0
 10
2141.173875
 20
7108.3671171210017
 30
0.0
 11
4658.2824309999996
 21
7108.3671171210017
 31
0.0
  0
INSERT
  5
7E8E
  8
3
 62
     0
  2
_OPEN
 10
2051.173874999999
 20
7108.3671171210017
 30
0.0
 41
90.0
 42
90.0
 43
90.0
 50
180.0
  0
INSERT
  5
7E8F
  8
3
 62
     0
  2
_OPEN
 10
4748.2824309999996
 20
7108.3671171210017
 30
0.0
 41
90.0
 42
90.0
 43
90.0
  0
TEXT
  8
3
  40
135
  5
7EA6
  62
0
  72
0
  71
0
 10
3279.86
 20
6981.92
 30
0.000000
  1
2697
  0
POINT
  5
7E91
  8
DEFPOINTS
 62
     0
 10
2051.173874999999
 20
4461.0039420000003
 30
0.0
  0
POINT
  5
7E92
  8
DEFPOINTS
 62
     0
 10
4748.2824309999996
 20
5434.8463220000012
 30
0.0
  0
POINT
  5
7E93
  8
DEFPOINTS
 62
     0
 10
4748.2824309999996
 20
7108.3671171210017
 30
0.0
  0
ENDBLK
  5
7C9E
  8
0
  0
ENDSEC
  0
SECTION
  2
ENTITIES
  0
LINE
  5
7A75
  8
1
  6
CONTINUOUS
 10
7059.1470280000012
 20
6246.0039420000003
 30
0.0
 11
8109.1470280000003
 21
6246.0039420000003
 31
0.0
  0
LINE
  5
7A76
  8
1
  6
CONTINUOUS
 10
8137.1470280000012
 20
4461.0039420000003
 30
0.0
 11
6857.1470279999994
 21
4461.0039420000003
 31
0.0
  0
LINE
  5
7A77
  8
1
  6
CONTINUOUS
 10
8137.1470280000012
 20
4311.0039420000012
 30
0.0
 11
6857.1470279999994
 21
4311.0039420000012
 31
0.0
  0
LINE
  5
7A78
  8
1
  6
CONTINUOUS
 10
7109.1470280000012
 20
6196.0039420000003
 30
0.0
 11
8059.1470280000012
 21
6196.0039420000003
 31
0.0
  0
LINE
  5
7A79
  8
1
  6
CONTINUOUS
 10
8137.1470280000012
 20
4292.0039420000003
 30
0.0
 11
6857.1470279999994
 21
4292.0039420000003
 31
0.0
  0
LINE
  5
7A7A
  8
1
  6
CONTINUOUS
 10
8137.1470280000012
 20
4217.0039420000003
 30
0.0
 11
6857.1470279999994
 21
4217.0039420000003
 31
0.0
  0
CIRCLE
  5
7A7B
  8
1
  6
CONTINUOUS
 10
3851.173875
 20
5421.0039420000003
 30
0.0
 40
675.0
  0
CIRCLE
  5
7A7C
  8
1
  6
CONTINUOUS
 10
3851.173875
 20
5421.0039420000003
 30
0.0
 40
625.0
  0
LINE
  5
7A7D
  8
1
  6
CONTINUOUS
 10
4601.1738750000004
 20
4461.0039420000003
 30
0.0
 11
2051.173874999999
 21
4461.0039420000003
 31
0.0
  0
LINE
  5
7A7E
  8
1
  6
CONTINUOUS
 10
3797.173875
 20
6196.0039420000003
 30
0.0
 11
2517.173875
 21
6196.0039420000003
 31
0.0
  0
LINE
  5
7A7F
  8
1
  6
CONTINUOUS
 10
4601.1738750000004
 20
4311.0039420000012
 30
0.0
 11
2051.173874999999
 21
4311.0039420000012
 31
0.0
  0
POLYLINE
  5
7A80
  8
1
  6
CONTINUOUS
 66
     1
 10
0.0
 20
0.0
 30
0.0
  0
VERTEX
  5
7DEE
  8
1
  6
CONTINUOUS
 10
2517.173875
 20
6246.0039420000003
 30
0.0
  0
VERTEX
  5
7DEF
  8
1
  6
CONTINUOUS
 10
2590.173875
 20
5421.0039420000003
 30
0.0
 42
0.391657
  0
VERTEX
  5
7DF0
  8
1
  6
CONTINUOUS
 10
3760.173875
 20
4338.4703890000001
 30
0.0
 42
0.4387800000000001
  0
VERTEX
  5
7DF1
  8
1
  6
CONTINUOUS
 10
4748.2824309999996
 20
5412.3463220000012
 30
0.0
 42
0.390066
  0
VERTEX
  5
7DF2
  8
1
  6
CONTINUOUS
 10
3928.173875
 20
6166.9551710000014
 30
0.0
 42
0.049316
  0
VERTEX
  5
7DF3
  8
1
  6
CONTINUOUS
 10
3797.173875
 20
6154.0029869999998
 30
0.0
 42
0.393627
  0
SEQEND
  5
7DF4
  8
1
  6
CONTINUOUS
  0
LINE
  5
7A88
  8
1
  6
CONTINUOUS
 10
3847.173875
 20
6246.0039420000003
 30
0.0
 11
2461.173875
 21
6246.0039420000003
 31
0.0
  0
LINE
  5
7A89
  8
1
  6
CONTINUOUS
 10
2409.7052079999999
 20
4795.9134830000003
 30
0.0
 11
3697.18813
 21
5652.461045
 31
0.0
  0
LINE
  5
7A8A
  8
1
  6
CONTINUOUS
 10
2354.314652
 20
4879.1714329999986
 30
0.0
 11
3641.7975740000002
 21
5735.7189950000002
 31
0.0
  0
LINE
  5
7A8B
  8
1
  6
CONTINUOUS
 10
2521.0636490000002
 20
4584.7164400000001
 30
0.0
 11
3955.1685179999999
 21
5163.187895
 31
0.0
  0
LINE
  5
7A8C
  8
1
  6
CONTINUOUS
 10
2558.471794
 20
4491.9768539999986
 30
0.0
 11
3992.5766629999998
 21
5070.4483090000003
 31
0.0
  0
LINE
  5
7A8D
  8
1
  6
CONTINUOUS
 10
4601.1738750000004
 20
4292.0039420000003
 30
0.0
 11
2051.173874999999
 21
4292.0039420000003
 31
0.0
  0
LINE
  5
7A8E
  8
1
  6
CONTINUOUS
 10
4601.1738750000004
 20
4217.0039420000003
 30
0.0
 11
2051.173874999999
 21
4217.0039420000003
 31
0.0
  0
LINE
  5
7A8F
  8
1
  6
CONTINUOUS
 10
2701.173875
 20
4516.0039420000003
 30
0.0
 11
2251.173875
 21
4516.0039420000003
 31
0.0
  0
ARC
  5
7A90
  8
1
  6
CONTINUOUS
 10
2476.173875
 20
4696.0039419999994
 30
0.0
 40
220.0
 50
123.63536499999989
 51
291.96755200000001
  0
LINE
  5
7A91
  8
1
  6
CONTINUOUS
 10
2251.173875
 20
4461.0039420000003
 30
0.0
 11
2251.173875
 21
4516.0039420000003
 31
0.0
  0
LINE
  5
7A92
  8
1
  6
CONTINUOUS
 10
2051.173874999999
 20
4461.0039420000003
 30
0.0
 11
2051.173874999999
 21
4311.0039420000012
 31
0.0
  0
LINE
  5
7A93
  8
1
  6
CONTINUOUS
 10
2051.173874999999
 20
4292.0039420000003
 30
0.0
 11
2051.173874999999
 21
4217.0039420000003
 31
0.0
  0
LINE
  5
7A94
  8
2
  6
CENTER
 10
2476.173875
 20
4576.0039420000003
 30
0.0
 11
2476.173875
 21
4816.0039420000003
 31
0.0
  0
CIRCLE
  5
7A95
  8
1
  6
CONTINUOUS
 10
2476.173875
 20
4696.0039419999994
 30
0.0
 40
120.0
  0
ARC
  5
7A96
  8
1
  6
CONTINUOUS
 10
2476.173875
 20
4696.0039419999994
 30
0.0
 40
199.0
 50
320.126825
 51
219.87317499999989
  0
LINE
  5
7A97
  8
2
  6
CENTER
 10
2356.173875
 20
4696.0039419999994
 30
0.0
 11
2596.173874999999
 21
4696.0039419999994
 31
0.0
  0
LINE
  5
7A98
  8
1
  6
CONTINUOUS
 10
2314.173874999999
 20
4516.0039420000003
 30
0.0
 11
2314.173874999999
 21
4558.5031250000002
 31
0.0
  0
LINE
  5
7A99
  8
1
  6
CONTINUOUS
 10
2314.173874999999
 20
4516.0039420000003
 30
0.0
 11
2374.173874999999
 21
4516.0039420000003
 31
0.0
  0
LINE
  5
7A9A
  8
1
  6
CONTINUOUS
 10
2314.173874999999
 20
4558.5031250000002
 30
0.0
 11
2323.4482640000001
 21
4568.4269539999987
 31
0.0
  0
LINE
  5
7A9B
  8
1
  6
CONTINUOUS
 10
2701.173875
 20
4461.0039420000003
 30
0.0
 11
2701.173875
 21
4516.0039420000003
 31
0.0
  0
LINE
  5
7A9C
  8
1
  6
CONTINUOUS
 10
2638.173875
 20
4516.0039420000003
 30
0.0
 11
2638.173875
 21
4558.5031250000002
 31
0.0
  0
LINE
  5
7A9D
  8
1
  6
CONTINUOUS
 10
2638.173875
 20
4558.5031250000002
 30
0.0
 11
2628.8994859999989
 21
4568.4269539999987
 31
0.0
  0
LINE
  5
7A9E
  8
2
  6
CENTER
 10
3851.173875
 20
4056.5870570000002
 30
0.0
 11
3851.173875
 21
6230.0
 31
0.0
  0
CIRCLE
  5
7A9F
  8
1
  6
CONTINUOUS
 10
3851.173875
 20
5421.0039420000003
 30
0.0
 40
278.0
  0
ARC
  5
7AA0
  8
1
  6
CONTINUOUS
 10
3851.173875
 20
5421.0039420000003
 30
0.0
 40
378.0
 50
291.96755200000001
 51
123.63536499999989
  0
LINE
  5
7AA1
  8
2
  6
CENTER
 10
8207.2908580000003
 20
5421.0039420000003
 30
0.0
 11
6640.0
 21
5421.0039420000003
 31
0.0
  0
LINE
  5
7AA2
  8
1
  6
CONTINUOUS
 10
4601.1738750000004
 20
4461.0039420000003
 30
0.0
 11
4601.1738750000004
 21
4311.0039420000012
 31
0.0
  0
LINE
  5
7AA3
  8
1
  6
CONTINUOUS
 10
4601.1738750000004
 20
4292.0039420000003
 30
0.0
 11
4601.1738750000004
 21
4217.0039420000003
 31
0.0
  0
LINE
  5
7AA4
  8
1
  6
CONTINUOUS
 10
3797.173875
 20
6154.0029869999998
 30
0.0
 11
3797.173875
 21
6246.0039420000003
 31
0.0
  0
LINE
  5
7AA5
  8
1
  6
CONTINUOUS
 10
6914.1470280000012
 20
5143.0039420000003
 30
0.0
 11
6914.1470280000012
 21
5699.0039420000003
 31
0.0
  0
LINE
  5
7AA6
  8
1
  6
CONTINUOUS
 10
6814.1470280000003
 20
5143.0039420000003
 30
0.0
 11
6814.1470280000003
 21
5699.0039420000003
 31
0.0
  0
LINE
  5
7AA7
  8
1
  6
CONTINUOUS
 10
6984.1470280000012
 20
4476.0039420000012
 30
0.0
 11
6984.1470280000012
 21
5799.0039420000003
 31
0.0
  0
LINE
  5
7AA8
  8
1
  6
CONTINUOUS
 10
6744.1470280000003
 20
4476.0039420000012
 30
0.0
 11
6744.1470280000003
 21
5799.0039420000003
 31
0.0
  0
LINE
  5
7AA9
  8
1
  6
CONTINUOUS
 10
7109.1470280000012
 20
4461.0039420000003
 30
0.0
 11
7109.1470280000012
 21
6246.0039420000003
 31
0.0
  0
LINE
  5
7AAA
  8
1
  6
CONTINUOUS
 10
6814.1470280000003
 20
4576.0039420000003
 30
0.0
 11
6814.1470280000003
 21
4816.0039420000003
 31
0.0
  0
LINE
  5
7AAB
  8
1
  6
CONTINUOUS
 10
6914.1470280000012
 20
4576.0039420000003
 30
0.0
 11
6914.1470280000012
 21
4816.0039420000003
 31
0.0
  0
LINE
  5
7AAC
  8
1
  6
CONTINUOUS
 10
6744.1470280000003
 20
4476.0039420000012
 30
0.0
 11
6984.1470280000012
 21
4476.0039420000012
 31
0.0
  0
LINE
  5
7AAD
  8
1
  6
CONTINUOUS
 10
6814.1470280000003
 20
4576.0039420000003
 30
0.0
 11
6914.1470280000012
 21
4576.0039420000003
 31
0.0
  0
LINE
  5
7AB0
  8
1
  6
CONTINUOUS
 10
6914.1470280000012
 20
4668.5039420000003
 30
0.0
 11
7109.1470280000012
 21
4668.5039420000003
 31
0.0
  0
LINE
  5
7AB1
  8
1
  6
CONTINUOUS
 10
6857.1470279999994
 20
4311.0039420000012
 30
0.0
 11
6857.1470279999994
 21
4461.0039420000003
 31
0.0
  0
LINE
  5
7AB2
  8
1
  6
CONTINUOUS
 10
6857.1470279999994
 20
4217.0039420000003
 30
0.0
 11
6857.1470279999994
 21
4292.0039420000003
 31
0.0
  0
LINE
  5
7AB3
  8
1
  6
CONTINUOUS
 10
6814.1470280000003
 20
5143.0039420000003
 30
0.0
 11
6914.1470280000012
 21
5143.0039420000003
 31
0.0
  0
LINE
  5
7AB4
  8
1
  6
CONTINUOUS
 10
6814.1470280000003
 20
4816.0039420000003
 30
0.0
 11
6914.1470280000012
 21
4816.0039420000003
 31
0.0
  0
LINE
  5
7AB5
  8
1
  6
CONTINUOUS
 10
6914.1470280000012
 20
4723.5039420000003
 30
0.0
 11
7109.1470280000012
 21
4723.5039420000003
 31
0.0
  0
LINE
  5
7AB6
  8
1
  6
CONTINUOUS
 10
6914.1470280000012
 20
5393.5039420000003
 30
0.0
 11
7109.1470280000012
 21
5393.5039420000003
 31
0.0
  0
LINE
  5
7AB7
  8
1
  6
CONTINUOUS
 10
6914.1470280000012
 20
5448.5039420000012
 30
0.0
 11
7109.1470280000012
 21
5448.5039420000012
 31
0.0
  0
LINE
  5
7AB8
  8
1
  6
CONTINUOUS
 10
6744.1470280000003
 20
5799.0039420000003
 30
0.0
 11
6984.1470280000012
 21
5799.0039420000003
 31
0.0
  0
LINE
  5
7AB9
  8
1
  6
CONTINUOUS
 10
6814.1470280000003
 20
5699.0039420000003
 30
0.0
 11
6914.1470280000012
 21
5699.0039420000003
 31
0.0
  0
LINE
  5
7ABA
  8
1
  6
CONTINUOUS
 10
4229.1738750000004
 20
8833.0039419999994
 30
0.0
 11
2156.173874999999
 21
8833.0039419999994
 31
0.0
  0
LINE
  5
7ABB
  8
1
  6
CONTINUOUS
 10
4229.1738750000004
 20
8593.0039420000012
 30
0.0
 11
2156.173874999999
 21
8593.0039420000012
 31
0.0
  0
LINE
  5
7ABC
  8
1
  6
CONTINUOUS
 10
4526.1738750000004
 20
10011.003941999999
 30
0.0
 11
3176.173874999999
 21
10011.003941999999
 31
0.0
  0
LINE
  5
7ABD
  8
1
  6
CONTINUOUS
 10
4751.7074279999988
 20
8958.0039419999994
 30
0.0
 11
2517.173875
 21
8958.0039419999994
 31
0.0
  0
LINE
  5
7ABE
  8
1
  6
CONTINUOUS
 10
4751.7074279999988
 20
9908.0039419999994
 30
0.0
 11
2517.173875
 21
9908.0039419999994
 31
0.0
  0
LINE
  5
7ABF
  8
1
  6
CONTINUOUS
 10
2517.173875
 20
9908.0039419999994
 30
0.0
 11
3797.173875
 21
8958.0039419999994
 31
0.0
  0
LINE
  5
7AC0
  8
1
  6
CONTINUOUS
 10
3797.173875
 20
9908.0039419999994
 30
0.0
 11
2517.173875
 21
8958.0039419999994
 31
0.0
  0
LINE
  5
7AC1
  8
1
  6
CONTINUOUS
 10
2596.173874999999
 20
8706.0039419999994
 30
0.0
 11
3573.173875
 21
8706.0039419999994
 31
0.0
  0
LINE
  5
7AC2
  8
1
  6
CONTINUOUS
 10
2051.173874999999
 20
8706.0039419999994
 30
0.0
 11
2356.173875
 21
8706.0039419999994
 31
0.0
  0
LINE
  5
7AC3
  8
1
  6
CONTINUOUS
 10
3226.173875
 20
9986.0039419999994
 30
0.0
 11
2051.173874999999
 21
9986.0039419999994
 31
0.0
  0
LINE
  5
7AC4
  8
1
  6
CONTINUOUS
 10
2051.173874999999
 20
9986.0039419999994
 30
0.0
 11
2051.173874999999
 21
8706.0039419999994
 31
0.0
  0
LINE
  5
7AC5
  8
1
  6
CONTINUOUS
 10
2156.173874999999
 20
8593.0039420000012
 30
0.0
 11
2156.173874999999
 21
8833.0039419999994
 31
0.0
  0
LINE
  5
7AC6
  8
1
  6
CONTINUOUS
 10
2517.173875
 20
8958.0039419999994
 30
0.0
 11
2517.173875
 21
9908.0039419999994
 31
0.0
  0
LINE
  5
7AC7
  8
1
  6
CONTINUOUS
 10
2448.673875
 20
8763.0039419999994
 30
0.0
 11
2448.673875
 21
8877.5371349999987
 31
0.0
  0
LINE
  5
7AC8
  8
1
  6
CONTINUOUS
 10
2503.673875
 20
8763.0039419999994
 30
0.0
 11
2503.673875
 21
8877.5371349999987
 31
0.0
  0
LINE
  5
7AC9
  8
1
  6
CONTINUOUS
 10
2356.173875
 20
8663.0039419999994
 30
0.0
 11
2596.173874999999
 21
8663.0039419999994
 31
0.0
  0
LINE
  5
7ACA
  8
1
  6
CONTINUOUS
 10
2356.173875
 20
8763.0039419999994
 30
0.0
 11
2596.173874999999
 21
8763.0039419999994
 31
0.0
  0
LINE
  5
7ACB
  8
1
  6
CONTINUOUS
 10
2356.173875
 20
8663.0039419999994
 30
0.0
 11
2356.173875
 21
8763.0039419999994
 31
0.0
  0
LINE
  5
7ACC
  8
1
  6
CONTINUOUS
 10
2596.173874999999
 20
8663.0039419999994
 30
0.0
 11
2596.173874999999
 21
8763.0039419999994
 31
0.0
  0
LINE
  5
7ACD
  8
1
  6
CONTINUOUS
 10
2277.0758609999989
 20
8877.5371349999987
 30
0.0
 11
2675.2718890000001
 21
8877.5371349999987
 31
0.0
  0
LINE
  5
7ACE
  8
1
  6
CONTINUOUS
 10
2277.0758609999989
 20
8877.5371349999987
 30
0.0
 11
2277.0758609999989
 21
9477.0371349999987
 31
0.0
  0
LINE
  5
7ACF
  8
1
  6
CONTINUOUS
 10
2277.0758609999989
 20
9477.0371349999987
 30
0.0
 11
2517.173875
 21
9477.0371349999987
 31
0.0
  0
LINE
  5
7AD0
  8
1
  6
CONTINUOUS
 10
2675.2718890000001
 20
8877.5371349999987
 30
0.0
 11
2675.2718890000001
 21
8958.0039419999994
 31
0.0
  0
LINE
  5
7AD1
  8
1
  6
CONTINUOUS
 10
3226.173875
 20
9908.0039419999994
 30
0.0
 11
3226.173875
 21
10011.003941999999
 31
0.0
  0
LINE
  5
7AD2
  8
1
  6
CONTINUOUS
 10
3797.173875
 20
8958.0039419999994
 30
0.0
 11
3797.173875
 21
9908.0039419999994
 31
0.0
  0
LINE
  5
7AD3
  8
1
  6
CONTINUOUS
 10
3573.173875
 20
8663.0039419999994
 30
0.0
 11
4129.1738750000013
 21
8663.0039419999994
 31
0.0
  0
LINE
  5
7AD4
  8
1
  6
CONTINUOUS
 10
3573.173875
 20
8763.0039419999994
 30
0.0
 11
4129.1738750000013
 21
8763.0039419999994
 31
0.0
  0
LINE
  5
7AD5
  8
1
  6
CONTINUOUS
 10
3878.673875
 20
8763.0039419999994
 30
0.0
 11
3878.673875
 21
8958.0039419999994
 31
0.0
  0
LINE
  5
7AD6
  8
1
  6
CONTINUOUS
 10
3823.673875
 20
8763.0039419999994
 30
0.0
 11
3823.673875
 21
8958.0039419999994
 31
0.0
  0
LINE
  5
7AD7
  8
1
  6
CONTINUOUS
 10
3573.173875
 20
8663.0039419999994
 30
0.0
 11
3573.173875
 21
8763.0039419999994
 31
0.0
  0
LINE
  5
7AD8
  8
1
  6
CONTINUOUS
 10
4601.1738750000004
 20
8706.0039419999994
 30
0.0
 11
4601.1738750000004
 21
8958.0039419999994
 31
0.0
  0
LINE
  5
7AD9
  8
1
  6
CONTINUOUS
 10
4129.1738750000013
 20
8706.0039419999994
 30
0.0
 11
4601.1738750000004
 21
8706.0039419999994
 31
0.0
  0
LINE
  5
7ADA
  8
1
  6
CONTINUOUS
 10
4229.1738750000004
 20
8593.0039420000012
 30
0.0
 11
4229.1738750000004
 21
8833.0039419999994
 31
0.0
  0
LINE
  5
7ADB
  8
1
  6
CONTINUOUS
 10
4129.1738750000013
 20
8663.0039419999994
 30
0.0
 11
4129.1738750000013
 21
8763.0039419999994
 31
0.0
  0
LINE
  5
7ADC
  8
1
  6
CONTINUOUS
 10
4476.1738750000004
 20
9908.0039419999994
 30
0.0
 11
4476.1738750000004
 21
10011.003941999999
 31
0.0
  0
LINE
  5
7ADD
  8
1
  6
CONTINUOUS
 10
4601.1738750000004
 20
9986.0039419999994
 30
0.0
 11
4476.1738750000004
 21
9986.0039419999994
 31
0.0
  0
LINE
  5
7ADE
  8
1
  6
CONTINUOUS
 10
4601.1738750000004
 20
9908.0039419999994
 30
0.0
 11
4601.1738750000004
 21
9986.0039419999994
 31
0.0
  0
LINE
  5
7ADF
  8
1
  6
CONTINUOUS
 10
4751.7074279999988
 20
8958.0039419999994
 30
0.0
 11
4751.7074279999988
 21
9908.0039419999994
 31
0.0
  0
LINE
  5
7AE0
  8
1
  6
CONTINUOUS
 10
8162.1470280000012
 20
4746.0039420000003
 30
0.0
 11
8162.1470280000012
 21
6096.0039420000003
 31
0.0
  0
LINE
  5
7AE1
  8
1
  6
CONTINUOUS
 10
8059.1470280000012
 20
4461.0039420000003
 30
0.0
 11
8059.1470280000012
 21
6246.0039420000003
 31
0.0
  0
LINE
  5
7AE2
  8
1
  6
CONTINUOUS
 10
8137.1470280000012
 20
4311.0039420000012
 30
0.0
 11
8137.1470280000012
 21
4461.0039420000003
 31
0.0
  0
LINE
  5
7AE3
  8
1
  6
CONTINUOUS
 10
8137.1470280000012
 20
4217.0039420000003
 30
0.0
 11
8137.1470280000012
 21
4292.0039420000003
 31
0.0
  0
LINE
  5
7AE4
  8
1
  6
CONTINUOUS
 10
8059.1470280000012
 20
4796.0039420000003
 30
0.0
 11
8162.1470280000012
 21
4796.0039420000003
 31
0.0
  0
LINE
  5
7AE5
  8
1
  6
CONTINUOUS
 10
8059.1470280000012
 20
6046.0039420000003
 30
0.0
 11
8162.1470280000012
 21
6046.0039420000003
 31
0.0
  0
DIMENSION
  5
7AF9
  8
3
  6
CONTINUOUS
  2
*D1
 10
3851.173875
 20
3800.1604090000001
 30
0.0
 11
3017.8527960000001
 21
3800.1604090000001
 31
0.0
 70
   128
 13
2051.173874999999
 23
4217.0039420000003
 33
0.0
 14
3851.173875
 24
4056.5870570000002
 34
0.0
1001
ACAD
1000
DSTYLE
1002
{
1070
   287
1070
     3
1070
   287
1070
     3
1070
    40
1040
45.0
1070
   143
1040
0.039
1070
   172
1070
     1
1070
   271
1070
     0
1070
   279
1070
     0
1070
   288
1070
     1
1002
}
  0
DIMENSION
  5
7B05
  8
3
  6
CONTINUOUS
  2
*D2
 10
4601.1738750000004
 20
3800.1604090000001
 30
0.0
 11
4226.1738750000004
 21
3912.6604090000001
 31
0.0
 70
     0
 13
3851.173875
 23
4056.5870570000002
 33
0.0
 14
4601.1738750000004
 24
4217.0039420000003
 34
0.0
1001
ACAD
1000
DSTYLE
1002
{
1070
   287
1070
     4
1070
   287
1070
     4
1070
    40
1040
45.0
1070
    75
1070
     1
1070
   143
1040
0.039
1070
   172
1070
     1
1070
   271
1070
     0
1070
   279
1070
     1
1070
   288
1070
     1
1002
}
  0
DIMENSION
  5
7B1F
  8
3
  6
CONTINUOUS
  2
*D3
 10
3797.173875
 20
6561.563588
 30
0.0
 11
3127.9886660000002
 21
6561.563588
 31
0.0
 70
   128
 13
2517.173875
 23
6246.0039420000003
 33
0.0
 14
3797.173875
 24
6246.0039420000003
 34
0.0
1001
ACAD
1000
DSTYLE
1002
{
1070
   287
1070
     3
1070
   287
1070
     3
1070
    40
1040
45.0
1070
   143
1040
0.039
1070
   172
1070
     1
1070
   271
1070
     0
1070
   279
1070
     0
1070
   288
1070
     1
1002
}
  0
DIMENSION
  5
7B2C
  8
3
  6
CONTINUOUS
  2
*D4
 10
3851.173875
 20
6822.8537340000003
 30
0.0
 11
3169.2895699999999
 21
6822.8537340000003
 31
0.0
 70
   128
 13
2517.173875
 23
6246.0039420000003
 33
0.0
 14
3851.173875
 24
6162.5088569999998
 34
0.0
1001
ACAD
1000
DSTYLE
1002
{
1070
   287
1070
     3
1070
   287
1070
     3
1070
    40
1040
45.0
1070
   143
1040
0.039
1070
   172
1070
     1
1070
   271
1070
     0
1070
   279
1070
     0
1070
   288
1070
     1
1002
}
  0
DIMENSION
  5
7B38
  8
3
  6
CONTINUOUS
  2
*D5
 10
4748.2824309999996
 20
6822.8537340000003
 30
0.0
 11
4299.728153
 21
6935.3537340000003
 31
0.0
 70
     0
 13
3851.173875
 23
6162.5088569999998
 33
0.0
 14
4748.2824309999996
 24
5412.3463220000012
 34
0.0
1001
ACAD
1000
DSTYLE
1002
{
1070
   287
1070
     4
1070
   287
1070
     4
1070
    40
1040
45.0
1070
    75
1070
     1
1070
   143
1040
0.039
1070
   172
1070
     1
1070
   271
1070
     0
1070
   279
1070
     1
1070
   288
1070
     1
1002
}
  0
DIMENSION
  5
7B45
  8
3
  6
CONTINUOUS
  2
*D6
 10
5165.5014720000008
 20
5421.0039420000003
 30
0.0
 11
5165.501471999999
 21
5812.7575619999998
 31
0.0
 70
   128
 13
3797.173875
 23
6246.0039420000003
 33
0.0
 14
4747.5148979999994
 24
5421.0039420000003
 34
0.0
 50
90.0
1001
ACAD
1000
DSTYLE
1002
{
1070
   287
1070
     3
1070
   287
1070
     3
1070
    40
1040
45.0
1070
   143
1040
0.039
1070
   172
1070
     1
1070
   271
1070
     0
1070
   279
1070
     0
1070
   288
1070
     1
1002
}
  0
DIMENSION
  5
7B51
  8
3
  6
CONTINUOUS
  2
*D7
 10
5165.501471999999
 20
4311.0039420000012
 30
0.0
 11
5053.001471999999
 21
4866.0039420000012
 31
0.0
 70
     0
 13
4747.5148979999994
 23
5421.0039420000003
 33
0.0
 14
4601.1738750000004
 24
4311.0039420000012
 34
0.0
 50
90.0
1001
ACAD
1000
DSTYLE
1002
{
1070
   287
1070
     4
1070
   287
1070
     4
1070
    40
1040
45.0
1070
    75
1070
     1
1070
   143
1040
0.039
1070
   172
1070
     1
1070
   271
1070
     0
1070
   279
1070
     1
1070
   288
1070
     1
1002
}
  0
DIMENSION
  5
7B61
  8
3
  6
CONTINUOUS
  2
*D8
 10
5165.5014720000008
 20
4217.0039420000003
 30
0.0
 11
5165.501471999999
 21
3879.5039420000012
 31
0.0
 70
   128
 13
4601.1738750000004
 23
4311.0039420000012
 33
0.0
 14
4601.1738750000004
 24
4217.0039420000003
 34
0.0
 50
90.0
1001
ACAD
1000
DSTYLE
1002
{
1070
   287
1070
     3
1070
   287
1070
     3
1070
    40
1040
45.0
1070
   143
1040
0.039
1070
   172
1070
     1
1070
   271
1070
     0
1070
   279
1070
     0
1070
   288
1070
     1
1002
}
  0
DIMENSION
  5
7B88
  8
3
  6
CONTINUOUS
  2
*D9
 10
5458.7811400283172
 20
4217.0039420000003
 30
0.0
 11
5458.7811400283172
 21
5100.0
 31
0.0
 70
   128
 13
3797.173875
 23
6246.0039420000003
 33
0.0
 14
4601.1738750000004
 24
4217.0039420000003
 34
0.0
 50
90.0
1001
ACAD
1000
DSTYLE
1002
{
1070
   287
1070
     3
1070
   287
1070
     3
1070
    40
1040
45.0
1070
   143
1040
0.039
1070
   172
1070
     1
1070
   271
1070
     0
1070
   279
1070
     0
1070
   288
1070
     1
1002
}
  0
DIMENSION
  5
7B95
  8
3
  6
CONTINUOUS
  2
*D10
 10
4601.1738750000004
 20
8150.0
 30
0.0
 11
3380.0
 21
8150.0
 31
0.0
 70
   128
 13
2051.173874999999
 23
8706.0039419999994
 33
0.0
 14
4601.1738750000004
 24
8706.0039419999994
 34
0.0
1001
ACAD
1000
DSTYLE
1002
{
1070
   287
1070
     3
1070
   287
1070
     3
1070
    40
1040
45.0
1070
   143
1040
0.039
1070
   172
1070
     1
1070
   271
1070
     0
1070
   279
1070
     0
1070
   288
1070
     1
1002
}
  0
LINE
  5
7B96
  8
2
  6
CENTER
 10
3851.173875
 20
8480.0
 30
0.0
 11
3851.173875
 21
10169.689203
 31
0.0
  0
DIMENSION
  5
7BA3
  8
3
  6
CONTINUOUS
  2
*D11
 10
5130.0000000000009
 20
8706.0039419999994
 30
0.0
 11
5130.0
 21
9350.0
 31
0.0
 70
   128
 13
4601.1738750000004
 23
9986.0039419999994
 33
0.0
 14
4601.1738750000004
 24
8706.0039419999994
 34
0.0
 50
90.0
1001
ACAD
1000
DSTYLE
1002
{
1070
   287
1070
     3
1070
   287
1070
     3
1070
    40
1040
45.0
1070
   143
1040
0.039
1070
   172
1070
     1
1070
   271
1070
     0
1070
   279
1070
     0
1070
   288
1070
     1
1002
}
  0
LINE
  5
7BA4
  8
2
  6
CENTER
 10
2337.173874999999
 20
9433.0039419999994
 30
0.0
 11
4829.7027791023584
 21
9433.0039419999994
 31
0.0
  0
DIMENSION
  5
7BB2
  8
3
  6
CONTINUOUS
  2
*D12
 10
8059.1470280000012
 20
6450.0
 30
0.0
 11
7550.0
 21
6450.0
 31
0.0
 70
   128
 13
7109.1470280000012
 23
6246.0039420000003
 33
0.0
 14
8059.1470280000012
 24
6246.0039420000003
 34
0.0
1001
ACAD
1000
DSTYLE
1002
{
1070
   287
1070
     3
1070
   287
1070
     3
1070
    40
1040
45.0
1070
   143
1040
0.039
1070
   172
1070
     1
1070
   271
1070
     0
1070
   279
1070
     0
1070
   288
1070
     1
1002
}
  0
DIMENSION
  5
7BBF
  8
3
  6
CONTINUOUS
  2
*D13
 10
7584.1470280000012
 20
6759.0329793790961
 30
0.0
 11
7170.0
 21
6759.0329793790961
 31
0.0
 70
   128
  1
MAX\P890
 13
6744.1470280000003
 23
5799.0039420000003
 33
0.0
 14
7584.1470280000012
 24
6651.3258201667149
 34
0.0
1001
ACAD
1000
DSTYLE
1002
{
1070
   287
1070
     3
1070
   287
1070
     3
1070
    40
1040
45.0
1070
   143
1040
0.039
1070
   172
1070
     1
1070
   271
1070
     0
1070
   279
1070
     0
1070
   288
1070
     1
1002
}
  0
DIMENSION
  5
7BCD
  8
3
  6
CONTINUOUS
  2
*D14
 10
8162.1470280000012
 20
6759.0329793790961
 30
0.0
 11
7850.0
 21
6759.0329793790961
 31
0.0
 70
   128
 13
7584.1470280000012
 23
6651.3258201667149
 33
0.0
 14
8162.1470280000012
 24
6096.0039420000003
 34
0.0
1001
ACAD
1000
DSTYLE
1002
{
1070
   287
1070
     4
1070
   287
1070
     4
1070
    40
1040
45.0
1070
    75
1070
     1
1070
   143
1040
0.039
1070
   172
1070
     1
1070
   271
1070
     0
1070
   279
1070
     1
1070
   288
1070
     1
1002
}
  0
DIMENSION
  5
7BF0
  8
3
  6
CONTINUOUS
  2
*D15
 10
8520.0000000000018
 20
4796.0039420000003
 30
0.0
 11
8520.0
 21
5440.0
 31
0.0
 70
   128
 13
8162.1470280000012
 23
6046.0039420000003
 33
0.0
 14
8162.1470280000012
 24
4796.0039420000003
 34
0.0
 50
90.0
1001
ACAD
1000
DSTYLE
1002
{
1070
   287
1070
     3
1070
   287
1070
     3
1070
     3
1000
φ<>
1070
    40
1040
45.0
1070
   143
1040
0.039
1070
   172
1070
     1
1070
   271
1070
     0
1070
   279
1070
     0
1070
   288
1070
     1
1002
}
  0
DIMENSION
  5
7BFD
  8
3
  6
CONTINUOUS
  2
*D16
 10
7584.1470280000012
 20
3910.0
 30
0.0
 11
7220.0
 21
3910.0
 31
0.0
 70
   128
 13
6857.1470279999994
 23
4217.0039420000003
 33
0.0
 14
7584.1470280000012
 24
4217.0039420000003
 34
0.0
1001
ACAD
1000
DSTYLE
1002
{
1070
   287
1070
     3
1070
   287
1070
     3
1070
    40
1040
45.0
1070
   143
1040
0.039
1070
   172
1070
     1
1070
   271
1070
     0
1070
   279
1070
     0
1070
   288
1070
     1
1002
}
  0
DIMENSION
  5
7C0B
  8
3
  6
CONTINUOUS
  2
*D17
 10
8137.1470280000012
 20
3910.0
 30
0.0
 11
7840.0
 21
3910.0
 31
0.0
 70
   128
 13
7584.1470280000012
 23
4217.0039420000003
 33
0.0
 14
8137.1470280000012
 24
4217.0039420000003
 34
0.0
1001
ACAD
1000
DSTYLE
1002
{
1070
   287
1070
     4
1070
   287
1070
     4
1070
    40
1040
45.0
1070
    75
1070
     1
1070
   143
1040
0.039
1070
   172
1070
     1
1070
   271
1070
     0
1070
   279
1070
     1
1070
   288
1070
     1
1002
}
  0
LINE
  5
7C22
  8
2
  6
CENTER
 10
4830.0
 20
5421.0039420000003
 30
0.0
 11
2514.5885959234001
 21
5421.0039420000003
 31
0.0
  0
LINE
  5
7C23
  8
4
  6
CONTINUOUS
 10
9250.0
 20
2500.0
 30
0.0
 11
9250.0
 21
1500.0
 31
0.0
  0
LINE
  5
7C24
  8
4
  6
CONTINUOUS
 10
5750.0
 20
2500.0
 30
0.0
 11
5750.0
 21
1500.0
 31
0.0
  0
LINE
  5
7C25
  8
4
  6
CONTINUOUS
 10
3250.0
 20
2500.0
 30
0.0
 11
3250.0
 21
1500.0
 31
0.0
  0
LINE
  5
7C28
  8
4
  6
CONTINUOUS
 10
3250.0
 20
1500.0
 30
0.0
 11
9250.0
 21
1500.0
 31
0.0
  0
LINE
  5
7C29
  8
4
  6
CONTINUOUS
 10
3250.0
 20
2000.0
 30
0.0
 11
9250.0
 21
2000.0
 31
0.0
  0
TEXT
  5
7C2A
  8
4
  6
CONTINUOUS
 10
3442.5104040000001
 20
2157.7151289999988
 30
0.0
 40
250.0
  1
機器名称
  0
TEXT
  5
7C2B
  8
4
  6
CONTINUOUS
 10
3431.2905300000002
 20
1608.225782999999
 30
0.0
 40
250.0
  1
機器型番
  0
TEXT
  5
7C2C
  8
4
  6
CONTINUOUS
 10
5888.393728
 20
2112.8588439999999
 30
0.0
 40
211.11111099999991
  1
ミツヤリミットロードファン
  0
TEXT
  5
7C2D
  8
4
  6
CONTINUOUS
 10
5933.2724779999999
 20
1585.7979210000001
 30
0.0
 40
250.0
  1
LLE#8-4
  0
TEXT
  5
7C2F
  8
4
  6
CONTINUOUS
 10
3957.2621610000001
 20
11917.14420699999
 30
0.0
 40
270.0
  1
床置防振ベット
  0
TEXT
  5
7C30
  8
4
  6
CONTINUOUS
 10
1580.837966999999
 20
12669.404881
 30
0.0
 40
300.0
  1
ベルト駆動式片吸込両持排煙ファン
  0
LINE
  5
7C31
  8
4
  6
CONTINUOUS
 10
1250.0
 20
12347.04377099999
 30
0.0
 11
9250.0
 21
12347.04377099999
 31
0.0
  0
LINE
  5
7C32
  8
4
  6
CONTINUOUS
 10
1250.0
 20
13347.043771000001
 30
0.0
 11
9250.0
 21
13347.043771000001
 31
0.0
  0
LINE
  5
7C33
  8
4
  6
CONTINUOUS
 10
3250.0
 20
2500.0
 30
0.0
 11
9250.0
 21
2500.0
 31
0.0
  0
LINE
  5
7C34
  8
4
  6
CONTINUOUS
 10
1250.0
 20
13347.043771000001
 30
0.0
 11
1250.0
 21
12347.04377099999
 31
0.0
  0
TEXT
  5
7C35
  8
4
  6
CONTINUOUS
 10
1777.9679999999989
 20
11911.597388
 30
0.0
 40
270.0
  1
右回転上向
  0
TEXT
  5
7C36
  8
4
  6
CONTINUOUS
 10
7344.8477969999994
 20
13530.305408
 30
0.0
 40
280.0
  1
No.
  0
TEXT
  5
7C37
  8
4
  6
CONTINUOUS
 10
6556.480313
 20
11917.14420699999
 30
0.0
 40
270.0
  1
縮尺：1/50
  0
LINE
  5
7C38
  8
4
  6
CONTINUOUS
 10
9250.0
 20
13347.043771000001
 30
0.0
 11
9250.0
 21
12347.04377099999
 31
0.0
  0
LINE
  5
7C39
  8
4
  6
CONTINUOUS
 10
9450.0
 20
13275.0
 30
0.0
 11
9450.0
 21
13275.0
 31
0.0
  0
LINE
  5
7C3A
  8
4
  6
CONTINUOUS
 10
7203.0871120000002
 20
13406.317916
 30
0.0
 11
7203.0871120000002
 21
13933.261307999999
 31
0.0
  0
LINE
  5
7C3B
  8
4
  6
CONTINUOUS
 10
7203.0871120000002
 20
13933.261307999999
 30
0.0
 11
9250.0
 21
13933.261307999999
 31
0.0
  0
LINE
  5
7C3C
  8
4
  6
CONTINUOUS
 10
9250.0
 20
13933.261307999999
 30
0.0
 11
9250.0
 21
13406.317916
 31
0.0
  0
LINE
  5
7C3D
  8
4
  6
CONTINUOUS
 10
9250.0
 20
13406.317916
 30
0.0
 11
7203.0871120000002
 21
13406.317916
 31
0.0
  0
LINE
  5
7C5D
  8
2
  6
CENTER
 10
7584.1470280000012
 20
6470.0
 30
0.0
 11
7584.1470280000012
 21
4150.9599918704698
 31
0.0
  0
DIMENSION
  5
7C9F
  8
3
  2
*D18
 10
4748.2824309999996
 20
7108.3671171210017
 30
0.0
 11
3549.8562593654642
 21
7108.3671171210017
 31
0.0
 70
   128
 13
2051.173874999999
 23
4461.0039420000003
 33
0.0
 14
4748.2824309999996
 24
5434.8463220000012
 34
0.0
1001
ACAD
1000
DSTYLE
1002
{
1070
   287
1070
     3
1070
   287
1070
     3
1070
    40
1040
45.0
1070
   143
1040
0.039
1070
   172
1070
     1
1070
   271
1070
     0
1070
   279
1070
     0
1070
   288
1070
     1
1002
}
  0
ENDSEC
  0
EOF
