  0
SECTION
  2
HEADER
  9
$ACADVER
  1
AC1009
  9
$INSBASE
 10
0.0
 20
0.0
 30
0.0
  9
$EXTMIN
 10
1250.0
 20
1500.0
 30
0.0
  9
$EXTMAX
 10
9250.0
 20
13933.261307999999
 30
0.0
  9
$LIMMIN
 10
0.0
 20
0.0
  9
$LIMMAX
 10
297.0
 20
210.0
  9
$ORTHOMODE
 70
     0
  9
$REGENMODE
 70
     1
  9
$FILLMODE
 70
     0
  9
$QTEXTMODE
 70
     0
  9
$MIRRTEXT
 70
     1
  9
$DRAGMODE
 70
     2
  9
$LTSCALE
 40
100.0
  9
$OSMODE
 70
    37
  9
$ATTMODE
 70
     1
  9
$TEXTSIZE
 40
180.0
  9
$TRACEWID
 40
0.05
  9
$TEXTSTYLE
  7
STANDARD
  9
$CLAYER
  8
3
  9
$CELTYPE
  6
BYLAYER
  9
$CECOLOR
 62
   256
  9
$DIMSCALE
 40
45.0
  9
$DIMASZ
 40
2.0
  9
$DIMEXO
 40
0.5
  9
$DIMDLI
 40
10.0
  9
$DIMRND
 40
0.0
  9
$DIMDLE
 40
0.0
  9
$DIMEXE
 40
1.0
  9
$DIMTP
 40
1.0
  9
$DIMTM
 40
1.0
  9
$DIMTXT
 40
3.0
  9
$DIMCEN
 40
0.0
  9
$DIMTSZ
 40
0.0
  9
$DIMTOL
 70
     0
  9
$DIMLIM
 70
     0
  9
$DIMTIH
 70
     0
  9
$DIMTOH
 70
     0
  9
$DIMSE1
 70
     0
  9
$DIMSE2
 70
     0
  9
$DIMTAD
 70
     1
  9
$DIMZIN
 70
     8
  9
$DIMBLK
  1

  9
$DIMASO
 70
     1
  9
$DIMSHO
 70
     1
  9
$DIMPOST
  1

  9
$DIMAPOST
  1

  9
$DIMALT
 70
     0
  9
$DIMALTD
 70
     2
  9
$DIMALTF
 40
0.039
  9
$DIMLFAC
 40
1.0
  9
$DIMTOFL
 70
     1
  9
$DIMTVP
 40
0.0
  9
$DIMTIX
 70
     0
  9
$DIMSOXD
 70
     0
  9
$DIMSAH
 70
     1
  9
$DIMBLK1
  1
OPEN
  9
$DIMBLK2
  1
OPEN
  9
$DIMSTYLE
  2
IGA
  9
$DIMCLRD
 70
     0
  9
$DIMCLRE
 70
     0
  9
$DIMCLRT
 70
     0
  9
$DIMTFAC
 40
10.0
  9
$DIMGAP
 40
1.0
  9
$LUNITS
 70
     2
  9
$LUPREC
 70
     3
  9
$SKETCHINC
 40
0.1
  9
$FILLETRAD
 40
50.0
  9
$AUNITS
 70
     0
  9
$AUPREC
 70
     0
  9
$MENU
  1
acad
  9
$ELEVATION
 40
0.0
  9
$PELEVATION
 40
0.0
  9
$THICKNESS
 40
0.0
  9
$LIMCHECK
 70
     0
  9
$BLIPMODE
 70
     0
  9
$CHAMFERA
 40
0.5
  9
$CHAMFERB
 40
0.5
  9
$SKPOLY
 70
     0
  9
$TDCREATE
 40
2450750.4790119212
  9
$TDUPDATE
 40
2454953.6886608331
  9
$TDINDWG
 40
0.0082722454
  9
$TDUSRTIMER
 40
0.0082722454
  9
$USRTIMER
 70
     1
  9
$ANGBASE
 50
0.0
  9
$ANGDIR
 70
     0
  9
$PDMODE
 70
     0
  9
$PDSIZE
 40
0.0
  9
$PLINEWID
 40
0.0
  9
$COORDS
 70
     1
  9
$SPLFRAME
 70
     0
  9
$SPLINETYPE
 70
     6
  9
$SPLINESEGS
 70
     8
  9
$ATTDIA
 70
     0
  9
$ATTREQ
 70
     1
  9
$HANDLING
 70
 10241
  9
$HANDSEED
  5
7E9A
  9
$SURFTAB1
 70
     6
  9
$SURFTAB2
 70
     6
  9
$SURFTYPE
 70
     6
  9
$SURFU
 70
     6
  9
$SURFV
 70
     6
  9
$UCSNAME
  2

  9
$UCSORG
 10
0.0
 20
0.0
 30
0.0
  9
$UCSXDIR
 10
1.0
 20
0.0
 30
0.0
  9
$UCSYDIR
 10
0.0
 20
1.0
 30
0.0
  9
$PUCSNAME
  2

  9
$PUCSORG
 10
0.0
 20
0.0
 30
0.0
  9
$PUCSXDIR
 10
1.0
 20
0.0
 30
0.0
  9
$PUCSYDIR
 10
0.0
 20
1.0
 30
0.0
  9
$USERI1
 70
     0
  9
$USERI2
 70
     0
  9
$USERI3
 70
     0
  9
$USERI4
 70
     0
  9
$USERI5
 70
     0
  9
$USERR1
 40
0.0
  9
$USERR2
 40
0.0
  9
$USERR3
 40
0.0
  9
$USERR4
 40
0.0
  9
$USERR5
 40
0.0
  9
$WORLDVIEW
 70
     1
  9
$SHADEDGE
 70
     3
  9
$SHADEDIF
 70
    70
  9
$TILEMODE
 70
     1
  9
$MAXACTVP
 70
    16
  9
$PLIMCHECK
 70
     0
  9
$PEXTMIN
 10
1.0000000000000000E+020
 20
1.0000000000000000E+020
 30
1.0000000000000000E+020
  9
$PEXTMAX
 10
-1.0000000000000000E+020
 20
-1.0000000000000000E+020
 30
-1.0000000000000000E+020
  9
$PLIMMIN
 10
0.0
 20
0.0
  9
$PLIMMAX
 10
12.0
 20
9.0
  9
$UNITMODE
 70
     0
  9
$VISRETAIN
 70
     0
  9
$PLINEGEN
 70
     0
  9
$PSLTSCALE
 70
     1
  0
ENDSEC
  0
SECTION
  2
TABLES
  0
TABLE
  2
VPORT
 70
     2
  0
VPORT
  2
*ACTIVE
 70
     0
 10
0.0
 20
0.0
 11
1.0
 21
1.0
 12
24944.78025934222
 22
7095.1460413363739
 13
0.0
 23
0.0
 14
10.0
 24
10.0
 15
10.0
 25
10.0
 16
0.0
 26
0.0
 36
1.0
 17
0.0
 27
0.0
 37
0.0
 40
18503.92070052903
 41
3.1666666666666661
 42
50.0
 43
0.0
 44
0.0
 50
0.0
 51
0.0
 71
     0
 72
   100
 73
     1
 74
     0
 75
     0
 76
     0
 77
     0
 78
     0
  0
ENDTAB
  0
TABLE
  2
LTYPE
 70
     2
  0
LTYPE
  2
CONTINUOUS
 70
     0
  3
Solid line
 72
    65
 73
     0
 40
0.0
  0
LTYPE
  2
CENTER
 70
     0
  3
____ _ ____ _ ____ _ ____ _ ____ _ ____ _ ____ 
 72
    65
 73
     4
 40
2.0
 49
1.25
 49
-0.25
 49
0.25
 49
-0.25
  0
ENDTAB
  0
TABLE
  2
LAYER
 70
     6
  0
LAYER
  2
0
 70
     0
 62
     7
  6
CONTINUOUS
  0
LAYER
  2
3
 70
     0
 62
     2
  6
CONTINUOUS
  0
LAYER
  2
2
 70
     0
 62
     3
  6
CENTER
  0
LAYER
  2
1
 70
     0
 62
     4
  6
CONTINUOUS
  0
LAYER
  2
4
 70
     0
 62
     7
  6
CONTINUOUS
  0
LAYER
  2
DEFPOINTS
 70
     0
 62
     7
  6
CONTINUOUS
  0
ENDTAB
  0
TABLE
  2
STYLE
 70
     1
  0
STYLE
  2
STANDARD
 70
     0
 40
0.0
 41
1.0
 50
0.0
 71
     0
 42
180.0
  3
simplex.shx
  4
extfont.shx
  0
ENDTAB
  0
TABLE
  2
VIEW
 70
     0
  0
ENDTAB
  0
TABLE
  2
UCS
 70
     0
  0
ENDTAB
  0
TABLE
  2
APPID
 70
     1
  0
APPID
  2
ACAD
 70
     0
  0
ENDTAB
  0
TABLE
  2
DIMSTYLE
 70
     1
  0
DIMSTYLE
  2
IGA
 70
     0
  3

  4

  5

  6
OPEN
  7
OPEN
 40
2.0
 41
2.0
 42
0.5
 43
10.0
 44
1.0
 45
0.0
 46
0.0
 47
1.0
 48
1.0
140
3.0
141
0.0
142
0.0
143
0.03937
144
1.0
145
0.0
146
10.0
147
1.0
 71
     0
 72
     0
 73
     0
 74
     0
 75
     0
 76
     0
 77
     1
 78
     8
170
     0
171
     2
172
     0
173
     1
174
     0
175
     0
176
     0
177
     0
178
     0
  0
ENDTAB
  0
ENDSEC
  0
SECTION
  2
BLOCKS
  0
BLOCK
  8
0
  2
$MODEL_SPACE
 70
     0
 10
0.0
 20
0.0
 30
0.0
  3
$MODEL_SPACE
  1

  0
ENDBLK
  5
1B
  8
0
  0
BLOCK
 67
     1
  8
0
  2
$PAPER_SPACE
 70
     0
 10
0.0
 20
0.0
 30
0.0
  3
$PAPER_SPACE
  1

  0
ENDBLK
  5
18
 67
     1
  8
0
  0
BLOCK
  8
0
  2
_OPEN
 70
     0
 10
0.0
 20
0.0
 30
0.0
  3
_OPEN
  1

  0
LINE
  5
7AEA
  8
0
  6
BYBLOCK
 62
     0
 10
-1.0
 20
0.166667
 30
0.0
 11
0.0
 21
0.0
 31
0.0
  0
LINE
  5
7AEB
  8
0
  6
BYBLOCK
 62
     0
 10
0.0
 20
0.0
 30
0.0
 11
-1.0
 21
-0.166667
 31
0.0
  0
LINE
  5
7AEC
  8
0
  6
BYBLOCK
 62
     0
 10
0.0
 20
0.0
 30
0.0
 11
-1.0
 21
0.0
 31
0.0
  0
ENDBLK
  5
7AED
  8
0
  0
BLOCK
  8
0
  2
*D1
 70
     1
 10
0.0
 20
0.0
 30
0.0
  3
*D1
  1

  0
LINE
  5
7DE6
  8
3
  6
CONTINUOUS
 62
     0
 10
1922.1591939999989
 20
3790.7420569999999
 30
0.0
 11
1922.1591939999989
 21
3420.1825799999988
 31
0.0
  0
LINE
  5
7DE7
  8
3
  6
CONTINUOUS
 62
     0
 10
3722.1591939999989
 20
3658.1391180000001
 30
0.0
 11
3722.1591939999989
 21
3420.1825799999988
 31
0.0
  0
LINE
  5
7DE8
  8
3
  6
CONTINUOUS
 62
     0
 10
2012.1591940000001
 20
3465.1825800000001
 30
0.0
 11
3632.1591939999989
 21
3465.1825800000001
 31
0.0
  0
INSERT
  5
7DE9
  8
3
  6
CONTINUOUS
 62
     0
  2
_OPEN
 10
1922.1591939999989
 20
3465.1825800000001
 30
0.0
 41
90.0
 42
90.0
 43
90.0
 50
180.0
  0
INSERT
  5
7DEA
  8
3
  6
CONTINUOUS
 62
     0
  2
_OPEN
 10
3722.1591939999989
 20
3465.1825800000001
 30
0.0
 41
90.0
 42
90.0
 43
90.0
  0
TEXT
  8
3
  40
135
  5
7E87
  62
0
  72
0
  71
0
 10
2564.20
 20
3338.73
 30
0.000000
  1
1800
  0
POINT
  5
7DEC
  8
DEFPOINTS
  6
CONTINUOUS
 62
     0
 10
1922.1591939999989
 20
3813.2420569999999
 30
0.0
  0
POINT
  5
7DED
  8
DEFPOINTS
  6
CONTINUOUS
 62
     0
 10
3722.1591939999989
 20
3680.6391180000001
 30
0.0
  0
POINT
  5
7DEE
  8
DEFPOINTS
  6
CONTINUOUS
 62
     0
 10
3722.1591939999989
 20
3465.1825800000001
 30
0.0
  0
ENDBLK
  5
7C87
  8
0
  0
BLOCK
  8
0
  2
*D2
 70
     1
 10
0.0
 20
0.0
 30
0.0
  3
*D2
  1

  0
LINE
  5
7DEF
  8
3
  6
CONTINUOUS
 62
     0
 10
4472.1591939999989
 20
3790.7420569999999
 30
0.0
 11
4472.1591939999989
 21
3420.1825799999988
 31
0.0
  0
LINE
  5
7DF0
  8
3
  6
CONTINUOUS
 62
     0
 10
3812.1591939999998
 20
3465.1825800000001
 30
0.0
 11
4382.1591939999989
 21
3465.1825800000001
 31
0.0
  0
INSERT
  5
7DF1
  8
3
  6
CONTINUOUS
 62
     0
  2
_OPEN
 10
3722.1591939999989
 20
3465.1825800000001
 30
0.0
 41
90.0
 42
90.0
 43
90.0
 50
180.0
  0
INSERT
  5
7DF2
  8
3
  6
CONTINUOUS
 62
     0
  2
_OPEN
 10
4472.1591939999989
 20
3465.1825800000001
 30
0.0
 41
90.0
 42
90.0
 43
90.0
  0
TEXT
  8
3
  40
135
  5
7E88
  62
0
  72
0
  71
0
 10
3827.16
 20
3338.73
 30
0.000000
  1
750
  0
POINT
  5
7DF4
  8
DEFPOINTS
  6
CONTINUOUS
 62
     0
 10
3722.1591939999989
 20
3680.6391180000001
 30
0.0
  0
POINT
  5
7DF5
  8
DEFPOINTS
  6
CONTINUOUS
 62
     0
 10
4472.1591939999989
 20
3813.2420569999999
 30
0.0
  0
POINT
  5
7DF6
  8
DEFPOINTS
  6
CONTINUOUS
 62
     0
 10
4472.1591939999989
 20
3465.1825800000001
 30
0.0
  0
ENDBLK
  5
7B06
  8
0
  0
BLOCK
  8
0
  2
*D3
 70
     1
 10
0.0
 20
0.0
 30
0.0
  3
*D3
  1

  0
LINE
  5
7DF7
  8
3
  6
CONTINUOUS
 62
     0
 10
4569.6591939999989
 20
6166.2420570000004
 30
0.0
 11
4996.9059080000015
 21
6166.2420570000004
 31
0.0
  0
LINE
  5
7DF8
  8
3
  6
CONTINUOUS
 62
     0
 10
4569.6591939999989
 20
4886.2420570000004
 30
0.0
 11
4996.9059080000006
 21
4886.2420570000004
 31
0.0
  0
LINE
  5
7DF9
  8
3
  6
CONTINUOUS
 62
     0
 10
4951.9059079999997
 20
6076.2420570000004
 30
0.0
 11
4951.9059079999997
 21
4976.2420570000004
 31
0.0
  0
INSERT
  5
7DFA
  8
3
  6
CONTINUOUS
 62
     0
  2
_OPEN
 10
4951.9059080000015
 20
6166.2420570000004
 30
0.0
 41
90.0
 42
90.0
 43
90.0
 50
90.0
  0
INSERT
  5
7DFB
  8
3
  6
CONTINUOUS
 62
     0
  2
_OPEN
 10
4951.9059079999997
 20
4886.2420570000004
 30
0.0
 41
90.0
 42
90.0
 43
90.0
 50
270.0
  0
TEXT
  8
3
  40
135
  5
7E89
  62
0
  72
0
  71
0
 10
4569.41
 20
5291.83
 30
0.000000
  1
1280
  0
POINT
  5
7DFD
  8
DEFPOINTS
  6
CONTINUOUS
 62
     0
 10
4547.1591939999989
 20
6166.2420570000004
 30
0.0
  0
POINT
  5
7DFE
  8
DEFPOINTS
  6
CONTINUOUS
 62
     0
 10
4547.1591939999989
 20
4886.2420570000004
 30
0.0
  0
POINT
  5
7DFF
  8
DEFPOINTS
  6
CONTINUOUS
 62
     0
 10
4951.9059079999997
 20
4886.2420570000004
 30
0.0
  0
ENDBLK
  5
7B13
  8
0
  0
BLOCK
  8
0
  2
*D4
 70
     1
 10
0.0
 20
0.0
 30
0.0
  3
*D4
  1

  0
LINE
  5
7E00
  8
3
  6
CONTINUOUS
 62
     0
 10
4569.6591939999989
 20
6166.2420570000004
 30
0.0
 11
5343.8338010000016
 21
6166.2420570000004
 31
0.0
  0
LINE
  5
7E01
  8
3
  6
CONTINUOUS
 62
     0
 10
4486.1641090000003
 20
4832.2420570000013
 30
0.0
 11
5343.8338010000007
 21
4832.2420570000013
 31
0.0
  0
LINE
  5
7E02
  8
3
  6
CONTINUOUS
 62
     0
 10
5298.8338009999998
 20
6076.2420570000004
 30
0.0
 11
5298.8338009999998
 21
4922.2420570000004
 31
0.0
  0
INSERT
  5
7E03
  8
3
  6
CONTINUOUS
 62
     0
  2
_OPEN
 10
5298.8338010000007
 20
6166.2420570000004
 30
0.0
 41
90.0
 42
90.0
 43
90.0
 50
90.0
  0
INSERT
  5
7E04
  8
3
  6
CONTINUOUS
 62
     0
  2
_OPEN
 10
5298.8338009999998
 20
4832.2420570000013
 30
0.0
 41
90.0
 42
90.0
 43
90.0
 50
270.0
  0
TEXT
  8
3
  40
135
  5
7E8A
  62
0
  72
0
  71
0
 10
4916.33
 20
5291.83
 30
0.000000
  1
1334
  0
POINT
  5
7E06
  8
DEFPOINTS
  6
CONTINUOUS
 62
     0
 10
4547.1591939999989
 20
6166.2420570000004
 30
0.0
  0
POINT
  5
7E07
  8
DEFPOINTS
  6
CONTINUOUS
 62
     0
 10
4463.6641090000003
 20
4832.2420570000013
 30
0.0
  0
POINT
  5
7E08
  8
DEFPOINTS
  6
CONTINUOUS
 62
     0
 10
5298.8338009999998
 20
4832.2420570000013
 30
0.0
  0
ENDBLK
  5
7B20
  8
0
  0
BLOCK
  8
0
  2
*D5
 70
     1
 10
0.0
 20
0.0
 30
0.0
  3
*D5
  1

  0
LINE
  5
7E09
  8
3
  6
CONTINUOUS
 62
     0
 10
4494.6591939999989
 20
3907.242056999999
 30
0.0
 11
5343.8338009999989
 21
3907.242056999999
 31
0.0
  0
LINE
  5
7E0A
  8
3
  6
CONTINUOUS
 62
     0
 10
5298.8338009999998
 20
4742.2420570000013
 30
0.0
 11
5298.8338009999998
 21
3997.242056999999
 31
0.0
  0
INSERT
  5
7E0B
  8
3
  6
CONTINUOUS
 62
     0
  2
_OPEN
 10
5298.8338009999998
 20
4832.2420570000013
 30
0.0
 41
90.0
 42
90.0
 43
90.0
 50
90.0
  0
INSERT
  5
7E0C
  8
3
  6
CONTINUOUS
 62
     0
  2
_OPEN
 10
5298.8338009999998
 20
3907.242056999999
 30
0.0
 41
90.0
 42
90.0
 43
90.0
 50
270.0
  0
TEXT
  8
3
  40
135
  5
7E8B
  62
0
  72
0
  71
0
 10
4916.33
 20
4130.79
 30
0.000000
  1
925
  0
POINT
  5
7E0E
  8
DEFPOINTS
  6
CONTINUOUS
 62
     0
 10
4463.6641090000003
 20
4832.2420570000013
 30
0.0
  0
POINT
  5
7E0F
  8
DEFPOINTS
  6
CONTINUOUS
 62
     0
 10
4472.1591939999989
 20
3907.242056999999
 30
0.0
  0
POINT
  5
7E10
  8
DEFPOINTS
  6
CONTINUOUS
 62
     0
 10
5298.8338009999998
 20
3907.242056999999
 30
0.0
  0
ENDBLK
  5
7B2C
  8
0
  0
BLOCK
  8
0
  2
*D6
 70
     1
 10
0.0
 20
0.0
 30
0.0
  3
*D6
  1

  0
LINE
  5
7E11
  8
3
  6
CONTINUOUS
 62
     0
 10
4494.6591939999989
 20
3907.242056999999
 30
0.0
 11
5343.8338010000007
 21
3907.242056999999
 31
0.0
  0
LINE
  5
7E12
  8
3
  6
CONTINUOUS
 62
     0
 10
4494.6591939999989
 20
3813.2420569999999
 30
0.0
 11
5343.8338010000007
 21
3813.242056999999
 31
0.0
  0
LINE
  5
7E13
  8
3
  6
CONTINUOUS
 62
     0
 10
5298.8338009999998
 20
3997.242056999999
 30
0.0
 11
5298.8338009999998
 21
4087.2420569999999
 31
0.0
  0
LINE
  5
7E14
  8
3
  6
CONTINUOUS
 62
     0
 10
5298.8338009999998
 20
3723.242056999999
 30
0.0
 11
5298.8338009999998
 21
3318.242056999999
 31
0.0
  0
LINE
  5
7E15
  8
3
  6
CONTINUOUS
 62
     0
 10
5298.8338009999998
 20
3907.242056999999
 30
0.0
 11
5298.8338009999998
 21
3813.242056999999
 31
0.0
  0
INSERT
  5
7E16
  8
3
  6
CONTINUOUS
 62
     0
  2
_OPEN
 10
5298.8338009999998
 20
3907.242056999999
 30
0.0
 41
90.0
 42
90.0
 43
90.0
 50
270.0
  0
INSERT
  5
7E17
  8
3
  6
CONTINUOUS
 62
     0
  2
_OPEN
 10
5298.8338009999998
 20
3813.242056999999
 30
0.0
 41
90.0
 42
90.0
 43
90.0
 50
90.0
  0
TEXT
  8
3
  40
135
  5
7E8C
  62
0
  72
0
  71
0
 10
4916.33
 20
3236.79
 30
0.000000
  1
94
  0
POINT
  5
7E19
  8
DEFPOINTS
  6
CONTINUOUS
 62
     0
 10
4472.1591939999989
 20
3907.242056999999
 30
0.0
  0
POINT
  5
7E1A
  8
DEFPOINTS
  6
CONTINUOUS
 62
     0
 10
4472.1591939999989
 20
3813.2420569999999
 30
0.0
  0
POINT
  5
7E1B
  8
DEFPOINTS
  6
CONTINUOUS
 62
     0
 10
5298.8338009999998
 20
3813.242056999999
 30
0.0
  0
ENDBLK
  5
7CDC
  8
0
  0
BLOCK
  8
0
  2
*D7
 70
     1
 10
0.0
 20
0.0
 30
0.0
  3
*D7
  1

  0
LINE
  5
7E1C
  8
3
  6
CONTINUOUS
 62
     0
 10
4569.6591939999989
 20
6222.2420570000004
 30
0.0
 11
5654.6233550000006
 21
6222.2420570000004
 31
0.0
  0
LINE
  5
7E1D
  8
3
  6
CONTINUOUS
 62
     0
 10
4494.6591939999989
 20
3813.2420569999999
 30
0.0
 11
5654.6233550000006
 21
3813.242056999999
 31
0.0
  0
LINE
  5
7E1E
  8
3
  6
CONTINUOUS
 62
     0
 10
5609.6233549999997
 20
6132.2420570000004
 30
0.0
 11
5609.6233549999997
 21
3903.242056999999
 31
0.0
  0
INSERT
  5
7E1F
  8
3
  6
CONTINUOUS
 62
     0
  2
_OPEN
 10
5609.6233550000006
 20
6222.2420570000004
 30
0.0
 41
90.0
 42
90.0
 43
90.0
 50
90.0
  0
INSERT
  5
7E20
  8
3
  6
CONTINUOUS
 62
     0
  2
_OPEN
 10
5609.6233549999997
 20
3813.242056999999
 30
0.0
 41
90.0
 42
90.0
 43
90.0
 50
270.0
  0
TEXT
  8
3
  40
135
  5
7E8D
  62
0
  72
0
  71
0
 10
5227.12
 20
4779.22
 30
0.000000
  1
2409
  0
POINT
  5
7E22
  8
DEFPOINTS
  6
CONTINUOUS
 62
     0
 10
4547.1591939999989
 20
6222.2420570000004
 30
0.0
  0
POINT
  5
7E23
  8
DEFPOINTS
  6
CONTINUOUS
 62
     0
 10
4472.1591939999989
 20
3813.2420569999999
 30
0.0
  0
POINT
  5
7E24
  8
DEFPOINTS
  6
CONTINUOUS
 62
     0
 10
5609.6233549999997
 20
3813.242056999999
 30
0.0
  0
ENDBLK
  5
7B63
  8
0
  0
BLOCK
  8
0
  2
*D8
 70
     1
 10
0.0
 20
0.0
 30
0.0
  3
*D8
  1

  0
LINE
  5
7E25
  8
3
  6
CONTINUOUS
 62
     0
 10
4547.1591939999989
 20
6244.7420570000004
 30
0.0
 11
4547.1591939999989
 21
6356.2436820000003
 31
0.0
  0
LINE
  5
7E26
  8
3
  6
CONTINUOUS
 62
     0
 10
3722.1591939999989
 20
6115.7420570000013
 30
0.0
 11
3722.1591939999989
 21
6356.2436820000003
 31
0.0
  0
LINE
  5
7E27
  8
3
  6
CONTINUOUS
 62
     0
 10
4457.1591939999989
 20
6311.2436820000003
 30
0.0
 11
3812.1591939999998
 21
6311.2436820000003
 31
0.0
  0
INSERT
  5
7E28
  8
3
  6
CONTINUOUS
 62
     0
  2
_OPEN
 10
4547.1591939999989
 20
6311.2436820000003
 30
0.0
 41
90.0
 42
90.0
 43
90.0
  0
INSERT
  5
7E29
  8
3
  6
CONTINUOUS
 62
     0
  2
_OPEN
 10
3722.1591939999989
 20
6311.2436820000003
 30
0.0
 41
90.0
 42
90.0
 43
90.0
 50
180.0
  0
TEXT
  8
3
  40
135
  5
7E8E
  62
0
  72
0
  71
0
 10
3865.18
 20
6184.79
 30
0.000000
  1
825
  0
POINT
  5
7E2B
  8
DEFPOINTS
  6
CONTINUOUS
 62
     0
 10
4547.1591939999989
 20
6222.2420570000004
 30
0.0
  0
POINT
  5
7E2C
  8
DEFPOINTS
  6
CONTINUOUS
 62
     0
 10
3722.1591939999989
 20
6093.2420570000013
 30
0.0
  0
POINT
  5
7E2D
  8
DEFPOINTS
  6
CONTINUOUS
 62
     0
 10
3722.1591939999989
 20
6311.2436820000003
 30
0.0
  0
ENDBLK
  5
7B70
  8
0
  0
BLOCK
  8
0
  2
*D9
 70
     1
 10
0.0
 20
0.0
 30
0.0
  3
*D9
  1

  0
LINE
  5
7E2E
  8
3
  6
CONTINUOUS
 62
     0
 10
2643.1591939999998
 20
4854.7420570000013
 30
0.0
 11
2643.1591939999998
 21
6356.2436820000003
 31
0.0
  0
LINE
  5
7E2F
  8
3
  6
CONTINUOUS
 62
     0
 10
3632.1591939999989
 20
6311.2436820000003
 30
0.0
 11
2733.1591939999998
 21
6311.2436820000003
 31
0.0
  0
INSERT
  5
7E30
  8
3
  6
CONTINUOUS
 62
     0
  2
_OPEN
 10
3722.1591939999989
 20
6311.2436820000003
 30
0.0
 41
90.0
 42
90.0
 43
90.0
  0
INSERT
  5
7E31
  8
3
  6
CONTINUOUS
 62
     0
  2
_OPEN
 10
2643.1591939999998
 20
6311.2436820000003
 30
0.0
 41
90.0
 42
90.0
 43
90.0
 50
180.0
  0
TEXT
  8
3
  40
135
  5
7E8F
  62
0
  72
0
  71
0
 10
2912.66
 20
6184.79
 30
0.000000
  1
1079
  0
POINT
  5
7E33
  8
DEFPOINTS
  6
CONTINUOUS
 62
     0
 10
3722.1591939999989
 20
6093.2420570000013
 30
0.0
  0
POINT
  5
7E34
  8
DEFPOINTS
  6
CONTINUOUS
 62
     0
 10
2643.1591939999998
 20
4832.2420570000013
 30
0.0
  0
POINT
  5
7E35
  8
DEFPOINTS
  6
CONTINUOUS
 62
     0
 10
2643.1591939999998
 20
6311.2436820000003
 30
0.0
  0
ENDBLK
  5
7CE8
  8
0
  0
BLOCK
  8
0
  2
*D10
 70
     1
 10
0.0
 20
0.0
 30
0.0
  3
*D10
  1

  0
LINE
  5
7E36
  8
3
  6
CONTINUOUS
 62
     0
 10
4494.6591939999989
 20
10021.103078829099
 30
0.0
 11
4939.0846280000014
 21
10021.103078829099
 31
0.0
  0
LINE
  5
7E37
  8
3
  6
CONTINUOUS
 62
     0
 10
4494.6591939999989
 20
8741.1030788291064
 30
0.0
 11
4939.0846280000014
 21
8741.1030788291064
 31
0.0
  0
LINE
  5
7E38
  8
3
  6
CONTINUOUS
 62
     0
 10
4894.0846280000014
 20
9931.1030788291064
 30
0.0
 11
4894.0846280000014
 21
8831.1030788291064
 31
0.0
  0
INSERT
  5
7E39
  8
3
  6
CONTINUOUS
 62
     0
  2
_OPEN
 10
4894.0846280000014
 20
10021.103078829099
 30
0.0
 41
90.0
 42
90.0
 43
90.0
 50
90.0
  0
INSERT
  5
7E3A
  8
3
  6
CONTINUOUS
 62
     0
  2
_OPEN
 10
4894.0846280000014
 20
8741.1030788291064
 30
0.0
 41
90.0
 42
90.0
 43
90.0
 50
270.0
  0
TEXT
  8
3
  40
135
  5
7E90
  62
0
  72
0
  71
0
 10
4511.58
 20
9255.26
 30
0.000000
  1
1280
  0
POINT
  5
7E3C
  8
DEFPOINTS
  6
CONTINUOUS
 62
     0
 10
4472.1591939999989
 20
10021.103078829099
 30
0.0
  0
POINT
  5
7E3D
  8
DEFPOINTS
  6
CONTINUOUS
 62
     0
 10
4472.1591939999989
 20
8741.1030788291064
 30
0.0
  0
POINT
  5
7E3E
  8
DEFPOINTS
  6
CONTINUOUS
 62
     0
 10
4894.0846280000014
 20
8741.1030788291064
 30
0.0
  0
ENDBLK
  5
7B8A
  8
0
  0
BLOCK
  8
0
  2
*D11
 70
     1
 10
0.0
 20
0.0
 30
0.0
  3
*D11
  1

  0
LINE
  5
7E3F
  8
3
  6
CONTINUOUS
 62
     0
 10
1922.1591939999989
 20
8718.6030788291064
 30
0.0
 11
1922.1591939999989
 21
8173.0886078291069
 31
0.0
  0
LINE
  5
7E40
  8
3
  6
CONTINUOUS
 62
     0
 10
4472.1591939999989
 20
8718.6030788291064
 30
0.0
 11
4472.1591939999989
 21
8173.0886078291069
 31
0.0
  0
LINE
  5
7E41
  8
3
  6
CONTINUOUS
 62
     0
 10
2012.1591940000001
 20
8218.0886078291078
 30
0.0
 11
4382.1591939999989
 21
8218.0886078291078
 31
0.0
  0
INSERT
  5
7E42
  8
3
  6
CONTINUOUS
 62
     0
  2
_OPEN
 10
1922.1591939999989
 20
8218.0886078291078
 30
0.0
 41
90.0
 42
90.0
 43
90.0
 50
180.0
  0
INSERT
  5
7E43
  8
3
  6
CONTINUOUS
 62
     0
  2
_OPEN
 10
4472.1591939999989
 20
8218.0886078291078
 30
0.0
 41
90.0
 42
90.0
 43
90.0
  0
TEXT
  8
3
  40
135
  5
7E91
  62
0
  72
0
  71
0
 10
3084.41
 20
8091.64
 30
0.000000
  1
2550
  0
POINT
  5
7E45
  8
DEFPOINTS
  6
CONTINUOUS
 62
     0
 10
1922.1591939999989
 20
8741.1030788291064
 30
0.0
  0
POINT
  5
7E46
  8
DEFPOINTS
  6
CONTINUOUS
 62
     0
 10
4472.1591939999989
 20
8741.1030788291064
 30
0.0
  0
POINT
  5
7E47
  8
DEFPOINTS
  6
CONTINUOUS
 62
     0
 10
4472.1591939999989
 20
8218.0886078291078
 30
0.0
  0
ENDBLK
  5
7C7C
  8
0
  0
BLOCK
  8
0
  2
*D12
 70
     1
 10
0.0
 20
0.0
 30
0.0
  3
*D12
  1

  0
LINE
  5
7E48
  8
3
  6
CONTINUOUS
 62
     0
 10
6935.8188072624343
 20
3790.7420569999999
 30
0.0
 11
6935.8188072624343
 21
3456.8296789999999
 31
0.0
  0
LINE
  5
7E49
  8
3
  6
CONTINUOUS
 62
     0
 10
7662.8188072624343
 20
3625.4458579999991
 30
0.0
 11
7662.8188072624343
 21
3456.8296789999999
 31
0.0
  0
LINE
  5
7E4A
  8
3
  6
CONTINUOUS
 62
     0
 10
6845.8188072624343
 20
3501.8296789999999
 30
0.0
 11
6755.8188072624353
 21
3501.8296789999999
 31
0.0
  0
LINE
  5
7E4B
  8
3
  6
CONTINUOUS
 62
     0
 10
7752.8188072624353
 20
3501.8296789999999
 30
0.0
 11
7842.8188072624353
 21
3501.8296789999999
 31
0.0
  0
LINE
  5
7E4C
  8
3
  6
CONTINUOUS
 62
     0
 10
6935.8188072624343
 20
3501.8296789999999
 30
0.0
 11
7662.8188072624343
 21
3501.8296789999999
 31
0.0
  0
INSERT
  5
7E4D
  8
3
  6
CONTINUOUS
 62
     0
  2
_OPEN
 10
6935.8188072624343
 20
3501.8296789999999
 30
0.0
 41
90.0
 42
90.0
 43
90.0
  0
INSERT
  5
7E4E
  8
3
  6
CONTINUOUS
 62
     0
  2
_OPEN
 10
7662.8188072624343
 20
3501.8296789999999
 30
0.0
 41
90.0
 42
90.0
 43
90.0
 50
180.0
  0
TEXT
  8
3
  40
135
  5
7E92
  62
0
  72
0
  71
0
 10
6974.39
 20
3375.38
 30
0.000000
  1
727
  0
POINT
  5
7E50
  8
DEFPOINTS
  6
CONTINUOUS
 62
     0
 10
6935.8188072624343
 20
3813.2420569999999
 30
0.0
  0
POINT
  5
7E51
  8
DEFPOINTS
  6
CONTINUOUS
 62
     0
 10
7662.8188072624343
 20
3647.9458579999991
 30
0.0
  0
POINT
  5
7E52
  8
DEFPOINTS
  6
CONTINUOUS
 62
     0
 10
7662.8188072624343
 20
3501.8296789999999
 30
0.0
  0
ENDBLK
  5
7BB3
  8
0
  0
BLOCK
  8
0
  2
*D13
 70
     1
 10
0.0
 20
0.0
 30
0.0
  3
*D13
  1

  0
LINE
  5
7E53
  8
3
  6
CONTINUOUS
 62
     0
 10
8215.8188072624343
 20
3790.7420569999999
 30
0.0
 11
8215.8188072624343
 21
3456.8296789999999
 31
0.0
  0
LINE
  5
7E54
  8
3
  6
CONTINUOUS
 62
     0
 10
7752.8188072624353
 20
3501.8296789999999
 30
0.0
 11
8125.8188072624353
 21
3501.8296789999999
 31
0.0
  0
TEXT
  8
3
  40
135
  5
7E93
  62
0
  72
0
  71
0
 10
7640.39
 20
3374.65
 30
0.000000
  1
553
  0
INSERT
  5
7E56
  8
3
  6
CONTINUOUS
 62
     0
  2
_OPEN
 10
7662.8188072624343
 20
3501.8296789999999
 30
0.0
 41
90.0
 42
90.0
 43
90.0
 50
180.0
  0
INSERT
  5
7E57
  8
3
  6
CONTINUOUS
 62
     0
  2
_OPEN
 10
8215.8188072624343
 20
3501.8296789999999
 30
0.0
 41
90.0
 42
90.0
 43
90.0
  0
POINT
  5
7E58
  8
DEFPOINTS
  6
CONTINUOUS
 62
     0
 10
7662.8188072624343
 20
3647.9458579999991
 30
0.0
  0
POINT
  5
7E59
  8
DEFPOINTS
  6
CONTINUOUS
 62
     0
 10
8215.8188072624343
 20
3813.2420569999999
 30
0.0
  0
POINT
  5
7E5A
  8
DEFPOINTS
  6
CONTINUOUS
 62
     0
 10
8215.8188072624343
 20
3501.8296789999999
 30
0.0
  0
ENDBLK
  5
7BD8
  8
0
  0
BLOCK
  8
0
  2
*D14
 70
     1
 10
0.0
 20
0.0
 30
0.0
  3
*D14
  1

  0
LINE
  5
7E5B
  8
3
  6
CONTINUOUS
 62
     0
 10
7187.8188072624343
 20
6188.7420570000004
 30
0.0
 11
7187.8188072624343
 21
6368.3260019999998
 31
0.0
  0
LINE
  5
7E5C
  8
3
  6
CONTINUOUS
 62
     0
 10
8137.8188072624343
 20
6188.7420570000004
 30
0.0
 11
8137.8188072624343
 21
6368.3260019999998
 31
0.0
  0
LINE
  5
7E5D
  8
3
  6
CONTINUOUS
 62
     0
 10
7277.8188072624343
 20
6323.3260020000007
 30
0.0
 11
8047.8188072624353
 21
6323.3260020000007
 31
0.0
  0
INSERT
  5
7E5E
  8
3
  6
CONTINUOUS
 62
     0
  2
_OPEN
 10
7187.8188072624343
 20
6323.3260020000007
 30
0.0
 41
90.0
 42
90.0
 43
90.0
 50
180.0
  0
INSERT
  5
7E5F
  8
3
  6
CONTINUOUS
 62
     0
  2
_OPEN
 10
8137.8188072624343
 20
6323.3260020000007
 30
0.0
 41
90.0
 42
90.0
 43
90.0
  0
TEXT
  8
3
  40
135
  5
7E94
  62
0
  72
0
  71
0
 10
7340.52
 20
6196.88
 30
0.000000
  1
950
  0
POINT
  5
7E61
  8
DEFPOINTS
  6
CONTINUOUS
 62
     0
 10
7187.8188072624343
 20
6166.2420570000004
 30
0.0
  0
POINT
  5
7E62
  8
DEFPOINTS
  6
CONTINUOUS
 62
     0
 10
8137.8188072624343
 20
6166.2420570000004
 30
0.0
  0
POINT
  5
7E63
  8
DEFPOINTS
  6
CONTINUOUS
 62
     0
 10
8137.8188072624343
 20
6323.3260020000007
 30
0.0
  0
ENDBLK
  5
7BE4
  8
0
  0
BLOCK
  8
0
  2
*D15
 70
     1
 10
0.0
 20
0.0
 30
0.0
  3
*D15
  1

  0
LINE
  5
7E64
  8
3
  6
CONTINUOUS
 62
     0
 10
6822.8188072624353
 20
5232.7420570000013
 30
0.0
 11
6822.8188072624353
 21
6721.216276796823
 31
0.0
  0
LINE
  5
7E65
  8
3
  6
CONTINUOUS
 62
     0
 10
7662.8188072624343
 20
6552.9386599999989
 30
0.0
 11
7662.8188072624343
 21
6721.216276796823
 31
0.0
  0
LINE
  5
7E66
  8
3
  6
CONTINUOUS
 62
     0
 10
6912.8188072624343
 20
6676.216276796823
 30
0.0
 11
7572.8188072624353
 21
6676.216276796823
 31
0.0
  0
INSERT
  5
7E67
  8
3
  6
CONTINUOUS
 62
     0
  2
_OPEN
 10
6822.8188072624353
 20
6676.216276796823
 30
0.0
 41
90.0
 42
90.0
 43
90.0
 50
180.0
  0
INSERT
  5
7E68
  8
3
  6
CONTINUOUS
 62
     0
  2
_OPEN
 10
7662.8188072624343
 20
6676.216276796823
 30
0.0
 41
90.0
 42
90.0
 43
90.0
  0
TEXT
  8
3
  40
135
  5
7E95
  62
0
  72
0
  71
0
 10
6967.52
 20
6662.27
 30
0.000000
  1
MAX
  0
TEXT
  8
3
  40
135
  5
7E96
  62
0
  72
0
  71
0
 10
6967.52
 20
6486.77
 30
0.000000
  1
890
  0
POINT
  5
7E6A
  8
DEFPOINTS
  6
CONTINUOUS
 62
     0
 10
6822.8188072624353
 20
5210.2420570000013
 30
0.0
  0
POINT
  5
7E6B
  8
DEFPOINTS
  6
CONTINUOUS
 62
     0
 10
7662.8188072624343
 20
6530.4386599999998
 30
0.0
  0
POINT
  5
7E6C
  8
DEFPOINTS
  6
CONTINUOUS
 62
     0
 10
7662.8188072624343
 20
6676.216276796823
 30
0.0
  0
ENDBLK
  5
7CAE
  8
0
  0
BLOCK
  8
0
  2
*D16
 70
     1
 10
0.0
 20
0.0
 30
0.0
  3
*D16
  1

  0
LINE
  5
7E6D
  8
3
  6
CONTINUOUS
 62
     0
 10
8240.8188072624325
 20
5529.7420570000004
 30
0.0
 11
8240.8188072624325
 21
6721.216276796823
 31
0.0
  0
LINE
  5
7E6E
  8
3
  6
CONTINUOUS
 62
     0
 10
7752.8188072624353
 20
6676.216276796823
 30
0.0
 11
8150.8188072624353
 21
6676.216276796823
 31
0.0
  0
TEXT
  8
3
  40
135
  5
7E97
  62
0
  72
0
  71
0
 10
7655.01
 20
6562.87
 30
0.000000
  1
578
  0
INSERT
  5
7E70
  8
3
  6
CONTINUOUS
 62
     0
  2
_OPEN
 10
7662.8188072624343
 20
6676.216276796823
 30
0.0
 41
90.0
 42
90.0
 43
90.0
 50
180.0
  0
INSERT
  5
7E71
  8
3
  6
CONTINUOUS
 62
     0
  2
_OPEN
 10
8240.8188072624325
 20
6676.216276796823
 30
0.0
 41
90.0
 42
90.0
 43
90.0
  0
POINT
  5
7E72
  8
DEFPOINTS
  6
CONTINUOUS
 62
     0
 10
7662.8188072624343
 20
6530.4386599999998
 30
0.0
  0
POINT
  5
7E73
  8
DEFPOINTS
  6
CONTINUOUS
 62
     0
 10
8240.8188072624325
 20
5507.2420570000004
 30
0.0
  0
POINT
  5
7E74
  8
DEFPOINTS
  6
CONTINUOUS
 62
     0
 10
8240.8188072624325
 20
6676.216276796823
 30
0.0
  0
ENDBLK
  5
7CC2
  8
0
  0
BLOCK
  8
0
  2
*D17
 70
     1
 10
0.0
 20
0.0
 30
0.0
  3
*D17
  1

  0
LINE
  5
7E75
  8
3
  6
CONTINUOUS
 62
     0
 10
8263.3188072624343
 20
5457.2420570000013
 30
0.0
 11
8672.1284572624354
 21
5457.2420570000013
 31
0.0
  0
LINE
  5
7E76
  8
3
  6
CONTINUOUS
 62
     0
 10
8263.3188072624343
 20
4207.2420570000013
 30
0.0
 11
8672.1284572624354
 21
4207.2420570000013
 31
0.0
  0
LINE
  5
7E77
  8
3
  6
CONTINUOUS
 62
     0
 10
8627.1284572624354
 20
5367.2420570000013
 30
0.0
 11
8627.1284572624354
 21
4297.2420570000004
 31
0.0
  0
INSERT
  5
7E78
  8
3
  6
CONTINUOUS
 62
     0
  2
_OPEN
 10
8627.1284572624354
 20
5457.2420570000013
 30
0.0
 41
90.0
 42
90.0
 43
90.0
 50
90.0
  0
INSERT
  5
7E79
  8
3
  6
CONTINUOUS
 62
     0
  2
_OPEN
 10
8627.1284572624354
 20
4207.2420570000013
 30
0.0
 41
90.0
 42
90.0
 43
90.0
 50
270.0
  0
TEXT
  8
3
  40
135
  5
7E98
  62
0
  72
0
  71
0
 10
8244.63
 20
4607.88
 30
0.000000
  1
φ1250
  0
POINT
  5
7E7B
  8
DEFPOINTS
  6
CONTINUOUS
 62
     0
 10
8240.8188072624325
 20
5457.2420570000013
 30
0.0
  0
POINT
  5
7E7C
  8
DEFPOINTS
  6
CONTINUOUS
 62
     0
 10
8240.8188072624325
 20
4207.2420570000013
 30
0.0
  0
POINT
  5
7E7D
  8
DEFPOINTS
  6
CONTINUOUS
 62
     0
 10
8627.1284572624354
 20
4207.2420570000013
 30
0.0
  0
ENDBLK
  5
7CA3
  8
0
  0
BLOCK
  8
0
  2
*D18
 70
     1
 10
0.0
 20
0.0
 30
0.0
  3
*D18
  1

  0
LINE
  5
7E7E
  8
3
 62
     0
 10
4547.1591939999989
 20
6244.7420570000004
 30
0.0
 11
4547.1591939999989
 21
6663.1792601350608
 31
0.0
  0
LINE
  5
7E7F
  8
3
 62
     0
 10
1922.1591939999989
 20
4079.742056999999
 30
0.0
 11
1922.1591939999989
 21
6663.1792601350608
 31
0.0
  0
LINE
  5
7E80
  8
3
 62
     0
 10
4457.1591939999989
 20
6618.1792601350608
 30
0.0
 11
2012.1591940000001
 21
6618.1792601350608
 31
0.0
  0
INSERT
  5
7E81
  8
3
 62
     0
  2
_OPEN
 10
4547.1591939999989
 20
6618.1792601350608
 30
0.0
 41
90.0
 42
90.0
 43
90.0
  0
INSERT
  5
7E82
  8
3
 62
     0
  2
_OPEN
 10
1922.1591939999989
 20
6618.1792601350608
 30
0.0
 41
90.0
 42
90.0
 43
90.0
 50
180.0
  0
TEXT
  8
3
  40
135
  5
7E99
  62
0
  72
0
  71
0
 10
3083.90
 20
6491.73
 30
0.000000
  1
2625
  0
POINT
  5
7E84
  8
DEFPOINTS
 62
     0
 10
4547.1591939999989
 20
6222.2420570000004
 30
0.0
  0
POINT
  5
7E85
  8
DEFPOINTS
 62
     0
 10
1922.1591939999989
 20
4057.242056999999
 30
0.0
  0
POINT
  5
7E86
  8
DEFPOINTS
 62
     0
 10
1922.1591939999989
 20
6618.1792601350608
 30
0.0
  0
ENDBLK
  5
7CCE
  8
0
  0
ENDSEC
  0
SECTION
  2
ENTITIES
  0
POLYLINE
  5
7A76
  8
1
  6
CONTINUOUS
 66
     1
 10
0.0
 20
0.0
 30
0.0
  0
VERTEX
  5
7DDF
  8
1
  6
CONTINUOUS
 10
4547.1591939999989
 20
6166.2420570000004
 30
0.0
  0
VERTEX
  5
7DE0
  8
1
  6
CONTINUOUS
 10
3722.1591939999989
 20
6093.2420570000013
 30
0.0
 42
0.391657
  0
VERTEX
  5
7DE1
  8
1
  6
CONTINUOUS
 10
2639.6256410000001
 20
4923.2420570000004
 30
0.0
 42
0.4387800000000001
  0
VERTEX
  5
7DE2
  8
1
  6
CONTINUOUS
 10
3713.5015739999999
 20
3935.1335009999998
 30
0.0
 42
0.390066
  0
VERTEX
  5
7DE3
  8
1
  6
CONTINUOUS
 10
4468.1104230000001
 20
4755.2420570000004
 30
0.0
 42
0.049316
  0
VERTEX
  5
7DE4
  8
1
  6
CONTINUOUS
 10
4455.1582390000012
 20
4886.2420570000004
 30
0.0
 42
0.393627
  0
SEQEND
  5
7DE5
  8
1
  6
CONTINUOUS
  0
LINE
  5
7A7E
  8
1
  6
CONTINUOUS
 10
4472.1591939999989
 20
3907.242056999999
 30
0.0
 11
1922.1591939999989
 21
3907.242056999999
 31
0.0
  0
LINE
  5
7A7F
  8
1
  6
CONTINUOUS
 10
4472.1591939999989
 20
4057.242056999999
 30
0.0
 11
1922.1591939999989
 21
4057.242056999999
 31
0.0
  0
LINE
  5
7A80
  8
1
  6
CONTINUOUS
 10
3593.443773
 20
5078.6489159999992
 30
0.0
 11
2291.5985810000002
 21
4398.60473
 31
0.0
  0
LINE
  5
7A81
  8
1
  6
CONTINUOUS
 10
3547.1432619999991
 20
5167.2844770000002
 30
0.0
 11
2245.298068999999
 21
4487.2402909999992
 31
0.0
  0
LINE
  5
7A82
  8
1
  6
CONTINUOUS
 10
3795.5223939999992
 20
4564.0968709999988
 30
0.0
 11
2378.826763
 21
4176.4959339999996
 31
0.0
  0
LINE
  5
7A83
  8
1
  6
CONTINUOUS
 10
3821.9120349999998
 20
4467.6417680000004
 30
0.0
 11
2405.2164029999999
 21
4080.0408309999998
 31
0.0
  0
LINE
  5
7A84
  8
1
  6
CONTINUOUS
 10
4472.1591939999989
 20
3813.2420569999999
 30
0.0
 11
1922.1591939999989
 21
3813.2420569999999
 31
0.0
  0
LINE
  5
7A85
  8
1
  6
CONTINUOUS
 10
4472.1591939999989
 20
3888.2420569999999
 30
0.0
 11
1922.1591939999989
 21
3888.2420569999999
 31
0.0
  0
LINE
  5
7A86
  8
1
  6
CONTINUOUS
 10
1922.1591939999989
 20
4057.242056999999
 30
0.0
 11
1922.1591939999989
 21
3907.242056999999
 31
0.0
  0
LINE
  5
7A87
  8
1
  6
CONTINUOUS
 10
1922.1591939999989
 20
3888.2420569999999
 30
0.0
 11
1922.1591939999989
 21
3813.2420569999999
 31
0.0
  0
ARC
  5
7A88
  8
1
  6
CONTINUOUS
 10
2347.1591939999998
 20
4292.2420570000013
 30
0.0
 40
199.0
 50
320.126825
 51
219.87317499999989
  0
CIRCLE
  5
7A89
  8
1
  6
CONTINUOUS
 10
2347.1591939999998
 20
4292.2420570000013
 30
0.0
 40
120.0
  0
LINE
  5
7A8A
  8
2
  6
CENTER
 10
2347.1591939999998
 20
4172.2420570000004
 30
0.0
 11
2347.1591939999998
 21
4412.2420570000004
 31
0.0
  0
ARC
  5
7A8B
  8
1
  6
CONTINUOUS
 10
2347.1591939999998
 20
4292.2420570000013
 30
0.0
 40
220.0
 50
117.581193
 51
285.30138699999998
  0
LINE
  5
7A8C
  8
1
  6
CONTINUOUS
 10
2572.1591939999998
 20
4112.2420570000004
 30
0.0
 11
2122.1591939999998
 21
4112.2420570000004
 31
0.0
  0
LINE
  5
7A8D
  8
2
  6
CENTER
 10
2227.1591939999998
 20
4292.2420570000013
 30
0.0
 11
2467.1591939999998
 21
4292.2420570000013
 31
0.0
  0
LINE
  5
7A8E
  8
1
  6
CONTINUOUS
 10
2185.1591939999998
 20
4154.7412400000003
 30
0.0
 11
2194.4335829999991
 21
4164.6650689999988
 31
0.0
  0
LINE
  5
7A8F
  8
1
  6
CONTINUOUS
 10
2185.1591939999998
 20
4112.2420570000004
 30
0.0
 11
2245.1591939999998
 21
4112.2420570000004
 31
0.0
  0
LINE
  5
7A90
  8
1
  6
CONTINUOUS
 10
2185.1591939999998
 20
4112.2420570000004
 30
0.0
 11
2185.1591939999998
 21
4154.7412400000003
 31
0.0
  0
LINE
  5
7A91
  8
1
  6
CONTINUOUS
 10
2122.1591939999998
 20
4057.242056999999
 30
0.0
 11
2122.1591939999998
 21
4112.2420570000004
 31
0.0
  0
LINE
  5
7A92
  8
1
  6
CONTINUOUS
 10
2509.1591939999998
 20
4154.7412400000003
 30
0.0
 11
2499.8848050000001
 21
4164.6650689999988
 31
0.0
  0
LINE
  5
7A93
  8
1
  6
CONTINUOUS
 10
2509.1591939999998
 20
4112.2420570000004
 30
0.0
 11
2509.1591939999998
 21
4154.7412400000003
 31
0.0
  0
LINE
  5
7A94
  8
1
  6
CONTINUOUS
 10
2572.1591939999998
 20
4057.242056999999
 30
0.0
 11
2572.1591939999998
 21
4112.2420570000004
 31
0.0
  0
CIRCLE
  5
7A95
  8
1
  6
CONTINUOUS
 10
3722.1591939999989
 20
4832.2420570000013
 30
0.0
 40
625.0
  0
CIRCLE
  5
7A96
  8
1
  6
CONTINUOUS
 10
3722.1591939999989
 20
4832.2420570000013
 30
0.0
 40
675.0
  0
CIRCLE
  5
7A97
  8
1
  6
CONTINUOUS
 10
3722.1591939999989
 20
4832.2420570000013
 30
0.0
 40
278.0
  0
LINE
  5
7A98
  8
2
  6
CENTER
 10
2598.5225609999989
 20
4832.2420570000013
 30
0.0
 11
4639.4211959999993
 21
4832.2420570000013
 31
0.0
  0
ARC
  5
7A99
  8
1
  6
CONTINUOUS
 10
3722.1591939999989
 20
4832.2420570000013
 30
0.0
 40
378.0
 50
285.30138699999998
 51
117.581193
  0
LINE
  5
7A9A
  8
2
  6
CENTER
 10
3722.1591939999989
 20
3680.6391180000001
 30
0.0
 11
3722.1591939999989
 21
6158.1715979999999
 31
0.0
  0
LINE
  5
7A9B
  8
1
  6
CONTINUOUS
 10
4547.1591939999989
 20
4836.2420570000004
 30
0.0
 11
4547.1591939999989
 21
6222.2420570000004
 31
0.0
  0
LINE
  5
7A9C
  8
1
  6
CONTINUOUS
 10
4497.1591939999989
 20
4886.2420570000004
 30
0.0
 11
4497.1591939999989
 21
6166.2420570000004
 31
0.0
  0
LINE
  5
7A9D
  8
1
  6
CONTINUOUS
 10
4455.1582390000012
 20
4886.2420570000004
 30
0.0
 11
4547.1591939999989
 21
4886.2420570000004
 31
0.0
  0
LINE
  5
7A9E
  8
1
  6
CONTINUOUS
 10
4472.1591939999989
 20
4057.242056999999
 30
0.0
 11
4472.1591939999989
 21
3907.242056999999
 31
0.0
  0
LINE
  5
7A9F
  8
1
  6
CONTINUOUS
 10
4472.1591939999989
 20
3888.2420569999999
 30
0.0
 11
4472.1591939999989
 21
3813.2420569999999
 31
0.0
  0
LINE
  5
7AA0
  8
1
  6
CONTINUOUS
 10
4547.1591939999989
 20
9943.1030788291064
 30
0.0
 11
2639.6256410000001
 21
9943.1030788291064
 31
0.0
  0
LINE
  5
7AA1
  8
1
  6
CONTINUOUS
 10
4547.1591939999989
 20
8993.1030788291064
 30
0.0
 11
2639.6256410000001
 21
8993.1030788291064
 31
0.0
  0
LINE
  5
7AA2
  8
1
  6
CONTINUOUS
 10
4100.1591939999989
 20
8628.1030788291064
 30
0.0
 11
2027.1591940000001
 21
8628.1030788291064
 31
0.0
  0
LINE
  5
7AA3
  8
1
  6
CONTINUOUS
 10
4100.1591939999989
 20
8868.1030788291064
 30
0.0
 11
2027.1591940000001
 21
8868.1030788291064
 31
0.0
  0
LINE
  5
7AA4
  8
1
  6
CONTINUOUS
 10
2467.1591939999998
 20
8741.1030788291064
 30
0.0
 11
3444.1591939999998
 21
8741.1030788291064
 31
0.0
  0
LINE
  5
7AA5
  8
1
  6
CONTINUOUS
 10
3097.1591939999998
 20
10021.103078829099
 30
0.0
 11
1922.1591939999989
 21
10021.103078829099
 31
0.0
  0
LINE
  5
7AA6
  8
1
  6
CONTINUOUS
 10
1922.1591939999989
 20
10021.103078829099
 30
0.0
 11
1922.1591939999989
 21
8741.1030788291064
 31
0.0
  0
LINE
  5
7AA7
  8
1
  6
CONTINUOUS
 10
2639.6256410000001
 20
8993.1030788291064
 30
0.0
 11
2639.6256410000001
 21
9943.1030788291064
 31
0.0
  0
LINE
  5
7AA8
  8
1
  6
CONTINUOUS
 10
1922.1591939999989
 20
8741.1030788291064
 30
0.0
 11
2227.1591939999998
 21
8741.1030788291064
 31
0.0
  0
LINE
  5
7AA9
  8
1
  6
CONTINUOUS
 10
2027.1591940000001
 20
8628.1030788291064
 30
0.0
 11
2027.1591940000001
 21
8868.1030788291064
 31
0.0
  0
LINE
  5
7AAA
  8
1
  6
CONTINUOUS
 10
2374.6591939999998
 20
8798.1030788291064
 30
0.0
 11
2374.6591939999998
 21
8912.6362718291057
 31
0.0
  0
LINE
  5
7AAB
  8
1
  6
CONTINUOUS
 10
2319.6591939999998
 20
8798.1030788291064
 30
0.0
 11
2319.6591939999998
 21
8912.6362718291057
 31
0.0
  0
LINE
  5
7AAC
  8
1
  6
CONTINUOUS
 10
2227.1591939999998
 20
8798.1030788291064
 30
0.0
 11
2467.1591939999998
 21
8798.1030788291064
 31
0.0
  0
LINE
  5
7AAD
  8
1
  6
CONTINUOUS
 10
2227.1591939999998
 20
8698.1030788291064
 30
0.0
 11
2467.1591939999998
 21
8698.1030788291064
 31
0.0
  0
LINE
  5
7AAE
  8
1
  6
CONTINUOUS
 10
2227.1591939999998
 20
8698.1030788291064
 30
0.0
 11
2227.1591939999998
 21
8798.1030788291064
 31
0.0
  0
LINE
  5
7AAF
  8
1
  6
CONTINUOUS
 10
2467.1591939999998
 20
8698.1030788291064
 30
0.0
 11
2467.1591939999998
 21
8798.1030788291064
 31
0.0
  0
LINE
  5
7AB0
  8
1
  6
CONTINUOUS
 10
2148.0611800000001
 20
9512.1362718291075
 30
0.0
 11
2546.257208
 21
9512.1362718291075
 31
0.0
  0
LINE
  5
7AB1
  8
1
  6
CONTINUOUS
 10
2148.0611800000001
 20
8912.6362718291057
 30
0.0
 11
2546.257208
 21
8912.6362718291057
 31
0.0
  0
LINE
  5
7AB2
  8
1
  6
CONTINUOUS
 10
2148.0611800000001
 20
8912.6362718291057
 30
0.0
 11
2148.0611800000001
 21
9512.1362718291075
 31
0.0
  0
LINE
  5
7AB3
  8
1
  6
CONTINUOUS
 10
2546.257208
 20
8912.6362718291057
 30
0.0
 11
2546.257208
 21
9512.1362718291075
 31
0.0
  0
LINE
  5
7AB4
  8
1
  6
CONTINUOUS
 10
4397.1591939999989
 20
10046.103078829099
 30
0.0
 11
3047.1591939999998
 21
10046.103078829099
 31
0.0
  0
LINE
  5
7AB5
  8
1
  6
CONTINUOUS
 10
3444.1591939999998
 20
8798.1030788291064
 30
0.0
 11
4000.1591939999998
 21
8798.1030788291064
 31
0.0
  0
LINE
  5
7AB6
  8
1
  6
CONTINUOUS
 10
3444.1591939999998
 20
8698.1030788291064
 30
0.0
 11
4000.1591939999998
 21
8698.1030788291064
 31
0.0
  0
LINE
  5
7AB7
  8
1
  6
CONTINUOUS
 10
3694.6591939999989
 20
8798.1030788291064
 30
0.0
 11
3694.6591939999989
 21
8993.1030788291064
 31
0.0
  0
LINE
  5
7AB8
  8
1
  6
CONTINUOUS
 10
3749.6591939999998
 20
8798.1030788291064
 30
0.0
 11
3749.6591939999998
 21
8993.1030788291064
 31
0.0
  0
LINE
  5
7AB9
  8
1
  6
CONTINUOUS
 10
3444.1591939999998
 20
8698.1030788291064
 30
0.0
 11
3444.1591939999998
 21
8798.1030788291064
 31
0.0
  0
LINE
  5
7ABA
  8
1
  6
CONTINUOUS
 10
3097.1591939999998
 20
9943.1030788291064
 30
0.0
 11
3097.1591939999998
 21
10046.103078829099
 31
0.0
  0
LINE
  5
7ABB
  8
1
  6
CONTINUOUS
 10
4497.1591939999989
 20
8993.1030788291064
 30
0.0
 11
4497.1591939999989
 21
9943.1030788291064
 31
0.0
  0
LINE
  5
7ABC
  8
1
  6
CONTINUOUS
 10
4547.1591939999989
 20
8943.1030788291064
 30
0.0
 11
4547.1591939999989
 21
9993.1030788291082
 31
0.0
  0
LINE
  5
7ABD
  8
1
  6
CONTINUOUS
 10
4472.1591939999989
 20
8741.1030788291064
 30
0.0
 11
4472.1591939999989
 21
8993.1030788291064
 31
0.0
  0
LINE
  5
7ABE
  8
1
  6
CONTINUOUS
 10
4000.1591939999998
 20
8741.1030788291064
 30
0.0
 11
4472.1591939999989
 21
8741.1030788291064
 31
0.0
  0
LINE
  5
7ABF
  8
1
  6
CONTINUOUS
 10
4000.1591939999998
 20
8698.1030788291064
 30
0.0
 11
4000.1591939999998
 21
8798.1030788291064
 31
0.0
  0
LINE
  5
7AC0
  8
1
  6
CONTINUOUS
 10
4100.1591939999989
 20
8628.1030788291064
 30
0.0
 11
4100.1591939999989
 21
8868.1030788291064
 31
0.0
  0
LINE
  5
7AC1
  8
1
  6
CONTINUOUS
 10
4472.1591939999989
 20
10021.103078829099
 30
0.0
 11
4347.1591939999989
 21
10021.103078829099
 31
0.0
  0
LINE
  5
7AC2
  8
1
  6
CONTINUOUS
 10
4347.1591939999989
 20
9943.1030788291064
 30
0.0
 11
4347.1591939999989
 21
10046.103078829099
 31
0.0
  0
LINE
  5
7AC3
  8
1
  6
CONTINUOUS
 10
4472.1591939999989
 20
9943.1030788291064
 30
0.0
 11
4472.1591939999989
 21
10021.103078829099
 31
0.0
  0
LINE
  5
7AC5
  8
1
  6
CONTINUOUS
 10
8215.8188072624343
 20
3907.242056999999
 30
0.0
 11
6935.8188072624343
 21
3907.242056999999
 31
0.0
  0
LINE
  5
7AC6
  8
1
  6
CONTINUOUS
 10
8215.8188072624343
 20
4057.242056999999
 30
0.0
 11
6935.8188072624343
 21
4057.242056999999
 31
0.0
  0
LINE
  5
7AC7
  8
1
  6
CONTINUOUS
 10
7187.8188072624343
 20
6166.2420570000004
 30
0.0
 11
8137.8188072624343
 21
6166.2420570000004
 31
0.0
  0
LINE
  5
7AC8
  8
1
  6
CONTINUOUS
 10
7187.8188072624343
 20
4886.2420570000004
 30
0.0
 11
8137.8188072624343
 21
4886.2420570000004
 31
0.0
  0
LINE
  5
7AC9
  8
1
  6
CONTINUOUS
 10
7187.8188072624343
 20
4886.2420570000004
 30
0.0
 11
8137.8188072624343
 21
6166.2420570000004
 31
0.0
  0
LINE
  5
7ACA
  8
1
  6
CONTINUOUS
 10
7187.8188072624343
 20
6166.2420570000004
 30
0.0
 11
8137.8188072624343
 21
4886.2420570000004
 31
0.0
  0
LINE
  5
7ACB
  8
1
  6
CONTINUOUS
 10
8215.8188072624343
 20
3813.2420569999999
 30
0.0
 11
6935.8188072624343
 21
3813.2420569999999
 31
0.0
  0
LINE
  5
7ACC
  8
1
  6
CONTINUOUS
 10
8215.8188072624343
 20
3888.2420569999999
 30
0.0
 11
6935.8188072624343
 21
3888.2420569999999
 31
0.0
  0
LINE
  5
7ACD
  8
1
  6
CONTINUOUS
 10
7187.8188072624343
 20
4057.242056999999
 30
0.0
 11
7187.8188072624343
 21
6166.2420570000004
 31
0.0
  0
LINE
  5
7ACE
  8
1
  6
CONTINUOUS
 10
6822.8188072624353
 20
4072.242056999999
 30
0.0
 11
6822.8188072624353
 21
5210.2420570000013
 31
0.0
  0
LINE
  5
7ACF
  8
1
  6
CONTINUOUS
 10
7062.8188072624343
 20
4072.242056999999
 30
0.0
 11
7062.8188072624343
 21
5210.2420570000013
 31
0.0
  0
LINE
  5
7AD0
  8
1
  6
CONTINUOUS
 10
6992.8188072624353
 20
4859.7420570000004
 30
0.0
 11
7187.8188072624343
 21
4859.7420570000004
 31
0.0
  0
LINE
  5
7AD1
  8
1
  6
CONTINUOUS
 10
6992.8188072624353
 20
4804.7420570000013
 30
0.0
 11
7187.8188072624343
 21
4804.7420570000013
 31
0.0
  0
LINE
  5
7AD2
  8
1
  6
CONTINUOUS
 10
6992.8188072624353
 20
4264.7420570000004
 30
0.0
 11
7187.8188072624343
 21
4264.7420570000004
 31
0.0
  0
LINE
  5
7AD3
  8
1
  6
CONTINUOUS
 10
6992.8188072624353
 20
4319.7420570000004
 30
0.0
 11
7187.8188072624343
 21
4319.7420570000004
 31
0.0
  0
LINE
  5
7AD4
  8
1
  6
CONTINUOUS
 10
6992.8188072624353
 20
4172.2420570000004
 30
0.0
 11
6992.8188072624353
 21
4412.2420570000004
 31
0.0
  0
LINE
  5
7AD5
  8
1
  6
CONTINUOUS
 10
6892.8188072624353
 20
4172.2420570000004
 30
0.0
 11
6892.8188072624353
 21
4412.2420570000004
 31
0.0
  0
LINE
  5
7AD8
  8
1
  6
CONTINUOUS
 10
6935.8188072624343
 20
3907.242056999999
 30
0.0
 11
6935.8188072624343
 21
4057.242056999999
 31
0.0
  0
LINE
  5
7AD9
  8
1
  6
CONTINUOUS
 10
6892.8188072624353
 20
4172.2420570000004
 30
0.0
 11
6992.8188072624353
 21
4172.2420570000004
 31
0.0
  0
LINE
  5
7ADA
  8
1
  6
CONTINUOUS
 10
6822.8188072624353
 20
4072.242056999999
 30
0.0
 11
7062.8188072624343
 21
4072.242056999999
 31
0.0
  0
LINE
  5
7ADB
  8
1
  6
CONTINUOUS
 10
6935.8188072624343
 20
3813.2420569999999
 30
0.0
 11
6935.8188072624343
 21
3888.2420569999999
 31
0.0
  0
LINE
  5
7ADC
  8
1
  6
CONTINUOUS
 10
6892.8188072624353
 20
4412.2420570000004
 30
0.0
 11
6992.8188072624353
 21
4412.2420570000004
 31
0.0
  0
LINE
  5
7ADD
  8
1
  6
CONTINUOUS
 10
6892.8188072624353
 20
5110.2420570000004
 30
0.0
 11
6992.8188072624353
 21
5110.2420570000004
 31
0.0
  0
LINE
  5
7ADE
  8
1
  6
CONTINUOUS
 10
6892.8188072624353
 20
4554.2420570000004
 30
0.0
 11
6992.8188072624353
 21
4554.2420570000004
 31
0.0
  0
LINE
  5
7ADF
  8
1
  6
CONTINUOUS
 10
6892.8188072624353
 20
4554.2420570000004
 30
0.0
 11
6892.8188072624353
 21
5110.2420570000004
 31
0.0
  0
LINE
  5
7AE0
  8
1
  6
CONTINUOUS
 10
6992.8188072624353
 20
4554.2420570000004
 30
0.0
 11
6992.8188072624353
 21
5110.2420570000004
 31
0.0
  0
LINE
  5
7AE1
  8
1
  6
CONTINUOUS
 10
6822.8188072624353
 20
5210.2420570000013
 30
0.0
 11
7062.8188072624343
 21
5210.2420570000013
 31
0.0
  0
LINE
  5
7AE2
  8
1
  6
CONTINUOUS
 10
8137.8188072624343
 20
4057.242056999999
 30
0.0
 11
8137.8188072624343
 21
6166.2420570000004
 31
0.0
  0
LINE
  5
7AE3
  8
1
  6
CONTINUOUS
 10
8240.8188072624325
 20
4157.2420570000004
 30
0.0
 11
8240.8188072624325
 21
5507.2420570000004
 31
0.0
  0
LINE
  5
7AE4
  8
1
  6
CONTINUOUS
 10
8215.8188072624343
 20
3907.242056999999
 30
0.0
 11
8215.8188072624343
 21
4057.242056999999
 31
0.0
  0
LINE
  5
7AE5
  8
1
  6
CONTINUOUS
 10
8137.8188072624343
 20
4207.2420570000013
 30
0.0
 11
8240.8188072624325
 21
4207.2420570000013
 31
0.0
  0
LINE
  5
7AE6
  8
1
  6
CONTINUOUS
 10
8215.8188072624343
 20
3813.2420569999999
 30
0.0
 11
8215.8188072624343
 21
3888.2420569999999
 31
0.0
  0
LINE
  5
7AE7
  8
1
  6
CONTINUOUS
 10
8137.8188072624343
 20
5457.2420570000013
 30
0.0
 11
8240.8188072624325
 21
5457.2420570000013
 31
0.0
  0
DIMENSION
  5
7AFB
  8
3
  6
CONTINUOUS
  2
*D1
 10
3722.1591939999989
 20
3465.1825800000001
 30
0.0
 11
2834.2004219999999
 21
3465.1825800000001
 31
0.0
 70
   128
 13
1922.1591939999989
 23
3813.2420569999999
 33
0.0
 14
3722.1591939999989
 24
3680.6391180000001
 34
0.0
1001
ACAD
1000
DSTYLE
1002
{
1070
   287
1070
     3
1070
   287
1070
     3
1070
    40
1040
45.0
1070
   143
1040
0.039
1070
   172
1070
     1
1070
   271
1070
     0
1070
   279
1070
     0
1070
   288
1070
     1
1002
}
  0
DIMENSION
  5
7B07
  8
3
  6
CONTINUOUS
  2
*D2
 10
4472.1591939999989
 20
3465.1825800000001
 30
0.0
 11
4097.1591939999989
 21
3577.6825799999988
 31
0.0
 70
     0
 13
3722.1591939999989
 23
3680.6391180000001
 33
0.0
 14
4472.1591939999989
 24
3813.2420569999999
 34
0.0
1001
ACAD
1000
DSTYLE
1002
{
1070
   287
1070
     4
1070
   287
1070
     4
1070
    40
1040
45.0
1070
    75
1070
     1
1070
   143
1040
0.039
1070
   172
1070
     1
1070
   271
1070
     0
1070
   279
1070
     1
1070
   288
1070
     1
1002
}
  0
DIMENSION
  5
7B14
  8
3
  6
CONTINUOUS
  2
*D3
 10
4951.9059079999997
 20
4886.2420570000004
 30
0.0
 11
4951.9059079999997
 21
5530.7806149999997
 31
0.0
 70
   128
 13
4547.1591939999989
 23
6166.2420570000004
 33
0.0
 14
4547.1591939999989
 24
4886.2420570000004
 34
0.0
 50
90.0
1001
ACAD
1000
DSTYLE
1002
{
1070
   287
1070
     3
1070
   287
1070
     3
1070
    40
1040
45.0
1070
   143
1040
0.039
1070
   172
1070
     1
1070
   271
1070
     0
1070
   279
1070
     0
1070
   288
1070
     1
1002
}
  0
DIMENSION
  5
7B21
  8
3
  6
CONTINUOUS
  2
*D4
 10
5298.8338009999998
 20
4832.2420570000013
 30
0.0
 11
5298.8338009999998
 21
5530.7806149999997
 31
0.0
 70
   128
 13
4547.1591939999989
 23
6166.2420570000004
 33
0.0
 14
4463.6641090000003
 24
4832.2420570000013
 34
0.0
 50
90.0
1001
ACAD
1000
DSTYLE
1002
{
1070
   287
1070
     3
1070
   287
1070
     3
1070
    40
1040
45.0
1070
   143
1040
0.039
1070
   172
1070
     1
1070
   271
1070
     0
1070
   279
1070
     0
1070
   288
1070
     1
1002
}
  0
DIMENSION
  5
7B2D
  8
3
  6
CONTINUOUS
  2
*D5
 10
5298.8338009999998
 20
3907.242056999999
 30
0.0
 11
5186.3338009999989
 21
4369.7420570000013
 31
0.0
 70
     0
 13
4463.6641090000003
 23
4832.2420570000013
 33
0.0
 14
4472.1591939999989
 24
3907.242056999999
 34
0.0
 50
90.0
1001
ACAD
1000
DSTYLE
1002
{
1070
   287
1070
     4
1070
   287
1070
     4
1070
    40
1040
45.0
1070
    75
1070
     1
1070
   143
1040
0.039
1070
   172
1070
     1
1070
   271
1070
     0
1070
   279
1070
     1
1070
   288
1070
     1
1002
}
  0
DIMENSION
  5
7B3D
  8
3
  6
CONTINUOUS
  2
*D6
 10
5298.8338009999998
 20
3813.242056999999
 30
0.0
 11
5298.8338009999998
 21
3475.7420570000008
 31
0.0
 70
   128
 13
4472.1591939999989
 23
3907.242056999999
 33
0.0
 14
4472.1591939999989
 24
3813.2420569999999
 34
0.0
 50
90.0
1001
ACAD
1000
DSTYLE
1002
{
1070
   287
1070
     3
1070
   287
1070
     3
1070
    40
1040
45.0
1070
   143
1040
0.039
1070
   172
1070
     1
1070
   271
1070
     0
1070
   279
1070
     0
1070
   288
1070
     1
1002
}
  0
DIMENSION
  5
7B64
  8
3
  6
CONTINUOUS
  2
*D7
 10
5609.6233549999997
 20
3813.242056999999
 30
0.0
 11
5609.6233549999997
 21
5018.170607
 31
0.0
 70
   128
 13
4547.1591939999989
 23
6222.2420570000004
 33
0.0
 14
4472.1591939999989
 24
3813.2420569999999
 34
0.0
 50
90.0
1001
ACAD
1000
DSTYLE
1002
{
1070
   287
1070
     3
1070
   287
1070
     3
1070
    40
1040
45.0
1070
   143
1040
0.039
1070
   172
1070
     1
1070
   271
1070
     0
1070
   279
1070
     0
1070
   288
1070
     1
1002
}
  0
DIMENSION
  5
7B71
  8
3
  6
CONTINUOUS
  2
*D8
 10
3722.1591939999989
 20
6311.2436820000003
 30
0.0
 11
4135.1799149999997
 21
6311.2436820000003
 31
0.0
 70
   128
 13
4547.1591939999989
 23
6222.2420570000004
 33
0.0
 14
3722.1591939999989
 24
6093.2420570000013
 34
0.0
1001
ACAD
1000
DSTYLE
1002
{
1070
   287
1070
     3
1070
   287
1070
     3
1070
    40
1040
45.0
1070
   143
1040
0.039
1070
   172
1070
     1
1070
   271
1070
     0
1070
   279
1070
     0
1070
   288
1070
     1
1002
}
  0
DIMENSION
  5
7B7D
  8
3
  6
CONTINUOUS
  2
*D9
 10
2643.1591939999998
 20
6311.2436820000003
 30
0.0
 11
3182.6591939999998
 21
6423.7436820000003
 31
0.0
 70
     0
 13
3722.1591939999989
 23
6093.2420570000013
 33
0.0
 14
2643.1591939999998
 24
4832.2420570000013
 34
0.0
1001
ACAD
1000
DSTYLE
1002
{
1070
   287
1070
     4
1070
   287
1070
     4
1070
    40
1040
45.0
1070
    75
1070
     1
1070
   143
1040
0.039
1070
   172
1070
     1
1070
   271
1070
     0
1070
   279
1070
     1
1070
   288
1070
     1
1002
}
  0
LINE
  5
7B7E
  8
2
  6
CENTER
 10
3722.1591939999989
 20
8540.4654278291073
 30
0.0
 11
3722.1591939999989
 21
10164.565327829099
 31
0.0
  0
DIMENSION
  5
7B8B
  8
3
  6
CONTINUOUS
  2
*D10
 10
4894.0846280000014
 20
8741.1030788291064
 30
0.0
 11
4894.0846280000014
 21
9494.2051298291062
 31
0.0
 70
   128
 13
4472.1591939999989
 23
10021.103078829099
 33
0.0
 14
4472.1591939999989
 24
8741.1030788291064
 34
0.0
 50
90.0
1001
ACAD
1000
DSTYLE
1002
{
1070
   287
1070
     3
1070
   287
1070
     3
1070
    40
1040
45.0
1070
   143
1040
0.039
1070
   172
1070
     1
1070
   271
1070
     0
1070
   279
1070
     0
1070
   288
1070
     1
1002
}
  0
DIMENSION
  5
7BA5
  8
3
  6
CONTINUOUS
  2
*D11
 10
4472.1591939999989
 20
8218.0886078291078
 30
0.0
 11
3354.410343
 21
8218.0886078291078
 31
0.0
 70
   128
 13
1922.1591939999989
 23
8741.1030788291064
 33
0.0
 14
4472.1591939999989
 24
8741.1030788291064
 34
0.0
1001
ACAD
1000
DSTYLE
1002
{
1070
   287
1070
     3
1070
   287
1070
     3
1070
    40
1040
45.0
1070
   143
1040
0.039
1070
   172
1070
     1
1070
   271
1070
     0
1070
   279
1070
     0
1070
   288
1070
     1
1002
}
  0
LINE
  5
7BA6
  8
2
  6
CENTER
 10
2493.3515090000001
 20
9468.1030788291064
 30
0.0
 11
4648.9365820000003
 21
9468.1030788291064
 31
0.0
  0
LINE
  5
7BA7
  8
2
  6
CENTER
 10
7662.8188072624343
 20
6336.415524
 30
0.0
 11
7662.8188072624343
 21
3647.9458579999991
 31
0.0
  0
DIMENSION
  5
7BB4
  8
3
  6
CONTINUOUS
  2
*D12
 10
7662.8188072624343
 20
3501.8296789999999
 30
0.0
 11
7244.3902352624355
 21
3501.8296789999999
 31
0.0
 70
   128
 13
6935.8188072624343
 23
3813.2420569999999
 33
0.0
 14
7662.8188072624343
 24
3647.9458579999991
 34
0.0
1001
ACAD
1000
DSTYLE
1002
{
1070
   287
1070
     3
1070
   287
1070
     3
1070
    40
1040
45.0
1070
   143
1040
0.039
1070
   172
1070
     1
1070
   271
1070
     0
1070
   279
1070
     0
1070
   288
1070
     1
1002
}
  0
DIMENSION
  5
7BC2
  8
3
  6
CONTINUOUS
  2
*D13
 10
8215.8188072624343
 20
3501.8296789999999
 30
0.0
 11
7910.3851312624338
 21
3501.10284
 31
0.0
 70
   128
 13
7662.8188072624343
 23
3647.9458579999991
 33
0.0
 14
8215.8188072624343
 24
3813.2420569999999
 34
0.0
1001
ACAD
1000
DSTYLE
1002
{
1070
   287
1070
     4
1070
   287
1070
     4
1070
    40
1040
45.0
1070
    75
1070
     1
1070
   143
1040
0.039
1070
   172
1070
     1
1070
   271
1070
     0
1070
   279
1070
     1
1070
   288
1070
     1
1002
}
  0
DIMENSION
  5
7BE5
  8
3
  6
CONTINUOUS
  2
*D14
 10
8137.8188072624343
 20
6323.3260020000007
 30
0.0
 11
7610.5230952624343
 21
6323.3260020000007
 31
0.0
 70
   128
 13
7187.8188072624343
 23
6166.2420570000004
 33
0.0
 14
8137.8188072624343
 24
6166.2420570000004
 34
0.0
1001
ACAD
1000
DSTYLE
1002
{
1070
   287
1070
     3
1070
   287
1070
     3
1070
    40
1040
45.0
1070
   143
1040
0.039
1070
   172
1070
     1
1070
   271
1070
     0
1070
   279
1070
     0
1070
   288
1070
     1
1002
}
  0
DIMENSION
  5
7BF2
  8
3
  6
CONTINUOUS
  2
*D15
 10
7662.8188072624343
 20
6676.216276796823
 30
0.0
 11
7237.5240192624333
 21
6676.216276796823
 31
0.0
 70
   128
  1
MAX\P890
 13
6822.8188072624353
 23
5210.2420570000013
 33
0.0
 14
7662.8188072624343
 24
6530.4386599999998
 34
0.0
1001
ACAD
1000
DSTYLE
1002
{
1070
   287
1070
     3
1070
   287
1070
     3
1070
    40
1040
45.0
1070
   143
1040
0.039
1070
   172
1070
     1
1070
   271
1070
     0
1070
   279
1070
     0
1070
   288
1070
     1
1002
}
  0
DIMENSION
  5
7C00
  8
3
  6
CONTINUOUS
  2
*D16
 10
8240.8188072624325
 20
6676.216276796823
 30
0.0
 11
7925.0125182624342
 21
6689.3237903591653
 31
0.0
 70
   128
 13
7662.8188072624343
 23
6530.4386599999998
 33
0.0
 14
8240.8188072624325
 24
5507.2420570000004
 34
0.0
1001
ACAD
1000
DSTYLE
1002
{
1070
   287
1070
     4
1070
   287
1070
     4
1070
    40
1040
45.0
1070
    75
1070
     1
1070
   143
1040
0.039
1070
   172
1070
     1
1070
   271
1070
     0
1070
   279
1070
     1
1070
   288
1070
     1
1002
}
  0
DIMENSION
  5
7C23
  8
3
  6
CONTINUOUS
  2
*D17
 10
8627.1284572624354
 20
4207.2420570000013
 30
0.0
 11
8627.1284572624336
 21
4846.8256160000001
 31
0.0
 70
   128
 13
8240.8188072624325
 23
5457.2420570000013
 33
0.0
 14
8240.8188072624325
 24
4207.2420570000013
 34
0.0
 50
90.0
1001
ACAD
1000
DSTYLE
1002
{
1070
   287
1070
     3
1070
   287
1070
     3
1070
     3
1000
φ<>
1070
    40
1040
45.0
1070
   143
1040
0.039
1070
   172
1070
     1
1070
   271
1070
     0
1070
   279
1070
     0
1070
   288
1070
     1
1002
}
  0
LINE
  5
7C24
  8
2
  6
CENTER
 10
6732.1479432624337
 20
4832.2420570000013
 30
0.0
 11
8364.9677922624342
 21
4832.2420570000013
 31
0.0
  0
LINE
  5
7C25
  8
4
  6
CONTINUOUS
 10
9250.0
 20
2500.0
 30
0.0
 11
9250.0
 21
1500.0
 31
0.0
  0
LINE
  5
7C26
  8
4
  6
CONTINUOUS
 10
5750.0
 20
2500.0
 30
0.0
 11
5750.0
 21
1500.0
 31
0.0
  0
LINE
  5
7C27
  8
4
  6
CONTINUOUS
 10
3250.0
 20
2500.0
 30
0.0
 11
3250.0
 21
1500.0
 31
0.0
  0
LINE
  5
7C2A
  8
4
  6
CONTINUOUS
 10
3250.0
 20
1500.0
 30
0.0
 11
9250.0
 21
1500.0
 31
0.0
  0
LINE
  5
7C2B
  8
4
  6
CONTINUOUS
 10
3250.0
 20
2000.0
 30
0.0
 11
9250.0
 21
2000.0
 31
0.0
  0
TEXT
  5
7C2C
  8
4
  6
CONTINUOUS
 10
3442.5104040000001
 20
2157.7151289999988
 30
0.0
 40
250.0
  1
機器名称
  0
TEXT
  5
7C2D
  8
4
  6
CONTINUOUS
 10
3431.2905300000002
 20
1608.225782999999
 30
0.0
 40
250.0
  1
機器型番
  0
TEXT
  5
7C2E
  8
4
  6
CONTINUOUS
 10
5888.393728
 20
2112.8588439999999
 30
0.0
 40
211.11111099999991
  1
ミツヤリミットロードファン
  0
TEXT
  5
7C2F
  8
4
  6
CONTINUOUS
 10
5933.2724779999999
 20
1585.7979210000001
 30
0.0
 40
250.0
  1
LLE#8-4
  0
TEXT
  5
7C31
  8
4
  6
CONTINUOUS
 10
3613.2762670000002
 20
11917.14420699999
 30
0.0
 40
270.0
  1
床置防振ベット
  0
TEXT
  5
7C32
  8
4
  6
CONTINUOUS
 10
1580.837966999999
 20
12669.404881
 30
0.0
 40
300.0
  1
ベルト駆動式片吸込両持排煙ファン
  0
LINE
  5
7C33
  8
4
  6
CONTINUOUS
 10
1250.0
 20
12347.04377099999
 30
0.0
 11
9250.0
 21
12347.04377099999
 31
0.0
  0
LINE
  5
7C34
  8
4
  6
CONTINUOUS
 10
1250.0
 20
13347.043771000001
 30
0.0
 11
9250.0
 21
13347.043771000001
 31
0.0
  0
LINE
  5
7C35
  8
4
  6
CONTINUOUS
 10
3250.0
 20
2500.0
 30
0.0
 11
9250.0
 21
2500.0
 31
0.0
  0
LINE
  5
7C36
  8
4
  6
CONTINUOUS
 10
1250.0
 20
13347.043771000001
 30
0.0
 11
1250.0
 21
12347.04377099999
 31
0.0
  0
TEXT
  5
7C37
  8
4
  6
CONTINUOUS
 10
1433.9821059999999
 20
11911.597388
 30
0.0
 40
270.0
  1
右回転右横向
  0
TEXT
  5
7C38
  8
4
  6
CONTINUOUS
 10
7344.8477969999994
 20
13530.305408
 30
0.0
 40
280.0
  1
No.
  0
TEXT
  5
7C39
  8
4
  6
CONTINUOUS
 10
6556.480313
 20
11917.14420699999
 30
0.0
 40
270.0
  1
縮尺：1/50
  0
LINE
  5
7C3A
  8
4
  6
CONTINUOUS
 10
9250.0
 20
13347.043771000001
 30
0.0
 11
9250.0
 21
12347.04377099999
 31
0.0
  0
LINE
  5
7C3C
  8
4
  6
CONTINUOUS
 10
7203.0871120000002
 20
13406.317916
 30
0.0
 11
7203.0871120000002
 21
13933.261307999999
 31
0.0
  0
LINE
  5
7C3D
  8
4
  6
CONTINUOUS
 10
7203.0871120000002
 20
13933.261307999999
 30
0.0
 11
9250.0
 21
13933.261307999999
 31
0.0
  0
LINE
  5
7C3E
  8
4
  6
CONTINUOUS
 10
9250.0
 20
13933.261307999999
 30
0.0
 11
9250.0
 21
13406.317916
 31
0.0
  0
LINE
  5
7C3F
  8
4
  6
CONTINUOUS
 10
9250.0
 20
13406.317916
 30
0.0
 11
7203.0871120000002
 21
13406.317916
 31
0.0
  0
DIMENSION
  5
7CCF
  8
3
  2
*D18
 10
1922.1591939999989
 20
6618.1792601350608
 30
0.0
 11
3353.8961536846909
 21
6618.1792601350608
 31
0.0
 70
   128
 13
4547.1591939999989
 23
6222.2420570000004
 33
0.0
 14
1922.1591939999989
 24
4057.242056999999
 34
0.0
1001
ACAD
1000
DSTYLE
1002
{
1070
   287
1070
     3
1070
   287
1070
     3
1070
    40
1040
45.0
1070
   143
1040
0.039
1070
   172
1070
     1
1070
   271
1070
     0
1070
   279
1070
     0
1070
   288
1070
     1
1002
}
  0
ENDSEC
  0
EOF
