  0
SECTION
  2
HEADER
  9
$ACADVER
  1
AC1009
  9
$INSBASE
 10
0.0
 20
0.0
 30
0.0
  9
$EXTMIN
 10
1250.0
 20
1500.0
 30
0.0
  9
$EXTMAX
 10
9450.0
 20
13933.261307999999
 30
0.0
  9
$LIMMIN
 10
0.0
 20
0.0
  9
$LIMMAX
 10
297.0
 20
210.0
  9
$ORTHOMODE
 70
     0
  9
$REGENMODE
 70
     1
  9
$FILLMODE
 70
     0
  9
$QTEXTMODE
 70
     0
  9
$MIRRTEXT
 70
     1
  9
$DRAGMODE
 70
     2
  9
$LTSCALE
 40
100.0
  9
$OSMODE
 70
    37
  9
$ATTMODE
 70
     1
  9
$TEXTSIZE
 40
180.0
  9
$TRACEWID
 40
0.05
  9
$TEXTSTYLE
  7
STANDARD
  9
$CLAYER
  8
3
  9
$CELTYPE
  6
BYLAYER
  9
$CECOLOR
 62
   256
  9
$DIMSCALE
 40
45.0
  9
$DIMASZ
 40
2.0
  9
$DIMEXO
 40
0.5
  9
$DIMDLI
 40
10.0
  9
$DIMRND
 40
0.0
  9
$DIMDLE
 40
0.0
  9
$DIMEXE
 40
1.0
  9
$DIMTP
 40
1.0
  9
$DIMTM
 40
1.0
  9
$DIMTXT
 40
3.0
  9
$DIMCEN
 40
0.0
  9
$DIMTSZ
 40
0.0
  9
$DIMTOL
 70
     0
  9
$DIMLIM
 70
     0
  9
$DIMTIH
 70
     0
  9
$DIMTOH
 70
     0
  9
$DIMSE1
 70
     0
  9
$DIMSE2
 70
     0
  9
$DIMTAD
 70
     1
  9
$DIMZIN
 70
     8
  9
$DIMBLK
  1

  9
$DIMASO
 70
     1
  9
$DIMSHO
 70
     1
  9
$DIMPOST
  1

  9
$DIMAPOST
  1

  9
$DIMALT
 70
     0
  9
$DIMALTD
 70
     2
  9
$DIMALTF
 40
0.039
  9
$DIMLFAC
 40
1.0
  9
$DIMTOFL
 70
     1
  9
$DIMTVP
 40
0.0
  9
$DIMTIX
 70
     0
  9
$DIMSOXD
 70
     0
  9
$DIMSAH
 70
     1
  9
$DIMBLK1
  1
OPEN
  9
$DIMBLK2
  1
OPEN
  9
$DIMSTYLE
  2
IGA
  9
$DIMCLRD
 70
     0
  9
$DIMCLRE
 70
     0
  9
$DIMCLRT
 70
     0
  9
$DIMTFAC
 40
10.0
  9
$DIMGAP
 40
1.0
  9
$LUNITS
 70
     2
  9
$LUPREC
 70
     3
  9
$SKETCHINC
 40
0.1
  9
$FILLETRAD
 40
50.0
  9
$AUNITS
 70
     0
  9
$AUPREC
 70
     0
  9
$MENU
  1
acad
  9
$ELEVATION
 40
0.0
  9
$PELEVATION
 40
0.0
  9
$THICKNESS
 40
0.0
  9
$LIMCHECK
 70
     0
  9
$BLIPMODE
 70
     0
  9
$CHAMFERA
 40
0.5
  9
$CHAMFERB
 40
0.5
  9
$SKPOLY
 70
     0
  9
$TDCREATE
 40
2450750.5751219909
  9
$TDUPDATE
 40
2454953.6886107409
  9
$TDINDWG
 40
0.0064456944
  9
$TDUSRTIMER
 40
0.0064456944
  9
$USRTIMER
 70
     1
  9
$ANGBASE
 50
0.0
  9
$ANGDIR
 70
     0
  9
$PDMODE
 70
     0
  9
$PDSIZE
 40
0.0
  9
$PLINEWID
 40
0.0
  9
$COORDS
 70
     1
  9
$SPLFRAME
 70
     0
  9
$SPLINETYPE
 70
     6
  9
$SPLINESEGS
 70
     8
  9
$ATTDIA
 70
     0
  9
$ATTREQ
 70
     1
  9
$HANDLING
 70
 10241
  9
$HANDSEED
  5
7F35
  9
$SURFTAB1
 70
     6
  9
$SURFTAB2
 70
     6
  9
$SURFTYPE
 70
     6
  9
$SURFU
 70
     6
  9
$SURFV
 70
     6
  9
$UCSNAME
  2

  9
$UCSORG
 10
0.0
 20
0.0
 30
0.0
  9
$UCSXDIR
 10
1.0
 20
0.0
 30
0.0
  9
$UCSYDIR
 10
0.0
 20
1.0
 30
0.0
  9
$PUCSNAME
  2

  9
$PUCSORG
 10
0.0
 20
0.0
 30
0.0
  9
$PUCSXDIR
 10
1.0
 20
0.0
 30
0.0
  9
$PUCSYDIR
 10
0.0
 20
1.0
 30
0.0
  9
$USERI1
 70
     0
  9
$USERI2
 70
     0
  9
$USERI3
 70
     0
  9
$USERI4
 70
     0
  9
$USERI5
 70
     0
  9
$USERR1
 40
0.0
  9
$USERR2
 40
0.0
  9
$USERR3
 40
0.0
  9
$USERR4
 40
0.0
  9
$USERR5
 40
0.0
  9
$WORLDVIEW
 70
     1
  9
$SHADEDGE
 70
     3
  9
$SHADEDIF
 70
    70
  9
$TILEMODE
 70
     1
  9
$MAXACTVP
 70
    16
  9
$PLIMCHECK
 70
     0
  9
$PEXTMIN
 10
1.0000000000000000E+020
 20
1.0000000000000000E+020
 30
1.0000000000000000E+020
  9
$PEXTMAX
 10
-1.0000000000000000E+020
 20
-1.0000000000000000E+020
 30
-1.0000000000000000E+020
  9
$PLIMMIN
 10
0.0
 20
0.0
  9
$PLIMMAX
 10
12.0
 20
9.0
  9
$UNITMODE
 70
     0
  9
$VISRETAIN
 70
     0
  9
$PLINEGEN
 70
     0
  9
$PSLTSCALE
 70
     1
  0
ENDSEC
  0
SECTION
  2
TABLES
  0
TABLE
  2
VPORT
 70
     2
  0
VPORT
  2
*ACTIVE
 70
     0
 10
0.0
 20
0.0
 11
1.0
 21
1.0
 12
24926.412533046219
 22
6260.6854819410401
 13
0.0
 23
0.0
 14
10.0
 24
10.0
 15
10.0
 25
10.0
 16
0.0
 26
0.0
 36
1.0
 17
0.0
 27
0.0
 37
0.0
 40
19073.721707107499
 41
3.1666666666666661
 42
50.0
 43
0.0
 44
0.0
 50
0.0
 51
0.0
 71
     0
 72
   100
 73
     1
 74
     0
 75
     0
 76
     0
 77
     0
 78
     0
  0
ENDTAB
  0
TABLE
  2
LTYPE
 70
     2
  0
LTYPE
  2
CONTINUOUS
 70
     0
  3
Solid line
 72
    65
 73
     0
 40
0.0
  0
LTYPE
  2
CENTER
 70
     0
  3
____ _ ____ _ ____ _ ____ _ ____ _ ____ _ ____ 
 72
    65
 73
     4
 40
2.0
 49
1.25
 49
-0.25
 49
0.25
 49
-0.25
  0
ENDTAB
  0
TABLE
  2
LAYER
 70
     6
  0
LAYER
  2
0
 70
     0
 62
     7
  6
CONTINUOUS
  0
LAYER
  2
3
 70
     0
 62
     2
  6
CONTINUOUS
  0
LAYER
  2
2
 70
     0
 62
     3
  6
CENTER
  0
LAYER
  2
1
 70
     0
 62
     4
  6
CONTINUOUS
  0
LAYER
  2
4
 70
     0
 62
     7
  6
CONTINUOUS
  0
LAYER
  2
DEFPOINTS
 70
     0
 62
     7
  6
CONTINUOUS
  0
ENDTAB
  0
TABLE
  2
STYLE
 70
     1
  0
STYLE
  2
STANDARD
 70
     0
 40
0.0
 41
1.0
 50
0.0
 71
     0
 42
180.0
  3
simplex.shx
  4
extfont.shx
  0
ENDTAB
  0
TABLE
  2
VIEW
 70
     0
  0
ENDTAB
  0
TABLE
  2
UCS
 70
     0
  0
ENDTAB
  0
TABLE
  2
APPID
 70
     1
  0
APPID
  2
ACAD
 70
     0
  0
ENDTAB
  0
TABLE
  2
DIMSTYLE
 70
     1
  0
DIMSTYLE
  2
IGA
 70
     0
  3

  4

  5

  6
OPEN
  7
OPEN
 40
2.0
 41
2.0
 42
0.5
 43
10.0
 44
1.0
 45
0.0
 46
0.0
 47
1.0
 48
1.0
140
3.0
141
0.0
142
0.0
143
0.03937
144
1.0
145
0.0
146
10.0
147
1.0
 71
     0
 72
     0
 73
     0
 74
     0
 75
     0
 76
     0
 77
     1
 78
     8
170
     0
171
     2
172
     0
173
     1
174
     0
175
     0
176
     0
177
     0
178
     0
  0
ENDTAB
  0
ENDSEC
  0
SECTION
  2
BLOCKS
  0
BLOCK
  8
0
  2
$MODEL_SPACE
 70
     0
 10
0.0
 20
0.0
 30
0.0
  3
$MODEL_SPACE
  1

  0
ENDBLK
  5
1B
  8
0
  0
BLOCK
 67
     1
  8
0
  2
$PAPER_SPACE
 70
     0
 10
0.0
 20
0.0
 30
0.0
  3
$PAPER_SPACE
  1

  0
ENDBLK
  5
18
 67
     1
  8
0
  0
BLOCK
  8
0
  2
_OPEN
 70
     0
 10
0.0
 20
0.0
 30
0.0
  3
_OPEN
  1

  0
LINE
  5
7AEC
  8
0
  6
BYBLOCK
 62
     0
 10
-1.0
 20
0.166667
 30
0.0
 11
0.0
 21
0.0
 31
0.0
  0
LINE
  5
7AED
  8
0
  6
BYBLOCK
 62
     0
 10
0.0
 20
0.0
 30
0.0
 11
-1.0
 21
-0.166667
 31
0.0
  0
LINE
  5
7AEE
  8
0
  6
BYBLOCK
 62
     0
 10
0.0
 20
0.0
 30
0.0
 11
-1.0
 21
0.0
 31
0.0
  0
ENDBLK
  5
7AEF
  8
0
  0
BLOCK
  8
0
  2
*D1
 70
     1
 10
0.0
 20
0.0
 30
0.0
  3
*D1
  1

  0
LINE
  5
7E79
  8
3
  6
CONTINUOUS
 62
     0
 10
1977.7844955096559
 20
3836.6321799999992
 30
0.0
 11
1977.7844955096559
 21
3380.4616449999999
 31
0.0
  0
LINE
  5
7E7A
  8
3
  6
CONTINUOUS
 62
     0
 10
3777.7844955096562
 20
3737.3317659999998
 30
0.0
 11
3777.7844955096562
 21
3380.4616449999999
 31
0.0
  0
LINE
  5
7E7B
  8
3
  6
CONTINUOUS
 62
     0
 10
2067.7844955096562
 20
3425.4616449999999
 30
0.0
 11
3687.7844955096571
 21
3425.4616449999999
 31
0.0
  0
INSERT
  5
7E7C
  8
3
  6
CONTINUOUS
 62
     0
  2
_OPEN
 10
1977.7844955096559
 20
3425.4616449999999
 30
0.0
 41
90.0
 42
90.0
 43
90.0
 50
180.0
  0
INSERT
  5
7E7D
  8
3
  6
CONTINUOUS
 62
     0
  2
_OPEN
 10
3777.7844955096562
 20
3425.4616449999999
 30
0.0
 41
90.0
 42
90.0
 43
90.0
  0
TEXT
  8
3
  40
135
  5
7F21
  62
0
  72
0
  71
0
 10
2661.70
 20
3299.01
 30
0.000000
  1
1800
  0
POINT
  5
7E7F
  8
DEFPOINTS
  6
CONTINUOUS
 62
     0
 10
1977.7844955096559
 20
3859.1321799999992
 30
0.0
  0
POINT
  5
7E80
  8
DEFPOINTS
  6
CONTINUOUS
 62
     0
 10
3777.7844955096562
 20
3759.8317659999998
 30
0.0
  0
POINT
  5
7E81
  8
DEFPOINTS
  6
CONTINUOUS
 62
     0
 10
3777.7844955096562
 20
3425.4616449999999
 30
0.0
  0
ENDBLK
  5
7CE7
  8
0
  0
BLOCK
  8
0
  2
*D2
 70
     1
 10
0.0
 20
0.0
 30
0.0
  3
*D2
  1

  0
LINE
  5
7E82
  8
3
  6
CONTINUOUS
 62
     0
 10
4527.7844955096562
 20
3836.6321799999992
 30
0.0
 11
4527.7844955096562
 21
3380.4616449999999
 31
0.0
  0
LINE
  5
7E83
  8
3
  6
CONTINUOUS
 62
     0
 10
3867.7844955096562
 20
3425.4616449999999
 30
0.0
 11
4437.7844955096571
 21
3425.4616449999999
 31
0.0
  0
INSERT
  5
7E84
  8
3
  6
CONTINUOUS
 62
     0
  2
_OPEN
 10
3777.7844955096562
 20
3425.4616449999999
 30
0.0
 41
90.0
 42
90.0
 43
90.0
 50
180.0
  0
INSERT
  5
7E85
  8
3
  6
CONTINUOUS
 62
     0
  2
_OPEN
 10
4527.7844955096562
 20
3425.4616449999999
 30
0.0
 41
90.0
 42
90.0
 43
90.0
  0
TEXT
  8
3
  40
135
  5
7F22
  62
0
  72
0
  71
0
 10
3882.78
 20
3299.01
 30
0.000000
  1
750
  0
POINT
  5
7E87
  8
DEFPOINTS
  6
CONTINUOUS
 62
     0
 10
3777.7844955096562
 20
3759.8317659999998
 30
0.0
  0
POINT
  5
7E88
  8
DEFPOINTS
  6
CONTINUOUS
 62
     0
 10
4527.7844955096562
 20
3859.1321799999992
 30
0.0
  0
POINT
  5
7E89
  8
DEFPOINTS
  6
CONTINUOUS
 62
     0
 10
4527.7844955096562
 20
3425.4616449999999
 30
0.0
  0
ENDBLK
  5
7B08
  8
0
  0
BLOCK
  8
0
  2
*D3
 70
     1
 10
0.0
 20
0.0
 30
0.0
  3
*D3
  1

  0
LINE
  5
7E8A
  8
3
  6
CONTINUOUS
 62
     0
 10
4625.2844955096571
 20
5449.1321799999987
 30
0.0
 11
5093.0271125096579
 21
5449.1321799999987
 31
0.0
  0
LINE
  5
7E8B
  8
3
  6
CONTINUOUS
 62
     0
 10
4625.2844955096571
 20
4169.1321799999996
 30
0.0
 11
5093.0271125096579
 21
4169.1321799999996
 31
0.0
  0
LINE
  5
7E8C
  8
3
  6
CONTINUOUS
 62
     0
 10
5048.0271125096569
 20
5359.1321799999987
 30
0.0
 11
5048.0271125096569
 21
4259.1321799999987
 31
0.0
  0
INSERT
  5
7E8D
  8
3
  6
CONTINUOUS
 62
     0
  2
_OPEN
 10
5048.0271125096569
 20
5449.1321799999987
 30
0.0
 41
90.0
 42
90.0
 43
90.0
 50
90.0
  0
INSERT
  5
7E8E
  8
3
  6
CONTINUOUS
 62
     0
  2
_OPEN
 10
5048.0271125096569
 20
4169.1321799999996
 30
0.0
 41
90.0
 42
90.0
 43
90.0
 50
270.0
  0
TEXT
  8
3
  40
135
  5
7F23
  62
0
  72
0
  71
0
 10
4665.53
 20
4629.64
 30
0.000000
  1
1280
  0
POINT
  5
7E90
  8
DEFPOINTS
  6
CONTINUOUS
 62
     0
 10
4602.7844955096571
 20
5449.1321799999987
 30
0.0
  0
POINT
  5
7E91
  8
DEFPOINTS
  6
CONTINUOUS
 62
     0
 10
4602.7844955096571
 20
4169.1321799999996
 30
0.0
  0
POINT
  5
7E92
  8
DEFPOINTS
  6
CONTINUOUS
 62
     0
 10
5048.0271125096569
 20
4169.1321799999996
 30
0.0
  0
ENDBLK
  5
7B15
  8
0
  0
BLOCK
  8
0
  2
*D4
 70
     1
 10
0.0
 20
0.0
 30
0.0
  3
*D4
  1

  0
LINE
  5
7E93
  8
3
  6
CONTINUOUS
 62
     0
 10
3791.6268755096571
 20
6400.2407359999988
 30
0.0
 11
5758.3833505096591
 21
6400.2407359999988
 31
0.0
  0
LINE
  5
7E94
  8
3
  6
CONTINUOUS
 62
     0
 10
4541.7894105096566
 20
5503.1321799999996
 30
0.0
 11
5758.3833505096582
 21
5503.1321799999996
 31
0.0
  0
LINE
  5
7E95
  8
3
  6
CONTINUOUS
 62
     0
 10
5713.3833505096582
 20
6310.2407359999997
 30
0.0
 11
5713.3833505096582
 21
5593.1321799999996
 31
0.0
  0
INSERT
  5
7E96
  8
3
  6
CONTINUOUS
 62
     0
  2
_OPEN
 10
5713.3833505096582
 20
6400.2407359999988
 30
0.0
 41
90.0
 42
90.0
 43
90.0
 50
90.0
  0
INSERT
  5
7E97
  8
3
  6
CONTINUOUS
 62
     0
  2
_OPEN
 10
5713.3833505096582
 20
5503.1321799999996
 30
0.0
 41
90.0
 42
90.0
 43
90.0
 50
270.0
  0
TEXT
  8
3
  40
135
  5
7F24
  62
0
  72
0
  71
0
 10
5330.88
 20
5724.35
 30
0.000000
  1
897
  0
POINT
  5
7E99
  8
DEFPOINTS
  6
CONTINUOUS
 62
     0
 10
3769.1268755096571
 20
6400.2407359999988
 30
0.0
  0
POINT
  5
7E9A
  8
DEFPOINTS
  6
CONTINUOUS
 62
     0
 10
4519.2894105096557
 20
5503.1321799999996
 30
0.0
  0
POINT
  5
7E9B
  8
DEFPOINTS
  6
CONTINUOUS
 62
     0
 10
5713.3833505096582
 20
5503.1321799999996
 30
0.0
  0
ENDBLK
  5
7C96
  8
0
  0
BLOCK
  8
0
  2
*D5
 70
     1
 10
0.0
 20
0.0
 30
0.0
  3
*D5
  1

  0
LINE
  5
7E9C
  8
3
  6
CONTINUOUS
 62
     0
 10
4550.2844955096562
 20
3953.1321799999992
 30
0.0
 11
5758.3833505096572
 21
3953.1321799999992
 31
0.0
  0
LINE
  5
7E9D
  8
3
  6
CONTINUOUS
 62
     0
 10
5713.3833505096582
 20
5413.1321799999987
 30
0.0
 11
5713.3833505096582
 21
4043.1321799999992
 31
0.0
  0
INSERT
  5
7E9E
  8
3
  6
CONTINUOUS
 62
     0
  2
_OPEN
 10
5713.3833505096582
 20
5503.1321799999996
 30
0.0
 41
90.0
 42
90.0
 43
90.0
 50
90.0
  0
INSERT
  5
7E9F
  8
3
  6
CONTINUOUS
 62
     0
  2
_OPEN
 10
5713.3833505096582
 20
3953.1321799999992
 30
0.0
 41
90.0
 42
90.0
 43
90.0
 50
270.0
  0
TEXT
  8
3
  40
135
  5
7F25
  62
0
  72
0
  71
0
 10
5330.88
 20
4489.18
 30
0.000000
  1
1550
  0
POINT
  5
7EA1
  8
DEFPOINTS
  6
CONTINUOUS
 62
     0
 10
4519.2894105096557
 20
5503.1321799999996
 30
0.0
  0
POINT
  5
7EA2
  8
DEFPOINTS
  6
CONTINUOUS
 62
     0
 10
4527.7844955096562
 20
3953.1321799999992
 30
0.0
  0
POINT
  5
7EA3
  8
DEFPOINTS
  6
CONTINUOUS
 62
     0
 10
5713.3833505096582
 20
3953.1321799999992
 30
0.0
  0
ENDBLK
  5
7D0E
  8
0
  0
BLOCK
  8
0
  2
*D6
 70
     1
 10
0.0
 20
0.0
 30
0.0
  3
*D6
  1

  0
LINE
  5
7EA4
  8
3
  6
CONTINUOUS
 62
     0
 10
4550.2844955096562
 20
3953.1321799999992
 30
0.0
 11
5758.3833505096582
 21
3953.1321799999992
 31
0.0
  0
LINE
  5
7EA5
  8
3
  6
CONTINUOUS
 62
     0
 10
4550.2844955096562
 20
3859.1321799999992
 30
0.0
 11
5758.3833505096582
 21
3859.1321799999992
 31
0.0
  0
LINE
  5
7EA6
  8
3
  6
CONTINUOUS
 62
     0
 10
5713.3833505096582
 20
4043.1321799999992
 30
0.0
 11
5713.3833505096582
 21
4133.1321799999987
 31
0.0
  0
LINE
  5
7EA7
  8
3
  6
CONTINUOUS
 62
     0
 10
5713.3833505096582
 20
3769.1321799999992
 30
0.0
 11
5713.3833505096582
 21
3364.1321799999992
 31
0.0
  0
LINE
  5
7EA8
  8
3
  6
CONTINUOUS
 62
     0
 10
5713.3833505096582
 20
3953.1321799999992
 30
0.0
 11
5713.3833505096582
 21
3859.1321799999992
 31
0.0
  0
INSERT
  5
7EA9
  8
3
  6
CONTINUOUS
 62
     0
  2
_OPEN
 10
5713.3833505096582
 20
3953.1321799999992
 30
0.0
 41
90.0
 42
90.0
 43
90.0
 50
270.0
  0
INSERT
  5
7EAA
  8
3
  6
CONTINUOUS
 62
     0
  2
_OPEN
 10
5713.3833505096582
 20
3859.1321799999992
 30
0.0
 41
90.0
 42
90.0
 43
90.0
 50
90.0
  0
TEXT
  8
3
  40
135
  5
7F26
  62
0
  72
0
  71
0
 10
5330.88
 20
3282.68
 30
0.000000
  1
94
  0
POINT
  5
7EAC
  8
DEFPOINTS
  6
CONTINUOUS
 62
     0
 10
4527.7844955096562
 20
3953.1321799999992
 30
0.0
  0
POINT
  5
7EAD
  8
DEFPOINTS
  6
CONTINUOUS
 62
     0
 10
4527.7844955096562
 20
3859.1321799999992
 30
0.0
  0
POINT
  5
7EAE
  8
DEFPOINTS
  6
CONTINUOUS
 62
     0
 10
5713.3833505096582
 20
3859.1321799999992
 30
0.0
  0
ENDBLK
  5
7D1B
  8
0
  0
BLOCK
  8
0
  2
*D7
 70
     1
 10
0.0
 20
0.0
 30
0.0
  3
*D7
  1

  0
LINE
  5
7EAF
  8
3
  6
CONTINUOUS
 62
     0
 10
4602.7844955096571
 20
5521.6321799999996
 30
0.0
 11
4602.7844955096571
 21
6610.7313569999997
 31
0.0
  0
LINE
  5
7EB0
  8
3
  6
CONTINUOUS
 62
     0
 10
3777.7844955096562
 20
6421.9732039999999
 30
0.0
 11
3777.7844955096562
 21
6610.7313569999997
 31
0.0
  0
LINE
  5
7EB1
  8
3
  6
CONTINUOUS
 62
     0
 10
4512.7844955096571
 20
6565.7313569999997
 30
0.0
 11
3867.7844955096562
 21
6565.7313569999997
 31
0.0
  0
INSERT
  5
7EB2
  8
3
  6
CONTINUOUS
 62
     0
  2
_OPEN
 10
4602.7844955096571
 20
6565.7313569999997
 30
0.0
 41
90.0
 42
90.0
 43
90.0
  0
INSERT
  5
7EB3
  8
3
  6
CONTINUOUS
 62
     0
  2
_OPEN
 10
3777.7844955096562
 20
6565.7313569999997
 30
0.0
 41
90.0
 42
90.0
 43
90.0
 50
180.0
  0
TEXT
  8
3
  40
135
  5
7F27
  62
0
  72
0
  71
0
 10
3941.86
 20
6439.28
 30
0.000000
  1
825
  0
POINT
  5
7EB5
  8
DEFPOINTS
  6
CONTINUOUS
 62
     0
 10
4602.7844955096571
 20
5499.1321799999996
 30
0.0
  0
POINT
  5
7EB6
  8
DEFPOINTS
  6
CONTINUOUS
 62
     0
 10
3777.7844955096562
 20
6399.4732039999999
 30
0.0
  0
POINT
  5
7EB7
  8
DEFPOINTS
  6
CONTINUOUS
 62
     0
 10
3777.7844955096562
 20
6565.7313569999997
 30
0.0
  0
ENDBLK
  5
7B99
  8
0
  0
BLOCK
  8
0
  2
*D8
 70
     1
 10
0.0
 20
0.0
 30
0.0
  3
*D8
  1

  0
LINE
  5
7EB8
  8
3
  6
CONTINUOUS
 62
     0
 10
2698.7844955096562
 20
5525.6321799999987
 30
0.0
 11
2698.7844955096562
 21
6610.7313569999997
 31
0.0
  0
LINE
  5
7EB9
  8
3
  6
CONTINUOUS
 62
     0
 10
3687.7844955096571
 20
6565.7313569999997
 30
0.0
 11
2788.7844955096571
 21
6565.7313569999997
 31
0.0
  0
INSERT
  5
7EBA
  8
3
  6
CONTINUOUS
 62
     0
  2
_OPEN
 10
3777.7844955096562
 20
6565.7313569999997
 30
0.0
 41
90.0
 42
90.0
 43
90.0
  0
INSERT
  5
7EBB
  8
3
  6
CONTINUOUS
 62
     0
  2
_OPEN
 10
2698.7844955096562
 20
6565.7313569999997
 30
0.0
 41
90.0
 42
90.0
 43
90.0
 50
180.0
  0
TEXT
  8
3
  40
135
  5
7F28
  62
0
  72
0
  71
0
 10
2968.28
 20
6439.28
 30
0.000000
  1
1079
  0
POINT
  5
7EBD
  8
DEFPOINTS
  6
CONTINUOUS
 62
     0
 10
3777.7844955096562
 20
6399.4732039999999
 30
0.0
  0
POINT
  5
7EBE
  8
DEFPOINTS
  6
CONTINUOUS
 62
     0
 10
2698.7844955096562
 20
5503.1321799999996
 30
0.0
  0
POINT
  5
7EBF
  8
DEFPOINTS
  6
CONTINUOUS
 62
     0
 10
2698.7844955096562
 20
6565.7313569999997
 30
0.0
  0
ENDBLK
  5
7D71
  8
0
  0
BLOCK
  8
0
  2
*D9
 70
     1
 10
0.0
 20
0.0
 30
0.0
  3
*D9
  1

  0
LINE
  5
7EC0
  8
3
  6
CONTINUOUS
 62
     0
 10
1977.7844955096559
 20
8910.5158444495537
 30
0.0
 11
1977.7844955096559
 21
8267.2827734495531
 31
0.0
  0
LINE
  5
7EC1
  8
3
  6
CONTINUOUS
 62
     0
 10
4527.7844955096562
 20
8910.5158444495537
 30
0.0
 11
4527.7844955096562
 21
8267.2827734495531
 31
0.0
  0
LINE
  5
7EC2
  8
3
  6
CONTINUOUS
 62
     0
 10
2067.7844955096562
 20
8312.2827734495531
 30
0.0
 11
4437.7844955096571
 21
8312.2827734495531
 31
0.0
  0
INSERT
  5
7EC3
  8
3
  6
CONTINUOUS
 62
     0
  2
_OPEN
 10
1977.7844955096559
 20
8312.2827734495531
 30
0.0
 41
90.0
 42
90.0
 43
90.0
 50
180.0
  0
INSERT
  5
7EC4
  8
3
  6
CONTINUOUS
 62
     0
  2
_OPEN
 10
4527.7844955096562
 20
8312.2827734495531
 30
0.0
 41
90.0
 42
90.0
 43
90.0
  0
TEXT
  8
3
  40
135
  5
7F29
  62
0
  72
0
  71
0
 10
3012.64
 20
8185.83
 30
0.000000
  1
2550
  0
POINT
  5
7EC6
  8
DEFPOINTS
  6
CONTINUOUS
 62
     0
 10
1977.7844955096559
 20
8933.0158444495537
 30
0.0
  0
POINT
  5
7EC7
  8
DEFPOINTS
  6
CONTINUOUS
 62
     0
 10
4527.7844955096562
 20
8933.0158444495537
 30
0.0
  0
POINT
  5
7EC8
  8
DEFPOINTS
  6
CONTINUOUS
 62
     0
 10
4527.7844955096562
 20
8312.2827734495531
 30
0.0
  0
ENDBLK
  5
7CDC
  8
0
  0
BLOCK
  8
0
  2
*D10
 70
     1
 10
0.0
 20
0.0
 30
0.0
  3
*D10
  1

  0
LINE
  5
7EC9
  8
3
  6
CONTINUOUS
 62
     0
 10
4550.2844955096562
 20
10213.01584444955
 30
0.0
 11
5036.8263015096582
 21
10213.01584444955
 31
0.0
  0
LINE
  5
7ECA
  8
3
  6
CONTINUOUS
 62
     0
 10
4550.2844955096562
 20
8933.0158444495537
 30
0.0
 11
5036.8263015096582
 21
8933.0158444495537
 31
0.0
  0
LINE
  5
7ECB
  8
3
  6
CONTINUOUS
 62
     0
 10
4991.8263015096582
 20
10123.01584444955
 30
0.0
 11
4991.8263015096582
 21
9023.0158444495537
 31
0.0
  0
INSERT
  5
7ECC
  8
3
  6
CONTINUOUS
 62
     0
  2
_OPEN
 10
4991.8263015096582
 20
10213.01584444955
 30
0.0
 41
90.0
 42
90.0
 43
90.0
 50
90.0
  0
INSERT
  5
7ECD
  8
3
  6
CONTINUOUS
 62
     0
  2
_OPEN
 10
4991.8263015096582
 20
8933.0158444495537
 30
0.0
 41
90.0
 42
90.0
 43
90.0
 50
270.0
  0
TEXT
  8
3
  40
135
  5
7F2A
  62
0
  72
0
  71
0
 10
4609.33
 20
9344.39
 30
0.000000
  1
1280
  0
POINT
  5
7ECF
  8
DEFPOINTS
  6
CONTINUOUS
 62
     0
 10
4527.7844955096562
 20
10213.01584444955
 30
0.0
  0
POINT
  5
7ED0
  8
DEFPOINTS
  6
CONTINUOUS
 62
     0
 10
4527.7844955096562
 20
8933.0158444495537
 30
0.0
  0
POINT
  5
7ED1
  8
DEFPOINTS
  6
CONTINUOUS
 62
     0
 10
4991.8263015096582
 20
8933.0158444495537
 30
0.0
  0
ENDBLK
  5
7BBF
  8
0
  0
BLOCK
  8
0
  2
*D11
 70
     1
 10
0.0
 20
0.0
 30
0.0
  3
*D11
  1

  0
LINE
  5
7ED2
  8
3
  6
CONTINUOUS
 62
     0
 10
7485.5431757610704
 20
6354.6321799999987
 30
0.0
 11
7485.5431757610704
 21
6585.6146190000009
 31
0.0
  0
LINE
  5
7ED3
  8
3
  6
CONTINUOUS
 62
     0
 10
8435.5431757610695
 20
6354.6321799999987
 30
0.0
 11
8435.5431757610695
 21
6585.6146190000009
 31
0.0
  0
LINE
  5
7ED4
  8
3
  6
CONTINUOUS
 62
     0
 10
7575.5431757610686
 20
6540.6146189999999
 30
0.0
 11
8345.5431757610695
 21
6540.6146189999999
 31
0.0
  0
INSERT
  5
7ED5
  8
3
  6
CONTINUOUS
 62
     0
  2
_OPEN
 10
7485.5431757610704
 20
6540.6146189999999
 30
0.0
 41
90.0
 42
90.0
 43
90.0
 50
180.0
  0
INSERT
  5
7ED6
  8
3
  6
CONTINUOUS
 62
     0
  2
_OPEN
 10
8435.5431757610695
 20
6540.6146189999999
 30
0.0
 41
90.0
 42
90.0
 43
90.0
  0
TEXT
  8
3
  40
135
  5
7F2B
  62
0
  72
0
  71
0
 10
7627.13
 20
6414.16
 30
0.000000
  1
950
  0
POINT
  5
7ED8
  8
DEFPOINTS
  6
CONTINUOUS
 62
     0
 10
7485.5431757610704
 20
6332.1321799999996
 30
0.0
  0
POINT
  5
7ED9
  8
DEFPOINTS
  6
CONTINUOUS
 62
     0
 10
8435.5431757610695
 20
6332.1321799999996
 30
0.0
  0
POINT
  5
7EDA
  8
DEFPOINTS
  6
CONTINUOUS
 62
     0
 10
8435.5431757610695
 20
6540.6146189999999
 30
0.0
  0
ENDBLK
  5
7BCF
  8
0
  0
BLOCK
  8
0
  2
*D12
 70
     1
 10
0.0
 20
0.0
 30
0.0
  3
*D12
  1

  0
LINE
  5
7EDB
  8
3
  6
CONTINUOUS
 62
     0
 10
7120.5431757610704
 20
5903.6321799999987
 30
0.0
 11
7120.5431757610704
 21
6859.845166000001
 31
0.0
  0
LINE
  5
7EDC
  8
3
  6
CONTINUOUS
 62
     0
 10
7960.5431757610704
 20
6762.8197179999997
 30
0.0
 11
7960.5431757610704
 21
6859.845166000001
 31
0.0
  0
LINE
  5
7EDD
  8
3
  6
CONTINUOUS
 62
     0
 10
7210.5431757610704
 20
6814.845166000001
 30
0.0
 11
7870.5431757610704
 21
6814.845166000001
 31
0.0
  0
INSERT
  5
7EDE
  8
3
  6
CONTINUOUS
 62
     0
  2
_OPEN
 10
7120.5431757610704
 20
6814.845166000001
 30
0.0
 41
90.0
 42
90.0
 43
90.0
 50
180.0
  0
INSERT
  5
7EDF
  8
3
  6
CONTINUOUS
 62
     0
  2
_OPEN
 10
7960.5431757610704
 20
6814.845166000001
 30
0.0
 41
90.0
 42
90.0
 43
90.0
  0
TEXT
  8
3
  40
135
  5
7F2C
  62
0
  72
0
  71
0
 10
7286.74
 20
6800.90
 30
0.000000
  1
MAX
  0
TEXT
  8
3
  40
135
  5
7F2D
  62
0
  72
0
  71
0
 10
7286.74
 20
6625.40
 30
0.000000
  1
890
  0
POINT
  5
7EE1
  8
DEFPOINTS
  6
CONTINUOUS
 62
     0
 10
7120.5431757610704
 20
5881.1321799999987
 30
0.0
  0
POINT
  5
7EE2
  8
DEFPOINTS
  6
CONTINUOUS
 62
     0
 10
7960.5431757610704
 20
6740.3197180000006
 30
0.0
  0
POINT
  5
7EE3
  8
DEFPOINTS
  6
CONTINUOUS
 62
     0
 10
7960.5431757610704
 20
6814.845166000001
 30
0.0
  0
ENDBLK
  5
7D59
  8
0
  0
BLOCK
  8
0
  2
*D13
 70
     1
 10
0.0
 20
0.0
 30
0.0
  3
*D13
  1

  0
LINE
  5
7EE4
  8
3
  6
CONTINUOUS
 62
     0
 10
8538.5431757610695
 20
6200.6321799999987
 30
0.0
 11
8538.5431757610695
 21
6859.845166000001
 31
0.0
  0
LINE
  5
7EE5
  8
3
  6
CONTINUOUS
 62
     0
 10
8050.5431757610686
 20
6814.845166000001
 30
0.0
 11
8448.5431757610695
 21
6814.845166000001
 31
0.0
  0
TEXT
  8
3
  40
135
  5
7F2E
  62
0
  72
0
  71
0
 10
7989.72
 20
6689.13
 30
0.000000
  1
578
  0
INSERT
  5
7EE7
  8
3
  6
CONTINUOUS
 62
     0
  2
_OPEN
 10
7960.5431757610704
 20
6814.845166000001
 30
0.0
 41
90.0
 42
90.0
 43
90.0
 50
180.0
  0
INSERT
  5
7EE8
  8
3
  6
CONTINUOUS
 62
     0
  2
_OPEN
 10
8538.5431757610695
 20
6814.845166000001
 30
0.0
 41
90.0
 42
90.0
 43
90.0
  0
POINT
  5
7EE9
  8
DEFPOINTS
  6
CONTINUOUS
 62
     0
 10
7960.5431757610704
 20
6740.3197180000006
 30
0.0
  0
POINT
  5
7EEA
  8
DEFPOINTS
  6
CONTINUOUS
 62
     0
 10
8538.5431757610695
 20
6178.1321799999996
 30
0.0
  0
POINT
  5
7EEB
  8
DEFPOINTS
  6
CONTINUOUS
 62
     0
 10
8538.5431757610695
 20
6814.845166000001
 30
0.0
  0
ENDBLK
  5
7CB2
  8
0
  0
BLOCK
  8
0
  2
*D14
 70
     1
 10
0.0
 20
0.0
 30
0.0
  3
*D14
  1

  0
LINE
  5
7EEC
  8
3
  6
CONTINUOUS
 62
     0
 10
8561.0431757610695
 20
6128.1321799999996
 30
0.0
 11
8926.2970597610729
 21
6128.1321799999996
 31
0.0
  0
LINE
  5
7EED
  8
3
  6
CONTINUOUS
 62
     0
 10
8561.0431757610695
 20
4878.1321799999996
 30
0.0
 11
8926.2970597610729
 21
4878.1321799999996
 31
0.0
  0
LINE
  5
7EEE
  8
3
  6
CONTINUOUS
 62
     0
 10
8881.2970597610729
 20
6038.1321799999987
 30
0.0
 11
8881.2970597610729
 21
4968.1321799999996
 31
0.0
  0
INSERT
  5
7EEF
  8
3
  6
CONTINUOUS
 62
     0
  2
_OPEN
 10
8881.2970597610729
 20
6128.1321799999996
 30
0.0
 41
90.0
 42
90.0
 43
90.0
 50
90.0
  0
INSERT
  5
7EF0
  8
3
  6
CONTINUOUS
 62
     0
  2
_OPEN
 10
8881.2970597610729
 20
4878.1321799999996
 30
0.0
 41
90.0
 42
90.0
 43
90.0
 50
270.0
  0
TEXT
  8
3
  40
135
  5
7F2F
  62
0
  72
0
  71
0
 10
8498.80
 20
5320.03
 30
0.000000
  1
φ1250
  0
POINT
  5
7EF2
  8
DEFPOINTS
  6
CONTINUOUS
 62
     0
 10
8538.5431757610695
 20
6128.1321799999996
 30
0.0
  0
POINT
  5
7EF3
  8
DEFPOINTS
  6
CONTINUOUS
 62
     0
 10
8538.5431757610695
 20
4878.1321799999996
 30
0.0
  0
POINT
  5
7EF4
  8
DEFPOINTS
  6
CONTINUOUS
 62
     0
 10
8881.2970597610729
 20
4878.1321799999996
 30
0.0
  0
ENDBLK
  5
7D4E
  8
0
  0
BLOCK
  8
0
  2
*D15
 70
     1
 10
0.0
 20
0.0
 30
0.0
  3
*D15
  1

  0
LINE
  5
7EF5
  8
3
  6
CONTINUOUS
 62
     0
 10
7233.5431757610686
 20
3836.6321799999992
 30
0.0
 11
7233.5431757610686
 21
3412.3115322947051
 31
0.0
  0
LINE
  5
7EF6
  8
3
  6
CONTINUOUS
 62
     0
 10
7960.5431757610704
 20
3691.9948420000001
 30
0.0
 11
7960.5431757610704
 21
3412.3115322947051
 31
0.0
  0
LINE
  5
7EF7
  8
3
  6
CONTINUOUS
 62
     0
 10
7323.5431757610704
 20
3457.3115322947051
 30
0.0
 11
7870.5431757610704
 21
3457.3115322947051
 31
0.0
  0
INSERT
  5
7EF8
  8
3
  6
CONTINUOUS
 62
     0
  2
_OPEN
 10
7233.5431757610686
 20
3457.3115322947051
 30
0.0
 41
90.0
 42
90.0
 43
90.0
 50
180.0
  0
INSERT
  5
7EF9
  8
3
  6
CONTINUOUS
 62
     0
  2
_OPEN
 10
7960.5431757610704
 20
3457.3115322947051
 30
0.0
 41
90.0
 42
90.0
 43
90.0
  0
TEXT
  8
3
  40
135
  5
7F30
  62
0
  72
0
  71
0
 10
7319.39
 20
3330.86
 30
0.000000
  1
727
  0
POINT
  5
7EFB
  8
DEFPOINTS
  6
CONTINUOUS
 62
     0
 10
7233.5431757610686
 20
3859.1321799999992
 30
0.0
  0
POINT
  5
7EFC
  8
DEFPOINTS
  6
CONTINUOUS
 62
     0
 10
7960.5431757610704
 20
3714.4948420000001
 30
0.0
  0
POINT
  5
7EFD
  8
DEFPOINTS
  6
CONTINUOUS
 62
     0
 10
7960.5431757610704
 20
3457.3115322947051
 30
0.0
  0
ENDBLK
  5
7D39
  8
0
  0
BLOCK
  8
0
  2
*D16
 70
     1
 10
0.0
 20
0.0
 30
0.0
  3
*D16
  1

  0
LINE
  5
7EFE
  8
3
  6
CONTINUOUS
 62
     0
 10
8513.5431757610695
 20
3836.6321799999992
 30
0.0
 11
8513.5431757610695
 21
3412.3115322947051
 31
0.0
  0
LINE
  5
7EFF
  8
3
  6
CONTINUOUS
 62
     0
 10
8050.5431757610686
 20
3457.3115322947051
 30
0.0
 11
8423.5431757610695
 21
3457.3115322947051
 31
0.0
  0
TEXT
  8
3
  40
135
  5
7F31
  62
0
  72
0
  71
0
 10
7960.27
 20
3327.10
 30
0.000000
  1
553
  0
INSERT
  5
7F01
  8
3
  6
CONTINUOUS
 62
     0
  2
_OPEN
 10
7960.5431757610704
 20
3457.3115322947051
 30
0.0
 41
90.0
 42
90.0
 43
90.0
 50
180.0
  0
INSERT
  5
7F02
  8
3
  6
CONTINUOUS
 62
     0
  2
_OPEN
 10
8513.5431757610695
 20
3457.3115322947051
 30
0.0
 41
90.0
 42
90.0
 43
90.0
  0
POINT
  5
7F03
  8
DEFPOINTS
  6
CONTINUOUS
 62
     0
 10
7960.5431757610704
 20
3714.4948420000001
 30
0.0
  0
POINT
  5
7F04
  8
DEFPOINTS
  6
CONTINUOUS
 62
     0
 10
8513.5431757610695
 20
3859.1321799999992
 30
0.0
  0
POINT
  5
7F05
  8
DEFPOINTS
  6
CONTINUOUS
 62
     0
 10
8513.5431757610695
 20
3457.3115322947051
 30
0.0
  0
ENDBLK
  5
7D43
  8
0
  0
BLOCK
  8
0
  2
*D17
 70
     1
 10
0.0
 20
0.0
 30
0.0
  3
*D17
  1

  0
LINE
  5
7F06
  8
3
  6
CONTINUOUS
 62
     0
 10
4541.7894105096566
 20
5503.1321799999996
 30
0.0
 11
5482.8220035096574
 21
5503.1321799999996
 31
0.0
  0
LINE
  5
7F07
  8
3
  6
CONTINUOUS
 62
     0
 10
4625.2844955096571
 20
4169.1321799999996
 30
0.0
 11
5482.8220035096574
 21
4169.1321799999996
 31
0.0
  0
LINE
  5
7F08
  8
3
  6
CONTINUOUS
 62
     0
 10
5437.8220035096583
 20
5413.1321799999987
 30
0.0
 11
5437.8220035096583
 21
4259.1321799999987
 31
0.0
  0
INSERT
  5
7F09
  8
3
  6
CONTINUOUS
 62
     0
  2
_OPEN
 10
5437.8220035096583
 20
5503.1321799999996
 30
0.0
 41
90.0
 42
90.0
 43
90.0
 50
90.0
  0
INSERT
  5
7F0A
  8
3
  6
CONTINUOUS
 62
     0
  2
_OPEN
 10
5437.8220035096583
 20
4169.1321799999996
 30
0.0
 41
90.0
 42
90.0
 43
90.0
 50
270.0
  0
TEXT
  8
3
  40
135
  5
7F32
  62
0
  72
0
  71
0
 10
5055.32
 20
4626.22
 30
0.000000
  1
1334
  0
POINT
  5
7F0C
  8
DEFPOINTS
  6
CONTINUOUS
 62
     0
 10
4519.2894105096557
 20
5503.1321799999996
 30
0.0
  0
POINT
  5
7F0D
  8
DEFPOINTS
  6
CONTINUOUS
 62
     0
 10
4602.7844955096571
 20
4169.1321799999996
 30
0.0
  0
POINT
  5
7F0E
  8
DEFPOINTS
  6
CONTINUOUS
 62
     0
 10
5437.8220035096583
 20
4169.1321799999996
 30
0.0
  0
ENDBLK
  5
7CA2
  8
0
  0
BLOCK
  8
0
  2
*D18
 70
     1
 10
0.0
 20
0.0
 30
0.0
  3
*D18
  1

  0
LINE
  5
7F0F
  8
3
 62
     0
 10
3814.1268755096571
 20
6400.2407359999988
 30
0.0
 11
6037.1422274770966
 21
6400.2407359999988
 31
0.0
  0
LINE
  5
7F10
  8
3
 62
     0
 10
4550.2844955096562
 20
3859.1321799999992
 30
0.0
 11
6037.1422274770957
 21
3859.1321799999992
 31
0.0
  0
LINE
  5
7F11
  8
3
 62
     0
 10
5992.1422274770966
 20
6310.2407359999997
 30
0.0
 11
5992.1422274770966
 21
3949.1321799999992
 31
0.0
  0
INSERT
  5
7F12
  8
3
 62
     0
  2
_OPEN
 10
5992.1422274770966
 20
6400.2407359999988
 30
0.0
 41
90.0
 42
90.0
 43
90.0
 50
90.0
  0
INSERT
  5
7F13
  8
3
 62
     0
  2
_OPEN
 10
5992.1422274770966
 20
3859.1321799999992
 30
0.0
 41
90.0
 42
90.0
 43
90.0
 50
270.0
  0
TEXT
  8
3
  40
135
  5
7F33
  62
0
  72
0
  71
0
 10
5609.64
 20
4880.28
 30
0.000000
  1
2541
  0
POINT
  5
7F15
  8
DEFPOINTS
 62
     0
 10
3791.6268755096571
 20
6400.2407359999988
 30
0.0
  0
POINT
  5
7F16
  8
DEFPOINTS
 62
     0
 10
4527.7844955096562
 20
3859.1321799999992
 30
0.0
  0
POINT
  5
7F17
  8
DEFPOINTS
 62
     0
 10
5992.1422274770966
 20
3859.1321799999992
 30
0.0
  0
ENDBLK
  5
7D27
  8
0
  0
BLOCK
  8
0
  2
*D19
 70
     1
 10
0.0
 20
0.0
 30
0.0
  3
*D19
  1

  0
LINE
  5
7F18
  8
3
 62
     0
 10
4602.7844955096571
 20
5521.6321799999996
 30
0.0
 11
4602.7844955096571
 21
6945.6882439366518
 31
0.0
  0
LINE
  5
7F19
  8
3
 62
     0
 10
1977.7844955096559
 20
4125.6321799999987
 30
0.0
 11
1977.7844955096571
 21
6945.6882439366518
 31
0.0
  0
LINE
  5
7F1A
  8
3
 62
     0
 10
4512.7844955096571
 20
6900.6882439366527
 30
0.0
 11
2067.7844955096571
 21
6900.6882439366527
 31
0.0
  0
INSERT
  5
7F1B
  8
3
 62
     0
  2
_OPEN
 10
4602.7844955096571
 20
6900.6882439366527
 30
0.0
 41
90.0
 42
90.0
 43
90.0
  0
INSERT
  5
7F1C
  8
3
 62
     0
  2
_OPEN
 10
1977.7844955096571
 20
6900.6882439366527
 30
0.0
 41
90.0
 42
90.0
 43
90.0
 50
180.0
  0
TEXT
  8
3
  40
135
  5
7F34
  62
0
  72
0
  71
0
 10
3091.00
 20
6774.24
 30
0.000000
  1
2625
  0
POINT
  5
7F1E
  8
DEFPOINTS
 62
     0
 10
4602.7844955096571
 20
5499.1321799999996
 30
0.0
  0
POINT
  5
7F1F
  8
DEFPOINTS
 62
     0
 10
1977.7844955096559
 20
4103.1321799999987
 30
0.0
  0
POINT
  5
7F20
  8
DEFPOINTS
 62
     0
 10
1977.7844955096571
 20
6900.6882439366527
 30
0.0
  0
ENDBLK
  5
7D65
  8
0
  0
ENDSEC
  0
SECTION
  2
ENTITIES
  0
LINE
  5
7A77
  8
1
  6
CONTINUOUS
 10
7485.5431757610704
 20
5449.1321799999987
 30
0.0
 11
8435.5431757610695
 21
4169.1321799999996
 31
0.0
  0
LINE
  5
7A78
  8
1
  6
CONTINUOUS
 10
7485.5431757610704
 20
4169.1321799999996
 30
0.0
 11
8435.5431757610695
 21
5449.1321799999987
 31
0.0
  0
LINE
  5
7A79
  8
1
  6
CONTINUOUS
 10
7485.5431757610704
 20
4169.1321799999996
 30
0.0
 11
8435.5431757610695
 21
4169.1321799999996
 31
0.0
  0
LINE
  5
7A7A
  8
1
  6
CONTINUOUS
 10
7485.5431757610704
 20
6332.1321799999996
 30
0.0
 11
8435.5431757610695
 21
6332.1321799999996
 31
0.0
  0
LINE
  5
7A7B
  8
1
  6
CONTINUOUS
 10
8513.5431757610695
 20
3953.1321799999992
 30
0.0
 11
7233.5431757610686
 21
3953.1321799999992
 31
0.0
  0
LINE
  5
7A7C
  8
1
  6
CONTINUOUS
 10
7485.5431757610704
 20
5449.1321799999987
 30
0.0
 11
8435.5431757610695
 21
5449.1321799999987
 31
0.0
  0
LINE
  5
7A7D
  8
1
  6
CONTINUOUS
 10
8513.5431757610695
 20
3934.1321799999992
 30
0.0
 11
7233.5431757610686
 21
3934.1321799999992
 31
0.0
  0
LINE
  5
7A7E
  8
1
  6
CONTINUOUS
 10
8513.5431757610695
 20
3859.1321799999992
 30
0.0
 11
7233.5431757610686
 21
3859.1321799999992
 31
0.0
  0
CIRCLE
  5
7A7F
  8
1
  6
CONTINUOUS
 10
3777.7844955096562
 20
5503.1321799999996
 30
0.0
 40
675.0
  0
CIRCLE
  5
7A80
  8
1
  6
CONTINUOUS
 10
3777.7844955096562
 20
5503.1321799999996
 30
0.0
 40
625.0
  0
LINE
  5
7A81
  8
1
  6
CONTINUOUS
 10
4527.7844955096562
 20
4103.1321799999987
 30
0.0
 11
1977.7844955096559
 21
4103.1321799999987
 31
0.0
  0
LINE
  5
7A82
  8
1
  6
CONTINUOUS
 10
4527.7844955096562
 20
3953.1321799999992
 30
0.0
 11
1977.7844955096559
 21
3953.1321799999992
 31
0.0
  0
POLYLINE
  5
7A83
  8
1
  6
CONTINUOUS
 66
     1
 10
0.0
 20
0.0
 30
0.0
  0
VERTEX
  5
7E72
  8
1
  6
CONTINUOUS
 10
4602.7844955096571
 20
4169.1321799999996
 30
0.0
  0
VERTEX
  5
7E73
  8
1
  6
CONTINUOUS
 10
3777.7844955096562
 20
4242.1321799999987
 30
0.0
 42
-0.391657
  0
VERTEX
  5
7E74
  8
1
  6
CONTINUOUS
 10
2695.2509425096569
 20
5412.1321799999996
 30
0.0
 42
-0.4387800000000001
  0
VERTEX
  5
7E75
  8
1
  6
CONTINUOUS
 10
3769.1268755096571
 20
6400.2407359999988
 30
0.0
 42
-0.390066
  0
VERTEX
  5
7E76
  8
1
  6
CONTINUOUS
 10
4523.7357245096564
 20
5580.1321799999987
 30
0.0
 42
-0.049316
  0
VERTEX
  5
7E77
  8
1
  6
CONTINUOUS
 10
4510.7835405096557
 20
5449.1321799999987
 30
0.0
 42
-0.393627
  0
SEQEND
  5
7E78
  8
1
  6
CONTINUOUS
  0
ARC
  5
7A8B
  8
1
  6
CONTINUOUS
 10
3777.7844955096562
 20
5503.1321799999996
 30
0.0
 40
378.0
 50
301.98571699999991
 51
132.48395099999991
  0
LINE
  5
7A8C
  8
1
  6
CONTINUOUS
 10
4527.7844955096562
 20
3934.1321799999992
 30
0.0
 11
1977.7844955096559
 21
3934.1321799999992
 31
0.0
  0
LINE
  5
7A8D
  8
1
  6
CONTINUOUS
 10
4527.7844955096562
 20
3859.1321799999992
 30
0.0
 11
1977.7844955096559
 21
3859.1321799999992
 31
0.0
  0
LINE
  5
7A8E
  8
1
  6
CONTINUOUS
 10
2321.738455509656
 20
4426.6281650000001
 30
0.0
 11
3590.0278365096569
 21
5708.147879000001
 31
0.0
  0
LINE
  5
7A8F
  8
1
  6
CONTINUOUS
 10
2254.2000895096571
 20
4500.37482
 30
0.0
 11
3522.4894705096558
 21
5781.894534
 31
0.0
  0
LINE
  5
7A90
  8
1
  6
CONTINUOUS
 10
2466.3494365096558
 20
4236.3505590000004
 30
0.0
 11
3925.0432745096559
 21
5267.338092
 31
0.0
  0
LINE
  5
7A91
  8
1
  6
CONTINUOUS
 10
2519.3202205096568
 20
4151.5325419999999
 30
0.0
 11
3978.0140585096569
 21
5182.5200750000013
 31
0.0
  0
LINE
  5
7A92
  8
1
  6
CONTINUOUS
 10
2240.7844955096562
 20
4158.1321799999987
 30
0.0
 11
2300.7844955096562
 21
4158.1321799999987
 31
0.0
  0
LINE
  5
7A93
  8
1
  6
CONTINUOUS
 10
2627.7844955096562
 20
4158.1321799999987
 30
0.0
 11
2177.7844955096562
 21
4158.1321799999987
 31
0.0
  0
ARC
  5
7A94
  8
1
  6
CONTINUOUS
 10
2402.7844955096562
 20
4338.1321799999987
 30
0.0
 40
199.0
 50
320.126825
 51
219.87317499999989
  0
ARC
  5
7A95
  8
1
  6
CONTINUOUS
 10
2402.7844955096562
 20
4338.1321799999987
 30
0.0
 40
220.0
 50
132.48395099999991
 51
301.98571699999991
  0
LINE
  5
7A96
  8
1
  6
CONTINUOUS
 10
2177.7844955096562
 20
4103.1321799999987
 30
0.0
 11
2177.7844955096562
 21
4158.1321799999987
 31
0.0
  0
LINE
  5
7A97
  8
1
  6
CONTINUOUS
 10
2240.7844955096562
 20
4158.1321799999987
 30
0.0
 11
2240.7844955096562
 21
4200.6313630000013
 31
0.0
  0
LINE
  5
7A98
  8
1
  6
CONTINUOUS
 10
2240.7844955096562
 20
4200.6313630000013
 30
0.0
 11
2250.0588845096572
 21
4210.5551919999998
 31
0.0
  0
LINE
  5
7A99
  8
1
  6
CONTINUOUS
 10
1977.7844955096559
 20
4103.1321799999987
 30
0.0
 11
1977.7844955096559
 21
3953.1321799999992
 31
0.0
  0
LINE
  5
7A9A
  8
1
  6
CONTINUOUS
 10
1977.7844955096559
 20
3934.1321799999992
 30
0.0
 11
1977.7844955096559
 21
3859.1321799999992
 31
0.0
  0
LINE
  5
7A9B
  8
2
  6
CENTER
 10
2402.7844955096562
 20
4218.1321799999996
 30
0.0
 11
2402.7844955096562
 21
4458.1321799999987
 31
0.0
  0
CIRCLE
  5
7A9C
  8
1
  6
CONTINUOUS
 10
2402.7844955096562
 20
4338.1321799999987
 30
0.0
 40
120.0
  0
LINE
  5
7A9D
  8
2
  6
CENTER
 10
2282.7844955096562
 20
4338.1321799999987
 30
0.0
 11
2522.7844955096562
 21
4338.1321799999987
 31
0.0
  0
LINE
  5
7A9E
  8
1
  6
CONTINUOUS
 10
2564.7844955096562
 20
4158.1321799999987
 30
0.0
 11
2564.7844955096562
 21
4200.6313630000013
 31
0.0
  0
LINE
  5
7A9F
  8
1
  6
CONTINUOUS
 10
2564.7844955096562
 20
4200.6313630000013
 30
0.0
 11
2555.5101065096569
 21
4210.5551919999998
 31
0.0
  0
LINE
  5
7AA0
  8
1
  6
CONTINUOUS
 10
2627.7844955096562
 20
4103.1321799999987
 30
0.0
 11
2627.7844955096562
 21
4158.1321799999987
 31
0.0
  0
LINE
  5
7AA1
  8
2
  6
CENTER
 10
3777.7844955096562
 20
10481.52491944955
 30
0.0
 11
3777.7844955096562
 21
8741.1214234495546
 31
0.0
  0
CIRCLE
  5
7AA2
  8
1
  6
CONTINUOUS
 10
3777.7844955096562
 20
5503.1321799999996
 30
0.0
 40
278.0
  0
LINE
  5
7AA3
  8
2
  6
CENTER
 10
2456.4196325096568
 20
5503.1321799999996
 30
0.0
 11
4666.9344475096568
 21
5503.1321799999996
 31
0.0
  0
LINE
  5
7AA6
  8
1
  6
CONTINUOUS
 10
4552.7844955096571
 20
5449.1321799999987
 30
0.0
 11
4552.7844955096571
 21
4169.1321799999996
 31
0.0
  0
LINE
  5
7AA7
  8
1
  6
CONTINUOUS
 10
4602.7844955096571
 20
5499.1321799999996
 30
0.0
 11
4602.7844955096571
 21
4113.1321799999996
 31
0.0
  0
LINE
  5
7AA8
  8
1
  6
CONTINUOUS
 10
4527.7844955096562
 20
4103.1321799999987
 30
0.0
 11
4527.7844955096562
 21
3953.1321799999992
 31
0.0
  0
LINE
  5
7AA9
  8
1
  6
CONTINUOUS
 10
4527.7844955096562
 20
3934.1321799999992
 30
0.0
 11
4527.7844955096562
 21
3859.1321799999992
 31
0.0
  0
LINE
  5
7AAA
  8
1
  6
CONTINUOUS
 10
4510.7835405096557
 20
5449.1321799999987
 30
0.0
 11
4602.7844955096571
 21
5449.1321799999987
 31
0.0
  0
LINE
  5
7AAB
  8
1
  6
CONTINUOUS
 10
7290.5431757610704
 20
5225.1321799999996
 30
0.0
 11
7290.5431757610704
 21
5781.1321799999996
 31
0.0
  0
LINE
  5
7AAC
  8
1
  6
CONTINUOUS
 10
7190.5431757610704
 20
5225.1321799999996
 30
0.0
 11
7190.5431757610704
 21
5781.1321799999996
 31
0.0
  0
LINE
  5
7AAD
  8
1
  6
CONTINUOUS
 10
7360.5431757610704
 20
4238.1321799999996
 30
0.0
 11
7360.5431757610704
 21
5881.1321799999987
 31
0.0
  0
LINE
  5
7AAE
  8
1
  6
CONTINUOUS
 10
7120.5431757610704
 20
4238.1321799999996
 30
0.0
 11
7120.5431757610704
 21
5881.1321799999987
 31
0.0
  0
LINE
  5
7AAF
  8
1
  6
CONTINUOUS
 10
7485.5431757610704
 20
4169.1321799999996
 30
0.0
 11
7485.5431757610704
 21
6332.1321799999996
 31
0.0
  0
LINE
  5
7AB0
  8
1
  6
CONTINUOUS
 10
7190.5431757610704
 20
4338.1321799999987
 30
0.0
 11
7190.5431757610704
 21
4578.1321799999987
 31
0.0
  0
LINE
  5
7AB1
  8
1
  6
CONTINUOUS
 10
7290.5431757610704
 20
4338.1321799999987
 30
0.0
 11
7290.5431757610704
 21
4578.1321799999987
 31
0.0
  0
LINE
  5
7AB2
  8
1
  6
CONTINUOUS
 10
7120.5431757610704
 20
4238.1321799999996
 30
0.0
 11
7360.5431757610704
 21
4238.1321799999996
 31
0.0
  0
LINE
  5
7AB3
  8
1
  6
CONTINUOUS
 10
7190.5431757610704
 20
4338.1321799999987
 30
0.0
 11
7290.5431757610704
 21
4338.1321799999987
 31
0.0
  0
LINE
  5
7AB4
  8
1
  6
CONTINUOUS
 10
8513.5431757610695
 20
4103.1321799999987
 30
0.0
 11
7233.5431757610686
 21
4103.1321799999987
 31
0.0
  0
LINE
  5
7AB5
  8
1
  6
CONTINUOUS
 10
7233.5431757610686
 20
3953.1321799999992
 30
0.0
 11
7233.5431757610686
 21
4103.1321799999987
 31
0.0
  0
LINE
  5
7AB6
  8
1
  6
CONTINUOUS
 10
7233.5431757610686
 20
3859.1321799999992
 30
0.0
 11
7233.5431757610686
 21
3934.1321799999992
 31
0.0
  0
LINE
  5
7AB7
  8
1
  6
CONTINUOUS
 10
7290.5431757610704
 20
4430.6321799999987
 30
0.0
 11
7485.5431757610704
 21
4430.6321799999987
 31
0.0
  0
LINE
  5
7AB8
  8
1
  6
CONTINUOUS
 10
7190.5431757610704
 20
5225.1321799999996
 30
0.0
 11
7290.5431757610704
 21
5225.1321799999996
 31
0.0
  0
LINE
  5
7AB9
  8
1
  6
CONTINUOUS
 10
7190.5431757610704
 20
4578.1321799999987
 30
0.0
 11
7290.5431757610704
 21
4578.1321799999987
 31
0.0
  0
LINE
  5
7ABA
  8
1
  6
CONTINUOUS
 10
7290.5431757610704
 20
4485.6321799999987
 30
0.0
 11
7485.5431757610704
 21
4485.6321799999987
 31
0.0
  0
LINE
  5
7ABB
  8
1
  6
CONTINUOUS
 10
7120.5431757610704
 20
5881.1321799999987
 30
0.0
 11
7360.5431757610704
 21
5881.1321799999987
 31
0.0
  0
LINE
  5
7ABC
  8
1
  6
CONTINUOUS
 10
7190.5431757610704
 20
5781.1321799999996
 30
0.0
 11
7290.5431757610704
 21
5781.1321799999996
 31
0.0
  0
LINE
  5
7ABD
  8
1
  6
CONTINUOUS
 10
7290.5431757610704
 20
5475.6321799999987
 30
0.0
 11
7485.5431757610704
 21
5475.6321799999987
 31
0.0
  0
LINE
  5
7ABE
  8
1
  6
CONTINUOUS
 10
7290.5431757610704
 20
5530.6321799999996
 30
0.0
 11
7485.5431757610704
 21
5530.6321799999996
 31
0.0
  0
LINE
  5
7ABF
  8
1
  6
CONTINUOUS
 10
4155.7844955096571
 20
9060.0158444495537
 30
0.0
 11
2082.7844955096562
 21
9060.0158444495537
 31
0.0
  0
LINE
  5
7AC0
  8
1
  6
CONTINUOUS
 10
4155.7844955096571
 20
8820.0158444495555
 30
0.0
 11
2082.7844955096562
 21
8820.0158444495555
 31
0.0
  0
LINE
  5
7AC1
  8
1
  6
CONTINUOUS
 10
4452.7844955096562
 20
10238.01584444955
 30
0.0
 11
3102.7844955096562
 21
10238.01584444955
 31
0.0
  0
LINE
  5
7AC2
  8
1
  6
CONTINUOUS
 10
4602.7844955096571
 20
9185.0158444495537
 30
0.0
 11
2695.2509425096569
 21
9185.0158444495537
 31
0.0
  0
LINE
  5
7AC3
  8
1
  6
CONTINUOUS
 10
4602.7844955096571
 20
10135.01584444955
 30
0.0
 11
2695.2509425096569
 21
10135.01584444955
 31
0.0
  0
LINE
  5
7AC4
  8
1
  6
CONTINUOUS
 10
4055.7844955096571
 20
8933.0158444495537
 30
0.0
 11
4527.7844955096562
 21
8933.0158444495537
 31
0.0
  0
LINE
  5
7AC5
  8
1
  6
CONTINUOUS
 10
2522.7844955096562
 20
8933.0158444495537
 30
0.0
 11
3499.7844955096562
 21
8933.0158444495537
 31
0.0
  0
LINE
  5
7AC6
  8
1
  6
CONTINUOUS
 10
3152.7844955096562
 20
10213.01584444955
 30
0.0
 11
1977.7844955096559
 21
10213.01584444955
 31
0.0
  0
LINE
  5
7AC7
  8
1
  6
CONTINUOUS
 10
2695.2509425096569
 20
9185.0158444495537
 30
0.0
 11
2695.2509425096569
 21
10135.01584444955
 31
0.0
  0
LINE
  5
7AC8
  8
1
  6
CONTINUOUS
 10
1977.7844955096559
 20
10213.01584444955
 30
0.0
 11
1977.7844955096559
 21
8933.0158444495537
 31
0.0
  0
LINE
  5
7AC9
  8
1
  6
CONTINUOUS
 10
1977.7844955096559
 20
8933.0158444495537
 30
0.0
 11
2282.7844955096562
 21
8933.0158444495537
 31
0.0
  0
LINE
  5
7ACA
  8
1
  6
CONTINUOUS
 10
2203.6864815096569
 20
9104.549037449553
 30
0.0
 11
2601.8825095096558
 21
9104.549037449553
 31
0.0
  0
LINE
  5
7ACB
  8
1
  6
CONTINUOUS
 10
2203.6864815096569
 20
9704.0490374495548
 30
0.0
 11
2601.8825095096558
 21
9704.0490374495548
 31
0.0
  0
LINE
  5
7ACC
  8
1
  6
CONTINUOUS
 10
2082.7844955096562
 20
8820.0158444495555
 30
0.0
 11
2082.7844955096562
 21
9060.0158444495537
 31
0.0
  0
LINE
  5
7ACD
  8
1
  6
CONTINUOUS
 10
2203.6864815096569
 20
9104.549037449553
 30
0.0
 11
2203.6864815096569
 21
9704.0490374495548
 31
0.0
  0
LINE
  5
7ACE
  8
1
  6
CONTINUOUS
 10
2375.2844955096562
 20
8990.0158444495555
 30
0.0
 11
2375.2844955096562
 21
9104.549037449553
 31
0.0
  0
LINE
  5
7ACF
  8
1
  6
CONTINUOUS
 10
2430.2844955096562
 20
8990.0158444495555
 30
0.0
 11
2430.2844955096562
 21
9104.549037449553
 31
0.0
  0
LINE
  5
7AD0
  8
1
  6
CONTINUOUS
 10
2282.7844955096562
 20
8890.0158444495555
 30
0.0
 11
2522.7844955096562
 21
8890.0158444495555
 31
0.0
  0
LINE
  5
7AD1
  8
1
  6
CONTINUOUS
 10
2282.7844955096562
 20
8990.0158444495555
 30
0.0
 11
2522.7844955096562
 21
8990.0158444495555
 31
0.0
  0
LINE
  5
7AD2
  8
1
  6
CONTINUOUS
 10
2522.7844955096562
 20
8890.0158444495555
 30
0.0
 11
2522.7844955096562
 21
8990.0158444495555
 31
0.0
  0
LINE
  5
7AD3
  8
1
  6
CONTINUOUS
 10
2282.7844955096562
 20
8890.0158444495555
 30
0.0
 11
2282.7844955096562
 21
8990.0158444495555
 31
0.0
  0
LINE
  5
7AD4
  8
1
  6
CONTINUOUS
 10
2601.8825095096558
 20
9104.549037449553
 30
0.0
 11
2601.8825095096558
 21
9704.0490374495548
 31
0.0
  0
LINE
  5
7AD5
  8
1
  6
CONTINUOUS
 10
3805.2844955096562
 20
8990.0158444495555
 30
0.0
 11
3805.2844955096562
 21
9185.0158444495537
 31
0.0
  0
LINE
  5
7AD6
  8
1
  6
CONTINUOUS
 10
3750.2844955096571
 20
8990.0158444495555
 30
0.0
 11
3750.2844955096571
 21
9185.0158444495537
 31
0.0
  0
LINE
  5
7AD7
  8
1
  6
CONTINUOUS
 10
3499.7844955096562
 20
8890.0158444495555
 30
0.0
 11
4055.7844955096571
 21
8890.0158444495555
 31
0.0
  0
LINE
  5
7AD8
  8
1
  6
CONTINUOUS
 10
3499.7844955096562
 20
8990.0158444495555
 30
0.0
 11
4055.7844955096571
 21
8990.0158444495555
 31
0.0
  0
LINE
  5
7AD9
  8
1
  6
CONTINUOUS
 10
3499.7844955096562
 20
8890.0158444495555
 30
0.0
 11
3499.7844955096562
 21
8990.0158444495555
 31
0.0
  0
LINE
  5
7ADA
  8
1
  6
CONTINUOUS
 10
4055.7844955096571
 20
8890.0158444495555
 30
0.0
 11
4055.7844955096571
 21
8990.0158444495555
 31
0.0
  0
LINE
  5
7ADB
  8
1
  6
CONTINUOUS
 10
3152.7844955096562
 20
10135.01584444955
 30
0.0
 11
3152.7844955096562
 21
10238.01584444955
 31
0.0
  0
LINE
  5
7ADC
  8
1
  6
CONTINUOUS
 10
4602.7844955096571
 20
9135.0158444495537
 30
0.0
 11
4602.7844955096571
 21
10185.01584444955
 31
0.0
  0
LINE
  5
7ADD
  8
1
  6
CONTINUOUS
 10
4552.7844955096571
 20
9185.0158444495537
 30
0.0
 11
4552.7844955096571
 21
10135.01584444955
 31
0.0
  0
LINE
  5
7ADE
  8
1
  6
CONTINUOUS
 10
4527.7844955096562
 20
8933.0158444495537
 30
0.0
 11
4527.7844955096562
 21
9185.0158444495537
 31
0.0
  0
LINE
  5
7ADF
  8
1
  6
CONTINUOUS
 10
4155.7844955096571
 20
8820.0158444495555
 30
0.0
 11
4155.7844955096571
 21
9060.0158444495537
 31
0.0
  0
LINE
  5
7AE0
  8
1
  6
CONTINUOUS
 10
4402.7844955096562
 20
10135.01584444955
 30
0.0
 11
4402.7844955096562
 21
10238.01584444955
 31
0.0
  0
LINE
  5
7AE1
  8
1
  6
CONTINUOUS
 10
4527.7844955096562
 20
10213.01584444955
 30
0.0
 11
4402.7844955096562
 21
10213.01584444955
 31
0.0
  0
LINE
  5
7AE2
  8
1
  6
CONTINUOUS
 10
4527.7844955096562
 20
10135.01584444955
 30
0.0
 11
4527.7844955096562
 21
10213.01584444955
 31
0.0
  0
LINE
  5
7AE3
  8
1
  6
CONTINUOUS
 10
8538.5431757610695
 20
4828.1321799999996
 30
0.0
 11
8538.5431757610695
 21
6178.1321799999996
 31
0.0
  0
LINE
  5
7AE4
  8
1
  6
CONTINUOUS
 10
8435.5431757610695
 20
4169.1321799999996
 30
0.0
 11
8435.5431757610695
 21
6332.1321799999996
 31
0.0
  0
LINE
  5
7AE5
  8
1
  6
CONTINUOUS
 10
8513.5431757610695
 20
4103.1321799999987
 30
0.0
 11
8435.5431757610695
 21
4103.1321799999987
 31
0.0
  0
LINE
  5
7AE6
  8
1
  6
CONTINUOUS
 10
8513.5431757610695
 20
3953.1321799999992
 30
0.0
 11
8513.5431757610695
 21
4103.1321799999987
 31
0.0
  0
LINE
  5
7AE7
  8
1
  6
CONTINUOUS
 10
8513.5431757610695
 20
3859.1321799999992
 30
0.0
 11
8513.5431757610695
 21
3934.1321799999992
 31
0.0
  0
LINE
  5
7AE8
  8
1
  6
CONTINUOUS
 10
8435.5431757610695
 20
4878.1321799999996
 30
0.0
 11
8538.5431757610695
 21
4878.1321799999996
 31
0.0
  0
LINE
  5
7AE9
  8
1
  6
CONTINUOUS
 10
8435.5431757610695
 20
6128.1321799999996
 30
0.0
 11
8538.5431757610695
 21
6128.1321799999996
 31
0.0
  0
DIMENSION
  5
7AFD
  8
3
  6
CONTINUOUS
  2
*D1
 10
3777.7844955096562
 20
3425.4616449999999
 30
0.0
 11
2931.6982655096572
 21
3425.4616449999999
 31
0.0
 70
   128
 13
1977.7844955096559
 23
3859.1321799999992
 33
0.0
 14
3777.7844955096562
 24
3759.8317659999998
 34
0.0
1001
ACAD
1000
DSTYLE
1002
{
1070
   287
1070
     3
1070
   287
1070
     3
1070
    40
1040
45.0
1070
   143
1040
0.039
1070
   172
1070
     1
1070
   271
1070
     0
1070
   279
1070
     0
1070
   288
1070
     1
1002
}
  0
DIMENSION
  5
7B09
  8
3
  6
CONTINUOUS
  2
*D2
 10
4527.7844955096562
 20
3425.4616449999999
 30
0.0
 11
4152.7844955096562
 21
3537.9616450000012
 31
0.0
 70
     0
 13
3777.7844955096562
 23
3759.8317659999998
 33
0.0
 14
4527.7844955096562
 24
3859.1321799999992
 34
0.0
1001
ACAD
1000
DSTYLE
1002
{
1070
   287
1070
     4
1070
   287
1070
     4
1070
    40
1040
45.0
1070
    75
1070
     1
1070
   143
1040
0.039
1070
   172
1070
     1
1070
   271
1070
     0
1070
   279
1070
     1
1070
   288
1070
     1
1002
}
  0
DIMENSION
  5
7B16
  8
3
  6
CONTINUOUS
  2
*D3
 10
5048.0271125096569
 20
4169.1321799999996
 30
0.0
 11
5048.0271125096569
 21
4868.5867979999994
 31
0.0
 70
   128
 13
4602.7844955096571
 23
5449.1321799999987
 33
0.0
 14
4602.7844955096571
 24
4169.1321799999996
 34
0.0
 50
90.0
1001
ACAD
1000
DSTYLE
1002
{
1070
   287
1070
     3
1070
   287
1070
     3
1070
    40
1040
45.0
1070
   143
1040
0.039
1070
   172
1070
     1
1070
   271
1070
     0
1070
   279
1070
     0
1070
   288
1070
     1
1002
}
  0
DIMENSION
  5
7B23
  8
3
  6
CONTINUOUS
  2
*D4
 10
5713.3833505096582
 20
5503.1321799999996
 30
0.0
 11
5713.3833505096582
 21
5963.3027570000013
 31
0.0
 70
   128
 13
3769.1268755096571
 23
6400.2407359999988
 33
0.0
 14
4519.2894105096557
 24
5503.1321799999996
 34
0.0
 50
90.0
1001
ACAD
1000
DSTYLE
1002
{
1070
   287
1070
     3
1070
   287
1070
     3
1070
    40
1040
45.0
1070
   143
1040
0.039
1070
   172
1070
     1
1070
   271
1070
     0
1070
   279
1070
     0
1070
   288
1070
     1
1002
}
  0
DIMENSION
  5
7B2F
  8
3
  6
CONTINUOUS
  2
*D5
 10
5713.3833505096582
 20
3953.1321799999992
 30
0.0
 11
5600.8833505096563
 21
4728.1321800000014
 31
0.0
 70
     0
 13
4519.2894105096557
 23
5503.1321799999996
 33
0.0
 14
4527.7844955096562
 24
3953.1321799999992
 34
0.0
 50
90.0
1001
ACAD
1000
DSTYLE
1002
{
1070
   287
1070
     4
1070
   287
1070
     4
1070
    40
1040
45.0
1070
    75
1070
     1
1070
   143
1040
0.039
1070
   172
1070
     1
1070
   271
1070
     0
1070
   279
1070
     1
1070
   288
1070
     1
1002
}
  0
DIMENSION
  5
7B3F
  8
3
  6
CONTINUOUS
  2
*D6
 10
5713.3833505096582
 20
3859.1321799999992
 30
0.0
 11
5713.3833505096582
 21
3521.6321800000001
 31
0.0
 70
   128
 13
4527.7844955096562
 23
3953.1321799999992
 33
0.0
 14
4527.7844955096562
 24
3859.1321799999992
 34
0.0
 50
90.0
1001
ACAD
1000
DSTYLE
1002
{
1070
   287
1070
     3
1070
   287
1070
     3
1070
    40
1040
45.0
1070
   143
1040
0.039
1070
   172
1070
     1
1070
   271
1070
     0
1070
   279
1070
     0
1070
   288
1070
     1
1002
}
  0
DIMENSION
  5
7B9A
  8
3
  6
CONTINUOUS
  2
*D7
 10
3777.7844955096562
 20
6565.7313569999997
 30
0.0
 11
4211.8552305096573
 21
6565.7313569999997
 31
0.0
 70
   128
 13
4602.7844955096571
 23
5499.1321799999996
 33
0.0
 14
3777.7844955096562
 24
6399.4732039999999
 34
0.0
1001
ACAD
1000
DSTYLE
1002
{
1070
   287
1070
     3
1070
   287
1070
     3
1070
    40
1040
45.0
1070
   143
1040
0.039
1070
   172
1070
     1
1070
   271
1070
     0
1070
   279
1070
     0
1070
   288
1070
     1
1002
}
  0
DIMENSION
  5
7BA6
  8
3
  6
CONTINUOUS
  2
*D8
 10
2698.7844955096562
 20
6565.7313569999997
 30
0.0
 11
3238.2844955096562
 21
6678.2313569999997
 31
0.0
 70
     0
 13
3777.7844955096562
 23
6399.4732039999999
 33
0.0
 14
2698.7844955096562
 24
5503.1321799999996
 34
0.0
1001
ACAD
1000
DSTYLE
1002
{
1070
   287
1070
     4
1070
   287
1070
     4
1070
    40
1040
45.0
1070
    75
1070
     1
1070
   143
1040
0.039
1070
   172
1070
     1
1070
   271
1070
     0
1070
   279
1070
     1
1070
   288
1070
     1
1002
}
  0
DIMENSION
  5
7BB3
  8
3
  6
CONTINUOUS
  2
*D9
 10
4527.7844955096562
 20
8312.2827734495531
 30
0.0
 11
3282.638534509656
 21
8312.2827734495531
 31
0.0
 70
   128
 13
1977.7844955096559
 23
8933.0158444495537
 33
0.0
 14
4527.7844955096562
 24
8933.0158444495537
 34
0.0
1001
ACAD
1000
DSTYLE
1002
{
1070
   287
1070
     3
1070
   287
1070
     3
1070
    40
1040
45.0
1070
   143
1040
0.039
1070
   172
1070
     1
1070
   271
1070
     0
1070
   279
1070
     0
1070
   288
1070
     1
1002
}
  0
DIMENSION
  5
7BC0
  8
3
  6
CONTINUOUS
  2
*D10
 10
4991.8263015096582
 20
8933.0158444495537
 30
0.0
 11
4991.8263015096572
 21
9583.3427334495536
 31
0.0
 70
   128
 13
4527.7844955096562
 23
10213.01584444955
 33
0.0
 14
4527.7844955096562
 24
8933.0158444495537
 34
0.0
 50
90.0
1001
ACAD
1000
DSTYLE
1002
{
1070
   287
1070
     3
1070
   287
1070
     3
1070
    40
1040
45.0
1070
   143
1040
0.039
1070
   172
1070
     1
1070
   271
1070
     0
1070
   279
1070
     0
1070
   288
1070
     1
1002
}
  0
LINE
  5
7BC1
  8
2
  6
CENTER
 10
2562.0554125096569
 20
9660.0158444495537
 30
0.0
 11
4663.240000509657
 21
9660.0158444495537
 31
0.0
  0
LINE
  5
7BC2
  8
2
  6
CENTER
 10
3777.7844955096562
 20
6506.5972570000004
 30
0.0
 11
3777.7844955096562
 21
3833.7493530000002
 31
0.0
  0
LINE
  5
7BC3
  8
2
  6
CENTER
 10
7960.5431757610704
 20
6558.7182400000011
 30
0.0
 11
7960.5431757610704
 21
3714.4948420000001
 31
0.0
  0
DIMENSION
  5
7BD0
  8
3
  6
CONTINUOUS
  2
*D11
 10
8435.5431757610695
 20
6540.6146189999999
 30
0.0
 11
7897.1301677610691
 21
6540.6146189999999
 31
0.0
 70
   128
 13
7485.5431757610704
 23
6332.1321799999996
 33
0.0
 14
8435.5431757610695
 24
6332.1321799999996
 34
0.0
1001
ACAD
1000
DSTYLE
1002
{
1070
   287
1070
     3
1070
   287
1070
     3
1070
    40
1040
45.0
1070
   143
1040
0.039
1070
   172
1070
     1
1070
   271
1070
     0
1070
   279
1070
     0
1070
   288
1070
     1
1002
}
  0
DIMENSION
  5
7BDD
  8
3
  6
CONTINUOUS
  2
*D12
 10
7960.5431757610704
 20
6814.845166000001
 30
0.0
 11
7556.7416557610686
 21
6814.845166000001
 31
0.0
 70
   128
  1
MAX\P890
 13
7120.5431757610704
 23
5881.1321799999987
 33
0.0
 14
7960.5431757610704
 24
6740.3197180000006
 34
0.0
1001
ACAD
1000
DSTYLE
1002
{
1070
   287
1070
     3
1070
   287
1070
     3
1070
    40
1040
45.0
1070
   143
1040
0.039
1070
   172
1070
     1
1070
   271
1070
     0
1070
   279
1070
     0
1070
   288
1070
     1
1002
}
  0
DIMENSION
  5
7BEB
  8
3
  6
CONTINUOUS
  2
*D13
 10
8538.5431757610695
 20
6814.845166000001
 30
0.0
 11
8259.7180067610698
 21
6815.5805670000009
 31
0.0
 70
   128
 13
7960.5431757610704
 23
6740.3197180000006
 33
0.0
 14
8538.5431757610695
 24
6178.1321799999996
 34
0.0
1001
ACAD
1000
DSTYLE
1002
{
1070
   287
1070
     4
1070
   287
1070
     4
1070
    40
1040
45.0
1070
    75
1070
     1
1070
   143
1040
0.039
1070
   172
1070
     1
1070
   271
1070
     0
1070
   279
1070
     1
1070
   288
1070
     1
1002
}
  0
DIMENSION
  5
7C0E
  8
3
  6
CONTINUOUS
  2
*D14
 10
8881.2970597610729
 20
4878.1321799999996
 30
0.0
 11
8881.2970597610692
 21
5558.9812570000013
 31
0.0
 70
   128
 13
8538.5431757610695
 23
6128.1321799999996
 33
0.0
 14
8538.5431757610695
 24
4878.1321799999996
 34
0.0
 50
90.0
1001
ACAD
1000
DSTYLE
1002
{
1070
   287
1070
     3
1070
   287
1070
     3
1070
     3
1000
φ<>
1070
    40
1040
45.0
1070
   143
1040
0.039
1070
   172
1070
     1
1070
   271
1070
     0
1070
   279
1070
     0
1070
   288
1070
     1
1002
}
  0
LINE
  5
7C0F
  8
2
  6
CENTER
 10
7023.959533761069
 20
5503.1321799999996
 30
0.0
 11
8612.7523207610666
 21
5503.1321799999996
 31
0.0
  0
LINE
  5
7C10
  8
4
  6
CONTINUOUS
 10
9250.0
 20
2500.0
 30
0.0
 11
9250.0
 21
1500.0
 31
0.0
  0
LINE
  5
7C11
  8
4
  6
CONTINUOUS
 10
5750.0
 20
2500.0
 30
0.0
 11
5750.0
 21
1500.0
 31
0.0
  0
LINE
  5
7C12
  8
4
  6
CONTINUOUS
 10
3250.0
 20
2500.0
 30
0.0
 11
3250.0
 21
1500.0
 31
0.0
  0
LINE
  5
7C15
  8
4
  6
CONTINUOUS
 10
3250.0
 20
1500.0
 30
0.0
 11
9250.0
 21
1500.0
 31
0.0
  0
LINE
  5
7C16
  8
4
  6
CONTINUOUS
 10
3250.0
 20
2000.0
 30
0.0
 11
9250.0
 21
2000.0
 31
0.0
  0
TEXT
  5
7C17
  8
4
  6
CONTINUOUS
 10
3442.5104040000001
 20
2157.7151289999988
 30
0.0
 40
250.0
  1
機器名称
  0
TEXT
  5
7C18
  8
4
  6
CONTINUOUS
 10
3431.2905300000002
 20
1608.225782999999
 30
0.0
 40
250.0
  1
機器型番
  0
TEXT
  5
7C19
  8
4
  6
CONTINUOUS
 10
5888.393728
 20
2112.8588439999999
 30
0.0
 40
211.11111099999991
  1
ミツヤリミットロードファン
  0
TEXT
  5
7C1A
  8
4
  6
CONTINUOUS
 10
5933.2724779999999
 20
1585.7979210000001
 30
0.0
 40
250.0
  1
LLE#8-4
  0
TEXT
  5
7C1C
  8
4
  6
CONTINUOUS
 10
3960.343147999999
 20
11917.14420699999
 30
0.0
 40
270.0
  1
床置防振ベット
  0
TEXT
  5
7C1D
  8
4
  6
CONTINUOUS
 10
1580.837966999999
 20
12669.404881
 30
0.0
 40
300.0
  1
ベルト駆動式片吸込両持排煙ファン
  0
LINE
  5
7C1E
  8
4
  6
CONTINUOUS
 10
1250.0
 20
12347.04377099999
 30
0.0
 11
9250.0
 21
12347.04377099999
 31
0.0
  0
LINE
  5
7C1F
  8
4
  6
CONTINUOUS
 10
1250.0
 20
13347.043771000001
 30
0.0
 11
9250.0
 21
13347.043771000001
 31
0.0
  0
LINE
  5
7C20
  8
4
  6
CONTINUOUS
 10
3250.0
 20
2500.0
 30
0.0
 11
9250.0
 21
2500.0
 31
0.0
  0
LINE
  5
7C21
  8
4
  6
CONTINUOUS
 10
1250.0
 20
13347.043771000001
 30
0.0
 11
1250.0
 21
12347.04377099999
 31
0.0
  0
TEXT
  5
7C22
  8
4
  6
CONTINUOUS
 10
1781.0489869999999
 20
11911.597388
 30
0.0
 40
270.0
  1
左回転右横向
  0
TEXT
  5
7C23
  8
4
  6
CONTINUOUS
 10
7344.8477969999994
 20
13530.305408
 30
0.0
 40
280.0
  1
No.
  0
TEXT
  5
7C24
  8
4
  6
CONTINUOUS
 10
6556.480313
 20
11917.14420699999
 30
0.0
 40
270.0
  1
縮尺：1/50
  0
LINE
  5
7C25
  8
4
  6
CONTINUOUS
 10
9250.0
 20
13347.043771000001
 30
0.0
 11
9250.0
 21
12347.04377099999
 31
0.0
  0
LINE
  5
7C26
  8
4
  6
CONTINUOUS
 10
9450.0
 20
13275.0
 30
0.0
 11
9450.0
 21
13275.0
 31
0.0
  0
LINE
  5
7C27
  8
4
  6
CONTINUOUS
 10
7203.0871120000002
 20
13406.317916
 30
0.0
 11
7203.0871120000002
 21
13933.261307999999
 31
0.0
  0
LINE
  5
7C28
  8
4
  6
CONTINUOUS
 10
7203.0871120000002
 20
13933.261307999999
 30
0.0
 11
9250.0
 21
13933.261307999999
 31
0.0
  0
LINE
  5
7C29
  8
4
  6
CONTINUOUS
 10
9250.0
 20
13933.261307999999
 30
0.0
 11
9250.0
 21
13406.317916
 31
0.0
  0
LINE
  5
7C2A
  8
4
  6
CONTINUOUS
 10
9250.0
 20
13406.317916
 30
0.0
 11
7203.0871120000002
 21
13406.317916
 31
0.0
  0
DIMENSION
  5
7C3C
  8
3
  6
CONTINUOUS
  2
*D15
 10
7960.5431757610704
 20
3457.3115322947051
 30
0.0
 11
7589.3865837610692
 21
3457.3115322947051
 31
0.0
 70
   128
 13
7233.5431757610686
 23
3859.1321799999992
 33
0.0
 14
7960.5431757610704
 24
3714.4948420000001
 34
0.0
1001
ACAD
1000
DSTYLE
1002
{
1070
   287
1070
     3
1070
   287
1070
     3
1070
    40
1040
45.0
1070
   143
1040
0.039
1070
   172
1070
     1
1070
   271
1070
     0
1070
   279
1070
     0
1070
   288
1070
     1
1002
}
  0
DIMENSION
  5
7C4A
  8
3
  6
CONTINUOUS
  2
*D16
 10
8513.5431757610695
 20
3457.3115322947051
 30
0.0
 11
8230.2656897610686
 21
3453.5457312947051
 31
0.0
 70
   128
 13
7960.5431757610704
 23
3714.4948420000001
 33
0.0
 14
8513.5431757610695
 24
3859.1321799999992
 34
0.0
1001
ACAD
1000
DSTYLE
1002
{
1070
   287
1070
     4
1070
   287
1070
     4
1070
    40
1040
45.0
1070
    75
1070
     1
1070
   143
1040
0.039
1070
   172
1070
     1
1070
   271
1070
     0
1070
   279
1070
     1
1070
   288
1070
     1
1002
}
  0
DIMENSION
  5
7CA3
  8
3
  6
CONTINUOUS
  2
*D17
 10
5437.8220035096583
 20
4169.1321799999996
 30
0.0
 11
5437.8220035096574
 21
4865.17094
 31
0.0
 70
   128
 13
4519.2894105096557
 23
5503.1321799999996
 33
0.0
 14
4602.7844955096571
 24
4169.1321799999996
 34
0.0
 50
90.0
1001
ACAD
1000
DSTYLE
1002
{
1070
   287
1070
     3
1070
   287
1070
     3
1070
    40
1040
45.0
1070
   143
1040
0.039
1070
   172
1070
     1
1070
   271
1070
     0
1070
   279
1070
     0
1070
   288
1070
     1
1002
}
  0
DIMENSION
  5
7D28
  8
3
  2
*D18
 10
5992.1422274770966
 20
3859.1321799999992
 30
0.0
 11
5992.1422274770957
 21
5119.2275124614243
 31
0.0
 70
   128
 13
3791.6268755096571
 23
6400.2407359999988
 33
0.0
 14
4527.7844955096562
 24
3859.1321799999992
 34
0.0
 50
90.0
1001
ACAD
1000
DSTYLE
1002
{
1070
   287
1070
     3
1070
   287
1070
     3
1070
    40
1040
45.0
1070
   143
1040
0.039
1070
   172
1070
     1
1070
   271
1070
     0
1070
   279
1070
     0
1070
   288
1070
     1
1002
}
  0
DIMENSION
  5
7D66
  8
3
  2
*D19
 10
1977.7844955096571
 20
6900.6882439366527
 30
0.0
 11
3361.0030898364062
 21
6900.6882439366527
 31
0.0
 70
   128
 13
4602.7844955096571
 23
5499.1321799999996
 33
0.0
 14
1977.7844955096559
 24
4103.1321799999987
 34
0.0
1001
ACAD
1000
DSTYLE
1002
{
1070
   287
1070
     3
1070
   287
1070
     3
1070
    40
1040
45.0
1070
   143
1040
0.039
1070
   172
1070
     1
1070
   271
1070
     0
1070
   279
1070
     0
1070
   288
1070
     1
1002
}
  0
ENDSEC
  0
EOF
