  0
SECTION
  2
HEADER
  9
$ACADVER
  1
AC1009
  9
$INSBASE
 10
0.0
 20
0.0
 30
0.0
  9
$EXTMIN
 10
1250.0
 20
1500.0
 30
0.0
  9
$EXTMAX
 10
9250.0
 20
13933.261307999999
 30
0.0
  9
$LIMMIN
 10
0.0
 20
0.0
  9
$LIMMAX
 10
297.0
 20
210.0
  9
$ORTHOMODE
 70
     0
  9
$REGENMODE
 70
     1
  9
$FILLMODE
 70
     0
  9
$QTEXTMODE
 70
     0
  9
$MIRRTEXT
 70
     1
  9
$DRAGMODE
 70
     2
  9
$LTSCALE
 40
100.0
  9
$OSMODE
 70
    37
  9
$ATTMODE
 70
     1
  9
$TEXTSIZE
 40
180.0
  9
$TRACEWID
 40
0.05
  9
$TEXTSTYLE
  7
STANDARD
  9
$CLAYER
  8
3
  9
$CELTYPE
  6
BYLAYER
  9
$CECOLOR
 62
   256
  9
$DIMSCALE
 40
45.0
  9
$DIMASZ
 40
2.0
  9
$DIMEXO
 40
0.5
  9
$DIMDLI
 40
10.0
  9
$DIMRND
 40
0.0
  9
$DIMDLE
 40
0.0
  9
$DIMEXE
 40
1.0
  9
$DIMTP
 40
1.0
  9
$DIMTM
 40
1.0
  9
$DIMTXT
 40
3.0
  9
$DIMCEN
 40
0.0
  9
$DIMTSZ
 40
0.0
  9
$DIMTOL
 70
     0
  9
$DIMLIM
 70
     0
  9
$DIMTIH
 70
     0
  9
$DIMTOH
 70
     0
  9
$DIMSE1
 70
     0
  9
$DIMSE2
 70
     0
  9
$DIMTAD
 70
     1
  9
$DIMZIN
 70
     8
  9
$DIMBLK
  1

  9
$DIMASO
 70
     1
  9
$DIMSHO
 70
     1
  9
$DIMPOST
  1

  9
$DIMAPOST
  1

  9
$DIMALT
 70
     0
  9
$DIMALTD
 70
     2
  9
$DIMALTF
 40
0.039
  9
$DIMLFAC
 40
1.0
  9
$DIMTOFL
 70
     1
  9
$DIMTVP
 40
0.0
  9
$DIMTIX
 70
     0
  9
$DIMSOXD
 70
     0
  9
$DIMSAH
 70
     1
  9
$DIMBLK1
  1
OPEN
  9
$DIMBLK2
  1
OPEN
  9
$DIMSTYLE
  2
IGA
  9
$DIMCLRD
 70
     0
  9
$DIMCLRE
 70
     0
  9
$DIMCLRT
 70
     0
  9
$DIMTFAC
 40
10.0
  9
$DIMGAP
 40
1.0
  9
$LUNITS
 70
     2
  9
$LUPREC
 70
     3
  9
$SKETCHINC
 40
0.1
  9
$FILLETRAD
 40
50.0
  9
$AUNITS
 70
     0
  9
$AUPREC
 70
     0
  9
$MENU
  1
acad
  9
$ELEVATION
 40
0.0
  9
$PELEVATION
 40
0.0
  9
$THICKNESS
 40
0.0
  9
$LIMCHECK
 70
     0
  9
$BLIPMODE
 70
     0
  9
$CHAMFERA
 40
0.5
  9
$CHAMFERB
 40
0.5
  9
$SKPOLY
 70
     0
  9
$TDCREATE
 40
2450750.4679123838
  9
$TDUPDATE
 40
2454953.6885054982
  9
$TDINDWG
 40
0.0053483102
  9
$TDUSRTIMER
 40
0.0053483102
  9
$USRTIMER
 70
     1
  9
$ANGBASE
 50
0.0
  9
$ANGDIR
 70
     0
  9
$PDMODE
 70
     0
  9
$PDSIZE
 40
0.0
  9
$PLINEWID
 40
0.0
  9
$COORDS
 70
     1
  9
$SPLFRAME
 70
     0
  9
$SPLINETYPE
 70
     6
  9
$SPLINESEGS
 70
     8
  9
$ATTDIA
 70
     0
  9
$ATTREQ
 70
     1
  9
$HANDLING
 70
 10241
  9
$HANDSEED
  5
7E70
  9
$SURFTAB1
 70
     6
  9
$SURFTAB2
 70
     6
  9
$SURFTYPE
 70
     6
  9
$SURFU
 70
     6
  9
$SURFV
 70
     6
  9
$UCSNAME
  2

  9
$UCSORG
 10
0.0
 20
0.0
 30
0.0
  9
$UCSXDIR
 10
1.0
 20
0.0
 30
0.0
  9
$UCSYDIR
 10
0.0
 20
1.0
 30
0.0
  9
$PUCSNAME
  2

  9
$PUCSORG
 10
0.0
 20
0.0
 30
0.0
  9
$PUCSXDIR
 10
1.0
 20
0.0
 30
0.0
  9
$PUCSYDIR
 10
0.0
 20
1.0
 30
0.0
  9
$USERI1
 70
     0
  9
$USERI2
 70
     0
  9
$USERI3
 70
     0
  9
$USERI4
 70
     0
  9
$USERI5
 70
     0
  9
$USERR1
 40
0.0
  9
$USERR2
 40
0.0
  9
$USERR3
 40
0.0
  9
$USERR4
 40
0.0
  9
$USERR5
 40
0.0
  9
$WORLDVIEW
 70
     1
  9
$SHADEDGE
 70
     3
  9
$SHADEDIF
 70
    70
  9
$TILEMODE
 70
     1
  9
$MAXACTVP
 70
    16
  9
$PLIMCHECK
 70
     0
  9
$PEXTMIN
 10
1.0000000000000000E+020
 20
1.0000000000000000E+020
 30
1.0000000000000000E+020
  9
$PEXTMAX
 10
-1.0000000000000000E+020
 20
-1.0000000000000000E+020
 30
-1.0000000000000000E+020
  9
$PLIMMIN
 10
0.0
 20
0.0
  9
$PLIMMAX
 10
12.0
 20
9.0
  9
$UNITMODE
 70
     0
  9
$VISRETAIN
 70
     0
  9
$PLINEGEN
 70
     0
  9
$PSLTSCALE
 70
     1
  0
ENDSEC
  0
SECTION
  2
TABLES
  0
TABLE
  2
VPORT
 70
     2
  0
VPORT
  2
*ACTIVE
 70
     0
 10
0.0
 20
0.0
 11
1.0
 21
1.0
 12
22742.54604464526
 22
8065.9798838517063
 13
0.0
 23
0.0
 14
10.0
 24
10.0
 15
10.0
 25
10.0
 16
0.0
 26
0.0
 36
1.0
 17
0.0
 27
0.0
 37
0.0
 40
17719.903771909328
 41
3.1666666666666661
 42
50.0
 43
0.0
 44
0.0
 50
0.0
 51
0.0
 71
     0
 72
   100
 73
     1
 74
     0
 75
     0
 76
     0
 77
     0
 78
     0
  0
ENDTAB
  0
TABLE
  2
LTYPE
 70
     2
  0
LTYPE
  2
CONTINUOUS
 70
     0
  3
Solid line
 72
    65
 73
     0
 40
0.0
  0
LTYPE
  2
CENTER
 70
     0
  3
____ _ ____ _ ____ _ ____ _ ____ _ ____ _ ____ 
 72
    65
 73
     4
 40
2.0
 49
1.25
 49
-0.25
 49
0.25
 49
-0.25
  0
ENDTAB
  0
TABLE
  2
LAYER
 70
     6
  0
LAYER
  2
0
 70
     0
 62
     7
  6
CONTINUOUS
  0
LAYER
  2
3
 70
     0
 62
     2
  6
CONTINUOUS
  0
LAYER
  2
2
 70
     0
 62
     3
  6
CENTER
  0
LAYER
  2
1
 70
     0
 62
     4
  6
CONTINUOUS
  0
LAYER
  2
4
 70
     0
 62
     7
  6
CONTINUOUS
  0
LAYER
  2
DEFPOINTS
 70
     0
 62
     7
  6
CONTINUOUS
  0
ENDTAB
  0
TABLE
  2
STYLE
 70
     1
  0
STYLE
  2
STANDARD
 70
     0
 40
0.0
 41
1.0
 50
0.0
 71
     0
 42
180.0
  3
simplex.shx
  4
extfont.shx
  0
ENDTAB
  0
TABLE
  2
VIEW
 70
     0
  0
ENDTAB
  0
TABLE
  2
UCS
 70
     0
  0
ENDTAB
  0
TABLE
  2
APPID
 70
     1
  0
APPID
  2
ACAD
 70
     0
  0
ENDTAB
  0
TABLE
  2
DIMSTYLE
 70
     1
  0
DIMSTYLE
  2
IGA
 70
     0
  3

  4

  5

  6
OPEN
  7
OPEN
 40
2.0
 41
2.0
 42
0.5
 43
10.0
 44
1.0
 45
0.0
 46
0.0
 47
1.0
 48
1.0
140
3.0
141
0.0
142
0.0
143
0.03937
144
1.0
145
0.0
146
10.0
147
1.0
 71
     0
 72
     0
 73
     0
 74
     0
 75
     0
 76
     0
 77
     1
 78
     8
170
     0
171
     2
172
     0
173
     1
174
     0
175
     0
176
     0
177
     0
178
     0
  0
ENDTAB
  0
ENDSEC
  0
SECTION
  2
BLOCKS
  0
BLOCK
  8
0
  2
$MODEL_SPACE
 70
     0
 10
0.0
 20
0.0
 30
0.0
  3
$MODEL_SPACE
  1

  0
ENDBLK
  5
1B
  8
0
  0
BLOCK
 67
     1
  8
0
  2
$PAPER_SPACE
 70
     0
 10
0.0
 20
0.0
 30
0.0
  3
$PAPER_SPACE
  1

  0
ENDBLK
  5
18
 67
     1
  8
0
  0
BLOCK
  8
0
  2
_OPEN
 70
     0
 10
0.0
 20
0.0
 30
0.0
  3
_OPEN
  1

  0
LINE
  5
7B09
  8
0
  6
BYBLOCK
 62
     0
 10
-1.0
 20
0.166667
 30
0.0
 11
0.0
 21
0.0
 31
0.0
  0
LINE
  5
7B0A
  8
0
  6
BYBLOCK
 62
     0
 10
0.0
 20
0.0
 30
0.0
 11
-1.0
 21
-0.166667
 31
0.0
  0
LINE
  5
7B0B
  8
0
  6
BYBLOCK
 62
     0
 10
0.0
 20
0.0
 30
0.0
 11
-1.0
 21
0.0
 31
0.0
  0
ENDBLK
  5
7B0C
  8
0
  0
BLOCK
  8
0
  2
*D1
 70
     1
 10
0.0
 20
0.0
 30
0.0
  3
*D1
  1

  0
LINE
  5
7DBE
  8
3
  6
CONTINUOUS
 62
     0
 10
2468.449904999999
 20
4027.1924399999989
 30
0.0
 11
2468.449904999999
 21
3637.4455119999998
 31
0.0
  0
LINE
  5
7DBF
  8
3
  6
CONTINUOUS
 62
     0
 10
3218.449904999999
 20
3893.3002240000001
 30
0.0
 11
3218.449904999999
 21
3637.4455119999998
 31
0.0
  0
LINE
  5
7DC0
  8
3
  6
CONTINUOUS
 62
     0
 10
2558.4499049999999
 20
3682.4455119999989
 30
0.0
 11
3128.4499049999999
 21
3682.4455119999989
 31
0.0
  0
INSERT
  5
7DC1
  8
3
  6
CONTINUOUS
 62
     0
  2
_OPEN
 10
2468.449904999999
 20
3682.4455119999989
 30
0.0
 41
90.0
 42
90.0
 43
90.0
 50
180.0
  0
INSERT
  5
7DC2
  8
3
  6
CONTINUOUS
 62
     0
  2
_OPEN
 10
3218.449904999999
 20
3682.4455119999989
 30
0.0
 41
90.0
 42
90.0
 43
90.0
  0
TEXT
  8
3
  40
135
  5
7E5D
  62
0
  72
0
  71
0
 10
2570.97
 20
3556.00
 30
0.000000
  1
750
  0
POINT
  5
7DC4
  8
DEFPOINTS
  6
CONTINUOUS
 62
     0
 10
2468.449904999999
 20
4049.6924399999998
 30
0.0
  0
POINT
  5
7DC5
  8
DEFPOINTS
  6
CONTINUOUS
 62
     0
 10
3218.449904999999
 20
3915.8002240000001
 30
0.0
  0
POINT
  5
7DC6
  8
DEFPOINTS
  6
CONTINUOUS
 62
     0
 10
3218.449904999999
 20
3682.4455119999989
 30
0.0
  0
ENDBLK
  5
7B19
  8
0
  0
BLOCK
  8
0
  2
*D2
 70
     1
 10
0.0
 20
0.0
 30
0.0
  3
*D2
  1

  0
LINE
  5
7DC7
  8
3
  6
CONTINUOUS
 62
     0
 10
5018.4499050000004
 20
4027.1924399999989
 30
0.0
 11
5018.4499050000004
 21
3637.4455119999998
 31
0.0
  0
LINE
  5
7DC8
  8
3
  6
CONTINUOUS
 62
     0
 10
3308.449904999999
 20
3682.4455119999989
 30
0.0
 11
4928.4499049999986
 21
3682.4455119999989
 31
0.0
  0
INSERT
  5
7DC9
  8
3
  6
CONTINUOUS
 62
     0
  2
_OPEN
 10
3218.449904999999
 20
3682.4455119999989
 30
0.0
 41
90.0
 42
90.0
 43
90.0
 50
180.0
  0
INSERT
  5
7DCA
  8
3
  6
CONTINUOUS
 62
     0
  2
_OPEN
 10
5018.4499050000004
 20
3682.4455119999989
 30
0.0
 41
90.0
 42
90.0
 43
90.0
  0
TEXT
  8
3
  40
135
  5
7E5E
  62
0
  72
0
  71
0
 10
3848.45
 20
3556.00
 30
0.000000
  1
1800
  0
POINT
  5
7DCC
  8
DEFPOINTS
  6
CONTINUOUS
 62
     0
 10
3218.449904999999
 20
3915.8002240000001
 30
0.0
  0
POINT
  5
7DCD
  8
DEFPOINTS
  6
CONTINUOUS
 62
     0
 10
5018.4499050000004
 20
4049.6924399999998
 30
0.0
  0
POINT
  5
7DCE
  8
DEFPOINTS
  6
CONTINUOUS
 62
     0
 10
5018.4499050000004
 20
3682.4455119999989
 30
0.0
  0
ENDBLK
  5
7C7F
  8
0
  0
BLOCK
  8
0
  2
*D3
 70
     1
 10
0.0
 20
0.0
 30
0.0
  3
*D3
  1

  0
LINE
  5
7DCF
  8
3
  6
CONTINUOUS
 62
     0
 10
2370.9499049999999
 20
6402.6924399999998
 30
0.0
 11
2062.363253
 21
6402.6924399999998
 31
0.0
  0
LINE
  5
7DD0
  8
3
  6
CONTINUOUS
 62
     0
 10
2370.9499049999999
 20
5122.6924399999998
 30
0.0
 11
2062.363253
 21
5122.6924399999998
 31
0.0
  0
LINE
  5
7DD1
  8
3
  6
CONTINUOUS
 62
     0
 10
2107.363253
 20
6312.6924399999998
 30
0.0
 11
2107.363253
 21
5212.6924399999998
 31
0.0
  0
INSERT
  5
7DD2
  8
3
  6
CONTINUOUS
 62
     0
  2
_OPEN
 10
2107.363253
 20
6402.6924399999998
 30
0.0
 41
90.0
 42
90.0
 43
90.0
 50
90.0
  0
INSERT
  5
7DD3
  8
3
  6
CONTINUOUS
 62
     0
  2
_OPEN
 10
2107.363253
 20
5122.6924399999998
 30
0.0
 41
90.0
 42
90.0
 43
90.0
 50
270.0
  0
TEXT
  8
3
  40
135
  5
7E5F
  62
0
  72
0
  71
0
 10
1724.86
 20
5549.22
 30
0.000000
  1
1280
  0
POINT
  5
7DD5
  8
DEFPOINTS
  6
CONTINUOUS
 62
     0
 10
2393.4499049999999
 20
6402.6924399999998
 30
0.0
  0
POINT
  5
7DD6
  8
DEFPOINTS
  6
CONTINUOUS
 62
     0
 10
2393.4499049999999
 20
5122.6924399999998
 30
0.0
  0
POINT
  5
7DD7
  8
DEFPOINTS
  6
CONTINUOUS
 62
     0
 10
2107.363253
 20
5122.6924399999998
 30
0.0
  0
ENDBLK
  5
7B32
  8
0
  0
BLOCK
  8
0
  2
*D4
 70
     1
 10
0.0
 20
0.0
 30
0.0
  3
*D4
  1

  0
LINE
  5
7DD8
  8
3
  6
CONTINUOUS
 62
     0
 10
2370.9499049999999
 20
6402.6924399999998
 30
0.0
 11
1784.6414240000011
 21
6402.6924400000007
 31
0.0
  0
LINE
  5
7DD9
  8
3
  6
CONTINUOUS
 62
     0
 10
2454.44499
 20
5068.6924399999998
 30
0.0
 11
1784.6414239999999
 21
5068.6924400000007
 31
0.0
  0
LINE
  5
7DDA
  8
3
  6
CONTINUOUS
 62
     0
 10
1829.6414239999999
 20
6312.6924400000007
 30
0.0
 11
1829.6414239999999
 21
5158.6924400000007
 31
0.0
  0
INSERT
  5
7DDB
  8
3
  6
CONTINUOUS
 62
     0
  2
_OPEN
 10
1829.6414239999999
 20
6402.6924400000007
 30
0.0
 41
90.0
 42
90.0
 43
90.0
 50
90.0
  0
INSERT
  5
7DDC
  8
3
  6
CONTINUOUS
 62
     0
  2
_OPEN
 10
1829.6414239999999
 20
5068.6924400000007
 30
0.0
 41
90.0
 42
90.0
 43
90.0
 50
270.0
  0
TEXT
  8
3
  40
135
  5
7E60
  62
0
  72
0
  71
0
 10
1447.14
 20
5496.87
 30
0.000000
  1
1334
  0
POINT
  5
7DDE
  8
DEFPOINTS
  6
CONTINUOUS
 62
     0
 10
2393.4499049999999
 20
6402.6924399999998
 30
0.0
  0
POINT
  5
7DDF
  8
DEFPOINTS
  6
CONTINUOUS
 62
     0
 10
2476.94499
 20
5068.6924399999998
 30
0.0
  0
POINT
  5
7DE0
  8
DEFPOINTS
  6
CONTINUOUS
 62
     0
 10
1829.6414239999999
 20
5068.6924400000007
 30
0.0
  0
ENDBLK
  5
7B3F
  8
0
  0
BLOCK
  8
0
  2
*D5
 70
     1
 10
0.0
 20
0.0
 30
0.0
  3
*D5
  1

  0
LINE
  5
7DE1
  8
3
  6
CONTINUOUS
 62
     0
 10
2445.9499049999999
 20
4143.6924399999998
 30
0.0
 11
1784.641423999999
 21
4143.6924400000007
 31
0.0
  0
LINE
  5
7DE2
  8
3
  6
CONTINUOUS
 62
     0
 10
1829.6414239999999
 20
4978.6924400000007
 30
0.0
 11
1829.6414239999999
 21
4233.6924400000007
 31
0.0
  0
INSERT
  5
7DE3
  8
3
  6
CONTINUOUS
 62
     0
  2
_OPEN
 10
1829.6414239999999
 20
5068.6924400000007
 30
0.0
 41
90.0
 42
90.0
 43
90.0
 50
90.0
  0
INSERT
  5
7DE4
  8
3
  6
CONTINUOUS
 62
     0
  2
_OPEN
 10
1829.6414239999999
 20
4143.6924400000007
 30
0.0
 41
90.0
 42
90.0
 43
90.0
 50
270.0
  0
TEXT
  8
3
  40
135
  5
7E61
  62
0
  72
0
  71
0
 10
1447.14
 20
4367.24
 30
0.000000
  1
925
  0
POINT
  5
7DE6
  8
DEFPOINTS
  6
CONTINUOUS
 62
     0
 10
2476.94499
 20
5068.6924399999998
 30
0.0
  0
POINT
  5
7DE7
  8
DEFPOINTS
  6
CONTINUOUS
 62
     0
 10
2468.449904999999
 20
4143.6924399999998
 30
0.0
  0
POINT
  5
7DE8
  8
DEFPOINTS
  6
CONTINUOUS
 62
     0
 10
1829.6414239999999
 20
4143.6924400000007
 30
0.0
  0
ENDBLK
  5
7B4B
  8
0
  0
BLOCK
  8
0
  2
*D6
 70
     1
 10
0.0
 20
0.0
 30
0.0
  3
*D6
  1

  0
LINE
  5
7DE9
  8
3
  6
CONTINUOUS
 62
     0
 10
2445.9499049999999
 20
4143.6924399999998
 30
0.0
 11
1784.6414239999999
 21
4143.6924400000007
 31
0.0
  0
LINE
  5
7DEA
  8
3
  6
CONTINUOUS
 62
     0
 10
2445.9499049999999
 20
4049.6924399999998
 30
0.0
 11
1784.6414239999999
 21
4049.6924399999998
 31
0.0
  0
LINE
  5
7DEB
  8
3
  6
CONTINUOUS
 62
     0
 10
1829.6414239999999
 20
4233.6924400000007
 30
0.0
 11
1829.6414239999999
 21
4323.6924400000007
 31
0.0
  0
LINE
  5
7DEC
  8
3
  6
CONTINUOUS
 62
     0
 10
1829.6414239999999
 20
3959.6924399999989
 30
0.0
 11
1829.6414239999999
 21
3554.6924399999998
 31
0.0
  0
LINE
  5
7DED
  8
3
  6
CONTINUOUS
 62
     0
 10
1829.6414239999999
 20
4143.6924400000007
 30
0.0
 11
1829.6414239999999
 21
4049.6924399999998
 31
0.0
  0
INSERT
  5
7DEE
  8
3
  6
CONTINUOUS
 62
     0
  2
_OPEN
 10
1829.6414239999999
 20
4143.6924400000007
 30
0.0
 41
90.0
 42
90.0
 43
90.0
 50
270.0
  0
INSERT
  5
7DEF
  8
3
  6
CONTINUOUS
 62
     0
  2
_OPEN
 10
1829.6414239999999
 20
4049.6924399999998
 30
0.0
 41
90.0
 42
90.0
 43
90.0
 50
90.0
  0
TEXT
  8
3
  40
135
  5
7E62
  62
0
  72
0
  71
0
 10
1447.14
 20
3473.24
 30
0.000000
  1
94
  0
POINT
  5
7DF1
  8
DEFPOINTS
  6
CONTINUOUS
 62
     0
 10
2468.449904999999
 20
4143.6924399999998
 30
0.0
  0
POINT
  5
7DF2
  8
DEFPOINTS
  6
CONTINUOUS
 62
     0
 10
2468.449904999999
 20
4049.6924399999998
 30
0.0
  0
POINT
  5
7DF3
  8
DEFPOINTS
  6
CONTINUOUS
 62
     0
 10
1829.6414239999999
 20
4049.6924399999998
 30
0.0
  0
ENDBLK
  5
7CC0
  8
0
  0
BLOCK
  8
0
  2
*D7
 70
     1
 10
0.0
 20
0.0
 30
0.0
  3
*D7
  1

  0
LINE
  5
7DF4
  8
3
  6
CONTINUOUS
 62
     0
 10
2370.9499049999999
 20
6458.6924399999998
 30
0.0
 11
1485.209647000001
 21
6458.6924400000007
 31
0.0
  0
LINE
  5
7DF5
  8
3
  6
CONTINUOUS
 62
     0
 10
2445.9499049999999
 20
4049.6924399999998
 30
0.0
 11
1485.2096469999999
 21
4049.6924399999998
 31
0.0
  0
LINE
  5
7DF6
  8
3
  6
CONTINUOUS
 62
     0
 10
1530.209647000001
 20
6368.6924400000007
 30
0.0
 11
1530.209647000001
 21
4139.6924400000007
 31
0.0
  0
INSERT
  5
7DF7
  8
3
  6
CONTINUOUS
 62
     0
  2
_OPEN
 10
1530.209647000001
 20
6458.6924400000007
 30
0.0
 41
90.0
 42
90.0
 43
90.0
 50
90.0
  0
INSERT
  5
7DF8
  8
3
  6
CONTINUOUS
 62
     0
  2
_OPEN
 10
1530.209647000001
 20
4049.6924399999998
 30
0.0
 41
90.0
 42
90.0
 43
90.0
 50
270.0
  0
TEXT
  8
3
  40
135
  5
7E63
  62
0
  72
0
  71
0
 10
1147.71
 20
4918.11
 30
0.000000
  1
2409
  0
POINT
  5
7DFA
  8
DEFPOINTS
  6
CONTINUOUS
 62
     0
 10
2393.4499049999999
 20
6458.6924399999998
 30
0.0
  0
POINT
  5
7DFB
  8
DEFPOINTS
  6
CONTINUOUS
 62
     0
 10
2468.449904999999
 20
4049.6924399999998
 30
0.0
  0
POINT
  5
7DFC
  8
DEFPOINTS
  6
CONTINUOUS
 62
     0
 10
1530.209647000001
 20
4049.6924399999998
 30
0.0
  0
ENDBLK
  5
7B82
  8
0
  0
BLOCK
  8
0
  2
*D8
 70
     1
 10
0.0
 20
0.0
 30
0.0
  3
*D8
  1

  0
LINE
  5
7DFD
  8
3
  6
CONTINUOUS
 62
     0
 10
2393.4499049999999
 20
6481.1924399999998
 30
0.0
 11
2393.4499049999999
 21
6631.0486289999999
 31
0.0
  0
LINE
  5
7DFE
  8
3
  6
CONTINUOUS
 62
     0
 10
3218.449904999999
 20
6352.1924399999989
 30
0.0
 11
3218.449904999999
 21
6631.0486289999999
 31
0.0
  0
LINE
  5
7DFF
  8
3
  6
CONTINUOUS
 62
     0
 10
2483.4499049999999
 20
6586.0486289999999
 30
0.0
 11
3128.4499049999999
 21
6586.0486289999999
 31
0.0
  0
INSERT
  5
7E00
  8
3
  6
CONTINUOUS
 62
     0
  2
_OPEN
 10
2393.4499049999999
 20
6586.0486289999999
 30
0.0
 41
90.0
 42
90.0
 43
90.0
 50
180.0
  0
INSERT
  5
7E01
  8
3
  6
CONTINUOUS
 62
     0
  2
_OPEN
 10
3218.449904999999
 20
6586.0486289999999
 30
0.0
 41
90.0
 42
90.0
 43
90.0
  0
TEXT
  8
3
  40
135
  5
7E64
  62
0
  72
0
  71
0
 10
2540.28
 20
6459.60
 30
0.000000
  1
825
  0
POINT
  5
7E03
  8
DEFPOINTS
  6
CONTINUOUS
 62
     0
 10
2393.4499049999999
 20
6458.6924399999998
 30
0.0
  0
POINT
  5
7E04
  8
DEFPOINTS
  6
CONTINUOUS
 62
     0
 10
3218.449904999999
 20
6329.6924399999998
 30
0.0
  0
POINT
  5
7E05
  8
DEFPOINTS
  6
CONTINUOUS
 62
     0
 10
3218.449904999999
 20
6586.0486289999999
 30
0.0
  0
ENDBLK
  5
7B8F
  8
0
  0
BLOCK
  8
0
  2
*D9
 70
     1
 10
0.0
 20
0.0
 30
0.0
  3
*D9
  1

  0
LINE
  5
7E06
  8
3
  6
CONTINUOUS
 62
     0
 10
4297.4499049999986
 20
5091.1924399999998
 30
0.0
 11
4297.4499049999986
 21
6631.0486289999999
 31
0.0
  0
LINE
  5
7E07
  8
3
  6
CONTINUOUS
 62
     0
 10
3308.449904999999
 20
6586.0486289999999
 30
0.0
 11
4207.4499049999986
 21
6586.0486289999999
 31
0.0
  0
INSERT
  5
7E08
  8
3
  6
CONTINUOUS
 62
     0
  2
_OPEN
 10
3218.449904999999
 20
6586.0486289999999
 30
0.0
 41
90.0
 42
90.0
 43
90.0
 50
180.0
  0
INSERT
  5
7E09
  8
3
  6
CONTINUOUS
 62
     0
  2
_OPEN
 10
4297.4499049999986
 20
6586.0486289999999
 30
0.0
 41
90.0
 42
90.0
 43
90.0
  0
TEXT
  8
3
  40
135
  5
7E65
  62
0
  72
0
  71
0
 10
3487.95
 20
6459.60
 30
0.000000
  1
1079
  0
POINT
  5
7E0B
  8
DEFPOINTS
  6
CONTINUOUS
 62
     0
 10
3218.449904999999
 20
6329.6924399999998
 30
0.0
  0
POINT
  5
7E0C
  8
DEFPOINTS
  6
CONTINUOUS
 62
     0
 10
4297.4499049999986
 20
5068.6924399999998
 30
0.0
  0
POINT
  5
7E0D
  8
DEFPOINTS
  6
CONTINUOUS
 62
     0
 10
4297.4499049999986
 20
6586.0486289999999
 30
0.0
  0
ENDBLK
  5
7CA6
  8
0
  0
BLOCK
  8
0
  2
*D10
 70
     1
 10
0.0
 20
0.0
 30
0.0
  3
*D10
  1

  0
LINE
  5
7E0E
  8
3
  6
CONTINUOUS
 62
     0
 10
2468.449904999999
 20
9037.5868467137498
 30
0.0
 11
2468.449904999999
 21
8538.1722117137488
 31
0.0
  0
LINE
  5
7E0F
  8
3
  6
CONTINUOUS
 62
     0
 10
5018.4499050000004
 20
9037.5868467137498
 30
0.0
 11
5018.4499050000004
 21
8538.1722117137488
 31
0.0
  0
LINE
  5
7E10
  8
3
  6
CONTINUOUS
 62
     0
 10
2558.449904999999
 20
8583.1722117137488
 30
0.0
 11
4928.4499049999986
 21
8583.1722117137488
 31
0.0
  0
INSERT
  5
7E11
  8
3
  6
CONTINUOUS
 62
     0
  2
_OPEN
 10
2468.449904999999
 20
8583.1722117137488
 30
0.0
 41
90.0
 42
90.0
 43
90.0
 50
180.0
  0
INSERT
  5
7E12
  8
3
  6
CONTINUOUS
 62
     0
  2
_OPEN
 10
5018.4499050000004
 20
8583.1722117137488
 30
0.0
 41
90.0
 42
90.0
 43
90.0
  0
TEXT
  8
3
  40
135
  5
7E66
  62
0
  72
0
  71
0
 10
3476.00
 20
8456.72
 30
0.000000
  1
2550
  0
POINT
  5
7E14
  8
DEFPOINTS
  6
CONTINUOUS
 62
     0
 10
2468.449904999999
 20
9060.0868467137498
 30
0.0
  0
POINT
  5
7E15
  8
DEFPOINTS
  6
CONTINUOUS
 62
     0
 10
5018.4499050000004
 20
9060.0868467137498
 30
0.0
  0
POINT
  5
7E16
  8
DEFPOINTS
  6
CONTINUOUS
 62
     0
 10
5018.4499050000004
 20
8583.1722117137488
 30
0.0
  0
ENDBLK
  5
7C6A
  8
0
  0
BLOCK
  8
0
  2
*D11
 70
     1
 10
0.0
 20
0.0
 30
0.0
  3
*D11
  1

  0
LINE
  5
7E17
  8
3
  6
CONTINUOUS
 62
     0
 10
5040.9499049999986
 20
10340.086846713741
 30
0.0
 11
5348.0501120000017
 21
10340.086846713741
 31
0.0
  0
LINE
  5
7E18
  8
3
  6
CONTINUOUS
 62
     0
 10
5040.9499049999986
 20
9060.0868467137498
 30
0.0
 11
5348.0501120000008
 21
9060.0868467137498
 31
0.0
  0
LINE
  5
7E19
  8
3
  6
CONTINUOUS
 62
     0
 10
5303.0501120000008
 20
10250.08684671375
 30
0.0
 11
5303.0501120000008
 21
9150.0868467137498
 31
0.0
  0
INSERT
  5
7E1A
  8
3
  6
CONTINUOUS
 62
     0
  2
_OPEN
 10
5303.0501120000008
 20
10340.086846713741
 30
0.0
 41
90.0
 42
90.0
 43
90.0
 50
90.0
  0
INSERT
  5
7E1B
  8
3
  6
CONTINUOUS
 62
     0
  2
_OPEN
 10
5303.0501120000008
 20
9060.0868467137498
 30
0.0
 41
90.0
 42
90.0
 43
90.0
 50
270.0
  0
TEXT
  8
3
  40
135
  5
7E67
  62
0
  72
0
  71
0
 10
4920.55
 20
9458.40
 30
0.000000
  1
1280
  0
POINT
  5
7E1D
  8
DEFPOINTS
  6
CONTINUOUS
 62
     0
 10
5018.4499050000004
 20
10340.086846713741
 30
0.0
  0
POINT
  5
7E1E
  8
DEFPOINTS
  6
CONTINUOUS
 62
     0
 10
5018.4499050000004
 20
9060.0868467137498
 30
0.0
  0
POINT
  5
7E1F
  8
DEFPOINTS
  6
CONTINUOUS
 62
     0
 10
5303.0501120000008
 20
9060.0868467137498
 30
0.0
  0
ENDBLK
  5
7C75
  8
0
  0
BLOCK
  8
0
  2
*D12
 70
     1
 10
0.0
 20
0.0
 30
0.0
  3
*D12
  1

  0
LINE
  5
7E20
  8
3
  6
CONTINUOUS
 62
     0
 10
6881.0938239999996
 20
6425.1924399999998
 30
0.0
 11
6881.0938239999996
 21
6660.9788049999988
 31
0.0
  0
LINE
  5
7E21
  8
3
  6
CONTINUOUS
 62
     0
 10
7831.0938239999987
 20
6425.1924399999998
 30
0.0
 11
7831.0938239999987
 21
6660.9788049999988
 31
0.0
  0
LINE
  5
7E22
  8
3
  6
CONTINUOUS
 62
     0
 10
6971.0938239999996
 20
6615.9788050000006
 30
0.0
 11
7741.0938239999996
 21
6615.9788050000006
 31
0.0
  0
INSERT
  5
7E23
  8
3
  6
CONTINUOUS
 62
     0
  2
_OPEN
 10
6881.0938239999996
 20
6615.9788050000006
 30
0.0
 41
90.0
 42
90.0
 43
90.0
 50
180.0
  0
INSERT
  5
7E24
  8
3
  6
CONTINUOUS
 62
     0
  2
_OPEN
 10
7831.0938239999987
 20
6615.9788050000006
 30
0.0
 41
90.0
 42
90.0
 43
90.0
  0
TEXT
  8
3
  40
135
  5
7E68
  62
0
  72
0
  71
0
 10
7057.95
 20
6489.53
 30
0.000000
  1
950
  0
POINT
  5
7E26
  8
DEFPOINTS
  6
CONTINUOUS
 62
     0
 10
6881.0938239999996
 20
6402.6924399999998
 30
0.0
  0
POINT
  5
7E27
  8
DEFPOINTS
  6
CONTINUOUS
 62
     0
 10
7831.0938239999987
 20
6402.6924399999998
 30
0.0
  0
POINT
  5
7E28
  8
DEFPOINTS
  6
CONTINUOUS
 62
     0
 10
7831.0938239999987
 20
6615.9788050000006
 30
0.0
  0
ENDBLK
  5
7BC5
  8
0
  0
BLOCK
  8
0
  2
*D13
 70
     1
 10
0.0
 20
0.0
 30
0.0
  3
*D13
  1

  0
LINE
  5
7E29
  8
3
  6
CONTINUOUS
 62
     0
 10
6516.0938240000014
 20
5469.1924399999998
 30
0.0
 11
6516.0938240000014
 21
6953.3534950000003
 31
0.0
  0
LINE
  5
7E2A
  8
3
  6
CONTINUOUS
 62
     0
 10
7356.0938239999996
 20
6854.6391160000003
 30
0.0
 11
7356.0938239999996
 21
6953.3534950000003
 31
0.0
  0
LINE
  5
7E2B
  8
3
  6
CONTINUOUS
 62
     0
 10
6606.0938240000023
 20
6908.3534950000003
 30
0.0
 11
7266.0938239999987
 21
6908.3534950000003
 31
0.0
  0
INSERT
  5
7E2C
  8
3
  6
CONTINUOUS
 62
     0
  2
_OPEN
 10
6516.0938240000014
 20
6908.3534950000003
 30
0.0
 41
90.0
 42
90.0
 43
90.0
 50
180.0
  0
INSERT
  5
7E2D
  8
3
  6
CONTINUOUS
 62
     0
  2
_OPEN
 10
7356.0938239999996
 20
6908.3534950000003
 30
0.0
 41
90.0
 42
90.0
 43
90.0
  0
TEXT
  8
3
  40
135
  5
7E69
  62
0
  72
0
  71
0
 10
6676.18
 20
6894.40
 30
0.000000
  1
MAX
  0
TEXT
  8
3
  40
135
  5
7E6A
  62
0
  72
0
  71
0
 10
6676.18
 20
6718.90
 30
0.000000
  1
890
  0
POINT
  5
7E2F
  8
DEFPOINTS
  6
CONTINUOUS
 62
     0
 10
6516.0938240000014
 20
5446.6924399999989
 30
0.0
  0
POINT
  5
7E30
  8
DEFPOINTS
  6
CONTINUOUS
 62
     0
 10
7356.0938239999996
 20
6832.1391159999994
 30
0.0
  0
POINT
  5
7E31
  8
DEFPOINTS
  6
CONTINUOUS
 62
     0
 10
7356.0938239999996
 20
6908.3534950000003
 30
0.0
  0
ENDBLK
  5
7C90
  8
0
  0
BLOCK
  8
0
  2
*D14
 70
     1
 10
0.0
 20
0.0
 30
0.0
  3
*D14
  1

  0
LINE
  5
7E32
  8
3
  6
CONTINUOUS
 62
     0
 10
7934.0938239999996
 20
5766.1924399999998
 30
0.0
 11
7934.0938239999996
 21
6953.3534950000003
 31
0.0
  0
LINE
  5
7E33
  8
3
  6
CONTINUOUS
 62
     0
 10
7446.0938239999996
 20
6908.3534950000003
 30
0.0
 11
7844.0938239999987
 21
6908.3534950000003
 31
0.0
  0
TEXT
  8
3
  40
135
  5
7E6B
  62
0
  72
0
  71
0
 10
7364.87
 20
6781.90
 30
0.000000
  1
578
  0
INSERT
  5
7E35
  8
3
  6
CONTINUOUS
 62
     0
  2
_OPEN
 10
7356.0938239999996
 20
6908.3534950000003
 30
0.0
 41
90.0
 42
90.0
 43
90.0
 50
180.0
  0
INSERT
  5
7E36
  8
3
  6
CONTINUOUS
 62
     0
  2
_OPEN
 10
7934.0938239999996
 20
6908.3534950000003
 30
0.0
 41
90.0
 42
90.0
 43
90.0
  0
POINT
  5
7E37
  8
DEFPOINTS
  6
CONTINUOUS
 62
     0
 10
7356.0938239999996
 20
6832.1391159999994
 30
0.0
  0
POINT
  5
7E38
  8
DEFPOINTS
  6
CONTINUOUS
 62
     0
 10
7934.0938239999996
 20
5743.6924399999998
 30
0.0
  0
POINT
  5
7E39
  8
DEFPOINTS
  6
CONTINUOUS
 62
     0
 10
7934.0938239999996
 20
6908.3534950000003
 30
0.0
  0
ENDBLK
  5
7C45
  8
0
  0
BLOCK
  8
0
  2
*D15
 70
     1
 10
0.0
 20
0.0
 30
0.0
  3
*D15
  1

  0
LINE
  5
7E3A
  8
3
  6
CONTINUOUS
 62
     0
 10
7956.5938239999987
 20
5693.6924399999998
 30
0.0
 11
8353.5910980000026
 21
5693.6924399999998
 31
0.0
  0
LINE
  5
7E3B
  8
3
  6
CONTINUOUS
 62
     0
 10
7956.5938239999987
 20
4443.6924399999998
 30
0.0
 11
8353.5910980000026
 21
4443.6924399999998
 31
0.0
  0
LINE
  5
7E3C
  8
3
  6
CONTINUOUS
 62
     0
 10
8308.5910980000026
 20
5603.6924399999989
 30
0.0
 11
8308.5910980000026
 21
4533.6924399999998
 31
0.0
  0
INSERT
  5
7E3D
  8
3
  6
CONTINUOUS
 62
     0
  2
_OPEN
 10
8308.5910980000026
 20
5693.6924399999998
 30
0.0
 41
90.0
 42
90.0
 43
90.0
 50
90.0
  0
INSERT
  5
7E3E
  8
3
  6
CONTINUOUS
 62
     0
  2
_OPEN
 10
8308.5910980000026
 20
4443.6924399999998
 30
0.0
 41
90.0
 42
90.0
 43
90.0
 50
270.0
  0
TEXT
  8
3
  40
135
  5
7E6C
  62
0
  72
0
  71
0
 10
7926.09
 20
4798.49
 30
0.000000
  1
φ1250
  0
POINT
  5
7E40
  8
DEFPOINTS
  6
CONTINUOUS
 62
     0
 10
7934.0938239999996
 20
5693.6924399999998
 30
0.0
  0
POINT
  5
7E41
  8
DEFPOINTS
  6
CONTINUOUS
 62
     0
 10
7934.0938239999996
 20
4443.6924399999998
 30
0.0
  0
POINT
  5
7E42
  8
DEFPOINTS
  6
CONTINUOUS
 62
     0
 10
8308.5910980000026
 20
4443.6924399999998
 30
0.0
  0
ENDBLK
  5
7C9B
  8
0
  0
BLOCK
  8
0
  2
*D16
 70
     1
 10
0.0
 20
0.0
 30
0.0
  3
*D16
  1

  0
LINE
  5
7E43
  8
3
  6
CONTINUOUS
 62
     0
 10
6629.0938239999996
 20
4027.1924399999989
 30
0.0
 11
6629.0938239999996
 21
3662.9122869999992
 31
0.0
  0
LINE
  5
7E44
  8
3
  6
CONTINUOUS
 62
     0
 10
7356.0938239999996
 20
3855.8925570000001
 30
0.0
 11
7356.0938239999996
 21
3662.9122869999992
 31
0.0
  0
LINE
  5
7E45
  8
3
  6
CONTINUOUS
 62
     0
 10
6719.0938240000014
 20
3707.9122870000001
 30
0.0
 11
7266.0938239999987
 21
3707.9122870000001
 31
0.0
  0
INSERT
  5
7E46
  8
3
  6
CONTINUOUS
 62
     0
  2
_OPEN
 10
6629.0938239999996
 20
3707.9122870000001
 30
0.0
 41
90.0
 42
90.0
 43
90.0
 50
180.0
  0
INSERT
  5
7E47
  8
3
  6
CONTINUOUS
 62
     0
  2
_OPEN
 10
7356.0938239999996
 20
3707.9122870000001
 30
0.0
 41
90.0
 42
90.0
 43
90.0
  0
TEXT
  8
3
  40
135
  5
7E6D
  62
0
  72
0
  71
0
 10
6713.61
 20
3581.46
 30
0.000000
  1
727
  0
POINT
  5
7E49
  8
DEFPOINTS
  6
CONTINUOUS
 62
     0
 10
6629.0938239999996
 20
4049.6924399999998
 30
0.0
  0
POINT
  5
7E4A
  8
DEFPOINTS
  6
CONTINUOUS
 62
     0
 10
7356.0938239999996
 20
3878.3925570000001
 30
0.0
  0
POINT
  5
7E4B
  8
DEFPOINTS
  6
CONTINUOUS
 62
     0
 10
7356.0938239999996
 20
3707.9122870000001
 30
0.0
  0
ENDBLK
  5
7C10
  8
0
  0
BLOCK
  8
0
  2
*D17
 70
     1
 10
0.0
 20
0.0
 30
0.0
  3
*D17
  1

  0
LINE
  5
7E4C
  8
3
  6
CONTINUOUS
 62
     0
 10
7909.0938239999996
 20
4027.1924399999989
 30
0.0
 11
7909.0938239999996
 21
3662.9122869999992
 31
0.0
  0
LINE
  5
7E4D
  8
3
  6
CONTINUOUS
 62
     0
 10
7446.0938239999996
 20
3707.9122870000001
 30
0.0
 11
7819.0938239999987
 21
3707.9122870000001
 31
0.0
  0
TEXT
  8
3
  40
135
  5
7E6E
  62
0
  72
0
  71
0
 10
7364.87
 20
3581.46
 30
0.000000
  1
553
  0
INSERT
  5
7E4F
  8
3
  6
CONTINUOUS
 62
     0
  2
_OPEN
 10
7356.0938239999996
 20
3707.9122870000001
 30
0.0
 41
90.0
 42
90.0
 43
90.0
 50
180.0
  0
INSERT
  5
7E50
  8
3
  6
CONTINUOUS
 62
     0
  2
_OPEN
 10
7909.0938239999996
 20
3707.9122870000001
 30
0.0
 41
90.0
 42
90.0
 43
90.0
  0
POINT
  5
7E51
  8
DEFPOINTS
  6
CONTINUOUS
 62
     0
 10
7356.0938239999996
 20
3878.3925570000001
 30
0.0
  0
POINT
  5
7E52
  8
DEFPOINTS
  6
CONTINUOUS
 62
     0
 10
7909.0938239999996
 20
4049.6924399999998
 30
0.0
  0
POINT
  5
7E53
  8
DEFPOINTS
  6
CONTINUOUS
 62
     0
 10
7909.0938239999996
 20
3707.9122870000001
 30
0.0
  0
ENDBLK
  5
7C35
  8
0
  0
BLOCK
  8
0
  2
*D18
 70
     1
 10
0.0
 20
0.0
 30
0.0
  3
*D18
  1

  0
LINE
  5
7E54
  8
3
 62
     0
 10
2393.4499049999999
 20
6481.1924399999998
 30
0.0
 11
2393.4499049999999
 21
6946.6253281133622
 31
0.0
  0
LINE
  5
7E55
  8
3
 62
     0
 10
5018.4499050000004
 20
4316.1924399999998
 30
0.0
 11
5018.4499050000004
 21
6946.6253281133622
 31
0.0
  0
LINE
  5
7E56
  8
3
 62
     0
 10
2483.4499049999999
 20
6901.6253281133613
 30
0.0
 11
4928.4499049999986
 21
6901.6253281133613
 31
0.0
  0
INSERT
  5
7E57
  8
3
 62
     0
  2
_OPEN
 10
2393.4499049999999
 20
6901.6253281133613
 30
0.0
 41
90.0
 42
90.0
 43
90.0
 50
180.0
  0
INSERT
  5
7E58
  8
3
 62
     0
  2
_OPEN
 10
5018.4499050000004
 20
6901.6253281133613
 30
0.0
 41
90.0
 42
90.0
 43
90.0
  0
TEXT
  8
3
  40
135
  5
7E6F
  62
0
  72
0
  71
0
 10
3448.25
 20
6775.18
 30
0.000000
  1
2625
  0
POINT
  5
7E5A
  8
DEFPOINTS
 62
     0
 10
2393.4499049999999
 20
6458.6924399999998
 30
0.0
  0
POINT
  5
7E5B
  8
DEFPOINTS
 62
     0
 10
5018.4499050000004
 20
4293.6924399999998
 30
0.0
  0
POINT
  5
7E5C
  8
DEFPOINTS
 62
     0
 10
5018.4499050000004
 20
6901.6253281133613
 30
0.0
  0
ENDBLK
  5
7CB2
  8
0
  0
ENDSEC
  0
SECTION
  2
ENTITIES
  0
LINE
  5
7A76
  8
1
  6
CONTINUOUS
 10
2468.449904999999
 20
4124.6924399999989
 30
0.0
 11
5018.4499050000004
 21
4124.6924399999989
 31
0.0
  0
LINE
  5
7A77
  8
1
  6
CONTINUOUS
 10
2468.449904999999
 20
4049.6924399999998
 30
0.0
 11
5018.4499050000004
 21
4049.6924399999998
 31
0.0
  0
LINE
  5
7A78
  8
1
  6
CONTINUOUS
 10
3118.697064
 20
4704.0921509999998
 30
0.0
 11
4535.3926959999999
 21
4316.4912139999997
 31
0.0
  0
LINE
  5
7A79
  8
1
  6
CONTINUOUS
 10
3145.0867050000002
 20
4800.5472540000001
 30
0.0
 11
4561.7823360000002
 21
4412.9463169999999
 31
0.0
  0
LINE
  5
7A7A
  8
1
  6
CONTINUOUS
 10
3393.4658370000002
 20
5403.7348600000014
 30
0.0
 11
4695.3110299999998
 21
4723.6906740000004
 31
0.0
  0
LINE
  5
7A7B
  8
1
  6
CONTINUOUS
 10
3347.1653259999998
 20
5315.0992990000004
 30
0.0
 11
4649.0105179999991
 21
4635.0551130000003
 31
0.0
  0
LINE
  5
7A7C
  8
1
  6
CONTINUOUS
 10
4473.4499049999986
 20
9060.0868467137498
 30
0.0
 11
3496.449904999999
 21
9060.0868467137498
 31
0.0
  0
LINE
  5
7A7D
  8
1
  6
CONTINUOUS
 10
2840.449904999999
 20
9187.0868467137498
 30
0.0
 11
4913.4499050000004
 21
9187.0868467137498
 31
0.0
  0
LINE
  5
7A7E
  8
1
  6
CONTINUOUS
 10
2840.449904999999
 20
8947.0868467137498
 30
0.0
 11
4913.4499050000004
 21
8947.0868467137498
 31
0.0
  0
LINE
  5
7A7F
  8
1
  6
CONTINUOUS
 10
2543.449904999999
 20
10365.08684671375
 30
0.0
 11
3893.449904999999
 21
10365.08684671375
 31
0.0
  0
LINE
  5
7A80
  8
1
  6
CONTINUOUS
 10
2393.449904999999
 20
9312.0868467137498
 30
0.0
 11
4300.9834579999997
 21
9312.0868467137498
 31
0.0
  0
LINE
  5
7A81
  8
1
  6
CONTINUOUS
 10
2393.449904999999
 20
10262.086846713741
 30
0.0
 11
4300.9834579999997
 21
10262.086846713741
 31
0.0
  0
CIRCLE
  5
7A82
  8
1
  6
CONTINUOUS
 10
3218.449904999999
 20
5068.6924399999998
 30
0.0
 40
675.0
  0
CIRCLE
  5
7A83
  8
1
  6
CONTINUOUS
 10
3218.449904999999
 20
5068.6924399999998
 30
0.0
 40
625.0
  0
LINE
  5
7A84
  8
1
  6
CONTINUOUS
 10
2468.449904999999
 20
4293.6924399999998
 30
0.0
 11
5018.4499050000004
 21
4293.6924399999998
 31
0.0
  0
LINE
  5
7A85
  8
1
  6
CONTINUOUS
 10
2468.449904999999
 20
4143.6924399999998
 30
0.0
 11
5018.4499050000004
 21
4143.6924399999998
 31
0.0
  0
POLYLINE
  5
7A86
  8
1
  6
CONTINUOUS
 66
     1
 10
0.0
 20
0.0
 30
0.0
  0
VERTEX
  5
7DB7
  8
1
  6
CONTINUOUS
 10
2393.4499049999999
 20
6402.6924399999998
 30
0.0
  0
VERTEX
  5
7DB8
  8
1
  6
CONTINUOUS
 10
3218.449904999999
 20
6329.6924399999998
 30
0.0
 42
-0.391657
  0
VERTEX
  5
7DB9
  8
1
  6
CONTINUOUS
 10
4300.9834579999997
 20
5159.6924399999998
 30
0.0
 42
-0.4387800000000001
  0
VERTEX
  5
7DBA
  8
1
  6
CONTINUOUS
 10
3227.1075249999999
 20
4171.5838839999997
 30
0.0
 42
-0.390066
  0
VERTEX
  5
7DBB
  8
1
  6
CONTINUOUS
 10
2472.4986760000002
 20
4991.6924399999998
 30
0.0
 42
-0.049316
  0
VERTEX
  5
7DBC
  8
1
  6
CONTINUOUS
 10
2485.4508599999999
 20
5122.6924399999998
 30
0.0
 42
-0.393627
  0
SEQEND
  5
7DBD
  8
1
  6
CONTINUOUS
  0
LINE
  5
7A8E
  8
1
  6
CONTINUOUS
 10
2443.4499049999999
 20
5122.6924399999998
 30
0.0
 11
2443.4499049999999
 21
6402.6924399999998
 31
0.0
  0
LINE
  5
7A8F
  8
1
  6
CONTINUOUS
 10
2393.4499049999999
 20
5072.6924399999998
 30
0.0
 11
2393.4499049999999
 21
6458.6924399999998
 31
0.0
  0
LINE
  5
7A90
  8
1
  6
CONTINUOUS
 10
2468.449904999999
 20
4124.6924399999989
 30
0.0
 11
2468.449904999999
 21
4049.6924399999998
 31
0.0
  0
LINE
  5
7A91
  8
1
  6
CONTINUOUS
 10
2468.449904999999
 20
4293.6924399999998
 30
0.0
 11
2468.449904999999
 21
4143.6924399999998
 31
0.0
  0
LINE
  5
7A92
  8
1
  6
CONTINUOUS
 10
2485.4508599999999
 20
5122.6924399999998
 30
0.0
 11
2393.4499049999999
 21
5122.6924399999998
 31
0.0
  0
ARC
  5
7A93
  8
1
  6
CONTINUOUS
 10
3218.449904999999
 20
5068.6924399999998
 30
0.0
 40
378.0
 50
62.418807000000001
 51
254.69861299999999
  0
LINE
  5
7A94
  8
2
  6
CENTER
 10
8008.8781170000002
 20
5068.6924399999998
 30
0.0
 11
6429.6566520000024
 21
5068.6924399999998
 31
0.0
  0
CIRCLE
  5
7A95
  8
1
  6
CONTINUOUS
 10
3218.449904999999
 20
5068.6924399999998
 30
0.0
 40
278.0
  0
LINE
  5
7A96
  8
2
  6
CENTER
 10
3218.449904999999
 20
3915.8002240000001
 30
0.0
 11
3218.449904999999
 21
6434.9873749999997
 31
0.0
  0
LINE
  5
7A97
  8
1
  6
CONTINUOUS
 10
2940.449904999999
 20
9060.0868467137498
 30
0.0
 11
2468.449904999999
 21
9060.0868467137498
 31
0.0
  0
LINE
  5
7A98
  8
1
  6
CONTINUOUS
 10
2468.449904999999
 20
10340.086846713741
 30
0.0
 11
2593.449904999999
 21
10340.086846713741
 31
0.0
  0
LINE
  5
7A99
  8
1
  6
CONTINUOUS
 10
2393.449904999999
 20
9262.0868467137498
 30
0.0
 11
2393.449904999999
 21
10312.08684671375
 31
0.0
  0
LINE
  5
7A9A
  8
1
  6
CONTINUOUS
 10
2443.449904999999
 20
9312.0868467137498
 30
0.0
 11
2443.449904999999
 21
10262.086846713741
 31
0.0
  0
LINE
  5
7A9B
  8
1
  6
CONTINUOUS
 10
2468.449904999999
 20
9060.0868467137498
 30
0.0
 11
2468.449904999999
 21
9312.0868467137498
 31
0.0
  0
LINE
  5
7A9C
  8
1
  6
CONTINUOUS
 10
2468.449904999999
 20
10262.086846713741
 30
0.0
 11
2468.449904999999
 21
10340.086846713741
 31
0.0
  0
LINE
  5
7A9D
  8
1
  6
CONTINUOUS
 10
3496.449904999999
 20
9017.0868467137498
 30
0.0
 11
2940.449904999999
 21
9017.0868467137498
 31
0.0
  0
LINE
  5
7A9E
  8
1
  6
CONTINUOUS
 10
3496.449904999999
 20
9117.0868467137498
 30
0.0
 11
2940.449904999999
 21
9117.0868467137498
 31
0.0
  0
LINE
  5
7A9F
  8
1
  6
CONTINUOUS
 10
2840.449904999999
 20
8947.0868467137498
 30
0.0
 11
2840.449904999999
 21
9187.0868467137498
 31
0.0
  0
LINE
  5
7AA0
  8
1
  6
CONTINUOUS
 10
2940.449904999999
 20
9017.0868467137498
 30
0.0
 11
2940.449904999999
 21
9117.0868467137498
 31
0.0
  0
LINE
  5
7AA1
  8
1
  6
CONTINUOUS
 10
3190.9499049999999
 20
9117.0868467137498
 30
0.0
 11
3190.9499049999999
 21
9312.0868467137498
 31
0.0
  0
LINE
  5
7AA2
  8
1
  6
CONTINUOUS
 10
3245.949904999999
 20
9117.0868467137498
 30
0.0
 11
3245.949904999999
 21
9312.0868467137498
 31
0.0
  0
LINE
  5
7AA3
  8
1
  6
CONTINUOUS
 10
3496.449904999999
 20
9017.0868467137498
 30
0.0
 11
3496.449904999999
 21
9117.0868467137498
 31
0.0
  0
LINE
  5
7AA4
  8
1
  6
CONTINUOUS
 10
2593.449904999999
 20
10262.086846713741
 30
0.0
 11
2593.449904999999
 21
10365.08684671375
 31
0.0
  0
ARC
  5
7AA5
  8
1
  6
CONTINUOUS
 10
4593.4499049999986
 20
4528.6924399999989
 30
0.0
 40
220.0
 50
254.69861299999999
 51
62.418807000000001
  0
LINE
  5
7AA6
  8
2
  6
CENTER
 10
4593.4499049999986
 20
4408.6924399999998
 30
0.0
 11
4593.4499049999986
 21
4648.6924399999998
 31
0.0
  0
CIRCLE
  5
7AA7
  8
1
  6
CONTINUOUS
 10
4593.4499049999986
 20
4528.6924399999989
 30
0.0
 40
120.0
  0
ARC
  5
7AA8
  8
1
  6
CONTINUOUS
 10
4593.4499049999986
 20
4528.6924399999989
 30
0.0
 40
199.0
 50
320.126825
 51
219.87317499999989
  0
LINE
  5
7AA9
  8
2
  6
CENTER
 10
4713.4499050000004
 20
4528.6924399999989
 30
0.0
 11
4473.4499049999986
 21
4528.6924399999989
 31
0.0
  0
LINE
  5
7AAA
  8
1
  6
CONTINUOUS
 10
4368.4499049999986
 20
4348.6924399999989
 30
0.0
 11
4818.4499050000004
 21
4348.6924399999989
 31
0.0
  0
LINE
  5
7AAB
  8
1
  6
CONTINUOUS
 10
4368.4499049999986
 20
4293.6924399999998
 30
0.0
 11
4368.4499049999986
 21
4348.6924399999989
 31
0.0
  0
LINE
  5
7AAC
  8
1
  6
CONTINUOUS
 10
4431.4499050000004
 20
4348.6924399999989
 30
0.0
 11
4431.4499050000004
 21
4391.1916229999997
 31
0.0
  0
LINE
  5
7AAD
  8
1
  6
CONTINUOUS
 10
4431.4499050000004
 20
4391.1916229999997
 30
0.0
 11
4440.7242939999987
 21
4401.1154519999991
 31
0.0
  0
LINE
  5
7AAE
  8
1
  6
CONTINUOUS
 10
5018.4499050000004
 20
4124.6924399999989
 30
0.0
 11
5018.4499050000004
 21
4049.6924399999998
 31
0.0
  0
LINE
  5
7AAF
  8
1
  6
CONTINUOUS
 10
4818.4499050000004
 20
4293.6924399999998
 30
0.0
 11
4818.4499050000004
 21
4348.6924399999989
 31
0.0
  0
LINE
  5
7AB0
  8
1
  6
CONTINUOUS
 10
4755.4499049999986
 20
4348.6924399999989
 30
0.0
 11
4755.4499049999986
 21
4391.1916229999997
 31
0.0
  0
LINE
  5
7AB1
  8
1
  6
CONTINUOUS
 10
4755.4499049999986
 20
4348.6924399999989
 30
0.0
 11
4695.4499049999986
 21
4348.6924399999989
 31
0.0
  0
LINE
  5
7AB2
  8
1
  6
CONTINUOUS
 10
4755.4499049999986
 20
4391.1916229999997
 30
0.0
 11
4746.1755160000002
 21
4401.1154519999991
 31
0.0
  0
LINE
  5
7AB3
  8
1
  6
CONTINUOUS
 10
5018.4499050000004
 20
4293.6924399999998
 30
0.0
 11
5018.4499050000004
 21
4143.6924399999998
 31
0.0
  0
LINE
  5
7AB4
  8
1
  6
CONTINUOUS
 10
4300.9834579999997
 20
9312.0868467137498
 30
0.0
 11
4300.9834579999997
 21
10262.086846713741
 31
0.0
  0
LINE
  5
7AB5
  8
1
  6
CONTINUOUS
 10
5018.4499050000004
 20
10340.086846713741
 30
0.0
 11
5018.4499050000004
 21
9060.0868467137498
 31
0.0
  0
LINE
  5
7AB6
  8
1
  6
CONTINUOUS
 10
4620.9499049999986
 20
9117.0868467137498
 30
0.0
 11
4620.9499049999986
 21
9231.6200397137509
 31
0.0
  0
LINE
  5
7AB7
  8
1
  6
CONTINUOUS
 10
4565.9499049999986
 20
9117.0868467137498
 30
0.0
 11
4565.9499049999986
 21
9231.6200397137509
 31
0.0
  0
LINE
  5
7AB8
  8
1
  6
CONTINUOUS
 10
4713.4499050000004
 20
9017.0868467137498
 30
0.0
 11
4473.4499049999986
 21
9017.0868467137498
 31
0.0
  0
LINE
  5
7AB9
  8
1
  6
CONTINUOUS
 10
4713.4499050000004
 20
9117.0868467137498
 30
0.0
 11
4473.4499049999986
 21
9117.0868467137498
 31
0.0
  0
LINE
  5
7ABA
  8
1
  6
CONTINUOUS
 10
4473.4499049999986
 20
9017.0868467137498
 30
0.0
 11
4473.4499049999986
 21
9117.0868467137498
 31
0.0
  0
LINE
  5
7ABB
  8
1
  6
CONTINUOUS
 10
4913.4499050000004
 20
8947.0868467137498
 30
0.0
 11
4913.4499050000004
 21
9187.0868467137498
 31
0.0
  0
LINE
  5
7ABC
  8
1
  6
CONTINUOUS
 10
4713.4499050000004
 20
9017.0868467137498
 30
0.0
 11
4713.4499050000004
 21
9117.0868467137498
 31
0.0
  0
LINE
  5
7ABD
  8
1
  6
CONTINUOUS
 10
5018.4499050000004
 20
9060.0868467137498
 30
0.0
 11
4713.4499050000004
 21
9060.0868467137498
 31
0.0
  0
LINE
  5
7ABE
  8
1
  6
CONTINUOUS
 10
4792.5479189999987
 20
9231.6200397137509
 30
0.0
 11
4394.3518909999993
 21
9231.6200397137509
 31
0.0
  0
LINE
  5
7ABF
  8
1
  6
CONTINUOUS
 10
4792.5479189999987
 20
9831.1200397137509
 30
0.0
 11
4394.3518909999993
 21
9831.1200397137509
 31
0.0
  0
LINE
  5
7AC0
  8
1
  6
CONTINUOUS
 10
4394.3518909999993
 20
9231.6200397137509
 30
0.0
 11
4394.3518909999993
 21
9831.1200397137509
 31
0.0
  0
LINE
  5
7AC1
  8
1
  6
CONTINUOUS
 10
4792.5479189999987
 20
9231.6200397137509
 30
0.0
 11
4792.5479189999987
 21
9831.1200397137509
 31
0.0
  0
LINE
  5
7AC2
  8
1
  6
CONTINUOUS
 10
3843.449904999999
 20
10340.086846713741
 30
0.0
 11
5018.4499050000004
 21
10340.086846713741
 31
0.0
  0
LINE
  5
7AC3
  8
1
  6
CONTINUOUS
 10
3843.449904999999
 20
10262.086846713741
 30
0.0
 11
3843.449904999999
 21
10365.08684671375
 31
0.0
  0
LINE
  5
7AC5
  8
1
  6
CONTINUOUS
 10
7909.0938239999996
 20
4143.6924399999998
 30
0.0
 11
6629.0938239999996
 21
4143.6924399999998
 31
0.0
  0
LINE
  5
7AC6
  8
1
  6
CONTINUOUS
 10
7909.0938239999996
 20
4293.6924399999998
 30
0.0
 11
6629.0938239999996
 21
4293.6924399999998
 31
0.0
  0
LINE
  5
7AC7
  8
1
  6
CONTINUOUS
 10
6881.0938239999996
 20
6402.6924399999998
 30
0.0
 11
7831.0938239999987
 21
6402.6924399999998
 31
0.0
  0
LINE
  5
7AC8
  8
1
  6
CONTINUOUS
 10
6881.0938239999996
 20
5122.6924399999998
 30
0.0
 11
7831.0938239999987
 21
5122.6924399999998
 31
0.0
  0
LINE
  5
7AC9
  8
1
  6
CONTINUOUS
 10
6881.0938239999996
 20
5122.6924399999998
 30
0.0
 11
7831.0938239999987
 21
6402.6924399999998
 31
0.0
  0
LINE
  5
7ACA
  8
1
  6
CONTINUOUS
 10
6881.0938239999996
 20
6402.6924399999998
 30
0.0
 11
7831.0938239999987
 21
5122.6924399999998
 31
0.0
  0
LINE
  5
7ACB
  8
1
  6
CONTINUOUS
 10
7909.0938239999996
 20
4049.6924399999998
 30
0.0
 11
6629.0938239999996
 21
4049.6924399999998
 31
0.0
  0
LINE
  5
7ACC
  8
1
  6
CONTINUOUS
 10
7909.0938239999996
 20
4124.6924399999989
 30
0.0
 11
6629.0938239999996
 21
4124.6924399999989
 31
0.0
  0
LINE
  5
7ACD
  8
1
  6
CONTINUOUS
 10
6881.0938239999996
 20
4293.6924399999998
 30
0.0
 11
6881.0938239999996
 21
6402.6924399999998
 31
0.0
  0
LINE
  5
7ACE
  8
1
  6
CONTINUOUS
 10
6516.0938240000014
 20
4308.6924399999998
 30
0.0
 11
6516.0938240000014
 21
5446.6924399999989
 31
0.0
  0
LINE
  5
7ACF
  8
1
  6
CONTINUOUS
 10
6756.0938239999996
 20
4308.6924399999998
 30
0.0
 11
6756.0938239999996
 21
5446.6924399999989
 31
0.0
  0
LINE
  5
7AD0
  8
1
  6
CONTINUOUS
 10
6686.0938240000014
 20
5096.1924399999998
 30
0.0
 11
6881.0938239999996
 21
5096.1924399999998
 31
0.0
  0
LINE
  5
7AD1
  8
1
  6
CONTINUOUS
 10
6686.0938240000014
 20
5041.1924399999989
 30
0.0
 11
6881.0938239999996
 21
5041.1924399999989
 31
0.0
  0
LINE
  5
7AD2
  8
1
  6
CONTINUOUS
 10
6686.0938240000014
 20
4501.1924399999989
 30
0.0
 11
6881.0938239999996
 21
4501.1924399999989
 31
0.0
  0
LINE
  5
7AD3
  8
1
  6
CONTINUOUS
 10
6686.0938240000014
 20
4556.1924399999998
 30
0.0
 11
6881.0938239999996
 21
4556.1924399999998
 31
0.0
  0
LINE
  5
7AD4
  8
1
  6
CONTINUOUS
 10
6686.0938240000014
 20
4408.6924399999998
 30
0.0
 11
6686.0938240000014
 21
4648.6924399999998
 31
0.0
  0
LINE
  5
7AD5
  8
1
  6
CONTINUOUS
 10
6586.0938240000014
 20
4408.6924399999998
 30
0.0
 11
6586.0938240000014
 21
4648.6924399999998
 31
0.0
  0
LINE
  5
7AD8
  8
1
  6
CONTINUOUS
 10
6629.0938239999996
 20
4143.6924399999998
 30
0.0
 11
6629.0938239999996
 21
4293.6924399999998
 31
0.0
  0
LINE
  5
7AD9
  8
1
  6
CONTINUOUS
 10
6586.0938240000014
 20
4408.6924399999998
 30
0.0
 11
6686.0938240000014
 21
4408.6924399999998
 31
0.0
  0
LINE
  5
7ADA
  8
1
  6
CONTINUOUS
 10
6516.0938240000014
 20
4308.6924399999998
 30
0.0
 11
6756.0938239999996
 21
4308.6924399999998
 31
0.0
  0
LINE
  5
7ADB
  8
1
  6
CONTINUOUS
 10
6629.0938239999996
 20
4049.6924399999998
 30
0.0
 11
6629.0938239999996
 21
4124.6924399999989
 31
0.0
  0
LINE
  5
7ADC
  8
1
  6
CONTINUOUS
 10
6586.0938240000014
 20
4648.6924399999998
 30
0.0
 11
6686.0938240000014
 21
4648.6924399999998
 31
0.0
  0
LINE
  5
7ADD
  8
1
  6
CONTINUOUS
 10
6586.0938240000014
 20
5346.6924399999989
 30
0.0
 11
6686.0938240000014
 21
5346.6924399999989
 31
0.0
  0
LINE
  5
7ADE
  8
1
  6
CONTINUOUS
 10
6586.0938240000014
 20
4790.6924399999989
 30
0.0
 11
6686.0938240000014
 21
4790.6924399999989
 31
0.0
  0
LINE
  5
7ADF
  8
1
  6
CONTINUOUS
 10
6586.0938240000014
 20
4790.6924399999989
 30
0.0
 11
6586.0938240000014
 21
5346.6924399999989
 31
0.0
  0
LINE
  5
7AE0
  8
1
  6
CONTINUOUS
 10
6686.0938240000014
 20
4790.6924399999989
 30
0.0
 11
6686.0938240000014
 21
5346.6924399999989
 31
0.0
  0
LINE
  5
7AE1
  8
1
  6
CONTINUOUS
 10
6516.0938240000014
 20
5446.6924399999989
 30
0.0
 11
6756.0938239999996
 21
5446.6924399999989
 31
0.0
  0
LINE
  5
7AE2
  8
1
  6
CONTINUOUS
 10
7831.0938239999987
 20
4293.6924399999998
 30
0.0
 11
7831.0938239999987
 21
6402.6924399999998
 31
0.0
  0
LINE
  5
7AE3
  8
1
  6
CONTINUOUS
 10
7934.0938239999996
 20
4393.6924399999998
 30
0.0
 11
7934.0938239999996
 21
5743.6924399999998
 31
0.0
  0
LINE
  5
7AE4
  8
1
  6
CONTINUOUS
 10
7909.0938239999996
 20
4143.6924399999998
 30
0.0
 11
7909.0938239999996
 21
4293.6924399999998
 31
0.0
  0
LINE
  5
7AE5
  8
1
  6
CONTINUOUS
 10
7831.0938239999987
 20
4443.6924399999998
 30
0.0
 11
7934.0938239999996
 21
4443.6924399999998
 31
0.0
  0
LINE
  5
7AE6
  8
1
  6
CONTINUOUS
 10
7909.0938239999996
 20
4049.6924399999998
 30
0.0
 11
7909.0938239999996
 21
4124.6924399999989
 31
0.0
  0
LINE
  5
7AE7
  8
1
  6
CONTINUOUS
 10
7831.0938239999987
 20
5693.6924399999998
 30
0.0
 11
7934.0938239999996
 21
5693.6924399999998
 31
0.0
  0
LINE
  5
7AE8
  8
4
  6
CONTINUOUS
 10
9250.0
 20
2500.0
 30
0.0
 11
9250.0
 21
1500.0
 31
0.0
  0
LINE
  5
7AE9
  8
4
  6
CONTINUOUS
 10
5750.0
 20
2500.0
 30
0.0
 11
5750.0
 21
1500.0
 31
0.0
  0
LINE
  5
7AEA
  8
4
  6
CONTINUOUS
 10
3250.0
 20
2500.0
 30
0.0
 11
3250.0
 21
1500.0
 31
0.0
  0
LINE
  5
7AED
  8
4
  6
CONTINUOUS
 10
3250.0
 20
1500.0
 30
0.0
 11
9250.0
 21
1500.0
 31
0.0
  0
LINE
  5
7AEE
  8
4
  6
CONTINUOUS
 10
3250.0
 20
2000.0
 30
0.0
 11
9250.0
 21
2000.0
 31
0.0
  0
TEXT
  5
7AEF
  8
4
  6
CONTINUOUS
 10
3442.5104040000001
 20
2157.7151289999988
 30
0.0
 40
250.0
  1
機器名称
  0
TEXT
  5
7AF0
  8
4
  6
CONTINUOUS
 10
3431.2905300000002
 20
1608.225782999999
 30
0.0
 40
250.0
  1
機器型番
  0
TEXT
  5
7AF1
  8
4
  6
CONTINUOUS
 10
5888.393728
 20
2112.8588439999999
 30
0.0
 40
211.11111099999991
  1
ミツヤリミットロードファン
  0
TEXT
  5
7AF2
  8
4
  6
CONTINUOUS
 10
5933.2724779999999
 20
1585.7979210000001
 30
0.0
 40
250.0
  1
LLE#8-4
  0
TEXT
  5
7AF4
  8
4
  6
CONTINUOUS
 10
3823.4268710000001
 20
11917.14420699999
 30
0.0
 40
270.0
  1
床置防振ベット
  0
TEXT
  5
7AF5
  8
4
  6
CONTINUOUS
 10
1580.837966999999
 20
12669.404881
 30
0.0
 40
300.0
  1
ベルト駆動式片吸込両持排煙ファン
  0
LINE
  5
7AF6
  8
4
  6
CONTINUOUS
 10
1250.0
 20
12347.04377099999
 30
0.0
 11
9250.0
 21
12347.04377099999
 31
0.0
  0
LINE
  5
7AF7
  8
4
  6
CONTINUOUS
 10
1250.0
 20
13347.043771000001
 30
0.0
 11
9250.0
 21
13347.043771000001
 31
0.0
  0
LINE
  5
7AF8
  8
4
  6
CONTINUOUS
 10
3250.0
 20
2500.0
 30
0.0
 11
9250.0
 21
2500.0
 31
0.0
  0
LINE
  5
7AF9
  8
4
  6
CONTINUOUS
 10
1250.0
 20
13347.043771000001
 30
0.0
 11
1250.0
 21
12347.04377099999
 31
0.0
  0
TEXT
  5
7AFA
  8
4
  6
CONTINUOUS
 10
1644.1327100000001
 20
11911.597388
 30
0.0
 40
270.0
  1
左回転左横向
  0
TEXT
  5
7AFB
  8
4
  6
CONTINUOUS
 10
7344.8477969999994
 20
13530.305408
 30
0.0
 40
280.0
  1
No.
  0
TEXT
  5
7AFC
  8
4
  6
CONTINUOUS
 10
6556.480313
 20
11917.14420699999
 30
0.0
 40
270.0
  1
縮尺：1/50
  0
LINE
  5
7AFD
  8
4
  6
CONTINUOUS
 10
9250.0
 20
13347.043771000001
 30
0.0
 11
9250.0
 21
12347.04377099999
 31
0.0
  0
LINE
  5
7AFF
  8
4
  6
CONTINUOUS
 10
7203.0871120000002
 20
13406.317916
 30
0.0
 11
7203.0871120000002
 21
13933.261307999999
 31
0.0
  0
LINE
  5
7B00
  8
4
  6
CONTINUOUS
 10
7203.0871120000002
 20
13933.261307999999
 30
0.0
 11
9250.0
 21
13933.261307999999
 31
0.0
  0
LINE
  5
7B01
  8
4
  6
CONTINUOUS
 10
9250.0
 20
13933.261307999999
 30
0.0
 11
9250.0
 21
13406.317916
 31
0.0
  0
LINE
  5
7B02
  8
4
  6
CONTINUOUS
 10
9250.0
 20
13406.317916
 30
0.0
 11
7203.0871120000002
 21
13406.317916
 31
0.0
  0
DIMENSION
  5
7B1A
  8
3
  6
CONTINUOUS
  2
*D1
 10
3218.449904999999
 20
3682.4455119999989
 30
0.0
 11
2840.971176
 21
3682.4455119999989
 31
0.0
 70
   128
 13
2468.449904999999
 23
4049.6924399999998
 33
0.0
 14
3218.449904999999
 24
3915.8002240000001
 34
0.0
1001
ACAD
1000
DSTYLE
1002
{
1070
   287
1070
     3
1070
   287
1070
     3
1070
    40
1040
45.0
1070
   143
1040
0.039
1070
   172
1070
     1
1070
   271
1070
     0
1070
   279
1070
     0
1070
   288
1070
     1
1002
}
  0
DIMENSION
  5
7B26
  8
3
  6
CONTINUOUS
  2
*D2
 10
5018.4499050000004
 20
3682.4455119999989
 30
0.0
 11
4118.4499049999986
 21
3794.9455119999989
 31
0.0
 70
     0
 13
3218.449904999999
 23
3915.8002240000001
 33
0.0
 14
5018.4499050000004
 24
4049.6924399999998
 34
0.0
1001
ACAD
1000
DSTYLE
1002
{
1070
   287
1070
     4
1070
   287
1070
     4
1070
    40
1040
45.0
1070
    75
1070
     1
1070
   143
1040
0.039
1070
   172
1070
     1
1070
   271
1070
     0
1070
   279
1070
     1
1070
   288
1070
     1
1002
}
  0
DIMENSION
  5
7B33
  8
3
  6
CONTINUOUS
  2
*D3
 10
2107.363253
 20
5122.6924399999998
 30
0.0
 11
2107.363253
 21
5788.1652290000002
 31
0.0
 70
   128
 13
2393.4499049999999
 23
6402.6924399999998
 33
0.0
 14
2393.4499049999999
 24
5122.6924399999998
 34
0.0
 50
90.0
1001
ACAD
1000
DSTYLE
1002
{
1070
   287
1070
     3
1070
   287
1070
     3
1070
    40
1040
45.0
1070
   143
1040
0.039
1070
   172
1070
     1
1070
   271
1070
     0
1070
   279
1070
     0
1070
   288
1070
     1
1002
}
  0
DIMENSION
  5
7B40
  8
3
  6
CONTINUOUS
  2
*D4
 10
1829.6414239999999
 20
5068.6924400000007
 30
0.0
 11
1829.6414239999999
 21
5735.8212430000003
 31
0.0
 70
   128
 13
2393.4499049999999
 23
6402.6924399999998
 33
0.0
 14
2476.94499
 24
5068.6924399999998
 34
0.0
 50
90.0
1001
ACAD
1000
DSTYLE
1002
{
1070
   287
1070
     3
1070
   287
1070
     3
1070
    40
1040
45.0
1070
   143
1040
0.039
1070
   172
1070
     1
1070
   271
1070
     0
1070
   279
1070
     0
1070
   288
1070
     1
1002
}
  0
DIMENSION
  5
7B4C
  8
3
  6
CONTINUOUS
  2
*D5
 10
1829.6414239999999
 20
4143.6924400000007
 30
0.0
 11
1717.141423999999
 21
4606.1924399999998
 31
0.0
 70
     0
 13
2476.94499
 23
5068.6924399999998
 33
0.0
 14
2468.449904999999
 24
4143.6924399999998
 34
0.0
 50
90.0
1001
ACAD
1000
DSTYLE
1002
{
1070
   287
1070
     4
1070
   287
1070
     4
1070
    40
1040
45.0
1070
    75
1070
     1
1070
   143
1040
0.039
1070
   172
1070
     1
1070
   271
1070
     0
1070
   279
1070
     1
1070
   288
1070
     1
1002
}
  0
DIMENSION
  5
7B5C
  8
3
  6
CONTINUOUS
  2
*D6
 10
1829.6414239999999
 20
4049.6924399999998
 30
0.0
 11
1829.6414239999999
 21
3712.1924399999998
 31
0.0
 70
   128
 13
2468.449904999999
 23
4143.6924399999998
 33
0.0
 14
2468.449904999999
 24
4049.6924399999998
 34
0.0
 50
90.0
1001
ACAD
1000
DSTYLE
1002
{
1070
   287
1070
     3
1070
   287
1070
     3
1070
    40
1040
45.0
1070
   143
1040
0.039
1070
   172
1070
     1
1070
   271
1070
     0
1070
   279
1070
     0
1070
   288
1070
     1
1002
}
  0
DIMENSION
  5
7B83
  8
3
  6
CONTINUOUS
  2
*D7
 10
1530.209647000001
 20
4049.6924399999998
 30
0.0
 11
1530.2096469999999
 21
5157.061823
 31
0.0
 70
   128
 13
2393.4499049999999
 23
6458.6924399999998
 33
0.0
 14
2468.449904999999
 24
4049.6924399999998
 34
0.0
 50
90.0
1001
ACAD
1000
DSTYLE
1002
{
1070
   287
1070
     3
1070
   287
1070
     3
1070
    40
1040
45.0
1070
   143
1040
0.039
1070
   172
1070
     1
1070
   271
1070
     0
1070
   279
1070
     0
1070
   288
1070
     1
1002
}
  0
DIMENSION
  5
7B90
  8
3
  6
CONTINUOUS
  2
*D8
 10
3218.449904999999
 20
6586.0486289999999
 30
0.0
 11
2810.2804860000001
 21
6586.0486289999999
 31
0.0
 70
   128
 13
2393.4499049999999
 23
6458.6924399999998
 33
0.0
 14
3218.449904999999
 24
6329.6924399999998
 34
0.0
1001
ACAD
1000
DSTYLE
1002
{
1070
   287
1070
     3
1070
   287
1070
     3
1070
    40
1040
45.0
1070
   143
1040
0.039
1070
   172
1070
     1
1070
   271
1070
     0
1070
   279
1070
     0
1070
   288
1070
     1
1002
}
  0
DIMENSION
  5
7B9C
  8
3
  6
CONTINUOUS
  2
*D9
 10
4297.4499049999986
 20
6586.0486289999999
 30
0.0
 11
3757.949904999999
 21
6698.5486289999999
 31
0.0
 70
     0
 13
3218.449904999999
 23
6329.6924399999998
 33
0.0
 14
4297.4499049999986
 24
5068.6924399999998
 34
0.0
1001
ACAD
1000
DSTYLE
1002
{
1070
   287
1070
     4
1070
   287
1070
     4
1070
    40
1040
45.0
1070
    75
1070
     1
1070
   143
1040
0.039
1070
   172
1070
     1
1070
   271
1070
     0
1070
   279
1070
     1
1070
   288
1070
     1
1002
}
  0
DIMENSION
  5
7BA9
  8
3
  6
CONTINUOUS
  2
*D10
 10
5018.4499050000004
 20
8583.1722117137488
 30
0.0
 11
3746.004829
 21
8583.1722117137488
 31
0.0
 70
   128
 13
2468.449904999999
 23
9060.0868467137498
 33
0.0
 14
5018.4499050000004
 24
9060.0868467137498
 34
0.0
1001
ACAD
1000
DSTYLE
1002
{
1070
   287
1070
     3
1070
   287
1070
     3
1070
    40
1040
45.0
1070
   143
1040
0.039
1070
   172
1070
     1
1070
   271
1070
     0
1070
   279
1070
     0
1070
   288
1070
     1
1002
}
  0
DIMENSION
  5
7BB6
  8
3
  6
CONTINUOUS
  2
*D11
 10
5303.0501120000008
 20
9060.0868467137498
 30
0.0
 11
5303.0501119999999
 21
9697.3511687137488
 31
0.0
 70
   128
 13
5018.4499050000004
 23
10340.086846713741
 33
0.0
 14
5018.4499050000004
 24
9060.0868467137498
 34
0.0
 50
90.0
1001
ACAD
1000
DSTYLE
1002
{
1070
   287
1070
     3
1070
   287
1070
     3
1070
    40
1040
45.0
1070
   143
1040
0.039
1070
   172
1070
     1
1070
   271
1070
     0
1070
   279
1070
     0
1070
   288
1070
     1
1002
}
  0
LINE
  5
7BB7
  8
2
  6
CENTER
 10
4428.2420140000013
 20
9787.0868467137498
 30
0.0
 11
2248.8459440000001
 21
9787.0868467137498
 31
0.0
  0
LINE
  5
7BB8
  8
2
  6
CENTER
 10
3218.449904999999
 20
8852.3698117137483
 30
0.0
 11
3218.449904999999
 21
10478.44583171374
 31
0.0
  0
LINE
  5
7BB9
  8
2
  6
CENTER
 10
7356.0938239999996
 20
6642.1698840000008
 30
0.0
 11
7356.0938239999996
 21
3878.3925570000001
 31
0.0
  0
DIMENSION
  5
7BC6
  8
3
  6
CONTINUOUS
  2
*D12
 10
7831.0938239999987
 20
6615.9788050000006
 30
0.0
 11
7327.9519829999999
 21
6615.9788050000006
 31
0.0
 70
   128
 13
6881.0938239999996
 23
6402.6924399999998
 33
0.0
 14
7831.0938239999987
 24
6402.6924399999998
 34
0.0
1001
ACAD
1000
DSTYLE
1002
{
1070
   287
1070
     3
1070
   287
1070
     3
1070
    40
1040
45.0
1070
   143
1040
0.039
1070
   172
1070
     1
1070
   271
1070
     0
1070
   279
1070
     0
1070
   288
1070
     1
1002
}
  0
DIMENSION
  5
7BD3
  8
3
  6
CONTINUOUS
  2
*D13
 10
7356.0938239999996
 20
6908.3534950000003
 30
0.0
 11
6946.1764750000002
 21
6908.3534950000003
 31
0.0
 70
   128
  1
MAX\P890
 13
6516.0938240000014
 23
5446.6924399999989
 33
0.0
 14
7356.0938239999996
 24
6832.1391159999994
 34
0.0
1001
ACAD
1000
DSTYLE
1002
{
1070
   287
1070
     3
1070
   287
1070
     3
1070
    40
1040
45.0
1070
   143
1040
0.039
1070
   172
1070
     1
1070
   271
1070
     0
1070
   279
1070
     0
1070
   288
1070
     1
1002
}
  0
DIMENSION
  5
7BE1
  8
3
  6
CONTINUOUS
  2
*D14
 10
7934.0938239999996
 20
6908.3534950000003
 30
0.0
 11
7634.8695730000018
 21
6908.3534950000003
 31
0.0
 70
   128
 13
7356.0938239999996
 23
6832.1391159999994
 33
0.0
 14
7934.0938239999996
 24
5743.6924399999998
 34
0.0
1001
ACAD
1000
DSTYLE
1002
{
1070
   287
1070
     4
1070
   287
1070
     4
1070
    40
1040
45.0
1070
    75
1070
     1
1070
   143
1040
0.039
1070
   172
1070
     1
1070
   271
1070
     0
1070
   279
1070
     1
1070
   288
1070
     1
1002
}
  0
DIMENSION
  5
7C04
  8
3
  6
CONTINUOUS
  2
*D15
 10
8308.5910980000026
 20
4443.6924399999998
 30
0.0
 11
8308.5910980000008
 21
5037.4378630000001
 31
0.0
 70
   128
 13
7934.0938239999996
 23
5693.6924399999998
 33
0.0
 14
7934.0938239999996
 24
4443.6924399999998
 34
0.0
 50
90.0
1001
ACAD
1000
DSTYLE
1002
{
1070
   287
1070
     3
1070
   287
1070
     3
1070
     3
1000
φ<>
1070
    40
1040
45.0
1070
   143
1040
0.039
1070
   172
1070
     1
1070
   271
1070
     0
1070
   279
1070
     0
1070
   288
1070
     1
1002
}
  0
DIMENSION
  5
7C11
  8
3
  6
CONTINUOUS
  2
*D16
 10
7356.0938239999996
 20
3707.9122870000001
 30
0.0
 11
6983.605434000001
 21
3707.9122870000001
 31
0.0
 70
   128
 13
6629.0938239999996
 23
4049.6924399999998
 33
0.0
 14
7356.0938239999996
 24
3878.3925570000001
 34
0.0
1001
ACAD
1000
DSTYLE
1002
{
1070
   287
1070
     3
1070
   287
1070
     3
1070
    40
1040
45.0
1070
   143
1040
0.039
1070
   172
1070
     1
1070
   271
1070
     0
1070
   279
1070
     0
1070
   288
1070
     1
1002
}
  0
DIMENSION
  5
7C1F
  8
3
  6
CONTINUOUS
  2
*D17
 10
7909.0938239999996
 20
3707.9122870000001
 30
0.0
 11
7634.8695730000018
 21
3707.9122870000001
 31
0.0
 70
   128
 13
7356.0938239999996
 23
3878.3925570000001
 33
0.0
 14
7909.0938239999996
 24
4049.6924399999998
 34
0.0
1001
ACAD
1000
DSTYLE
1002
{
1070
   287
1070
     4
1070
   287
1070
     4
1070
    40
1040
45.0
1070
    75
1070
     1
1070
   143
1040
0.039
1070
   172
1070
     1
1070
   271
1070
     0
1070
   279
1070
     1
1070
   288
1070
     1
1002
}
  0
LINE
  5
7C36
  8
2
  6
CENTER
 10
4378.5489310000003
 20
5068.6924399999998
 30
0.0
 11
2386.5011229999991
 21
5068.6924399999998
 31
0.0
  0
DIMENSION
  5
7CB3
  8
3
  2
*D18
 10
5018.4499050000004
 20
6901.6253281133613
 30
0.0
 11
3718.2465347655739
 21
6901.6253281133613
 31
0.0
 70
   128
 13
2393.4499049999999
 23
6458.6924399999998
 33
0.0
 14
5018.4499050000004
 24
4293.6924399999998
 34
0.0
1001
ACAD
1000
DSTYLE
1002
{
1070
   287
1070
     3
1070
   287
1070
     3
1070
    40
1040
45.0
1070
   143
1040
0.039
1070
   172
1070
     1
1070
   271
1070
     0
1070
   279
1070
     0
1070
   288
1070
     1
1002
}
  0
ENDSEC
  0
EOF
