  0
SECTION
  2
HEADER
  9
$ACADVER
  1
AC1009
  9
$INSBASE
 10
0.0
 20
0.0
 30
0.0
  9
$EXTMIN
 10
1250.0
 20
1500.0
 30
0.0
  9
$EXTMAX
 10
9250.0
 20
13933.261307999999
 30
0.0
  9
$LIMMIN
 10
0.0
 20
0.0
  9
$LIMMAX
 10
297.0
 20
210.0
  9
$ORTHOMODE
 70
     0
  9
$REGENMODE
 70
     1
  9
$FILLMODE
 70
     0
  9
$QTEXTMODE
 70
     0
  9
$MIRRTEXT
 70
     1
  9
$DRAGMODE
 70
     2
  9
$LTSCALE
 40
100.0
  9
$OSMODE
 70
    37
  9
$ATTMODE
 70
     1
  9
$TEXTSIZE
 40
180.0
  9
$TRACEWID
 40
0.05
  9
$TEXTSTYLE
  7
STANDARD
  9
$CLAYER
  8
3
  9
$CELTYPE
  6
BYLAYER
  9
$CECOLOR
 62
   256
  9
$DIMSCALE
 40
45.0
  9
$DIMASZ
 40
2.0
  9
$DIMEXO
 40
0.5
  9
$DIMDLI
 40
10.0
  9
$DIMRND
 40
0.0
  9
$DIMDLE
 40
0.0
  9
$DIMEXE
 40
1.0
  9
$DIMTP
 40
1.0
  9
$DIMTM
 40
1.0
  9
$DIMTXT
 40
3.0
  9
$DIMCEN
 40
0.0
  9
$DIMTSZ
 40
0.0
  9
$DIMTOL
 70
     0
  9
$DIMLIM
 70
     0
  9
$DIMTIH
 70
     0
  9
$DIMTOH
 70
     0
  9
$DIMSE1
 70
     0
  9
$DIMSE2
 70
     0
  9
$DIMTAD
 70
     1
  9
$DIMZIN
 70
     8
  9
$DIMBLK
  1

  9
$DIMASO
 70
     1
  9
$DIMSHO
 70
     1
  9
$DIMPOST
  1

  9
$DIMAPOST
  1

  9
$DIMALT
 70
     0
  9
$DIMALTD
 70
     2
  9
$DIMALTF
 40
0.039
  9
$DIMLFAC
 40
1.0
  9
$DIMTOFL
 70
     1
  9
$DIMTVP
 40
0.0
  9
$DIMTIX
 70
     0
  9
$DIMSOXD
 70
     0
  9
$DIMSAH
 70
     1
  9
$DIMBLK1
  1
OPEN
  9
$DIMBLK2
  1
OPEN
  9
$DIMSTYLE
  2
IGA
  9
$DIMCLRD
 70
     0
  9
$DIMCLRE
 70
     0
  9
$DIMCLRT
 70
     0
  9
$DIMTFAC
 40
10.0
  9
$DIMGAP
 40
1.0
  9
$LUNITS
 70
     2
  9
$LUPREC
 70
     3
  9
$SKETCHINC
 40
0.1
  9
$FILLETRAD
 40
50.0
  9
$AUNITS
 70
     0
  9
$AUPREC
 70
     0
  9
$MENU
  1
acad
  9
$ELEVATION
 40
0.0
  9
$PELEVATION
 40
0.0
  9
$THICKNESS
 40
0.0
  9
$LIMCHECK
 70
     0
  9
$BLIPMODE
 70
     0
  9
$CHAMFERA
 40
0.5
  9
$CHAMFERB
 40
0.5
  9
$SKPOLY
 70
     0
  9
$TDCREATE
 40
2450750.4350817129
  9
$TDUPDATE
 40
2454953.6884557642
  9
$TDINDWG
 40
0.0100321296
  9
$TDUSRTIMER
 40
0.0100321296
  9
$USRTIMER
 70
     1
  9
$ANGBASE
 50
0.0
  9
$ANGDIR
 70
     0
  9
$PDMODE
 70
     0
  9
$PDSIZE
 40
0.0
  9
$PLINEWID
 40
0.0
  9
$COORDS
 70
     1
  9
$SPLFRAME
 70
     0
  9
$SPLINETYPE
 70
     6
  9
$SPLINESEGS
 70
     8
  9
$ATTDIA
 70
     0
  9
$ATTREQ
 70
     1
  9
$HANDLING
 70
 10241
  9
$HANDSEED
  5
7F1D
  9
$SURFTAB1
 70
     6
  9
$SURFTAB2
 70
     6
  9
$SURFTYPE
 70
     6
  9
$SURFU
 70
     6
  9
$SURFV
 70
     6
  9
$UCSNAME
  2

  9
$UCSORG
 10
0.0
 20
0.0
 30
0.0
  9
$UCSXDIR
 10
1.0
 20
0.0
 30
0.0
  9
$UCSYDIR
 10
0.0
 20
1.0
 30
0.0
  9
$PUCSNAME
  2

  9
$PUCSORG
 10
0.0
 20
0.0
 30
0.0
  9
$PUCSXDIR
 10
1.0
 20
0.0
 30
0.0
  9
$PUCSYDIR
 10
0.0
 20
1.0
 30
0.0
  9
$USERI1
 70
     0
  9
$USERI2
 70
     0
  9
$USERI3
 70
     0
  9
$USERI4
 70
     0
  9
$USERI5
 70
     0
  9
$USERR1
 40
0.0
  9
$USERR2
 40
0.0
  9
$USERR3
 40
0.0
  9
$USERR4
 40
0.0
  9
$USERR5
 40
0.0
  9
$WORLDVIEW
 70
     1
  9
$SHADEDGE
 70
     3
  9
$SHADEDIF
 70
    70
  9
$TILEMODE
 70
     1
  9
$MAXACTVP
 70
    16
  9
$PLIMCHECK
 70
     0
  9
$PEXTMIN
 10
1.0000000000000000E+020
 20
1.0000000000000000E+020
 30
1.0000000000000000E+020
  9
$PEXTMAX
 10
-1.0000000000000000E+020
 20
-1.0000000000000000E+020
 30
-1.0000000000000000E+020
  9
$PLIMMIN
 10
0.0
 20
0.0
  9
$PLIMMAX
 10
12.0
 20
9.0
  9
$UNITMODE
 70
     0
  9
$VISRETAIN
 70
     0
  9
$PLINEGEN
 70
     0
  9
$PSLTSCALE
 70
     1
  0
ENDSEC
  0
SECTION
  2
TABLES
  0
TABLE
  2
VPORT
 70
     2
  0
VPORT
  2
*ACTIVE
 70
     0
 10
0.0
 20
0.0
 11
1.0
 21
1.0
 12
21668.08847309414
 22
6276.1219261408241
 13
0.0
 23
0.0
 14
10.0
 24
10.0
 15
10.0
 25
10.0
 16
0.0
 26
0.0
 36
1.0
 17
0.0
 27
0.0
 37
0.0
 40
15535.92605571389
 41
3.1666666666666661
 42
50.0
 43
0.0
 44
0.0
 50
0.0
 51
0.0
 71
     0
 72
   100
 73
     1
 74
     0
 75
     0
 76
     0
 77
     0
 78
     0
  0
ENDTAB
  0
TABLE
  2
LTYPE
 70
     2
  0
LTYPE
  2
CONTINUOUS
 70
     0
  3
Solid line
 72
    65
 73
     0
 40
0.0
  0
LTYPE
  2
CENTER
 70
     0
  3
____ _ ____ _ ____ _ ____ _ ____ _ ____ _ ____ 
 72
    65
 73
     4
 40
2.0
 49
1.25
 49
-0.25
 49
0.25
 49
-0.25
  0
ENDTAB
  0
TABLE
  2
LAYER
 70
     6
  0
LAYER
  2
0
 70
     0
 62
     7
  6
CONTINUOUS
  0
LAYER
  2
3
 70
     0
 62
     2
  6
CONTINUOUS
  0
LAYER
  2
2
 70
     0
 62
     3
  6
CENTER
  0
LAYER
  2
1
 70
     0
 62
     4
  6
CONTINUOUS
  0
LAYER
  2
4
 70
     0
 62
     7
  6
CONTINUOUS
  0
LAYER
  2
DEFPOINTS
 70
     0
 62
     7
  6
CONTINUOUS
  0
ENDTAB
  0
TABLE
  2
STYLE
 70
     1
  0
STYLE
  2
STANDARD
 70
     0
 40
0.0
 41
1.0
 50
0.0
 71
     0
 42
180.0
  3
simplex.shx
  4
extfont.shx
  0
ENDTAB
  0
TABLE
  2
VIEW
 70
     0
  0
ENDTAB
  0
TABLE
  2
UCS
 70
     0
  0
ENDTAB
  0
TABLE
  2
APPID
 70
     1
  0
APPID
  2
ACAD
 70
     0
  0
ENDTAB
  0
TABLE
  2
DIMSTYLE
 70
     1
  0
DIMSTYLE
  2
IGA
 70
     0
  3

  4

  5

  6
OPEN
  7
OPEN
 40
2.0
 41
2.0
 42
0.5
 43
10.0
 44
1.0
 45
0.0
 46
0.0
 47
1.0
 48
1.0
140
3.0
141
0.0
142
0.0
143
0.03937
144
1.0
145
0.0
146
10.0
147
1.0
 71
     0
 72
     0
 73
     0
 74
     0
 75
     0
 76
     0
 77
     1
 78
     8
170
     0
171
     2
172
     0
173
     1
174
     0
175
     0
176
     0
177
     0
178
     0
  0
ENDTAB
  0
ENDSEC
  0
SECTION
  2
BLOCKS
  0
BLOCK
  8
0
  2
$MODEL_SPACE
 70
     0
 10
0.0
 20
0.0
 30
0.0
  3
$MODEL_SPACE
  1

  0
ENDBLK
  5
1B
  8
0
  0
BLOCK
 67
     1
  8
0
  2
$PAPER_SPACE
 70
     0
 10
0.0
 20
0.0
 30
0.0
  3
$PAPER_SPACE
  1

  0
ENDBLK
  5
18
 67
     1
  8
0
  0
BLOCK
  8
0
  2
_OPEN
 70
     0
 10
0.0
 20
0.0
 30
0.0
  3
_OPEN
  1

  0
LINE
  5
7AD8
  8
0
  6
BYBLOCK
 62
     0
 10
-1.0
 20
0.166667
 30
0.0
 11
0.0
 21
0.0
 31
0.0
  0
LINE
  5
7AD9
  8
0
  6
BYBLOCK
 62
     0
 10
0.0
 20
0.0
 30
0.0
 11
-1.0
 21
-0.166667
 31
0.0
  0
LINE
  5
7ADA
  8
0
  6
BYBLOCK
 62
     0
 10
0.0
 20
0.0
 30
0.0
 11
-1.0
 21
0.0
 31
0.0
  0
ENDBLK
  5
7ADB
  8
0
  0
BLOCK
  8
0
  2
*D1
 70
     1
 10
0.0
 20
0.0
 30
0.0
  3
*D1
  1

  0
LINE
  5
7E6D
  8
3
  6
CONTINUOUS
 62
     0
 10
3015.1563729999998
 20
4247.7139420000003
 30
0.0
 11
3015.1563729999998
 21
3898.3953239999992
 31
0.0
  0
LINE
  5
7E6E
  8
3
  6
CONTINUOUS
 62
     0
 10
3765.1563729999989
 20
4124.9740439999996
 30
0.0
 11
3765.1563729999989
 21
3898.3953239999992
 31
0.0
  0
LINE
  5
7E6F
  8
3
  6
CONTINUOUS
 62
     0
 10
3105.1563729999998
 20
3943.3953240000001
 30
0.0
 11
3675.1563729999998
 21
3943.3953240000001
 31
0.0
  0
INSERT
  5
7E70
  8
3
  6
CONTINUOUS
 62
     0
  2
_OPEN
 10
3015.1563729999998
 20
3943.3953240000001
 30
0.0
 41
90.0
 42
90.0
 43
90.0
 50
180.0
  0
INSERT
  5
7E71
  8
3
  6
CONTINUOUS
 62
     0
  2
_OPEN
 10
3765.1563729999989
 20
3943.3953240000001
 30
0.0
 41
90.0
 42
90.0
 43
90.0
  0
TEXT
  8
3
  40
135
  5
7F0A
  62
0
  72
0
  71
0
 10
3105.64
 20
3816.95
 30
0.000000
  1
750
  0
POINT
  5
7E73
  8
DEFPOINTS
  6
CONTINUOUS
 62
     0
 10
3015.1563729999998
 20
4270.2139420000003
 30
0.0
  0
POINT
  5
7E74
  8
DEFPOINTS
  6
CONTINUOUS
 62
     0
 10
3765.1563729999989
 20
4147.4740439999987
 30
0.0
  0
POINT
  5
7E75
  8
DEFPOINTS
  6
CONTINUOUS
 62
     0
 10
3765.1563729999989
 20
3943.3953240000001
 30
0.0
  0
ENDBLK
  5
7AE8
  8
0
  0
BLOCK
  8
0
  2
*D2
 70
     1
 10
0.0
 20
0.0
 30
0.0
  3
*D2
  1

  0
LINE
  5
7E76
  8
3
  6
CONTINUOUS
 62
     0
 10
5565.1563729999998
 20
4247.7139420000003
 30
0.0
 11
5565.1563729999998
 21
3898.3953239999992
 31
0.0
  0
LINE
  5
7E77
  8
3
  6
CONTINUOUS
 62
     0
 10
3855.1563729999989
 20
3943.3953240000001
 30
0.0
 11
5475.1563729999998
 21
3943.3953240000001
 31
0.0
  0
INSERT
  5
7E78
  8
3
  6
CONTINUOUS
 62
     0
  2
_OPEN
 10
3765.1563729999989
 20
3943.3953240000001
 30
0.0
 41
90.0
 42
90.0
 43
90.0
 50
180.0
  0
INSERT
  5
7E79
  8
3
  6
CONTINUOUS
 62
     0
  2
_OPEN
 10
5565.1563729999998
 20
3943.3953240000001
 30
0.0
 41
90.0
 42
90.0
 43
90.0
  0
TEXT
  8
3
  40
135
  5
7F0B
  62
0
  72
0
  71
0
 10
4395.16
 20
3816.95
 30
0.000000
  1
1800
  0
POINT
  5
7E7B
  8
DEFPOINTS
  6
CONTINUOUS
 62
     0
 10
3765.1563729999989
 20
4147.4740439999987
 30
0.0
  0
POINT
  5
7E7C
  8
DEFPOINTS
  6
CONTINUOUS
 62
     0
 10
5565.1563729999998
 20
4270.2139420000003
 30
0.0
  0
POINT
  5
7E7D
  8
DEFPOINTS
  6
CONTINUOUS
 62
     0
 10
5565.1563729999998
 20
3943.3953240000001
 30
0.0
  0
ENDBLK
  5
7C8E
  8
0
  0
BLOCK
  8
0
  2
*D3
 70
     1
 10
0.0
 20
0.0
 30
0.0
  3
*D3
  1

  0
LINE
  5
7E7E
  8
3
  6
CONTINUOUS
 62
     0
 10
2940.1563729999998
 20
5838.7139420000003
 30
0.0
 11
2940.1563729999998
 21
6944.7026720000003
 31
0.0
  0
LINE
  5
7E7F
  8
3
  6
CONTINUOUS
 62
     0
 10
3765.1563729999989
 20
6740.0549650000003
 30
0.0
 11
3765.1563729999989
 21
6944.7026720000003
 31
0.0
  0
LINE
  5
7E80
  8
3
  6
CONTINUOUS
 62
     0
 10
3030.1563729999998
 20
6899.7026720000003
 30
0.0
 11
3675.1563729999998
 21
6899.7026720000003
 31
0.0
  0
INSERT
  5
7E81
  8
3
  6
CONTINUOUS
 62
     0
  2
_OPEN
 10
2940.1563729999998
 20
6899.7026720000003
 30
0.0
 41
90.0
 42
90.0
 43
90.0
 50
180.0
  0
INSERT
  5
7E82
  8
3
  6
CONTINUOUS
 62
     0
  2
_OPEN
 10
3765.1563729999989
 20
6899.7026720000003
 30
0.0
 41
90.0
 42
90.0
 43
90.0
  0
TEXT
  8
3
  40
135
  5
7F0C
  62
0
  72
0
  71
0
 10
3105.64
 20
6773.25
 30
0.000000
  1
825
  0
POINT
  5
7E84
  8
DEFPOINTS
  6
CONTINUOUS
 62
     0
 10
2940.1563729999998
 20
5816.2139420000003
 30
0.0
  0
POINT
  5
7E85
  8
DEFPOINTS
  6
CONTINUOUS
 62
     0
 10
3765.1563729999989
 20
6717.5549650000012
 30
0.0
  0
POINT
  5
7E86
  8
DEFPOINTS
  6
CONTINUOUS
 62
     0
 10
3765.1563729999989
 20
6899.7026720000003
 30
0.0
  0
ENDBLK
  5
7CA9
  8
0
  0
BLOCK
  8
0
  2
*D4
 70
     1
 10
0.0
 20
0.0
 30
0.0
  3
*D4
  1

  0
LINE
  5
7E87
  8
3
  6
CONTINUOUS
 62
     0
 10
4844.1563729999998
 20
5842.7139420000003
 30
0.0
 11
4844.1563729999998
 21
6944.7026720000003
 31
0.0
  0
LINE
  5
7E88
  8
3
  6
CONTINUOUS
 62
     0
 10
3855.1563729999989
 20
6899.7026720000003
 30
0.0
 11
4754.1563729999989
 21
6899.7026720000003
 31
0.0
  0
INSERT
  5
7E89
  8
3
  6
CONTINUOUS
 62
     0
  2
_OPEN
 10
3765.1563729999989
 20
6899.7026720000003
 30
0.0
 41
90.0
 42
90.0
 43
90.0
 50
180.0
  0
INSERT
  5
7E8A
  8
3
  6
CONTINUOUS
 62
     0
  2
_OPEN
 10
4844.1563729999998
 20
6899.7026720000003
 30
0.0
 41
90.0
 42
90.0
 43
90.0
  0
TEXT
  8
3
  40
135
  5
7F0D
  62
0
  72
0
  71
0
 10
4034.66
 20
6773.25
 30
0.000000
  1
1079
  0
POINT
  5
7E8C
  8
DEFPOINTS
  6
CONTINUOUS
 62
     0
 10
3765.1563729999989
 20
6717.5549650000012
 30
0.0
  0
POINT
  5
7E8D
  8
DEFPOINTS
  6
CONTINUOUS
 62
     0
 10
4844.1563729999998
 20
5820.2139420000003
 30
0.0
  0
POINT
  5
7E8E
  8
DEFPOINTS
  6
CONTINUOUS
 62
     0
 10
4844.1563729999998
 20
6899.7026720000003
 30
0.0
  0
ENDBLK
  5
7D46
  8
0
  0
BLOCK
  8
0
  2
*D5
 70
     1
 10
0.0
 20
0.0
 30
0.0
  3
*D5
  1

  0
LINE
  5
7E8F
  8
3
  6
CONTINUOUS
 62
     0
 10
3015.1563729999998
 20
8837.2577560000009
 30
0.0
 11
3015.1563729999998
 21
8381.5190380000004
 31
0.0
  0
LINE
  5
7E90
  8
3
  6
CONTINUOUS
 62
     0
 10
5565.1563729999998
 20
8837.2577560000009
 30
0.0
 11
5565.1563729999998
 21
8381.5190380000004
 31
0.0
  0
LINE
  5
7E91
  8
3
  6
CONTINUOUS
 62
     0
 10
3105.1563729999998
 20
8426.5190380000004
 30
0.0
 11
5475.1563729999998
 21
8426.5190380000004
 31
0.0
  0
INSERT
  5
7E92
  8
3
  6
CONTINUOUS
 62
     0
  2
_OPEN
 10
3015.1563729999998
 20
8426.5190380000004
 30
0.0
 41
90.0
 42
90.0
 43
90.0
 50
180.0
  0
INSERT
  5
7E93
  8
3
  6
CONTINUOUS
 62
     0
  2
_OPEN
 10
5565.1563729999998
 20
8426.5190380000004
 30
0.0
 41
90.0
 42
90.0
 43
90.0
  0
TEXT
  8
3
  40
135
  5
7F0E
  62
0
  72
0
  71
0
 10
3969.87
 20
8300.07
 30
0.000000
  1
2550
  0
POINT
  5
7E95
  8
DEFPOINTS
  6
CONTINUOUS
 62
     0
 10
3015.1563729999998
 20
8859.7577560000009
 30
0.0
  0
POINT
  5
7E96
  8
DEFPOINTS
  6
CONTINUOUS
 62
     0
 10
5565.1563729999998
 20
8859.7577560000009
 30
0.0
  0
POINT
  5
7E97
  8
DEFPOINTS
  6
CONTINUOUS
 62
     0
 10
5565.1563729999998
 20
8426.5190380000004
 30
0.0
  0
ENDBLK
  5
7C79
  8
0
  0
BLOCK
  8
0
  2
*D6
 70
     1
 10
0.0
 20
0.0
 30
0.0
  3
*D6
  1

  0
LINE
  5
7E98
  8
3
  6
CONTINUOUS
 62
     0
 10
5587.6563729999998
 20
10139.757756000001
 30
0.0
 11
5922.7055510000009
 21
10139.757756000001
 31
0.0
  0
LINE
  5
7E99
  8
3
  6
CONTINUOUS
 62
     0
 10
5587.6563729999998
 20
8859.7577560000009
 30
0.0
 11
5922.7055510000009
 21
8859.7577560000009
 31
0.0
  0
LINE
  5
7E9A
  8
3
  6
CONTINUOUS
 62
     0
 10
5877.7055510000009
 20
10049.757756000001
 30
0.0
 11
5877.7055510000009
 21
8949.7577560000027
 31
0.0
  0
INSERT
  5
7E9B
  8
3
  6
CONTINUOUS
 62
     0
  2
_OPEN
 10
5877.7055510000009
 20
10139.757756000001
 30
0.0
 41
90.0
 42
90.0
 43
90.0
 50
90.0
  0
INSERT
  5
7E9C
  8
3
  6
CONTINUOUS
 62
     0
  2
_OPEN
 10
5877.7055510000009
 20
8859.7577560000009
 30
0.0
 41
90.0
 42
90.0
 43
90.0
 50
270.0
  0
TEXT
  8
3
  40
135
  5
7F0F
  62
0
  72
0
  71
0
 10
5495.21
 20
9261.10
 30
0.000000
  1
1280
  0
POINT
  5
7E9E
  8
DEFPOINTS
  6
CONTINUOUS
 62
     0
 10
5565.1563729999998
 20
10139.757756000001
 30
0.0
  0
POINT
  5
7E9F
  8
DEFPOINTS
  6
CONTINUOUS
 62
     0
 10
5565.1563729999998
 20
8859.7577560000009
 30
0.0
  0
POINT
  5
7EA0
  8
DEFPOINTS
  6
CONTINUOUS
 62
     0
 10
5877.7055510000009
 20
8859.7577560000009
 30
0.0
  0
ENDBLK
  5
7C84
  8
0
  0
BLOCK
  8
0
  2
*D7
 70
     1
 10
0.0
 20
0.0
 30
0.0
  3
*D7
  1

  0
LINE
  5
7EA1
  8
3
  6
CONTINUOUS
 62
     0
 10
7529.2456709999988
 20
6671.7139420000012
 30
0.0
 11
7529.2456709999988
 21
6918.687492
 31
0.0
  0
LINE
  5
7EA2
  8
3
  6
CONTINUOUS
 62
     0
 10
8479.2456709999988
 20
6671.7139420000012
 30
0.0
 11
8479.2456709999988
 21
6918.687492
 31
0.0
  0
LINE
  5
7EA3
  8
3
  6
CONTINUOUS
 62
     0
 10
7619.2456709999997
 20
6873.6874920000009
 30
0.0
 11
8389.2456709999988
 21
6873.6874920000009
 31
0.0
  0
INSERT
  5
7EA4
  8
3
  6
CONTINUOUS
 62
     0
  2
_OPEN
 10
7529.2456709999988
 20
6873.6874920000009
 30
0.0
 41
90.0
 42
90.0
 43
90.0
 50
180.0
  0
INSERT
  5
7EA5
  8
3
  6
CONTINUOUS
 62
     0
  2
_OPEN
 10
8479.2456709999988
 20
6873.6874920000009
 30
0.0
 41
90.0
 42
90.0
 43
90.0
  0
TEXT
  8
3
  40
135
  5
7F10
  62
0
  72
0
  71
0
 10
7685.53
 20
6747.24
 30
0.000000
  1
950
  0
POINT
  5
7EA7
  8
DEFPOINTS
  6
CONTINUOUS
 62
     0
 10
7529.2456709999988
 20
6649.2139420000003
 30
0.0
  0
POINT
  5
7EA8
  8
DEFPOINTS
  6
CONTINUOUS
 62
     0
 10
8479.2456709999988
 20
6649.2139420000003
 30
0.0
  0
POINT
  5
7EA9
  8
DEFPOINTS
  6
CONTINUOUS
 62
     0
 10
8479.2456709999988
 20
6873.6874920000009
 30
0.0
  0
ENDBLK
  5
7B77
  8
0
  0
BLOCK
  8
0
  2
*D8
 70
     1
 10
0.0
 20
0.0
 30
0.0
  3
*D8
  1

  0
LINE
  5
7EAA
  8
3
  6
CONTINUOUS
 62
     0
 10
7164.2456709999997
 20
6220.7139420000003
 30
0.0
 11
7164.2456709999997
 21
7249.8163511891789
 31
0.0
  0
LINE
  5
7EAB
  8
3
  6
CONTINUOUS
 62
     0
 10
8004.2456709999988
 20
7095.7610369999993
 30
0.0
 11
8004.2456709999988
 21
7249.8163511891789
 31
0.0
  0
LINE
  5
7EAC
  8
3
  6
CONTINUOUS
 62
     0
 10
7254.2456709999988
 20
7204.8163511891789
 30
0.0
 11
7914.2456709999997
 21
7204.8163511891789
 31
0.0
  0
INSERT
  5
7EAD
  8
3
  6
CONTINUOUS
 62
     0
  2
_OPEN
 10
7164.2456709999997
 20
7204.8163511891789
 30
0.0
 41
90.0
 42
90.0
 43
90.0
 50
180.0
  0
INSERT
  5
7EAE
  8
3
  6
CONTINUOUS
 62
     0
  2
_OPEN
 10
8004.2456709999988
 20
7204.8163511891789
 30
0.0
 41
90.0
 42
90.0
 43
90.0
  0
TEXT
  8
3
  40
135
  5
7F11
  62
0
  72
0
  71
0
 10
7290.34
 20
7190.87
 30
0.000000
  1
MAX
  0
TEXT
  8
3
  40
135
  5
7F12
  62
0
  72
0
  71
0
 10
7290.34
 20
7015.37
 30
0.000000
  1
890
  0
POINT
  5
7EB0
  8
DEFPOINTS
  6
CONTINUOUS
 62
     0
 10
7164.2456709999997
 20
6198.2139420000003
 30
0.0
  0
POINT
  5
7EB1
  8
DEFPOINTS
  6
CONTINUOUS
 62
     0
 10
8004.2456709999988
 20
7073.2610370000002
 30
0.0
  0
POINT
  5
7EB2
  8
DEFPOINTS
  6
CONTINUOUS
 62
     0
 10
8004.2456709999988
 20
7204.8163511891789
 30
0.0
  0
ENDBLK
  5
7D67
  8
0
  0
BLOCK
  8
0
  2
*D9
 70
     1
 10
0.0
 20
0.0
 30
0.0
  3
*D9
  1

  0
LINE
  5
7EB3
  8
3
  6
CONTINUOUS
 62
     0
 10
8582.2456709999988
 20
6517.7139420000003
 30
0.0
 11
8582.2456709999988
 21
7249.8163511891789
 31
0.0
  0
LINE
  5
7EB4
  8
3
  6
CONTINUOUS
 62
     0
 10
8094.2456710000006
 20
7204.8163511891789
 30
0.0
 11
8492.2456709999988
 21
7204.8163511891789
 31
0.0
  0
TEXT
  8
3
  40
135
  5
7F13
  62
0
  72
0
  71
0
 10
8015.93
 20
7079.01
 30
0.000000
  1
578
  0
INSERT
  5
7EB6
  8
3
  6
CONTINUOUS
 62
     0
  2
_OPEN
 10
8004.2456709999988
 20
7204.8163511891789
 30
0.0
 41
90.0
 42
90.0
 43
90.0
 50
180.0
  0
INSERT
  5
7EB7
  8
3
  6
CONTINUOUS
 62
     0
  2
_OPEN
 10
8582.2456709999988
 20
7204.8163511891789
 30
0.0
 41
90.0
 42
90.0
 43
90.0
  0
POINT
  5
7EB8
  8
DEFPOINTS
  6
CONTINUOUS
 62
     0
 10
8004.2456709999988
 20
7073.2610370000002
 30
0.0
  0
POINT
  5
7EB9
  8
DEFPOINTS
  6
CONTINUOUS
 62
     0
 10
8582.2456709999988
 20
6495.2139420000012
 30
0.0
  0
POINT
  5
7EBA
  8
DEFPOINTS
  6
CONTINUOUS
 62
     0
 10
8582.2456709999988
 20
7204.8163511891789
 30
0.0
  0
ENDBLK
  5
7D71
  8
0
  0
BLOCK
  8
0
  2
*D10
 70
     1
 10
0.0
 20
0.0
 30
0.0
  3
*D10
  1

  0
LINE
  5
7EBB
  8
3
  6
CONTINUOUS
 62
     0
 10
8604.7456709999988
 20
6445.2139420000012
 30
0.0
 11
9030.5989360000021
 21
6445.2139420000012
 31
0.0
  0
LINE
  5
7EBC
  8
3
  6
CONTINUOUS
 62
     0
 10
8604.7456709999988
 20
5195.2139420000003
 30
0.0
 11
9030.5989360000021
 21
5195.2139420000003
 31
0.0
  0
LINE
  5
7EBD
  8
3
  6
CONTINUOUS
 62
     0
 10
8985.5989360000021
 20
6355.2139420000003
 30
0.0
 11
8985.5989360000021
 21
5285.2139420000012
 31
0.0
  0
INSERT
  5
7EBE
  8
3
  6
CONTINUOUS
 62
     0
  2
_OPEN
 10
8985.5989360000021
 20
6445.2139420000012
 30
0.0
 41
90.0
 42
90.0
 43
90.0
 50
90.0
  0
INSERT
  5
7EBF
  8
3
  6
CONTINUOUS
 62
     0
  2
_OPEN
 10
8985.5989360000021
 20
5195.2139420000003
 30
0.0
 41
90.0
 42
90.0
 43
90.0
 50
270.0
  0
TEXT
  8
3
  40
135
  5
7F14
  62
0
  72
0
  71
0
 10
8603.10
 20
5587.65
 30
0.000000
  1
φ1250
  0
POINT
  5
7EC1
  8
DEFPOINTS
  6
CONTINUOUS
 62
     0
 10
8582.2456709999988
 20
6445.2139420000012
 30
0.0
  0
POINT
  5
7EC2
  8
DEFPOINTS
  6
CONTINUOUS
 62
     0
 10
8582.2456709999988
 20
5195.2139420000003
 30
0.0
  0
POINT
  5
7EC3
  8
DEFPOINTS
  6
CONTINUOUS
 62
     0
 10
8985.5989360000021
 20
5195.2139420000003
 30
0.0
  0
ENDBLK
  5
7D5C
  8
0
  0
BLOCK
  8
0
  2
*D11
 70
     1
 10
0.0
 20
0.0
 30
0.0
  3
*D11
  1

  0
LINE
  5
7EC4
  8
3
  6
CONTINUOUS
 62
     0
 10
7277.2456709999997
 20
4247.7139420000003
 30
0.0
 11
7277.2456709999997
 21
3889.725586
 31
0.0
  0
LINE
  5
7EC5
  8
3
  6
CONTINUOUS
 62
     0
 10
8004.2456709999988
 20
4062.079408999999
 30
0.0
 11
8004.2456709999988
 21
3889.725586
 31
0.0
  0
LINE
  5
7EC6
  8
3
  6
CONTINUOUS
 62
     0
 10
7367.2456709999988
 20
3934.725586
 30
0.0
 11
7914.2456709999997
 21
3934.725586
 31
0.0
  0
INSERT
  5
7EC7
  8
3
  6
CONTINUOUS
 62
     0
  2
_OPEN
 10
7277.2456709999997
 20
3934.725586
 30
0.0
 41
90.0
 42
90.0
 43
90.0
 50
180.0
  0
INSERT
  5
7EC8
  8
3
  6
CONTINUOUS
 62
     0
  2
_OPEN
 10
8004.2456709999988
 20
3934.725586
 30
0.0
 41
90.0
 42
90.0
 43
90.0
  0
TEXT
  8
3
  40
135
  5
7F15
  62
0
  72
0
  71
0
 10
7368.08
 20
3808.28
 30
0.000000
  1
727
  0
POINT
  5
7ECA
  8
DEFPOINTS
  6
CONTINUOUS
 62
     0
 10
7277.2456709999997
 20
4270.2139420000003
 30
0.0
  0
POINT
  5
7ECB
  8
DEFPOINTS
  6
CONTINUOUS
 62
     0
 10
8004.2456709999988
 20
4084.579408999999
 30
0.0
  0
POINT
  5
7ECC
  8
DEFPOINTS
  6
CONTINUOUS
 62
     0
 10
8004.2456709999988
 20
3934.725586
 30
0.0
  0
ENDBLK
  5
7BC2
  8
0
  0
BLOCK
  8
0
  2
*D12
 70
     1
 10
0.0
 20
0.0
 30
0.0
  3
*D12
  1

  0
LINE
  5
7ECD
  8
3
  6
CONTINUOUS
 62
     0
 10
8557.2456709999988
 20
4247.7139420000003
 30
0.0
 11
8557.2456709999988
 21
3889.725586
 31
0.0
  0
LINE
  5
7ECE
  8
3
  6
CONTINUOUS
 62
     0
 10
8094.2456710000006
 20
3934.725586
 30
0.0
 11
8467.2456709999988
 21
3934.725586
 31
0.0
  0
TEXT
  8
3
  40
135
  5
7F16
  62
0
  72
0
  71
0
 10
8022.40
 20
3808.28
 30
0.000000
  1
553
  0
INSERT
  5
7ED0
  8
3
  6
CONTINUOUS
 62
     0
  2
_OPEN
 10
8004.2456709999988
 20
3934.725586
 30
0.0
 41
90.0
 42
90.0
 43
90.0
 50
180.0
  0
INSERT
  5
7ED1
  8
3
  6
CONTINUOUS
 62
     0
  2
_OPEN
 10
8557.2456709999988
 20
3934.725586
 30
0.0
 41
90.0
 42
90.0
 43
90.0
  0
POINT
  5
7ED2
  8
DEFPOINTS
  6
CONTINUOUS
 62
     0
 10
8004.2456709999988
 20
4084.579408999999
 30
0.0
  0
POINT
  5
7ED3
  8
DEFPOINTS
  6
CONTINUOUS
 62
     0
 10
8557.2456709999988
 20
4270.2139420000003
 30
0.0
  0
POINT
  5
7ED4
  8
DEFPOINTS
  6
CONTINUOUS
 62
     0
 10
8557.2456709999988
 20
3934.725586
 30
0.0
  0
ENDBLK
  5
7BE7
  8
0
  0
BLOCK
  8
0
  2
*D13
 70
     1
 10
0.0
 20
0.0
 30
0.0
  3
*D13
  1

  0
LINE
  5
7ED5
  8
3
  6
CONTINUOUS
 62
     0
 10
3742.6563729999989
 20
6717.5549650000012
 30
0.0
 11
2051.5017850000008
 21
6717.5549650000012
 31
0.0
  0
LINE
  5
7ED6
  8
3
  6
CONTINUOUS
 62
     0
 10
3001.1514579999998
 20
5820.2139420000003
 30
0.0
 11
2051.5017850000008
 21
5820.2139420000003
 31
0.0
  0
LINE
  5
7ED7
  8
3
  6
CONTINUOUS
 62
     0
 10
2096.5017849999999
 20
6627.5549650000003
 30
0.0
 11
2096.5017849999999
 21
5910.2139420000012
 31
0.0
  0
INSERT
  5
7ED8
  8
3
  6
CONTINUOUS
 62
     0
  2
_OPEN
 10
2096.5017849999999
 20
6717.5549650000012
 30
0.0
 41
90.0
 42
90.0
 43
90.0
 50
90.0
  0
INSERT
  5
7ED9
  8
3
  6
CONTINUOUS
 62
     0
  2
_OPEN
 10
2096.5017849999999
 20
5820.2139420000003
 30
0.0
 41
90.0
 42
90.0
 43
90.0
 50
270.0
  0
TEXT
  8
3
  40
135
  5
7F17
  62
0
  72
0
  71
0
 10
1714.00
 20
6010.91
 30
0.000000
  1
897
  0
POINT
  5
7EDB
  8
DEFPOINTS
  6
CONTINUOUS
 62
     0
 10
3765.1563729999989
 20
6717.5549650000012
 30
0.0
  0
POINT
  5
7EDC
  8
DEFPOINTS
  6
CONTINUOUS
 62
     0
 10
3023.6514579999989
 20
5820.2139420000003
 30
0.0
  0
POINT
  5
7EDD
  8
DEFPOINTS
  6
CONTINUOUS
 62
     0
 10
2096.5017849999999
 20
5820.2139420000003
 30
0.0
  0
ENDBLK
  5
7CBF
  8
0
  0
BLOCK
  8
0
  2
*D14
 70
     1
 10
0.0
 20
0.0
 30
0.0
  3
*D14
  1

  0
LINE
  5
7EDE
  8
3
  6
CONTINUOUS
 62
     0
 10
2992.6563729999998
 20
4270.2139420000003
 30
0.0
 11
2051.5017849999999
 21
4270.2139420000003
 31
0.0
  0
LINE
  5
7EDF
  8
3
  6
CONTINUOUS
 62
     0
 10
2096.5017849999999
 20
5730.2139420000003
 30
0.0
 11
2096.5017849999999
 21
4360.2139420000003
 31
0.0
  0
INSERT
  5
7EE0
  8
3
  6
CONTINUOUS
 62
     0
  2
_OPEN
 10
2096.5017849999999
 20
5820.2139420000003
 30
0.0
 41
90.0
 42
90.0
 43
90.0
 50
90.0
  0
INSERT
  5
7EE1
  8
3
  6
CONTINUOUS
 62
     0
  2
_OPEN
 10
2096.5017849999999
 20
4270.2139420000003
 30
0.0
 41
90.0
 42
90.0
 43
90.0
 50
270.0
  0
TEXT
  8
3
  40
135
  5
7F18
  62
0
  72
0
  71
0
 10
1714.00
 20
4806.26
 30
0.000000
  1
1550
  0
POINT
  5
7EE3
  8
DEFPOINTS
  6
CONTINUOUS
 62
     0
 10
3023.6514579999989
 20
5820.2139420000003
 30
0.0
  0
POINT
  5
7EE4
  8
DEFPOINTS
  6
CONTINUOUS
 62
     0
 10
3015.1563729999998
 20
4270.2139420000003
 30
0.0
  0
POINT
  5
7EE5
  8
DEFPOINTS
  6
CONTINUOUS
 62
     0
 10
2096.5017849999999
 20
4270.2139420000003
 30
0.0
  0
ENDBLK
  5
7CD4
  8
0
  0
BLOCK
  8
0
  2
*D15
 70
     1
 10
0.0
 20
0.0
 30
0.0
  3
*D15
  1

  0
LINE
  5
7EE6
  8
3
 62
     0
 10
2917.6563729999998
 20
5766.2139420000003
 30
0.0
 11
2712.0720846582631
 21
5766.2139420000003
 31
0.0
  0
LINE
  5
7EE7
  8
3
 62
     0
 10
2917.6563729999998
 20
4486.2139420000003
 30
0.0
 11
2712.0720846582631
 21
4486.2139420000003
 31
0.0
  0
LINE
  5
7EE8
  8
3
 62
     0
 10
2757.0720846582631
 20
5676.2139420000003
 30
0.0
 11
2757.0720846582631
 21
4576.2139420000003
 31
0.0
  0
INSERT
  5
7EE9
  8
3
 62
     0
  2
_OPEN
 10
2757.0720846582631
 20
5766.2139420000003
 30
0.0
 41
90.0
 42
90.0
 43
90.0
 50
90.0
  0
INSERT
  5
7EEA
  8
3
 62
     0
  2
_OPEN
 10
2757.0720846582631
 20
4486.2139420000003
 30
0.0
 41
90.0
 42
90.0
 43
90.0
 50
270.0
  0
TEXT
  8
3
  40
135
  5
7F19
  62
0
  72
0
  71
0
 10
2374.57
 20
4961.46
 30
0.000000
  1
1280
  0
POINT
  5
7EEC
  8
DEFPOINTS
 62
     0
 10
2940.1563729999998
 20
5766.2139420000003
 30
0.0
  0
POINT
  5
7EED
  8
DEFPOINTS
 62
     0
 10
2940.1563729999998
 20
4486.2139420000003
 30
0.0
  0
POINT
  5
7EEE
  8
DEFPOINTS
 62
     0
 10
2757.0720846582631
 20
4486.2139420000003
 30
0.0
  0
ENDBLK
  5
7CF6
  8
0
  0
BLOCK
  8
0
  2
*D16
 70
     1
 10
0.0
 20
0.0
 30
0.0
  3
*D16
  1

  0
LINE
  5
7EEF
  8
3
 62
     0
 10
2809.5202709999999
 20
5820.2139420000003
 30
0.0
 11
2415.7122250480461
 21
5820.2139420000003
 31
0.0
  0
LINE
  5
7EF0
  8
3
 62
     0
 10
2917.6563729999998
 20
4486.2139420000003
 30
0.0
 11
2415.7122250480461
 21
4486.2139420000003
 31
0.0
  0
LINE
  5
7EF1
  8
3
 62
     0
 10
2460.712225048047
 20
5730.2139420000003
 30
0.0
 11
2460.7122250480461
 21
4576.2139420000003
 31
0.0
  0
INSERT
  5
7EF2
  8
3
 62
     0
  2
_OPEN
 10
2460.712225048047
 20
5820.2139420000003
 30
0.0
 41
90.0
 42
90.0
 43
90.0
 50
90.0
  0
INSERT
  5
7EF3
  8
3
 62
     0
  2
_OPEN
 10
2460.7122250480461
 20
4486.2139420000003
 30
0.0
 41
90.0
 42
90.0
 43
90.0
 50
270.0
  0
TEXT
  8
3
  40
135
  5
7F1A
  62
0
  72
0
  71
0
 10
2078.21
 20
4943.33
 30
0.000000
  1
1334
  0
POINT
  5
7EF5
  8
DEFPOINTS
 62
     0
 10
2832.0202709999999
 20
5820.2139420000003
 30
0.0
  0
POINT
  5
7EF6
  8
DEFPOINTS
 62
     0
 10
2940.1563729999998
 20
4486.2139420000003
 30
0.0
  0
POINT
  5
7EF7
  8
DEFPOINTS
 62
     0
 10
2460.7122250480461
 20
4486.2139420000003
 30
0.0
  0
ENDBLK
  5
7D10
  8
0
  0
BLOCK
  8
0
  2
*D17
 70
     1
 10
0.0
 20
0.0
 30
0.0
  3
*D17
  1

  0
LINE
  5
7EF8
  8
3
 62
     0
 10
3720.1563729999998
 20
6717.5549650000012
 30
0.0
 11
1773.5510577528121
 21
6717.5549650000012
 31
0.0
  0
LINE
  5
7EF9
  8
3
 62
     0
 10
2992.6563729999998
 20
4270.2139420000003
 30
0.0
 11
1773.5510577528109
 21
4270.2139420000012
 31
0.0
  0
LINE
  5
7EFA
  8
3
 62
     0
 10
1818.5510577528121
 20
6627.5549650000012
 30
0.0
 11
1818.5510577528109
 21
4360.2139420000012
 31
0.0
  0
INSERT
  5
7EFB
  8
3
 62
     0
  2
_OPEN
 10
1818.5510577528121
 20
6717.5549650000012
 30
0.0
 41
90.0
 42
90.0
 43
90.0
 50
90.0
  0
INSERT
  5
7EFC
  8
3
 62
     0
  2
_OPEN
 10
1818.5510577528109
 20
4270.2139420000012
 30
0.0
 41
90.0
 42
90.0
 43
90.0
 50
270.0
  0
TEXT
  8
3
  40
135
  5
7F1B
  62
0
  72
0
  71
0
 10
1436.05
 20
5363.99
 30
0.000000
  1
2447
  0
POINT
  5
7EFE
  8
DEFPOINTS
 62
     0
 10
3742.6563729999989
 20
6717.5549650000012
 30
0.0
  0
POINT
  5
7EFF
  8
DEFPOINTS
 62
     0
 10
3015.1563729999998
 20
4270.2139420000003
 30
0.0
  0
POINT
  5
7F00
  8
DEFPOINTS
 62
     0
 10
1818.5510577528109
 20
4270.2139420000012
 30
0.0
  0
ENDBLK
  5
7D1D
  8
0
  0
BLOCK
  8
0
  2
*D18
 70
     1
 10
0.0
 20
0.0
 30
0.0
  3
*D18
  1

  0
LINE
  5
7F01
  8
3
 62
     0
 10
2940.1563729999998
 20
5838.7139420000003
 30
0.0
 11
2940.1563729999998
 21
7228.7888462672463
 31
0.0
  0
LINE
  5
7F02
  8
3
 62
     0
 10
5565.1563729999998
 20
4442.7139420000003
 30
0.0
 11
5565.1563729999998
 21
7228.7888462672463
 31
0.0
  0
LINE
  5
7F03
  8
3
 62
     0
 10
3030.1563729999998
 20
7183.7888462672454
 30
0.0
 11
5475.1563729999998
 21
7183.7888462672454
 31
0.0
  0
INSERT
  5
7F04
  8
3
 62
     0
  2
_OPEN
 10
2940.1563729999998
 20
7183.7888462672454
 30
0.0
 41
90.0
 42
90.0
 43
90.0
 50
180.0
  0
INSERT
  5
7F05
  8
3
 62
     0
  2
_OPEN
 10
5565.1563729999998
 20
7183.7888462672454
 30
0.0
 41
90.0
 42
90.0
 43
90.0
  0
TEXT
  8
3
  40
135
  5
7F1C
  62
0
  72
0
  71
0
 10
3868.47
 20
7057.34
 30
0.000000
  1
2625
  0
POINT
  5
7F07
  8
DEFPOINTS
 62
     0
 10
2940.1563729999998
 20
5816.2139420000003
 30
0.0
  0
POINT
  5
7F08
  8
DEFPOINTS
 62
     0
 10
5565.1563729999998
 20
4420.2139420000003
 30
0.0
  0
POINT
  5
7F09
  8
DEFPOINTS
 62
     0
 10
5565.1563729999998
 20
7183.7888462672454
 30
0.0
  0
ENDBLK
  5
7D30
  8
0
  0
ENDSEC
  0
SECTION
  2
ENTITIES
  0
CIRCLE
  5
7A6D
  8
1
  6
CONTINUOUS
 10
3765.1563729999989
 20
5820.2139420000003
 30
0.0
 40
675.0
  0
CIRCLE
  5
7A6E
  8
1
  6
CONTINUOUS
 10
3765.1563729999989
 20
5820.2139420000003
 30
0.0
 40
625.0
  0
LINE
  5
7A6F
  8
1
  6
CONTINUOUS
 10
3015.1563729999998
 20
4420.2139420000003
 30
0.0
 11
5565.1563729999998
 21
4420.2139420000003
 31
0.0
  0
LINE
  5
7A70
  8
1
  6
CONTINUOUS
 10
3015.1563729999998
 20
4270.2139420000003
 30
0.0
 11
5565.1563729999998
 21
4270.2139420000003
 31
0.0
  0
POLYLINE
  5
7A71
  8
1
  6
CONTINUOUS
 66
     1
 10
0.0
 20
0.0
 30
0.0
  0
VERTEX
  5
7E66
  8
1
  6
CONTINUOUS
 10
2940.1563729999998
 20
4486.2139420000003
 30
0.0
  0
VERTEX
  5
7E67
  8
1
  6
CONTINUOUS
 10
3765.1563729999989
 20
4559.2139420000003
 30
0.0
 42
0.391657
  0
VERTEX
  5
7E68
  8
1
  6
CONTINUOUS
 10
4847.6899260000009
 20
5729.2139420000012
 30
0.0
 42
0.4385764470603612
  0
VERTEX
  5
7E69
  8
1
  6
CONTINUOUS
 10
3773.8139929999988
 20
6718.3224980000005
 30
0.0
 42
0.3898085351194426
  0
VERTEX
  5
7E6A
  8
1
  6
CONTINUOUS
 10
3019.205144
 20
5897.2139420000003
 30
0.0
 42
0.049316
  0
VERTEX
  5
7E6B
  8
1
  6
CONTINUOUS
 10
3032.1573279999998
 20
5766.2139420000003
 30
0.0
 42
0.393627
  0
SEQEND
  5
7E6C
  8
1
  6
CONTINUOUS
  0
LINE
  5
7A79
  8
1
  6
CONTINUOUS
 10
2990.1563729999998
 20
5766.2139420000003
 30
0.0
 11
2990.1563729999998
 21
4486.2139420000003
 31
0.0
  0
LINE
  5
7A7A
  8
1
  6
CONTINUOUS
 10
2940.1563729999998
 20
5816.2139420000003
 30
0.0
 11
2940.1563729999998
 21
4430.2139420000003
 31
0.0
  0
LINE
  5
7A7B
  8
1
  6
CONTINUOUS
 10
3015.1563729999998
 20
4420.2139420000003
 30
0.0
 11
3015.1563729999998
 21
4270.2139420000003
 31
0.0
  0
LINE
  5
7A7C
  8
1
  6
CONTINUOUS
 10
3032.1573279999998
 20
5766.2139420000003
 30
0.0
 11
2940.1563729999998
 21
5766.2139420000003
 31
0.0
  0
LINE
  5
7A7D
  8
1
  6
CONTINUOUS
 10
5221.202413
 20
4743.7099269999999
 30
0.0
 11
3952.9130319999999
 21
6025.2296409999999
 31
0.0
  0
LINE
  5
7A7E
  8
1
  6
CONTINUOUS
 10
5288.7407789999997
 20
4817.4565819999998
 30
0.0
 11
4020.4513979999988
 21
6098.9762959999998
 31
0.0
  0
LINE
  5
7A7F
  8
1
  6
CONTINUOUS
 10
5076.5914320000002
 20
4553.4323210000002
 30
0.0
 11
3617.8975939999991
 21
5584.4198539999998
 31
0.0
  0
LINE
  5
7A80
  8
1
  6
CONTINUOUS
 10
5023.6206480000001
 20
4468.6143039999988
 30
0.0
 11
3564.9268099999999
 21
5499.6018370000002
 31
0.0
  0
LINE
  5
7A81
  8
2
  6
CENTER
 10
3765.1563729999989
 20
10274.73096599999
 30
0.0
 11
3765.1563729999989
 21
8643.0338969999993
 31
0.0
  0
CIRCLE
  5
7A82
  8
1
  6
CONTINUOUS
 10
3765.1563729999989
 20
5820.2139420000003
 30
0.0
 40
278.0
  0
ARC
  5
7A83
  8
1
  6
CONTINUOUS
 10
3765.1563729999989
 20
5820.2139420000003
 30
0.0
 40
378.0
 50
47.516049000000002
 51
238.01428300000001
  0
LINE
  5
7A84
  8
2
  6
CENTER
 10
8708.5576259999998
 20
5820.2139420000003
 30
0.0
 11
6960.0248924815023
 21
5820.2139419999994
 31
0.0
  0
LINE
  5
7A85
  8
2
  6
CENTER
 10
5260.1563729999998
 20
4655.2139420000003
 30
0.0
 11
5020.1563729999989
 21
4655.2139420000003
 31
0.0
  0
CIRCLE
  5
7A86
  8
1
  6
CONTINUOUS
 10
5140.1563729999989
 20
4655.2139420000003
 30
0.0
 40
120.0
  0
LINE
  5
7A87
  8
1
  6
CONTINUOUS
 10
4915.1563729999998
 20
4475.2139420000003
 30
0.0
 11
5365.1563729999998
 21
4475.2139420000003
 31
0.0
  0
ARC
  5
7A88
  8
1
  6
CONTINUOUS
 10
5140.1563729999989
 20
4655.2139420000003
 30
0.0
 40
199.0
 50
320.126825
 51
219.87317499999989
  0
ARC
  5
7A89
  8
1
  6
CONTINUOUS
 10
5140.1563729999989
 20
4655.2139420000003
 30
0.0
 40
220.0
 50
238.01428300000001
 51
47.516049000000002
  0
LINE
  5
7A8A
  8
1
  6
CONTINUOUS
 10
4915.1563729999998
 20
4420.2139420000003
 30
0.0
 11
4915.1563729999998
 21
4475.2139420000003
 31
0.0
  0
LINE
  5
7A8B
  8
1
  6
CONTINUOUS
 10
4978.1563729999998
 20
4475.2139420000003
 30
0.0
 11
4978.1563729999998
 21
4517.7131250000002
 31
0.0
  0
LINE
  5
7A8C
  8
1
  6
CONTINUOUS
 10
4978.1563729999998
 20
4517.7131250000002
 30
0.0
 11
4987.430762
 21
4527.6369539999996
 31
0.0
  0
LINE
  5
7A8D
  8
2
  6
CENTER
 10
5140.1563729999989
 20
4535.2139420000012
 30
0.0
 11
5140.1563729999989
 21
4775.2139420000003
 31
0.0
  0
LINE
  5
7A8E
  8
1
  6
CONTINUOUS
 10
5302.1563729999989
 20
4475.2139420000003
 30
0.0
 11
5302.1563729999989
 21
4517.7131250000002
 31
0.0
  0
LINE
  5
7A8F
  8
1
  6
CONTINUOUS
 10
5302.1563729999989
 20
4475.2139420000003
 30
0.0
 11
5242.1563729999998
 21
4475.2139420000003
 31
0.0
  0
LINE
  5
7A90
  8
1
  6
CONTINUOUS
 10
5302.1563729999989
 20
4517.7131250000002
 30
0.0
 11
5292.8819839999996
 21
4527.6369539999996
 31
0.0
  0
LINE
  5
7A91
  8
1
  6
CONTINUOUS
 10
5365.1563729999998
 20
4420.2139420000003
 30
0.0
 11
5365.1563729999998
 21
4475.2139420000003
 31
0.0
  0
LINE
  5
7A92
  8
1
  6
CONTINUOUS
 10
5565.1563729999998
 20
4420.2139420000003
 30
0.0
 11
5565.1563729999998
 21
4270.2139420000003
 31
0.0
  0
LINE
  5
7A93
  8
1
  6
CONTINUOUS
 10
3090.1563729999998
 20
10164.757756000001
 30
0.0
 11
4440.1563729999989
 21
10164.757756000001
 31
0.0
  0
LINE
  5
7A94
  8
1
  6
CONTINUOUS
 10
2940.1563729999998
 20
9111.7577560000009
 30
0.0
 11
4847.6899260000009
 21
9111.7577560000009
 31
0.0
  0
LINE
  5
7A95
  8
1
  6
CONTINUOUS
 10
2940.1563729999998
 20
10061.757756000001
 30
0.0
 11
4847.6899260000009
 21
10061.757756000001
 31
0.0
  0
LINE
  5
7A96
  8
1
  6
CONTINUOUS
 10
3487.1563729999989
 20
8859.7577560000009
 30
0.0
 11
3015.1563729999998
 21
8859.7577560000009
 31
0.0
  0
LINE
  5
7A97
  8
1
  6
CONTINUOUS
 10
3140.1563729999998
 20
10061.757756000001
 30
0.0
 11
3140.1563729999998
 21
10164.757756000001
 31
0.0
  0
LINE
  5
7A98
  8
1
  6
CONTINUOUS
 10
2940.1563729999998
 20
9061.7577560000027
 30
0.0
 11
2940.1563729999998
 21
10111.757756000001
 31
0.0
  0
LINE
  5
7A99
  8
1
  6
CONTINUOUS
 10
3015.1563729999998
 20
10061.757756000001
 30
0.0
 11
3015.1563729999998
 21
10139.757756000001
 31
0.0
  0
LINE
  5
7A9A
  8
1
  6
CONTINUOUS
 10
2990.1563729999998
 20
9111.7577560000009
 30
0.0
 11
2990.1563729999998
 21
10061.757756000001
 31
0.0
  0
LINE
  5
7A9B
  8
1
  6
CONTINUOUS
 10
3015.1563729999998
 20
8859.7577560000009
 30
0.0
 11
3015.1563729999998
 21
9111.7577560000009
 31
0.0
  0
LINE
  5
7A9C
  8
1
  6
CONTINUOUS
 10
3015.1563729999998
 20
10139.757756000001
 30
0.0
 11
3140.1563729999998
 21
10139.757756000001
 31
0.0
  0
LINE
  5
7A9D
  8
1
  6
CONTINUOUS
 10
3387.1563729999989
 20
8986.7577560000009
 30
0.0
 11
5460.1563729999998
 21
8986.7577560000009
 31
0.0
  0
LINE
  5
7A9E
  8
1
  6
CONTINUOUS
 10
3387.1563729999989
 20
8746.7577560000009
 30
0.0
 11
5460.1563729999998
 21
8746.7577560000009
 31
0.0
  0
LINE
  5
7A9F
  8
1
  6
CONTINUOUS
 10
5020.1563729999989
 20
8859.7577560000009
 30
0.0
 11
4043.1563729999998
 21
8859.7577560000009
 31
0.0
  0
LINE
  5
7AA0
  8
1
  6
CONTINUOUS
 10
4390.1563729999989
 20
10139.757756000001
 30
0.0
 11
5565.1563729999998
 21
10139.757756000001
 31
0.0
  0
LINE
  5
7AA1
  8
1
  6
CONTINUOUS
 10
4390.1563729999989
 20
10061.757756000001
 30
0.0
 11
4390.1563729999989
 21
10164.757756000001
 31
0.0
  0
LINE
  5
7AA2
  8
1
  6
CONTINUOUS
 10
4043.1563729999998
 20
8816.7577560000009
 30
0.0
 11
3487.1563729999989
 21
8816.7577560000009
 31
0.0
  0
LINE
  5
7AA3
  8
1
  6
CONTINUOUS
 10
4043.1563729999998
 20
8916.7577560000009
 30
0.0
 11
3487.1563729999989
 21
8916.7577560000009
 31
0.0
  0
LINE
  5
7AA4
  8
1
  6
CONTINUOUS
 10
3387.1563729999989
 20
8746.7577560000009
 30
0.0
 11
3387.1563729999989
 21
8986.7577560000009
 31
0.0
  0
LINE
  5
7AA5
  8
1
  6
CONTINUOUS
 10
3487.1563729999989
 20
8816.7577560000009
 30
0.0
 11
3487.1563729999989
 21
8916.7577560000009
 31
0.0
  0
LINE
  5
7AA6
  8
1
  6
CONTINUOUS
 10
3737.6563729999998
 20
8916.7577560000009
 30
0.0
 11
3737.6563729999998
 21
9111.7577560000009
 31
0.0
  0
LINE
  5
7AA7
  8
1
  6
CONTINUOUS
 10
3792.6563729999989
 20
8916.7577560000009
 30
0.0
 11
3792.6563729999989
 21
9111.7577560000009
 31
0.0
  0
LINE
  5
7AA8
  8
1
  6
CONTINUOUS
 10
4043.1563729999998
 20
8816.7577560000009
 30
0.0
 11
4043.1563729999998
 21
8916.7577560000009
 31
0.0
  0
LINE
  5
7AA9
  8
1
  6
CONTINUOUS
 10
5565.1563729999998
 20
10139.757756000001
 30
0.0
 11
5565.1563729999998
 21
8859.7577560000009
 31
0.0
  0
LINE
  5
7AAA
  8
1
  6
CONTINUOUS
 10
5260.1563729999998
 20
8816.7577560000009
 30
0.0
 11
5020.1563729999989
 21
8816.7577560000009
 31
0.0
  0
LINE
  5
7AAB
  8
1
  6
CONTINUOUS
 10
5260.1563729999998
 20
8916.7577560000009
 30
0.0
 11
5020.1563729999989
 21
8916.7577560000009
 31
0.0
  0
LINE
  5
7AAC
  8
1
  6
CONTINUOUS
 10
5339.254387
 20
9031.2909490000002
 30
0.0
 11
4941.0583590000006
 21
9031.2909490000002
 31
0.0
  0
LINE
  5
7AAD
  8
1
  6
CONTINUOUS
 10
5339.254387
 20
9630.7909490000002
 30
0.0
 11
4941.0583590000006
 21
9630.7909490000002
 31
0.0
  0
LINE
  5
7AAE
  8
1
  6
CONTINUOUS
 10
4847.6899260000009
 20
9111.7577560000009
 30
0.0
 11
4847.6899260000009
 21
10061.757756000001
 31
0.0
  0
LINE
  5
7AAF
  8
1
  6
CONTINUOUS
 10
4941.0583590000006
 20
9031.2909490000002
 30
0.0
 11
4941.0583590000006
 21
9630.7909490000002
 31
0.0
  0
LINE
  5
7AB0
  8
1
  6
CONTINUOUS
 10
5020.1563729999989
 20
8816.7577560000009
 30
0.0
 11
5020.1563729999989
 21
8916.7577560000009
 31
0.0
  0
LINE
  5
7AB1
  8
1
  6
CONTINUOUS
 10
5339.254387
 20
9031.2909490000002
 30
0.0
 11
5339.254387
 21
9630.7909490000002
 31
0.0
  0
LINE
  5
7AB2
  8
1
  6
CONTINUOUS
 10
5565.1563729999998
 20
8859.7577560000009
 30
0.0
 11
5260.1563729999998
 21
8859.7577560000009
 31
0.0
  0
LINE
  5
7AB3
  8
1
  6
CONTINUOUS
 10
5260.1563729999998
 20
8816.7577560000009
 30
0.0
 11
5260.1563729999998
 21
8916.7577560000009
 31
0.0
  0
LINE
  5
7AB4
  8
1
  6
CONTINUOUS
 10
5167.6563729999989
 20
8916.7577560000009
 30
0.0
 11
5167.6563729999989
 21
9031.2909490000002
 31
0.0
  0
LINE
  5
7AB5
  8
1
  6
CONTINUOUS
 10
5112.6563729999998
 20
8916.7577560000009
 30
0.0
 11
5112.6563729999998
 21
9031.2909490000002
 31
0.0
  0
LINE
  5
7AB6
  8
1
  6
CONTINUOUS
 10
5460.1563729999998
 20
8746.7577560000009
 30
0.0
 11
5460.1563729999998
 21
8986.7577560000009
 31
0.0
  0
LINE
  5
7AB7
  8
1
  6
CONTINUOUS
 10
7529.2456709999988
 20
5766.2139420000003
 30
0.0
 11
8479.2456709999988
 21
5766.2139420000003
 31
0.0
  0
LINE
  5
7AB8
  8
1
  6
CONTINUOUS
 10
8557.2456709999988
 20
4270.2139420000003
 30
0.0
 11
7277.2456709999997
 21
4270.2139420000003
 31
0.0
  0
LINE
  5
7AB9
  8
1
  6
CONTINUOUS
 10
7529.2456709999988
 20
6649.2139420000003
 30
0.0
 11
8479.2456709999988
 21
6649.2139420000003
 31
0.0
  0
LINE
  5
7ABA
  8
1
  6
CONTINUOUS
 10
7529.2456709999988
 20
4486.2139420000003
 30
0.0
 11
8479.2456709999988
 21
4486.2139420000003
 31
0.0
  0
LINE
  5
7ABB
  8
1
  6
CONTINUOUS
 10
7529.2456709999988
 20
4486.2139420000003
 30
0.0
 11
8479.2456709999988
 21
5766.2139420000003
 31
0.0
  0
LINE
  5
7ABC
  8
1
  6
CONTINUOUS
 10
7529.2456709999988
 20
5766.2139420000003
 30
0.0
 11
8479.2456709999988
 21
4486.2139420000003
 31
0.0
  0
LINE
  5
7ABD
  8
1
  6
CONTINUOUS
 10
7529.2456709999988
 20
4486.2139420000003
 30
0.0
 11
7529.2456709999988
 21
6649.2139420000003
 31
0.0
  0
LINE
  5
7ABE
  8
1
  6
CONTINUOUS
 10
7164.2456709999997
 20
4555.2139420000003
 30
0.0
 11
7164.2456709999997
 21
6198.2139420000003
 31
0.0
  0
LINE
  5
7ABF
  8
1
  6
CONTINUOUS
 10
7404.2456709999988
 20
4555.2139420000003
 30
0.0
 11
7404.2456709999988
 21
6198.2139420000003
 31
0.0
  0
LINE
  5
7AC0
  8
1
  6
CONTINUOUS
 10
7234.2456709999997
 20
5542.2139420000003
 30
0.0
 11
7234.2456709999997
 21
6098.2139420000003
 31
0.0
  0
LINE
  5
7AC1
  8
1
  6
CONTINUOUS
 10
7334.2456709999988
 20
5542.2139420000003
 30
0.0
 11
7334.2456709999988
 21
6098.2139420000003
 31
0.0
  0
LINE
  5
7AC2
  8
1
  6
CONTINUOUS
 10
8557.2456710000024
 20
4420.2139420000003
 30
0.0
 11
7277.2456709999997
 21
4420.2139420000003
 31
0.0
  0
LINE
  5
7AC3
  8
1
  6
CONTINUOUS
 10
7234.2456709999997
 20
4655.2139420000003
 30
0.0
 11
7334.2456709999988
 21
4655.2139420000003
 31
0.0
  0
LINE
  5
7AC4
  8
1
  6
CONTINUOUS
 10
7234.2456709999997
 20
4895.2139420000003
 30
0.0
 11
7334.2456709999988
 21
4895.2139420000003
 31
0.0
  0
LINE
  5
7AC5
  8
1
  6
CONTINUOUS
 10
7164.2456709999997
 20
4555.2139420000003
 30
0.0
 11
7404.2456709999988
 21
4555.2139420000003
 31
0.0
  0
LINE
  5
7AC6
  8
1
  6
CONTINUOUS
 10
7277.2456709999997
 20
4270.2139420000003
 30
0.0
 11
7277.2456709999997
 21
4420.2139420000003
 31
0.0
  0
LINE
  5
7AC7
  8
1
  6
CONTINUOUS
 10
7234.2456709999997
 20
4655.2139420000003
 30
0.0
 11
7234.2456709999997
 21
4895.2139420000003
 31
0.0
  0
LINE
  5
7AC8
  8
1
  6
CONTINUOUS
 10
7334.2456709999988
 20
4747.7139420000003
 30
0.0
 11
7529.2456709999988
 21
4747.7139420000003
 31
0.0
  0
LINE
  5
7AC9
  8
1
  6
CONTINUOUS
 10
7334.2456709999988
 20
4802.7139420000003
 30
0.0
 11
7529.2456709999988
 21
4802.7139420000003
 31
0.0
  0
LINE
  5
7ACA
  8
1
  6
CONTINUOUS
 10
7334.2456709999988
 20
4655.2139420000003
 30
0.0
 11
7334.2456709999988
 21
4895.2139420000003
 31
0.0
  0
LINE
  5
7ACB
  8
1
  6
CONTINUOUS
 10
7234.2456709999997
 20
5542.2139420000003
 30
0.0
 11
7334.2456709999988
 21
5542.2139420000003
 31
0.0
  0
LINE
  5
7ACC
  8
1
  6
CONTINUOUS
 10
7334.2456709999988
 20
5847.7139420000012
 30
0.0
 11
7529.2456709999988
 21
5847.7139420000012
 31
0.0
  0
LINE
  5
7ACD
  8
1
  6
CONTINUOUS
 10
7334.2456709999988
 20
5792.7139420000003
 30
0.0
 11
7529.2456709999988
 21
5792.7139420000003
 31
0.0
  0
LINE
  5
7ACE
  8
1
  6
CONTINUOUS
 10
7234.2456709999997
 20
6098.2139420000003
 30
0.0
 11
7334.2456709999988
 21
6098.2139420000003
 31
0.0
  0
LINE
  5
7ACF
  8
1
  6
CONTINUOUS
 10
7164.2456709999997
 20
6198.2139420000003
 30
0.0
 11
7404.2456709999988
 21
6198.2139420000003
 31
0.0
  0
LINE
  5
7AD0
  8
1
  6
CONTINUOUS
 10
8479.2456709999988
 20
4486.2139420000003
 30
0.0
 11
8479.2456709999988
 21
6649.2139420000003
 31
0.0
  0
LINE
  5
7AD1
  8
1
  6
CONTINUOUS
 10
8582.2456709999988
 20
5145.2139420000003
 30
0.0
 11
8582.2456709999988
 21
6495.2139420000012
 31
0.0
  0
LINE
  5
7AD2
  8
1
  6
CONTINUOUS
 10
8557.2456709999988
 20
4420.2139420000003
 30
0.0
 11
8479.2456709999988
 21
4420.2139420000003
 31
0.0
  0
LINE
  5
7AD3
  8
1
  6
CONTINUOUS
 10
8557.2456709999988
 20
4270.2139420000003
 30
0.0
 11
8557.2456709999988
 21
4420.2139420000003
 31
0.0
  0
LINE
  5
7AD4
  8
1
  6
CONTINUOUS
 10
8479.2456709999988
 20
5195.2139420000003
 30
0.0
 11
8582.2456709999988
 21
5195.2139420000003
 31
0.0
  0
LINE
  5
7AD5
  8
1
  6
CONTINUOUS
 10
8479.2456709999988
 20
6445.2139420000012
 30
0.0
 11
8582.2456709999988
 21
6445.2139420000012
 31
0.0
  0
DIMENSION
  5
7AE9
  8
3
  6
CONTINUOUS
  2
*D1
 10
3765.1563729999989
 20
3943.3953240000001
 30
0.0
 11
3375.6432129999998
 21
3943.3953240000001
 31
0.0
 70
   128
 13
3015.1563729999998
 23
4270.2139420000003
 33
0.0
 14
3765.1563729999989
 24
4147.4740439999987
 34
0.0
1001
ACAD
1000
DSTYLE
1002
{
1070
   287
1070
     3
1070
   287
1070
     3
1070
    40
1040
45.0
1070
   143
1040
0.039
1070
   172
1070
     1
1070
   271
1070
     0
1070
   279
1070
     0
1070
   288
1070
     1
1002
}
  0
DIMENSION
  5
7AF5
  8
3
  6
CONTINUOUS
  2
*D2
 10
5565.1563729999998
 20
3943.3953240000001
 30
0.0
 11
4665.1563729999998
 21
4055.8953240000001
 31
0.0
 70
     0
 13
3765.1563729999989
 23
4147.4740439999987
 33
0.0
 14
5565.1563729999998
 24
4270.2139420000003
 34
0.0
1001
ACAD
1000
DSTYLE
1002
{
1070
   287
1070
     4
1070
   287
1070
     4
1070
    40
1040
45.0
1070
    75
1070
     1
1070
   143
1040
0.039
1070
   172
1070
     1
1070
   271
1070
     0
1070
   279
1070
     1
1070
   288
1070
     1
1002
}
  0
DIMENSION
  5
7B42
  8
3
  6
CONTINUOUS
  2
*D3
 10
3765.1563729999989
 20
6899.7026720000003
 30
0.0
 11
3375.6432129999998
 21
6899.7026720000003
 31
0.0
 70
   128
 13
2940.1563729999998
 23
5816.2139420000003
 33
0.0
 14
3765.1563729999989
 24
6717.5549650000012
 34
0.0
1001
ACAD
1000
DSTYLE
1002
{
1070
   287
1070
     3
1070
   287
1070
     3
1070
    40
1040
45.0
1070
   143
1040
0.039
1070
   172
1070
     1
1070
   271
1070
     0
1070
   279
1070
     0
1070
   288
1070
     1
1002
}
  0
DIMENSION
  5
7B4E
  8
3
  6
CONTINUOUS
  2
*D4
 10
4844.1563729999998
 20
6899.7026720000003
 30
0.0
 11
4304.6563729999989
 21
7012.2026719999994
 31
0.0
 70
     0
 13
3765.1563729999989
 23
6717.5549650000012
 33
0.0
 14
4844.1563729999998
 24
5820.2139420000003
 34
0.0
1001
ACAD
1000
DSTYLE
1002
{
1070
   287
1070
     4
1070
   287
1070
     4
1070
    40
1040
45.0
1070
    75
1070
     1
1070
   143
1040
0.039
1070
   172
1070
     1
1070
   271
1070
     0
1070
   279
1070
     1
1070
   288
1070
     1
1002
}
  0
DIMENSION
  5
7B5B
  8
3
  6
CONTINUOUS
  2
*D5
 10
5565.1563729999998
 20
8426.5190380000004
 30
0.0
 11
4239.8653219999987
 21
8426.5190380000004
 31
0.0
 70
   128
 13
3015.1563729999998
 23
8859.7577560000009
 33
0.0
 14
5565.1563729999998
 24
8859.7577560000009
 34
0.0
1001
ACAD
1000
DSTYLE
1002
{
1070
   287
1070
     3
1070
   287
1070
     3
1070
    40
1040
45.0
1070
   143
1040
0.039
1070
   172
1070
     1
1070
   271
1070
     0
1070
   279
1070
     0
1070
   288
1070
     1
1002
}
  0
DIMENSION
  5
7B68
  8
3
  6
CONTINUOUS
  2
*D6
 10
5877.7055510000009
 20
8859.7577560000009
 30
0.0
 11
5877.705551
 21
9500.0534060000009
 31
0.0
 70
   128
 13
5565.1563729999998
 23
10139.757756000001
 33
0.0
 14
5565.1563729999998
 24
8859.7577560000009
 34
0.0
 50
90.0
1001
ACAD
1000
DSTYLE
1002
{
1070
   287
1070
     3
1070
   287
1070
     3
1070
    40
1040
45.0
1070
   143
1040
0.039
1070
   172
1070
     1
1070
   271
1070
     0
1070
   279
1070
     0
1070
   288
1070
     1
1002
}
  0
LINE
  5
7B69
  8
2
  6
CENTER
 10
4994.0500769999999
 20
9586.7577560000027
 30
0.0
 11
2769.293846
 21
9586.7577560000027
 31
0.0
  0
LINE
  5
7B6A
  8
2
  6
CENTER
 10
3765.1563729999989
 20
6773.2908480000006
 30
0.0
 11
3765.1563729999989
 21
4147.4740439999987
 31
0.0
  0
LINE
  5
7B6B
  8
2
  6
CENTER
 10
8004.2456709999988
 20
6891.4534409999997
 30
0.0
 11
8004.2456709999988
 21
4084.579408999999
 31
0.0
  0
DIMENSION
  5
7B78
  8
3
  6
CONTINUOUS
  2
*D7
 10
8479.2456709999988
 20
6873.6874920000009
 30
0.0
 11
7955.5254670000013
 21
6873.6874920000009
 31
0.0
 70
   128
 13
7529.2456709999988
 23
6649.2139420000003
 33
0.0
 14
8479.2456709999988
 24
6649.2139420000003
 34
0.0
1001
ACAD
1000
DSTYLE
1002
{
1070
   287
1070
     3
1070
   287
1070
     3
1070
    40
1040
45.0
1070
   143
1040
0.039
1070
   172
1070
     1
1070
   271
1070
     0
1070
   279
1070
     0
1070
   288
1070
     1
1002
}
  0
DIMENSION
  5
7B85
  8
3
  6
CONTINUOUS
  2
*D8
 10
8004.2456709999988
 20
7204.8163511891789
 30
0.0
 11
7560.340059000001
 21
7204.8163511891789
 31
0.0
 70
   128
  1
MAX\P890
 13
7164.2456709999997
 23
6198.2139420000003
 33
0.0
 14
8004.2456709999988
 24
7073.2610370000002
 34
0.0
1001
ACAD
1000
DSTYLE
1002
{
1070
   287
1070
     3
1070
   287
1070
     3
1070
    40
1040
45.0
1070
   143
1040
0.039
1070
   172
1070
     1
1070
   271
1070
     0
1070
   279
1070
     0
1070
   288
1070
     1
1002
}
  0
DIMENSION
  5
7B93
  8
3
  6
CONTINUOUS
  2
*D9
 10
8582.2456709999988
 20
7204.8163511891789
 30
0.0
 11
8285.9263979999996
 21
7205.4602011891793
 31
0.0
 70
   128
 13
8004.2456709999988
 23
7073.2610370000002
 33
0.0
 14
8582.2456709999988
 24
6495.2139420000012
 34
0.0
1001
ACAD
1000
DSTYLE
1002
{
1070
   287
1070
     4
1070
   287
1070
     4
1070
    40
1040
45.0
1070
    75
1070
     1
1070
   143
1040
0.039
1070
   172
1070
     1
1070
   271
1070
     0
1070
   279
1070
     1
1070
   288
1070
     1
1002
}
  0
DIMENSION
  5
7BB6
  8
3
  6
CONTINUOUS
  2
*D10
 10
8985.5989360000021
 20
5195.2139420000003
 30
0.0
 11
8985.5989360000003
 21
5826.5996599999999
 31
0.0
 70
   128
 13
8582.2456709999988
 23
6445.2139420000012
 33
0.0
 14
8582.2456709999988
 24
5195.2139420000003
 34
0.0
 50
90.0
1001
ACAD
1000
DSTYLE
1002
{
1070
   287
1070
     3
1070
   287
1070
     3
1070
     3
1000
φ<>
1070
    40
1040
45.0
1070
   143
1040
0.039
1070
   172
1070
     1
1070
   271
1070
     0
1070
   279
1070
     0
1070
   288
1070
     1
1002
}
  0
DIMENSION
  5
7BC3
  8
3
  6
CONTINUOUS
  2
*D11
 10
8004.2456709999988
 20
3934.725586
 30
0.0
 11
7638.0814099999989
 21
3934.725586
 31
0.0
 70
   128
 13
7277.2456709999997
 23
4270.2139420000003
 33
0.0
 14
8004.2456709999988
 24
4084.579408999999
 34
0.0
1001
ACAD
1000
DSTYLE
1002
{
1070
   287
1070
     3
1070
   287
1070
     3
1070
    40
1040
45.0
1070
   143
1040
0.039
1070
   172
1070
     1
1070
   271
1070
     0
1070
   279
1070
     0
1070
   288
1070
     1
1002
}
  0
DIMENSION
  5
7BD1
  8
3
  6
CONTINUOUS
  2
*D12
 10
8557.2456709999988
 20
3934.725586
 30
0.0
 11
8292.4048349999994
 21
3934.725586
 31
0.0
 70
   128
 13
8004.2456709999988
 23
4084.579408999999
 33
0.0
 14
8557.2456709999988
 24
4270.2139420000003
 34
0.0
1001
ACAD
1000
DSTYLE
1002
{
1070
   287
1070
     4
1070
   287
1070
     4
1070
    40
1040
45.0
1070
    75
1070
     1
1070
   143
1040
0.039
1070
   172
1070
     1
1070
   271
1070
     0
1070
   279
1070
     1
1070
   288
1070
     1
1002
}
  0
LINE
  5
7BE8
  8
2
  6
CENTER
 10
5037.3831890000001
 20
5820.2139420000003
 30
0.0
 11
2832.0202709999999
 21
5820.2139420000003
 31
0.0
  0
LINE
  5
7BE9
  8
4
  6
CONTINUOUS
 10
9250.0
 20
2500.0
 30
0.0
 11
9250.0
 21
1500.0
 31
0.0
  0
LINE
  5
7BEA
  8
4
  6
CONTINUOUS
 10
5750.0
 20
2500.0
 30
0.0
 11
5750.0
 21
1500.0
 31
0.0
  0
LINE
  5
7BEB
  8
4
  6
CONTINUOUS
 10
3250.0
 20
2500.0
 30
0.0
 11
3250.0
 21
1500.0
 31
0.0
  0
LINE
  5
7BEE
  8
4
  6
CONTINUOUS
 10
3250.0
 20
1500.0
 30
0.0
 11
9250.0
 21
1500.0
 31
0.0
  0
LINE
  5
7BEF
  8
4
  6
CONTINUOUS
 10
3250.0
 20
2000.0
 30
0.0
 11
9250.0
 21
2000.0
 31
0.0
  0
TEXT
  5
7BF0
  8
4
  6
CONTINUOUS
 10
3442.5104040000001
 20
2157.7151289999988
 30
0.0
 40
250.0
  1
機器名称
  0
TEXT
  5
7BF1
  8
4
  6
CONTINUOUS
 10
3431.2905300000002
 20
1608.225782999999
 30
0.0
 40
250.0
  1
機器型番
  0
TEXT
  5
7BF2
  8
4
  6
CONTINUOUS
 10
5888.393728
 20
2112.8588439999999
 30
0.0
 40
211.11111099999991
  1
ミツヤリミットロードファン
  0
TEXT
  5
7BF3
  8
4
  6
CONTINUOUS
 10
5933.2724779999999
 20
1585.7979210000001
 30
0.0
 40
250.0
  1
LLE#8-4
  0
TEXT
  5
7BF5
  8
4
  6
CONTINUOUS
 10
4523.9288280000001
 20
11917.14420699999
 30
0.0
 40
270.0
  1
床置ベット
  0
TEXT
  5
7BF6
  8
4
  6
CONTINUOUS
 10
1580.837966999999
 20
12669.404881
 30
0.0
 40
300.0
  1
ベルト駆動式片吸込両持排煙ファン
  0
LINE
  5
7BF7
  8
4
  6
CONTINUOUS
 10
1250.0
 20
12347.04377099999
 30
0.0
 11
9250.0
 21
12347.04377099999
 31
0.0
  0
LINE
  5
7BF8
  8
4
  6
CONTINUOUS
 10
1250.0
 20
13347.043771000001
 30
0.0
 11
9250.0
 21
13347.043771000001
 31
0.0
  0
LINE
  5
7BF9
  8
4
  6
CONTINUOUS
 10
3250.0
 20
2500.0
 30
0.0
 11
9250.0
 21
2500.0
 31
0.0
  0
LINE
  5
7BFA
  8
4
  6
CONTINUOUS
 10
1250.0
 20
13347.043771000001
 30
0.0
 11
1250.0
 21
12347.04377099999
 31
0.0
  0
TEXT
  5
7BFB
  8
4
  6
CONTINUOUS
 10
2344.6346669999998
 20
11911.597388
 30
0.0
 40
270.0
  1
右回転左横向
  0
TEXT
  5
7BFC
  8
4
  6
CONTINUOUS
 10
7344.8477969999994
 20
13530.305408
 30
0.0
 40
280.0
  1
No.
  0
TEXT
  5
7BFD
  8
4
  6
CONTINUOUS
 10
6556.480313
 20
11917.14420699999
 30
0.0
 40
270.0
  1
縮尺：1/50
  0
LINE
  5
7BFE
  8
4
  6
CONTINUOUS
 10
9250.0
 20
13347.043771000001
 30
0.0
 11
9250.0
 21
12347.04377099999
 31
0.0
  0
LINE
  5
7C00
  8
4
  6
CONTINUOUS
 10
7203.0871120000002
 20
13406.317916
 30
0.0
 11
7203.0871120000002
 21
13933.261307999999
 31
0.0
  0
LINE
  5
7C01
  8
4
  6
CONTINUOUS
 10
7203.0871120000002
 20
13933.261307999999
 30
0.0
 11
9250.0
 21
13933.261307999999
 31
0.0
  0
LINE
  5
7C02
  8
4
  6
CONTINUOUS
 10
9250.0
 20
13933.261307999999
 30
0.0
 11
9250.0
 21
13406.317916
 31
0.0
  0
LINE
  5
7C03
  8
4
  6
CONTINUOUS
 10
9250.0
 20
13406.317916
 30
0.0
 11
7203.0871120000002
 21
13406.317916
 31
0.0
  0
DIMENSION
  5
7C27
  8
3
  6
CONTINUOUS
  2
*D13
 10
2096.5017849999999
 20
5820.2139420000003
 30
0.0
 11
2096.5017849999999
 21
6249.8623349999998
 31
0.0
 70
   128
 13
3765.1563729999989
 23
6717.5549650000012
 33
0.0
 14
3023.6514579999989
 24
5820.2139420000003
 34
0.0
 50
90.0
1001
ACAD
1000
DSTYLE
1002
{
1070
   287
1070
     3
1070
   287
1070
     3
1070
    40
1040
45.0
1070
   143
1040
0.039
1070
   172
1070
     1
1070
   271
1070
     0
1070
   279
1070
     0
1070
   288
1070
     1
1002
}
  0
DIMENSION
  5
7C33
  8
3
  6
CONTINUOUS
  2
*D14
 10
2096.5017849999999
 20
4270.2139420000003
 30
0.0
 11
1984.001784999999
 21
5045.2139420000012
 31
0.0
 70
     0
 13
3023.6514579999989
 23
5820.2139420000003
 33
0.0
 14
3015.1563729999998
 24
4270.2139420000003
 34
0.0
 50
90.0
1001
ACAD
1000
DSTYLE
1002
{
1070
   287
1070
     4
1070
   287
1070
     4
1070
    40
1040
45.0
1070
    75
1070
     1
1070
   143
1040
0.039
1070
   172
1070
     1
1070
   271
1070
     0
1070
   279
1070
     1
1070
   288
1070
     1
1002
}
  0
DIMENSION
  5
7CF7
  8
3
  2
*D15
 10
2757.0720846582631
 20
4486.2139420000003
 30
0.0
 11
2757.0720846582631
 21
5200.4091069474534
 31
0.0
 70
   128
 13
2940.1563729999998
 23
5766.2139420000003
 33
0.0
 14
2940.1563729999998
 24
4486.2139420000003
 34
0.0
 50
90.0
1001
ACAD
1000
DSTYLE
1002
{
1070
   287
1070
     3
1070
   287
1070
     3
1070
    40
1040
45.0
1070
   143
1040
0.039
1070
   172
1070
     1
1070
   271
1070
     0
1070
   279
1070
     0
1070
   288
1070
     1
1002
}
  0
DIMENSION
  5
7D11
  8
3
  2
*D16
 10
2460.7122250480461
 20
4486.2139420000003
 30
0.0
 11
2460.7122250480461
 21
5182.2781560263938
 31
0.0
 70
   128
 13
2832.0202709999999
 23
5820.2139420000003
 33
0.0
 14
2940.1563729999998
 24
4486.2139420000003
 34
0.0
 50
90.0
1001
ACAD
1000
DSTYLE
1002
{
1070
   287
1070
     3
1070
   287
1070
     3
1070
    40
1040
45.0
1070
   143
1040
0.039
1070
   172
1070
     1
1070
   271
1070
     0
1070
   279
1070
     0
1070
   288
1070
     1
1002
}
  0
DIMENSION
  5
7D1E
  8
3
  2
*D17
 10
1818.5510577528109
 20
4270.2139420000012
 30
0.0
 11
1818.5510577528109
 21
5602.935437484276
 31
0.0
 70
   128
 13
3742.6563729999989
 23
6717.5549650000012
 33
0.0
 14
3015.1563729999998
 24
4270.2139420000003
 34
0.0
 50
90.0
1001
ACAD
1000
DSTYLE
1002
{
1070
   287
1070
     3
1070
   287
1070
     3
1070
    40
1040
45.0
1070
   143
1040
0.039
1070
   172
1070
     1
1070
   271
1070
     0
1070
   279
1070
     0
1070
   288
1070
     1
1002
}
  0
DIMENSION
  5
7D31
  8
3
  2
*D18
 10
5565.1563729999998
 20
7183.7888462672454
 30
0.0
 11
4138.4678706202967
 21
7183.7888462672454
 31
0.0
 70
   128
 13
2940.1563729999998
 23
5816.2139420000003
 33
0.0
 14
5565.1563729999998
 24
4420.2139420000003
 34
0.0
1001
ACAD
1000
DSTYLE
1002
{
1070
   287
1070
     3
1070
   287
1070
     3
1070
    40
1040
45.0
1070
   143
1040
0.039
1070
   172
1070
     1
1070
   271
1070
     0
1070
   279
1070
     0
1070
   288
1070
     1
1002
}
  0
ENDSEC
  0
EOF
