  0
SECTION
  2
HEADER
  9
$ACADVER
  1
AC1009
  9
$INSBASE
 10
0.0
 20
0.0
 30
0.0
  9
$EXTMIN
 10
1250.0
 20
1500.0
 30
0.0
  9
$EXTMAX
 10
9250.0
 20
13933.261307999999
 30
0.0
  9
$LIMMIN
 10
0.0
 20
0.0
  9
$LIMMAX
 10
297.0
 20
210.0
  9
$ORTHOMODE
 70
     0
  9
$REGENMODE
 70
     1
  9
$FILLMODE
 70
     0
  9
$QTEXTMODE
 70
     0
  9
$MIRRTEXT
 70
     1
  9
$DRAGMODE
 70
     2
  9
$LTSCALE
 40
100.0
  9
$OSMODE
 70
    37
  9
$ATTMODE
 70
     1
  9
$TEXTSIZE
 40
180.0
  9
$TRACEWID
 40
0.05
  9
$TEXTSTYLE
  7
STANDARD
  9
$CLAYER
  8
3
  9
$CELTYPE
  6
BYLAYER
  9
$CECOLOR
 62
   256
  9
$DIMSCALE
 40
45.0
  9
$DIMASZ
 40
2.0
  9
$DIMEXO
 40
0.5
  9
$DIMDLI
 40
10.0
  9
$DIMRND
 40
0.0
  9
$DIMDLE
 40
0.0
  9
$DIMEXE
 40
1.0
  9
$DIMTP
 40
1.0
  9
$DIMTM
 40
1.0
  9
$DIMTXT
 40
3.0
  9
$DIMCEN
 40
0.0
  9
$DIMTSZ
 40
0.0
  9
$DIMTOL
 70
     0
  9
$DIMLIM
 70
     0
  9
$DIMTIH
 70
     0
  9
$DIMTOH
 70
     0
  9
$DIMSE1
 70
     0
  9
$DIMSE2
 70
     0
  9
$DIMTAD
 70
     1
  9
$DIMZIN
 70
     8
  9
$DIMBLK
  1

  9
$DIMASO
 70
     1
  9
$DIMSHO
 70
     1
  9
$DIMPOST
  1

  9
$DIMAPOST
  1

  9
$DIMALT
 70
     0
  9
$DIMALTD
 70
     2
  9
$DIMALTF
 40
0.039
  9
$DIMLFAC
 40
1.0
  9
$DIMTOFL
 70
     1
  9
$DIMTVP
 40
0.0
  9
$DIMTIX
 70
     0
  9
$DIMSOXD
 70
     0
  9
$DIMSAH
 70
     1
  9
$DIMBLK1
  1
OPEN
  9
$DIMBLK2
  1
OPEN
  9
$DIMSTYLE
  2
IGA
  9
$DIMCLRD
 70
     0
  9
$DIMCLRE
 70
     0
  9
$DIMCLRT
 70
     0
  9
$DIMTFAC
 40
10.0
  9
$DIMGAP
 40
1.0
  9
$LUNITS
 70
     2
  9
$LUPREC
 70
     3
  9
$SKETCHINC
 40
0.1
  9
$FILLETRAD
 40
50.0
  9
$AUNITS
 70
     0
  9
$AUPREC
 70
     0
  9
$MENU
  1
acad
  9
$ELEVATION
 40
0.0
  9
$PELEVATION
 40
0.0
  9
$THICKNESS
 40
0.0
  9
$LIMCHECK
 70
     0
  9
$BLIPMODE
 70
     0
  9
$CHAMFERA
 40
0.5
  9
$CHAMFERB
 40
0.5
  9
$SKPOLY
 70
     0
  9
$TDCREATE
 40
2450750.423001851
  9
$TDUPDATE
 40
2454953.6884060302
  9
$TDINDWG
 40
0.0047297338
  9
$TDUSRTIMER
 40
0.0047297338
  9
$USRTIMER
 70
     1
  9
$ANGBASE
 50
0.0
  9
$ANGDIR
 70
     0
  9
$PDMODE
 70
     0
  9
$PDSIZE
 40
0.0
  9
$PLINEWID
 40
0.0
  9
$COORDS
 70
     1
  9
$SPLFRAME
 70
     0
  9
$SPLINETYPE
 70
     6
  9
$SPLINESEGS
 70
     8
  9
$ATTDIA
 70
     0
  9
$ATTREQ
 70
     1
  9
$HANDLING
 70
 10241
  9
$HANDSEED
  5
7F01
  9
$SURFTAB1
 70
     6
  9
$SURFTAB2
 70
     6
  9
$SURFTYPE
 70
     6
  9
$SURFU
 70
     6
  9
$SURFV
 70
     6
  9
$UCSNAME
  2

  9
$UCSORG
 10
0.0
 20
0.0
 30
0.0
  9
$UCSXDIR
 10
1.0
 20
0.0
 30
0.0
  9
$UCSYDIR
 10
0.0
 20
1.0
 30
0.0
  9
$PUCSNAME
  2

  9
$PUCSORG
 10
0.0
 20
0.0
 30
0.0
  9
$PUCSXDIR
 10
1.0
 20
0.0
 30
0.0
  9
$PUCSYDIR
 10
0.0
 20
1.0
 30
0.0
  9
$USERI1
 70
     0
  9
$USERI2
 70
     0
  9
$USERI3
 70
     0
  9
$USERI4
 70
     0
  9
$USERI5
 70
     0
  9
$USERR1
 40
0.0
  9
$USERR2
 40
0.0
  9
$USERR3
 40
0.0
  9
$USERR4
 40
0.0
  9
$USERR5
 40
0.0
  9
$WORLDVIEW
 70
     1
  9
$SHADEDGE
 70
     3
  9
$SHADEDIF
 70
    70
  9
$TILEMODE
 70
     1
  9
$MAXACTVP
 70
    16
  9
$PLIMCHECK
 70
     0
  9
$PEXTMIN
 10
1.0000000000000000E+020
 20
1.0000000000000000E+020
 30
1.0000000000000000E+020
  9
$PEXTMAX
 10
-1.0000000000000000E+020
 20
-1.0000000000000000E+020
 30
-1.0000000000000000E+020
  9
$PLIMMIN
 10
0.0
 20
0.0
  9
$PLIMMAX
 10
12.0
 20
9.0
  9
$UNITMODE
 70
     0
  9
$VISRETAIN
 70
     0
  9
$PLINEGEN
 70
     0
  9
$PSLTSCALE
 70
     1
  0
ENDSEC
  0
SECTION
  2
TABLES
  0
TABLE
  2
VPORT
 70
     2
  0
VPORT
  2
*ACTIVE
 70
     0
 10
0.0
 20
0.0
 11
1.0
 21
1.0
 12
23975.83263264929
 22
7422.7337858875871
 13
0.0
 23
0.0
 14
10.0
 24
10.0
 15
10.0
 25
10.0
 16
0.0
 26
0.0
 36
1.0
 17
0.0
 27
0.0
 37
0.0
 40
19477.811201333268
 41
3.1666666666666661
 42
50.0
 43
0.0
 44
0.0
 50
0.0
 51
0.0
 71
     0
 72
   100
 73
     1
 74
     0
 75
     0
 76
     0
 77
     0
 78
     0
  0
ENDTAB
  0
TABLE
  2
LTYPE
 70
     2
  0
LTYPE
  2
CONTINUOUS
 70
     0
  3
Solid line
 72
    65
 73
     0
 40
0.0
  0
LTYPE
  2
CENTER
 70
     0
  3
____ _ ____ _ ____ _ ____ _ ____ _ ____ _ ____ 
 72
    65
 73
     4
 40
2.0
 49
1.25
 49
-0.25
 49
0.25
 49
-0.25
  0
ENDTAB
  0
TABLE
  2
LAYER
 70
     6
  0
LAYER
  2
0
 70
     0
 62
     7
  6
CONTINUOUS
  0
LAYER
  2
3
 70
     0
 62
     2
  6
CONTINUOUS
  0
LAYER
  2
2
 70
     0
 62
     3
  6
CENTER
  0
LAYER
  2
1
 70
     0
 62
     4
  6
CONTINUOUS
  0
LAYER
  2
4
 70
     0
 62
     7
  6
CONTINUOUS
  0
LAYER
  2
DEFPOINTS
 70
     0
 62
     7
  6
CONTINUOUS
  0
ENDTAB
  0
TABLE
  2
STYLE
 70
     1
  0
STYLE
  2
STANDARD
 70
     0
 40
0.0
 41
1.0
 50
0.0
 71
     0
 42
180.0
  3
simplex.shx
  4
extfont.shx
  0
ENDTAB
  0
TABLE
  2
VIEW
 70
     0
  0
ENDTAB
  0
TABLE
  2
UCS
 70
     0
  0
ENDTAB
  0
TABLE
  2
APPID
 70
     1
  0
APPID
  2
ACAD
 70
     0
  0
ENDTAB
  0
TABLE
  2
DIMSTYLE
 70
     1
  0
DIMSTYLE
  2
IGA
 70
     0
  3

  4

  5

  6
OPEN
  7
OPEN
 40
2.0
 41
2.0
 42
0.5
 43
10.0
 44
1.0
 45
0.0
 46
0.0
 47
1.0
 48
1.0
140
3.0
141
0.0
142
0.0
143
0.03937
144
1.0
145
0.0
146
10.0
147
1.0
 71
     0
 72
     0
 73
     0
 74
     0
 75
     0
 76
     0
 77
     1
 78
     8
170
     0
171
     2
172
     0
173
     1
174
     0
175
     0
176
     0
177
     0
178
     0
  0
ENDTAB
  0
ENDSEC
  0
SECTION
  2
BLOCKS
  0
BLOCK
  8
0
  2
$MODEL_SPACE
 70
     0
 10
0.0
 20
0.0
 30
0.0
  3
$MODEL_SPACE
  1

  0
ENDBLK
  5
1B
  8
0
  0
BLOCK
 67
     1
  8
0
  2
$PAPER_SPACE
 70
     0
 10
0.0
 20
0.0
 30
0.0
  3
$PAPER_SPACE
  1

  0
ENDBLK
  5
18
 67
     1
  8
0
  0
BLOCK
  8
0
  2
_OPEN
 70
     0
 10
0.0
 20
0.0
 30
0.0
  3
_OPEN
  1

  0
LINE
  5
7AD4
  8
0
  6
BYBLOCK
 62
     0
 10
-1.0
 20
0.166667
 30
0.0
 11
0.0
 21
0.0
 31
0.0
  0
LINE
  5
7AD5
  8
0
  6
BYBLOCK
 62
     0
 10
0.0
 20
0.0
 30
0.0
 11
-1.0
 21
-0.166667
 31
0.0
  0
LINE
  5
7AD6
  8
0
  6
BYBLOCK
 62
     0
 10
0.0
 20
0.0
 30
0.0
 11
-1.0
 21
0.0
 31
0.0
  0
ENDBLK
  5
7AD7
  8
0
  0
BLOCK
  8
0
  2
*D1
 70
     1
 10
0.0
 20
0.0
 30
0.0
  3
*D1
  1

  0
LINE
  5
7E65
  8
3
  6
CONTINUOUS
 62
     0
 10
1977.776382
 20
4145.8170680000003
 30
0.0
 11
1977.776382
 21
3770.976983
 31
0.0
  0
LINE
  5
7E66
  8
3
  6
CONTINUOUS
 62
     0
 10
3777.776382
 20
4007.2130820000002
 30
0.0
 11
3777.776382
 21
3770.976983
 31
0.0
  0
LINE
  5
7E67
  8
3
  6
CONTINUOUS
 62
     0
 10
2067.7763819999991
 20
3815.976983
 30
0.0
 11
3687.776382
 21
3815.976983
 31
0.0
  0
INSERT
  5
7E68
  8
3
  6
CONTINUOUS
 62
     0
  2
_OPEN
 10
1977.776382
 20
3815.976983
 30
0.0
 41
90.0
 42
90.0
 43
90.0
 50
180.0
  0
INSERT
  5
7E69
  8
3
  6
CONTINUOUS
 62
     0
  2
_OPEN
 10
3777.776382
 20
3815.976983
 30
0.0
 41
90.0
 42
90.0
 43
90.0
  0
TEXT
  8
3
  40
135
  5
7EF0
  62
0
  72
0
  71
0
 10
2647.08
 20
3689.53
 30
0.000000
  1
1800
  0
POINT
  5
7E6B
  8
DEFPOINTS
  6
CONTINUOUS
 62
     0
 10
1977.776382
 20
4168.3170680000003
 30
0.0
  0
POINT
  5
7E6C
  8
DEFPOINTS
  6
CONTINUOUS
 62
     0
 10
3777.776382
 20
4029.7130819999988
 30
0.0
  0
POINT
  5
7E6D
  8
DEFPOINTS
  6
CONTINUOUS
 62
     0
 10
3777.776382
 20
3815.976983
 30
0.0
  0
ENDBLK
  5
7D3D
  8
0
  0
BLOCK
  8
0
  2
*D2
 70
     1
 10
0.0
 20
0.0
 30
0.0
  3
*D2
  1

  0
LINE
  5
7E6E
  8
3
  6
CONTINUOUS
 62
     0
 10
4527.776382
 20
4145.8170680000003
 30
0.0
 11
4527.776382
 21
3770.976983
 31
0.0
  0
LINE
  5
7E6F
  8
3
  6
CONTINUOUS
 62
     0
 10
3867.776382
 20
3815.976983
 30
0.0
 11
4437.776382
 21
3815.976983
 31
0.0
  0
INSERT
  5
7E70
  8
3
  6
CONTINUOUS
 62
     0
  2
_OPEN
 10
3777.776382
 20
3815.976983
 30
0.0
 41
90.0
 42
90.0
 43
90.0
 50
180.0
  0
INSERT
  5
7E71
  8
3
  6
CONTINUOUS
 62
     0
  2
_OPEN
 10
4527.776382
 20
3815.976983
 30
0.0
 41
90.0
 42
90.0
 43
90.0
  0
TEXT
  8
3
  40
135
  5
7EF1
  62
0
  72
0
  71
0
 10
3882.78
 20
3689.53
 30
0.000000
  1
750
  0
POINT
  5
7E73
  8
DEFPOINTS
  6
CONTINUOUS
 62
     0
 10
3777.776382
 20
4029.7130819999988
 30
0.0
  0
POINT
  5
7E74
  8
DEFPOINTS
  6
CONTINUOUS
 62
     0
 10
4527.776382
 20
4168.3170680000003
 30
0.0
  0
POINT
  5
7E75
  8
DEFPOINTS
  6
CONTINUOUS
 62
     0
 10
4527.776382
 20
3815.976983
 30
0.0
  0
ENDBLK
  5
7AF0
  8
0
  0
BLOCK
  8
0
  2
*D3
 70
     1
 10
0.0
 20
0.0
 30
0.0
  3
*D3
  1

  0
LINE
  5
7E76
  8
3
  6
CONTINUOUS
 62
     0
 10
2443.776382
 20
6125.8170680000003
 30
0.0
 11
2443.776382
 21
6404.6248999999998
 31
0.0
  0
LINE
  5
7E77
  8
3
  6
CONTINUOUS
 62
     0
 10
3723.776382
 20
6125.8170680000003
 30
0.0
 11
3723.776382
 21
6404.6248999999998
 31
0.0
  0
LINE
  5
7E78
  8
3
  6
CONTINUOUS
 62
     0
 10
2533.776382
 20
6359.6248999999998
 30
0.0
 11
3633.776382
 21
6359.6248999999998
 31
0.0
  0
INSERT
  5
7E79
  8
3
  6
CONTINUOUS
 62
     0
  2
_OPEN
 10
2443.776382
 20
6359.6248999999998
 30
0.0
 41
90.0
 42
90.0
 43
90.0
 50
180.0
  0
INSERT
  5
7E7A
  8
3
  6
CONTINUOUS
 62
     0
  2
_OPEN
 10
3723.776382
 20
6359.6248999999998
 30
0.0
 41
90.0
 42
90.0
 43
90.0
  0
TEXT
  8
3
  40
135
  5
7EF2
  62
0
  72
0
  71
0
 10
2800.41
 20
6233.17
 30
0.000000
  1
1280
  0
POINT
  5
7E7C
  8
DEFPOINTS
  6
CONTINUOUS
 62
     0
 10
2443.776382
 20
6103.3170680000003
 30
0.0
  0
POINT
  5
7E7D
  8
DEFPOINTS
  6
CONTINUOUS
 62
     0
 10
3723.776382
 20
6103.3170680000003
 30
0.0
  0
POINT
  5
7E7E
  8
DEFPOINTS
  6
CONTINUOUS
 62
     0
 10
3723.776382
 20
6359.6248999999998
 30
0.0
  0
ENDBLK
  5
7AFD
  8
0
  0
BLOCK
  8
0
  2
*D4
 70
     1
 10
0.0
 20
0.0
 30
0.0
  3
*D4
  1

  0
LINE
  5
7E7F
  8
3
  6
CONTINUOUS
 62
     0
 10
2443.776382
 20
6125.8170680000003
 30
0.0
 11
2443.776382
 21
6659.8984659999996
 31
0.0
  0
LINE
  5
7E80
  8
3
  6
CONTINUOUS
 62
     0
 10
3777.776382
 20
6042.3219829999998
 30
0.0
 11
3777.776382
 21
6659.8984659999996
 31
0.0
  0
LINE
  5
7E81
  8
3
  6
CONTINUOUS
 62
     0
 10
2533.776382
 20
6614.8984659999987
 30
0.0
 11
3687.776382
 21
6614.8984659999987
 31
0.0
  0
INSERT
  5
7E82
  8
3
  6
CONTINUOUS
 62
     0
  2
_OPEN
 10
2443.776382
 20
6614.8984659999987
 30
0.0
 41
90.0
 42
90.0
 43
90.0
 50
180.0
  0
INSERT
  5
7E83
  8
3
  6
CONTINUOUS
 62
     0
  2
_OPEN
 10
3777.776382
 20
6614.8984659999987
 30
0.0
 41
90.0
 42
90.0
 43
90.0
  0
TEXT
  8
3
  40
135
  5
7EF3
  62
0
  72
0
  71
0
 10
2868.56
 20
6488.45
 30
0.000000
  1
1334
  0
POINT
  5
7E85
  8
DEFPOINTS
  6
CONTINUOUS
 62
     0
 10
2443.776382
 20
6103.3170680000003
 30
0.0
  0
POINT
  5
7E86
  8
DEFPOINTS
  6
CONTINUOUS
 62
     0
 10
3777.776382
 20
6019.8219829999989
 30
0.0
  0
POINT
  5
7E87
  8
DEFPOINTS
  6
CONTINUOUS
 62
     0
 10
3777.776382
 20
6614.8984659999987
 30
0.0
  0
ENDBLK
  5
7B0A
  8
0
  0
BLOCK
  8
0
  2
*D5
 70
     1
 10
0.0
 20
0.0
 30
0.0
  3
*D5
  1

  0
LINE
  5
7E88
  8
3
  6
CONTINUOUS
 62
     0
 10
4674.8849380000001
 20
5292.1594479999994
 30
0.0
 11
4674.8849380000001
 21
6659.8984659999996
 31
0.0
  0
LINE
  5
7E89
  8
3
  6
CONTINUOUS
 62
     0
 10
3867.776382
 20
6614.8984659999987
 30
0.0
 11
4584.8849380000001
 21
6614.8984659999987
 31
0.0
  0
INSERT
  5
7E8A
  8
3
  6
CONTINUOUS
 62
     0
  2
_OPEN
 10
3777.776382
 20
6614.8984659999987
 30
0.0
 41
90.0
 42
90.0
 43
90.0
 50
180.0
  0
INSERT
  5
7E8B
  8
3
  6
CONTINUOUS
 62
     0
  2
_OPEN
 10
4674.8849380000001
 20
6614.8984659999987
 30
0.0
 41
90.0
 42
90.0
 43
90.0
  0
TEXT
  8
3
  40
135
  5
7EF4
  62
0
  72
0
  71
0
 10
3956.33
 20
6488.45
 30
0.000000
  1
897
  0
POINT
  5
7E8D
  8
DEFPOINTS
  6
CONTINUOUS
 62
     0
 10
3777.776382
 20
6019.8219829999989
 30
0.0
  0
POINT
  5
7E8E
  8
DEFPOINTS
  6
CONTINUOUS
 62
     0
 10
4674.8849380000001
 20
5269.6594479999994
 30
0.0
  0
POINT
  5
7E8F
  8
DEFPOINTS
  6
CONTINUOUS
 62
     0
 10
4674.8849380000001
 20
6614.8984659999987
 30
0.0
  0
ENDBLK
  5
7B22
  8
0
  0
BLOCK
  8
0
  2
*D6
 70
     1
 10
0.0
 20
0.0
 30
0.0
  3
*D6
  1

  0
LINE
  5
7E90
  8
3
  6
CONTINUOUS
 62
     0
 10
3796.276382
 20
6103.3170680000003
 30
0.0
 11
5074.6237550000014
 21
6103.3170680000003
 31
0.0
  0
LINE
  5
7E91
  8
3
  6
CONTINUOUS
 62
     0
 10
4696.6174060000003
 20
5278.3170680000003
 30
0.0
 11
5074.6237550000014
 21
5278.3170680000003
 31
0.0
  0
LINE
  5
7E92
  8
3
  6
CONTINUOUS
 62
     0
 10
5029.6237550000014
 20
6013.3170680000003
 30
0.0
 11
5029.6237550000014
 21
5368.3170680000003
 31
0.0
  0
INSERT
  5
7E93
  8
3
  6
CONTINUOUS
 62
     0
  2
_OPEN
 10
5029.6237550000014
 20
6103.3170680000003
 30
0.0
 41
90.0
 42
90.0
 43
90.0
 50
90.0
  0
INSERT
  5
7E94
  8
3
  6
CONTINUOUS
 62
     0
  2
_OPEN
 10
5029.6237550000014
 20
5278.3170680000003
 30
0.0
 41
90.0
 42
90.0
 43
90.0
 50
270.0
  0
TEXT
  8
3
  40
135
  5
7EF5
  62
0
  72
0
  71
0
 10
4647.12
 20
5555.80
 30
0.000000
  1
825
  0
POINT
  5
7E96
  8
DEFPOINTS
  6
CONTINUOUS
 62
     0
 10
3773.7763819999991
 20
6103.3170680000003
 30
0.0
  0
POINT
  5
7E97
  8
DEFPOINTS
  6
CONTINUOUS
 62
     0
 10
4674.1174060000003
 20
5278.3170680000003
 30
0.0
  0
POINT
  5
7E98
  8
DEFPOINTS
  6
CONTINUOUS
 62
     0
 10
5029.6237550000014
 20
5278.3170680000003
 30
0.0
  0
ENDBLK
  5
7B2F
  8
0
  0
BLOCK
  8
0
  2
*D7
 70
     1
 10
0.0
 20
0.0
 30
0.0
  3
*D7
  1

  0
LINE
  5
7E99
  8
3
  6
CONTINUOUS
 62
     0
 10
4550.2763819999991
 20
4168.3170680000003
 30
0.0
 11
5074.6237549999996
 21
4168.3170680000003
 31
0.0
  0
LINE
  5
7E9A
  8
3
  6
CONTINUOUS
 62
     0
 10
5029.6237549999996
 20
5188.3170680000003
 30
0.0
 11
5029.6237549999996
 21
4258.3170680000003
 31
0.0
  0
INSERT
  5
7E9B
  8
3
  6
CONTINUOUS
 62
     0
  2
_OPEN
 10
5029.6237549999996
 20
5278.3170680000003
 30
0.0
 41
90.0
 42
90.0
 43
90.0
 50
90.0
  0
INSERT
  5
7E9C
  8
3
  6
CONTINUOUS
 62
     0
  2
_OPEN
 10
5029.6237549999996
 20
4168.3170680000003
 30
0.0
 41
90.0
 42
90.0
 43
90.0
 50
270.0
  0
TEXT
  8
3
  40
135
  5
7EF6
  62
0
  72
0
  71
0
 10
4647.12
 20
4484.37
 30
0.000000
  1
1110
  0
POINT
  5
7E9E
  8
DEFPOINTS
  6
CONTINUOUS
 62
     0
 10
4674.1174060000003
 20
5278.3170680000003
 30
0.0
  0
POINT
  5
7E9F
  8
DEFPOINTS
  6
CONTINUOUS
 62
     0
 10
4527.776382
 20
4168.3170680000003
 30
0.0
  0
POINT
  5
7EA0
  8
DEFPOINTS
  6
CONTINUOUS
 62
     0
 10
5029.6237549999996
 20
4168.3170680000003
 30
0.0
  0
ENDBLK
  5
7B3B
  8
0
  0
BLOCK
  8
0
  2
*D8
 70
     1
 10
0.0
 20
0.0
 30
0.0
  3
*D8
  1

  0
LINE
  5
7EA1
  8
3
  6
CONTINUOUS
 62
     0
 10
3796.276382
 20
6103.3170680000003
 30
0.0
 11
5426.7142230000009
 21
6103.3170680000003
 31
0.0
  0
LINE
  5
7EA2
  8
3
  6
CONTINUOUS
 62
     0
 10
4550.2763819999991
 20
4168.3170680000003
 30
0.0
 11
5426.7142230000009
 21
4168.3170680000003
 31
0.0
  0
LINE
  5
7EA3
  8
3
  6
CONTINUOUS
 62
     0
 10
5381.7142230000009
 20
6013.3170680000003
 30
0.0
 11
5381.7142230000009
 21
4258.3170680000003
 31
0.0
  0
INSERT
  5
7EA4
  8
3
  6
CONTINUOUS
 62
     0
  2
_OPEN
 10
5381.7142230000009
 20
6103.3170680000003
 30
0.0
 41
90.0
 42
90.0
 43
90.0
 50
90.0
  0
INSERT
  5
7EA5
  8
3
  6
CONTINUOUS
 62
     0
  2
_OPEN
 10
5381.7142230000009
 20
4168.3170680000003
 30
0.0
 41
90.0
 42
90.0
 43
90.0
 50
270.0
  0
TEXT
  8
3
  40
135
  5
7EF7
  62
0
  72
0
  71
0
 10
4999.21
 20
4961.74
 30
0.000000
  1
1935
  0
POINT
  5
7EA7
  8
DEFPOINTS
  6
CONTINUOUS
 62
     0
 10
3773.7763819999991
 20
6103.3170680000003
 30
0.0
  0
POINT
  5
7EA8
  8
DEFPOINTS
  6
CONTINUOUS
 62
     0
 10
4527.776382
 20
4168.3170680000003
 30
0.0
  0
POINT
  5
7EA9
  8
DEFPOINTS
  6
CONTINUOUS
 62
     0
 10
5381.7142230000009
 20
4168.3170680000003
 30
0.0
  0
ENDBLK
  5
7B48
  8
0
  0
BLOCK
  8
0
  2
*D9
 70
     1
 10
0.0
 20
0.0
 30
0.0
  3
*D9
  1

  0
LINE
  5
7EAA
  8
3
  6
CONTINUOUS
 62
     0
 10
4550.2763819999991
 20
10073.996827999999
 30
0.0
 11
5047.950264000001
 21
10073.996827999999
 31
0.0
  0
LINE
  5
7EAB
  8
3
  6
CONTINUOUS
 62
     0
 10
4550.2763819999991
 20
8793.9968279999994
 30
0.0
 11
5047.950264000001
 21
8793.9968279999994
 31
0.0
  0
LINE
  5
7EAC
  8
3
  6
CONTINUOUS
 62
     0
 10
5002.950264000001
 20
9983.9968279999994
 30
0.0
 11
5002.950264000001
 21
8883.9968279999994
 31
0.0
  0
INSERT
  5
7EAD
  8
3
  6
CONTINUOUS
 62
     0
  2
_OPEN
 10
5002.950264000001
 20
10073.996827999999
 30
0.0
 41
90.0
 42
90.0
 43
90.0
 50
90.0
  0
INSERT
  5
7EAE
  8
3
  6
CONTINUOUS
 62
     0
  2
_OPEN
 10
5002.950264000001
 20
8793.9968279999994
 30
0.0
 41
90.0
 42
90.0
 43
90.0
 50
270.0
  0
TEXT
  8
3
  40
135
  5
7EF8
  62
0
  72
0
  71
0
 10
4620.45
 20
9230.59
 30
0.000000
  1
1280
  0
POINT
  5
7EB0
  8
DEFPOINTS
  6
CONTINUOUS
 62
     0
 10
4527.776382
 20
10073.996827999999
 30
0.0
  0
POINT
  5
7EB1
  8
DEFPOINTS
  6
CONTINUOUS
 62
     0
 10
4527.776382
 20
8793.9968279999994
 30
0.0
  0
POINT
  5
7EB2
  8
DEFPOINTS
  6
CONTINUOUS
 62
     0
 10
5002.950264000001
 20
8793.9968279999994
 30
0.0
  0
ENDBLK
  5
7B55
  8
0
  0
BLOCK
  8
0
  2
*D10
 70
     1
 10
0.0
 20
0.0
 30
0.0
  3
*D10
  1

  0
LINE
  5
7EB3
  8
3
  6
CONTINUOUS
 62
     0
 10
1977.776382
 20
8771.4968279999994
 30
0.0
 11
1977.776382
 21
8268.1566160000002
 31
0.0
  0
LINE
  5
7EB4
  8
3
  6
CONTINUOUS
 62
     0
 10
4527.776382
 20
8771.4968279999994
 30
0.0
 11
4527.776382
 21
8268.1566160000002
 31
0.0
  0
LINE
  5
7EB5
  8
3
  6
CONTINUOUS
 62
     0
 10
2067.7763819999991
 20
8313.1566160000002
 30
0.0
 11
4437.776382
 21
8313.1566160000002
 31
0.0
  0
INSERT
  5
7EB6
  8
3
  6
CONTINUOUS
 62
     0
  2
_OPEN
 10
1977.776382
 20
8313.1566160000002
 30
0.0
 41
90.0
 42
90.0
 43
90.0
 50
180.0
  0
INSERT
  5
7EB7
  8
3
  6
CONTINUOUS
 62
     0
  2
_OPEN
 10
4527.776382
 20
8313.1566160000002
 30
0.0
 41
90.0
 42
90.0
 43
90.0
  0
TEXT
  8
3
  40
135
  5
7EF9
  62
0
  72
0
  71
0
 10
3095.20
 20
8186.71
 30
0.000000
  1
2550
  0
POINT
  5
7EB9
  8
DEFPOINTS
  6
CONTINUOUS
 62
     0
 10
1977.776382
 20
8793.9968279999994
 30
0.0
  0
POINT
  5
7EBA
  8
DEFPOINTS
  6
CONTINUOUS
 62
     0
 10
4527.776382
 20
8793.9968279999994
 30
0.0
  0
POINT
  5
7EBB
  8
DEFPOINTS
  6
CONTINUOUS
 62
     0
 10
4527.776382
 20
8313.1566160000002
 30
0.0
  0
ENDBLK
  5
7D32
  8
0
  0
BLOCK
  8
0
  2
*D11
 70
     1
 10
0.0
 20
0.0
 30
0.0
  3
*D11
  1

  0
LINE
  5
7EBC
  8
3
  6
CONTINUOUS
 62
     0
 10
7193.9009049999986
 20
6125.8170680000003
 30
0.0
 11
7193.9009049999986
 21
6344.8951239999997
 31
0.0
  0
LINE
  5
7EBD
  8
3
  6
CONTINUOUS
 62
     0
 10
8143.9009050000004
 20
6125.8170680000003
 30
0.0
 11
8143.9009050000004
 21
6344.8951239999997
 31
0.0
  0
LINE
  5
7EBE
  8
3
  6
CONTINUOUS
 62
     0
 10
7283.9009050000004
 20
6299.8951239999997
 30
0.0
 11
8053.9009049999977
 21
6299.8951239999997
 31
0.0
  0
INSERT
  5
7EBF
  8
3
  6
CONTINUOUS
 62
     0
  2
_OPEN
 10
7193.9009049999986
 20
6299.8951239999997
 30
0.0
 41
90.0
 42
90.0
 43
90.0
 50
180.0
  0
INSERT
  5
7EC0
  8
3
  6
CONTINUOUS
 62
     0
  2
_OPEN
 10
8143.9009050000004
 20
6299.8951239999997
 30
0.0
 41
90.0
 42
90.0
 43
90.0
  0
TEXT
  8
3
  40
135
  5
7EFA
  62
0
  72
0
  71
0
 10
7340.71
 20
6173.45
 30
0.000000
  1
950
  0
POINT
  5
7EC2
  8
DEFPOINTS
  6
CONTINUOUS
 62
     0
 10
7193.9009049999986
 20
6103.3170680000003
 30
0.0
  0
POINT
  5
7EC3
  8
DEFPOINTS
  6
CONTINUOUS
 62
     0
 10
8143.9009050000004
 20
6103.3170680000003
 30
0.0
  0
POINT
  5
7EC4
  8
DEFPOINTS
  6
CONTINUOUS
 62
     0
 10
8143.9009050000004
 20
6299.8951239999997
 30
0.0
  0
ENDBLK
  5
7B74
  8
0
  0
BLOCK
  8
0
  2
*D12
 70
     1
 10
0.0
 20
0.0
 30
0.0
  3
*D12
  1

  0
LINE
  5
7EC5
  8
3
  6
CONTINUOUS
 62
     0
 10
8269.4009050000004
 20
5903.3170680000003
 30
0.0
 11
8640.611173000003
 21
5903.3170680000003
 31
0.0
  0
LINE
  5
7EC6
  8
3
  6
CONTINUOUS
 62
     0
 10
8269.4009050000004
 20
4653.3170680000003
 30
0.0
 11
8640.611173000003
 21
4653.3170680000003
 31
0.0
  0
LINE
  5
7EC7
  8
3
  6
CONTINUOUS
 62
     0
 10
8595.611173000003
 20
5813.3170680000003
 30
0.0
 11
8595.611173000003
 21
4743.3170680000003
 31
0.0
  0
INSERT
  5
7EC8
  8
3
  6
CONTINUOUS
 62
     0
  2
_OPEN
 10
8595.611173000003
 20
5903.3170680000003
 30
0.0
 41
90.0
 42
90.0
 43
90.0
 50
90.0
  0
INSERT
  5
7EC9
  8
3
  6
CONTINUOUS
 62
     0
  2
_OPEN
 10
8595.611173000003
 20
4653.3170680000003
 30
0.0
 41
90.0
 42
90.0
 43
90.0
 50
270.0
  0
TEXT
  8
3
  40
135
  5
7EFB
  62
0
  72
0
  71
0
 10
8213.11
 20
5032.97
 30
0.000000
  1
φ1250
  0
POINT
  5
7ECB
  8
DEFPOINTS
  6
CONTINUOUS
 62
     0
 10
8246.9009050000022
 20
5903.3170680000003
 30
0.0
  0
POINT
  5
7ECC
  8
DEFPOINTS
  6
CONTINUOUS
 62
     0
 10
8246.9009050000022
 20
4653.3170680000003
 30
0.0
  0
POINT
  5
7ECD
  8
DEFPOINTS
  6
CONTINUOUS
 62
     0
 10
8595.611173000003
 20
4653.3170680000003
 30
0.0
  0
ENDBLK
  5
7D71
  8
0
  0
BLOCK
  8
0
  2
*D13
 70
     1
 10
0.0
 20
0.0
 30
0.0
  3
*D13
  1

  0
LINE
  5
7ECE
  8
3
  6
CONTINUOUS
 62
     0
 10
6941.9009050000004
 20
4145.8170680000003
 30
0.0
 11
6941.9009050000004
 21
3789.4507669999998
 31
0.0
  0
LINE
  5
7ECF
  8
3
  6
CONTINUOUS
 62
     0
 10
7668.9009050000004
 20
4145.8170680000003
 30
0.0
 11
7668.9009050000004
 21
3789.4507669999998
 31
0.0
  0
LINE
  5
7ED0
  8
3
  6
CONTINUOUS
 62
     0
 10
7031.9009049999986
 20
3834.4507669999998
 30
0.0
 11
7578.9009049999986
 21
3834.4507669999998
 31
0.0
  0
INSERT
  5
7ED1
  8
3
  6
CONTINUOUS
 62
     0
  2
_OPEN
 10
6941.9009050000004
 20
3834.4507669999998
 30
0.0
 41
90.0
 42
90.0
 43
90.0
 50
180.0
  0
INSERT
  5
7ED2
  8
3
  6
CONTINUOUS
 62
     0
  2
_OPEN
 10
7668.9009050000004
 20
3834.4507669999998
 30
0.0
 41
90.0
 42
90.0
 43
90.0
  0
TEXT
  8
3
  40
135
  5
7EFC
  62
0
  72
0
  71
0
 10
7090.33
 20
3708.00
 30
0.000000
  1
727
  0
POINT
  5
7ED4
  8
DEFPOINTS
  6
CONTINUOUS
 62
     0
 10
6941.9009050000004
 20
4168.3170680000003
 30
0.0
  0
POINT
  5
7ED5
  8
DEFPOINTS
  6
CONTINUOUS
 62
     0
 10
7668.9009050000004
 20
4168.3170680000003
 30
0.0
  0
POINT
  5
7ED6
  8
DEFPOINTS
  6
CONTINUOUS
 62
     0
 10
7668.9009050000004
 20
3834.4507669999998
 30
0.0
  0
ENDBLK
  5
7BBF
  8
0
  0
BLOCK
  8
0
  2
*D14
 70
     1
 10
0.0
 20
0.0
 30
0.0
  3
*D14
  1

  0
LINE
  5
7ED7
  8
3
  6
CONTINUOUS
 62
     0
 10
8221.9009050000004
 20
4145.8170680000003
 30
0.0
 11
8221.9009050000004
 21
3789.4507669999998
 31
0.0
  0
LINE
  5
7ED8
  8
3
  6
CONTINUOUS
 62
     0
 10
7758.9009050000004
 20
3834.4507669999998
 30
0.0
 11
8131.9009050000004
 21
3834.4507669999998
 31
0.0
  0
TEXT
  8
3
  40
135
  5
7EFD
  62
0
  72
0
  71
0
 10
7665.66
 20
3707.44
 30
0.000000
  1
553
  0
INSERT
  5
7EDA
  8
3
  6
CONTINUOUS
 62
     0
  2
_OPEN
 10
7668.9009050000004
 20
3834.4507669999998
 30
0.0
 41
90.0
 42
90.0
 43
90.0
 50
180.0
  0
INSERT
  5
7EDB
  8
3
  6
CONTINUOUS
 62
     0
  2
_OPEN
 10
8221.9009050000004
 20
3834.4507669999998
 30
0.0
 41
90.0
 42
90.0
 43
90.0
  0
POINT
  5
7EDC
  8
DEFPOINTS
  6
CONTINUOUS
 62
     0
 10
7668.9009050000004
 20
4168.3170680000003
 30
0.0
  0
POINT
  5
7EDD
  8
DEFPOINTS
  6
CONTINUOUS
 62
     0
 10
8221.9009050000004
 20
4168.3170680000003
 30
0.0
  0
POINT
  5
7EDE
  8
DEFPOINTS
  6
CONTINUOUS
 62
     0
 10
8221.9009050000004
 20
3834.4507669999998
 30
0.0
  0
ENDBLK
  5
7BE4
  8
0
  0
BLOCK
  8
0
  2
*D15
 70
     1
 10
0.0
 20
0.0
 30
0.0
  3
*D15
  1

  0
LINE
  5
7D5D
  8
0
  6
BYBLOCK
 62
     0
 10
8246.9009050000022
 20
5975.8170680000012
 30
0.0
 11
8246.9009050000022
 21
6629.8217560000003
 31
0.0
  0
LINE
  5
7D5E
  8
0
  6
BYBLOCK
 62
     0
 10
7668.9009050000004
 20
6524.080629
 30
0.0
 11
7668.9009050000004
 21
6629.8217560000003
 31
0.0
  0
LINE
  5
7D5F
  8
0
  6
BYBLOCK
 62
     0
 10
8156.9009050000004
 20
6584.8217560000012
 30
0.0
 11
7758.9009050000004
 21
6584.8217560000012
 31
0.0
  0
TEXT
  5
7D60
  8
3
 62
     0
 10
7784.3294764285711
 20
6644.1581218229767
 30
0.0
 40
135.0
  1
578
  0
INSERT
  5
7D61
  8
0
  6
BYBLOCK
 62
     0
  2
_OPEN
 10
8246.9009050000022
 20
6584.8217560000012
 30
0.0
 41
90.0
 42
90.0
 43
90.0
  0
INSERT
  5
7D62
  8
0
  6
BYBLOCK
 62
     0
  2
_OPEN
 10
7668.9009050000004
 20
6584.8217560000012
 30
0.0
 41
90.0
 42
90.0
 43
90.0
 50
180.0
  0
POINT
  5
7D63
  8
DEFPOINTS
  6
BYBLOCK
 62
     0
 10
8246.9009050000022
 20
5953.3170680000003
 30
0.0
  0
POINT
  5
7D64
  8
DEFPOINTS
  6
BYBLOCK
 62
     0
 10
7668.9009050000004
 20
6501.580629
 30
0.0
  0
POINT
  5
7D65
  8
DEFPOINTS
  6
BYBLOCK
 62
     0
 10
7668.9009050000004
 20
6584.8217560000012
 30
0.0
  0
ENDBLK
  5
7D66
  8
0
  0
BLOCK
  8
0
  2
*D16
 70
     1
 10
0.0
 20
0.0
 30
0.0
  3
*D16
  1

  0
LINE
  5
7EDF
  8
3
  6
CONTINUOUS
 62
     0
 10
6828.9009049999986
 20
5678.8170680000003
 30
0.0
 11
6828.9009049999986
 21
6629.8217560000003
 31
0.0
  0
LINE
  5
7EE0
  8
3
  6
CONTINUOUS
 62
     0
 10
7578.9009049999986
 20
6584.8217560000012
 30
0.0
 11
6918.9009050000004
 21
6584.8217560000012
 31
0.0
  0
INSERT
  5
7EE1
  8
3
  6
CONTINUOUS
 62
     0
  2
_OPEN
 10
7668.9009050000004
 20
6584.8217560000012
 30
0.0
 41
90.0
 42
90.0
 43
90.0
  0
INSERT
  5
7EE2
  8
3
  6
CONTINUOUS
 62
     0
  2
_OPEN
 10
6828.9009049999986
 20
6584.8217560000012
 30
0.0
 41
90.0
 42
90.0
 43
90.0
 50
180.0
  0
TEXT
  8
3
  40
135
  5
7EFE
  62
0
  72
0
  71
0
 10
6978.90
 20
6570.87
 30
0.000000
  1
MAX
  0
TEXT
  8
3
  40
135
  5
7EFF
  62
0
  72
0
  71
0
 10
6978.90
 20
6395.37
 30
0.000000
  1
890
  0
POINT
  5
7EE4
  8
DEFPOINTS
  6
CONTINUOUS
 62
     0
 10
7668.9009050000004
 20
6501.580629
 30
0.0
  0
POINT
  5
7EE5
  8
DEFPOINTS
  6
CONTINUOUS
 62
     0
 10
6828.9009049999986
 20
5656.3170680000003
 30
0.0
  0
POINT
  5
7EE6
  8
DEFPOINTS
  6
CONTINUOUS
 62
     0
 10
6828.9009049999986
 20
6584.8217560000012
 30
0.0
  0
ENDBLK
  5
7D7B
  8
0
  0
BLOCK
  8
0
  2
*D17
 70
     1
 10
0.0
 20
0.0
 30
0.0
  3
*D17
  1

  0
LINE
  5
7EE7
  8
3
 62
     0
 10
1977.776382
 20
4340.8170680000003
 30
0.0
 11
1977.776382
 21
6931.3872104728171
 31
0.0
  0
LINE
  5
7EE8
  8
3
 62
     0
 10
4674.8849380000001
 20
5314.6594480000003
 30
0.0
 11
4674.8849380000001
 21
6931.3872104728171
 31
0.0
  0
LINE
  5
7EE9
  8
3
 62
     0
 10
2067.7763819999991
 20
6886.387210472818
 30
0.0
 11
4584.8849380000001
 21
6886.387210472818
 31
0.0
  0
INSERT
  5
7EEA
  8
3
 62
     0
  2
_OPEN
 10
1977.776382
 20
6886.387210472818
 30
0.0
 41
90.0
 42
90.0
 43
90.0
 50
180.0
  0
INSERT
  5
7EEB
  8
3
 62
     0
  2
_OPEN
 10
4674.8849380000001
 20
6886.387210472818
 30
0.0
 41
90.0
 42
90.0
 43
90.0
  0
TEXT
  8
3
  40
135
  5
7F00
  62
0
  72
0
  71
0
 10
3195.57
 20
6759.94
 30
0.000000
  1
2697
  0
POINT
  5
7EED
  8
DEFPOINTS
 62
     0
 10
1977.776382
 20
4318.3170680000003
 30
0.0
  0
POINT
  5
7EEE
  8
DEFPOINTS
 62
     0
 10
4674.8849380000001
 20
5292.1594479999994
 30
0.0
  0
POINT
  5
7EEF
  8
DEFPOINTS
 62
     0
 10
4674.8849380000001
 20
6886.387210472818
 30
0.0
  0
ENDBLK
  5
7D4F
  8
0
  0
ENDSEC
  0
SECTION
  2
ENTITIES
  0
LINE
  5
7A6B
  8
1
  6
CONTINUOUS
 10
7193.9009049999986
 20
6053.3170680000012
 30
0.0
 11
8143.9009050000004
 21
6053.3170680000012
 31
0.0
  0
LINE
  5
7A6C
  8
1
  6
CONTINUOUS
 10
8221.9009050000004
 20
4168.3170680000003
 30
0.0
 11
6941.9009050000004
 21
4168.3170680000003
 31
0.0
  0
LINE
  5
7A6D
  8
1
  6
CONTINUOUS
 10
8221.9009050000004
 20
4318.3170680000003
 30
0.0
 11
6941.9009050000004
 21
4318.3170680000003
 31
0.0
  0
LINE
  5
7A6E
  8
1
  6
CONTINUOUS
 10
7143.9009049999986
 20
6103.3170680000003
 30
0.0
 11
8193.9009050000004
 21
6103.3170680000003
 31
0.0
  0
LINE
  5
7A6F
  8
1
  6
CONTINUOUS
 10
2485.0743010000001
 20
4349.2899799999986
 30
0.0
 11
3919.1791699999999
 21
4927.7614350000003
 31
0.0
  0
LINE
  5
7A70
  8
1
  6
CONTINUOUS
 10
2447.6661559999989
 20
4442.0295659999992
 30
0.0
 11
3881.7710249999991
 21
5020.5010210000009
 31
0.0
  0
LINE
  5
7A71
  8
1
  6
CONTINUOUS
 10
2280.9171590000001
 20
4736.4845590000004
 30
0.0
 11
3568.4000809999998
 21
5593.0321210000002
 31
0.0
  0
LINE
  5
7A72
  8
1
  6
CONTINUOUS
 10
2336.307714999999
 20
4653.2266089999994
 30
0.0
 11
3623.7906369999992
 21
5509.774171
 31
0.0
  0
LINE
  5
7A73
  8
1
  6
CONTINUOUS
 10
3773.7763819999991
 20
6103.3170680000003
 30
0.0
 11
2387.776382
 21
6103.3170680000003
 31
0.0
  0
POLYLINE
  5
7A74
  8
1
  6
CONTINUOUS
 66
     1
 10
0.0
 20
0.0
 30
0.0
  0
VERTEX
  5
7E5E
  8
1
  6
CONTINUOUS
 10
2443.776382
 20
6103.3170680000003
 30
0.0
  0
VERTEX
  5
7E5F
  8
1
  6
CONTINUOUS
 10
2516.776382
 20
5278.3170680000003
 30
0.0
 42
0.391657
  0
VERTEX
  5
7E60
  8
1
  6
CONTINUOUS
 10
3686.776382
 20
4195.7835150000001
 30
0.0
 42
0.4387800000000001
  0
VERTEX
  5
7E61
  8
1
  6
CONTINUOUS
 10
4674.8849380000001
 20
5269.6594479999994
 30
0.0
 42
0.390066
  0
VERTEX
  5
7E62
  8
1
  6
CONTINUOUS
 10
3854.776382
 20
6024.2682969999987
 30
0.0
 42
0.049316
  0
VERTEX
  5
7E63
  8
1
  6
CONTINUOUS
 10
3723.776382
 20
6011.3161129999999
 30
0.0
 42
0.393627
  0
SEQEND
  5
7E64
  8
1
  6
CONTINUOUS
  0
LINE
  5
7A7C
  8
1
  6
CONTINUOUS
 10
4527.776382
 20
4168.3170680000003
 30
0.0
 11
1977.776382
 21
4168.3170680000003
 31
0.0
  0
LINE
  5
7A7D
  8
1
  6
CONTINUOUS
 10
3723.776382
 20
6053.3170680000012
 30
0.0
 11
2443.776382
 21
6053.3170680000012
 31
0.0
  0
LINE
  5
7A7E
  8
1
  6
CONTINUOUS
 10
4527.776382
 20
4318.3170680000003
 30
0.0
 11
1977.776382
 21
4318.3170680000003
 31
0.0
  0
CIRCLE
  5
7A7F
  8
1
  6
CONTINUOUS
 10
3777.776382
 20
5278.3170680000003
 30
0.0
 40
625.0
  0
CIRCLE
  5
7A80
  8
1
  6
CONTINUOUS
 10
3777.776382
 20
5278.3170680000003
 30
0.0
 40
675.0
  0
ARC
  5
7A81
  8
1
  6
CONTINUOUS
 10
2402.776382
 20
4553.3170680000012
 30
0.0
 40
220.0
 50
123.63536499999989
 51
291.96755200000001
  0
LINE
  5
7A82
  8
1
  6
CONTINUOUS
 10
2627.776382
 20
4373.3170680000003
 30
0.0
 11
2177.776382
 21
4373.3170680000003
 31
0.0
  0
LINE
  5
7A83
  8
1
  6
CONTINUOUS
 10
1977.776382
 20
4318.3170680000003
 30
0.0
 11
1977.776382
 21
4168.3170680000003
 31
0.0
  0
LINE
  5
7A84
  8
1
  6
CONTINUOUS
 10
2177.776382
 20
4318.3170680000003
 30
0.0
 11
2177.776382
 21
4373.3170680000003
 31
0.0
  0
ARC
  5
7A85
  8
1
  6
CONTINUOUS
 10
2402.776382
 20
4553.3170680000012
 30
0.0
 40
199.0
 50
320.126825
 51
219.87317499999989
  0
CIRCLE
  5
7A86
  8
1
  6
CONTINUOUS
 10
2402.776382
 20
4553.3170680000012
 30
0.0
 40
120.0
  0
LINE
  5
7A87
  8
2
  6
CENTER
 10
2282.776382
 20
4553.3170680000012
 30
0.0
 11
2522.7763819999991
 21
4553.3170680000012
 31
0.0
  0
LINE
  5
7A88
  8
1
  6
CONTINUOUS
 10
2240.7763819999991
 20
4415.8162510000002
 30
0.0
 11
2250.0507710000002
 21
4425.7400799999987
 31
0.0
  0
LINE
  5
7A89
  8
1
  6
CONTINUOUS
 10
2240.7763819999991
 20
4373.3170680000003
 30
0.0
 11
2300.776382
 21
4373.3170680000003
 31
0.0
  0
LINE
  5
7A8A
  8
1
  6
CONTINUOUS
 10
2240.7763819999991
 20
4373.3170680000003
 30
0.0
 11
2240.7763819999991
 21
4415.8162510000002
 31
0.0
  0
LINE
  5
7A8B
  8
2
  6
CENTER
 10
2402.776382
 20
4433.3170680000003
 30
0.0
 11
2402.776382
 21
4673.3170680000003
 31
0.0
  0
LINE
  5
7A8C
  8
1
  6
CONTINUOUS
 10
2564.776382
 20
4415.8162510000002
 30
0.0
 11
2555.5019929999999
 21
4425.7400799999987
 31
0.0
  0
LINE
  5
7A8D
  8
1
  6
CONTINUOUS
 10
2564.776382
 20
4373.3170680000003
 30
0.0
 11
2564.776382
 21
4415.8162510000002
 31
0.0
  0
LINE
  5
7A8E
  8
1
  6
CONTINUOUS
 10
2627.776382
 20
4318.3170680000003
 30
0.0
 11
2627.776382
 21
4373.3170680000003
 31
0.0
  0
ARC
  5
7A8F
  8
1
  6
CONTINUOUS
 10
3777.776382
 20
5278.3170680000003
 30
0.0
 40
378.0
 50
291.96755200000001
 51
123.63536499999989
  0
CIRCLE
  5
7A90
  8
1
  6
CONTINUOUS
 10
3777.776382
 20
5278.3170680000003
 30
0.0
 40
278.0
  0
LINE
  5
7A91
  8
2
  6
CENTER
 10
8306.7978328003883
 20
5278.3170680000003
 30
0.0
 11
6732.6386549999988
 21
5278.3170680000003
 31
0.0
  0
LINE
  5
7A92
  8
2
  6
CENTER
 10
3777.776382
 20
4029.7130819999988
 30
0.0
 11
3777.776382
 21
6258.6874790000002
 31
0.0
  0
LINE
  5
7A93
  8
1
  6
CONTINUOUS
 10
4527.776382
 20
4318.3170680000003
 30
0.0
 11
4527.776382
 21
4168.3170680000003
 31
0.0
  0
LINE
  5
7A94
  8
1
  6
CONTINUOUS
 10
3723.776382
 20
6011.3161129999999
 30
0.0
 11
3723.776382
 21
6103.3170680000003
 31
0.0
  0
LINE
  5
7A95
  8
1
  6
CONTINUOUS
 10
7193.9009049999986
 20
4318.3170680000003
 30
0.0
 11
7193.9009049999986
 21
6103.3170680000003
 31
0.0
  0
LINE
  5
7A96
  8
1
  6
CONTINUOUS
 10
6828.9009049999986
 20
4333.3170680000003
 30
0.0
 11
6828.9009049999986
 21
5656.3170680000003
 31
0.0
  0
LINE
  5
7A97
  8
1
  6
CONTINUOUS
 10
7068.9009049999986
 20
4333.3170680000003
 30
0.0
 11
7068.9009049999986
 21
5656.3170680000003
 31
0.0
  0
LINE
  5
7A98
  8
1
  6
CONTINUOUS
 10
6898.9009049999986
 20
4433.3170680000003
 30
0.0
 11
6998.9009049999986
 21
4433.3170680000003
 31
0.0
  0
LINE
  5
7A99
  8
1
  6
CONTINUOUS
 10
6898.9009049999986
 20
4673.3170680000003
 30
0.0
 11
6998.9009049999986
 21
4673.3170680000003
 31
0.0
  0
LINE
  5
7A9A
  8
1
  6
CONTINUOUS
 10
6828.9009049999986
 20
4333.3170680000003
 30
0.0
 11
7068.9009049999986
 21
4333.3170680000003
 31
0.0
  0
LINE
  5
7A9B
  8
1
  6
CONTINUOUS
 10
6898.9009049999986
 20
4433.3170680000003
 30
0.0
 11
6898.9009049999986
 21
4673.3170680000003
 31
0.0
  0
LINE
  5
7A9C
  8
1
  6
CONTINUOUS
 10
6941.9009050000004
 20
4168.3170680000003
 30
0.0
 11
6941.9009050000004
 21
4318.3170680000003
 31
0.0
  0
LINE
  5
7A9D
  8
1
  6
CONTINUOUS
 10
6998.9009049999986
 20
4525.8170680000012
 30
0.0
 11
7193.9009049999986
 21
4525.8170680000012
 31
0.0
  0
LINE
  5
7A9E
  8
1
  6
CONTINUOUS
 10
6998.9009049999986
 20
4580.8170680000003
 30
0.0
 11
7193.9009049999986
 21
4580.8170680000003
 31
0.0
  0
LINE
  5
7A9F
  8
1
  6
CONTINUOUS
 10
6998.9009049999986
 20
4433.3170680000003
 30
0.0
 11
6998.9009049999986
 21
4673.3170680000003
 31
0.0
  0
LINE
  5
7AA0
  8
1
  6
CONTINUOUS
 10
6898.9009049999986
 20
5556.3170680000012
 30
0.0
 11
6998.9009049999986
 21
5556.3170680000012
 31
0.0
  0
LINE
  5
7AA1
  8
1
  6
CONTINUOUS
 10
6898.9009049999986
 20
5000.3170680000012
 30
0.0
 11
6998.9009049999986
 21
5000.3170680000012
 31
0.0
  0
LINE
  5
7AA2
  8
1
  6
CONTINUOUS
 10
6898.9009049999986
 20
5000.3170680000012
 30
0.0
 11
6898.9009049999986
 21
5556.3170680000012
 31
0.0
  0
LINE
  5
7AA3
  8
1
  6
CONTINUOUS
 10
6998.9009049999986
 20
5305.8170680000003
 30
0.0
 11
7193.9009049999986
 21
5305.8170680000003
 31
0.0
  0
LINE
  5
7AA4
  8
1
  6
CONTINUOUS
 10
6998.9009049999986
 20
5250.8170680000003
 30
0.0
 11
7193.9009049999986
 21
5250.8170680000003
 31
0.0
  0
LINE
  5
7AA5
  8
1
  6
CONTINUOUS
 10
6998.9009049999986
 20
5000.3170680000012
 30
0.0
 11
6998.9009049999986
 21
5556.3170680000012
 31
0.0
  0
LINE
  5
7AA6
  8
1
  6
CONTINUOUS
 10
6828.9009049999986
 20
5656.3170680000003
 30
0.0
 11
7068.9009049999986
 21
5656.3170680000003
 31
0.0
  0
LINE
  5
7AA7
  8
1
  6
CONTINUOUS
 10
8143.9009050000004
 20
4318.3170680000003
 30
0.0
 11
8143.9009050000004
 21
6103.3170680000003
 31
0.0
  0
LINE
  5
7AA8
  8
1
  6
CONTINUOUS
 10
8246.9009050000022
 20
4603.3170680000003
 30
0.0
 11
8246.9009050000022
 21
5953.3170680000003
 31
0.0
  0
LINE
  5
7AA9
  8
1
  6
CONTINUOUS
 10
8221.9009050000004
 20
4168.3170680000003
 30
0.0
 11
8221.9009050000004
 21
4318.3170680000003
 31
0.0
  0
LINE
  5
7AAA
  8
1
  6
CONTINUOUS
 10
8143.9009050000004
 20
4653.3170680000003
 30
0.0
 11
8246.9009050000022
 21
4653.3170680000003
 31
0.0
  0
LINE
  5
7AAB
  8
1
  6
CONTINUOUS
 10
8143.9009050000004
 20
5903.3170680000003
 30
0.0
 11
8246.9009050000022
 21
5903.3170680000003
 31
0.0
  0
LINE
  5
7AAC
  8
1
  6
CONTINUOUS
 10
2522.7763819999991
 20
8793.9968279999994
 30
0.0
 11
3499.776382
 21
8793.9968279999994
 31
0.0
  0
LINE
  5
7AAD
  8
1
  6
CONTINUOUS
 10
3723.776382
 20
9995.9968279999994
 30
0.0
 11
2443.776382
 21
9045.9968279999994
 31
0.0
  0
LINE
  5
7AAE
  8
1
  6
CONTINUOUS
 10
2443.776382
 20
9995.9968279999994
 30
0.0
 11
3723.776382
 21
9045.9968279999994
 31
0.0
  0
LINE
  5
7AAF
  8
1
  6
CONTINUOUS
 10
4678.3099350000002
 20
9995.9968279999994
 30
0.0
 11
2443.776382
 21
9995.9968279999994
 31
0.0
  0
LINE
  5
7AB0
  8
1
  6
CONTINUOUS
 10
4678.3099350000002
 20
9045.9968279999994
 30
0.0
 11
2443.776382
 21
9045.9968279999994
 31
0.0
  0
LINE
  5
7AB1
  8
1
  6
CONTINUOUS
 10
4452.776382
 20
10098.99682799999
 30
0.0
 11
3102.776382
 21
10098.99682799999
 31
0.0
  0
LINE
  5
7AB2
  8
1
  6
CONTINUOUS
 10
4155.7763819999991
 20
8680.9968279999994
 30
0.0
 11
2082.776382
 21
8680.9968279999994
 31
0.0
  0
LINE
  5
7AB3
  8
1
  6
CONTINUOUS
 10
4155.7763819999991
 20
8920.9968279999994
 30
0.0
 11
2082.776382
 21
8920.9968279999994
 31
0.0
  0
LINE
  5
7AB4
  8
1
  6
CONTINUOUS
 10
3152.776382
 20
10073.996827999999
 30
0.0
 11
1977.776382
 21
10073.996827999999
 31
0.0
  0
LINE
  5
7AB5
  8
1
  6
CONTINUOUS
 10
1977.776382
 20
8793.9968279999994
 30
0.0
 11
2282.776382
 21
8793.9968279999994
 31
0.0
  0
LINE
  5
7AB6
  8
1
  6
CONTINUOUS
 10
1977.776382
 20
10073.996827999999
 30
0.0
 11
1977.776382
 21
8793.9968279999994
 31
0.0
  0
LINE
  5
7AB7
  8
1
  6
CONTINUOUS
 10
2082.776382
 20
8680.9968279999994
 30
0.0
 11
2082.776382
 21
8920.9968279999994
 31
0.0
  0
LINE
  5
7AB8
  8
1
  6
CONTINUOUS
 10
3152.776382
 20
9995.9968279999994
 30
0.0
 11
3152.776382
 21
10098.99682799999
 31
0.0
  0
LINE
  5
7AB9
  8
1
  6
CONTINUOUS
 10
2443.776382
 20
9045.9968279999994
 30
0.0
 11
2443.776382
 21
9995.9968279999994
 31
0.0
  0
LINE
  5
7ABA
  8
1
  6
CONTINUOUS
 10
2203.678367999999
 20
8965.5300209999987
 30
0.0
 11
2203.678367999999
 21
9565.0300209999987
 31
0.0
  0
LINE
  5
7ABB
  8
1
  6
CONTINUOUS
 10
2203.678367999999
 20
8965.5300209999987
 30
0.0
 11
2601.8743960000002
 21
8965.5300209999987
 31
0.0
  0
LINE
  5
7ABC
  8
1
  6
CONTINUOUS
 10
2282.776382
 20
8850.9968279999994
 30
0.0
 11
2522.7763819999991
 21
8850.9968279999994
 31
0.0
  0
LINE
  5
7ABD
  8
1
  6
CONTINUOUS
 10
2282.776382
 20
8750.9968279999994
 30
0.0
 11
2522.7763819999991
 21
8750.9968279999994
 31
0.0
  0
LINE
  5
7ABE
  8
1
  6
CONTINUOUS
 10
2430.276382
 20
8850.9968279999994
 30
0.0
 11
2430.276382
 21
8965.5300209999987
 31
0.0
  0
LINE
  5
7ABF
  8
1
  6
CONTINUOUS
 10
2375.276382
 20
8850.9968279999994
 30
0.0
 11
2375.276382
 21
8965.5300209999987
 31
0.0
  0
LINE
  5
7AC0
  8
1
  6
CONTINUOUS
 10
2282.776382
 20
8750.9968279999994
 30
0.0
 11
2282.776382
 21
8850.9968279999994
 31
0.0
  0
LINE
  5
7AC1
  8
1
  6
CONTINUOUS
 10
2601.8743960000002
 20
8965.5300209999987
 30
0.0
 11
2601.8743960000002
 21
9045.9968279999994
 31
0.0
  0
LINE
  5
7AC2
  8
1
  6
CONTINUOUS
 10
2522.7763819999991
 20
8750.9968279999994
 30
0.0
 11
2522.7763819999991
 21
8850.9968279999994
 31
0.0
  0
LINE
  5
7AC3
  8
1
  6
CONTINUOUS
 10
2203.678367999999
 20
9565.0300209999987
 30
0.0
 11
2443.776382
 21
9565.0300209999987
 31
0.0
  0
LINE
  5
7AC4
  8
1
  6
CONTINUOUS
 10
4527.776382
 20
9995.9968279999994
 30
0.0
 11
4527.776382
 21
10073.996827999999
 31
0.0
  0
LINE
  5
7AC5
  8
1
  6
CONTINUOUS
 10
4402.776382
 20
9995.9968279999994
 30
0.0
 11
4402.776382
 21
10098.99682799999
 31
0.0
  0
LINE
  5
7AC6
  8
1
  6
CONTINUOUS
 10
3499.776382
 20
8850.9968279999994
 30
0.0
 11
4055.776382
 21
8850.9968279999994
 31
0.0
  0
LINE
  5
7AC7
  8
1
  6
CONTINUOUS
 10
3499.776382
 20
8750.9968279999994
 30
0.0
 11
4055.776382
 21
8750.9968279999994
 31
0.0
  0
LINE
  5
7AC8
  8
1
  6
CONTINUOUS
 10
3723.776382
 20
9045.9968279999994
 30
0.0
 11
3723.776382
 21
9995.9968279999994
 31
0.0
  0
LINE
  5
7AC9
  8
1
  6
CONTINUOUS
 10
3499.776382
 20
8750.9968279999994
 30
0.0
 11
3499.776382
 21
8850.9968279999994
 31
0.0
  0
LINE
  5
7ACA
  8
1
  6
CONTINUOUS
 10
3750.276382
 20
8850.9968279999994
 30
0.0
 11
3750.276382
 21
9045.9968279999994
 31
0.0
  0
LINE
  5
7ACB
  8
1
  6
CONTINUOUS
 10
3805.276382
 20
8850.9968279999994
 30
0.0
 11
3805.276382
 21
9045.9968279999994
 31
0.0
  0
LINE
  5
7ACC
  8
1
  6
CONTINUOUS
 10
4055.776382
 20
8793.9968279999994
 30
0.0
 11
4527.776382
 21
8793.9968279999994
 31
0.0
  0
LINE
  5
7ACD
  8
1
  6
CONTINUOUS
 10
4055.776382
 20
8750.9968279999994
 30
0.0
 11
4055.776382
 21
8850.9968279999994
 31
0.0
  0
LINE
  5
7ACE
  8
1
  6
CONTINUOUS
 10
4155.7763819999991
 20
8680.9968279999994
 30
0.0
 11
4155.7763819999991
 21
8920.9968279999994
 31
0.0
  0
LINE
  5
7ACF
  8
1
  6
CONTINUOUS
 10
4527.776382
 20
8793.9968279999994
 30
0.0
 11
4527.776382
 21
9045.9968279999994
 31
0.0
  0
LINE
  5
7AD0
  8
1
  6
CONTINUOUS
 10
4527.776382
 20
10073.996827999999
 30
0.0
 11
4402.776382
 21
10073.996827999999
 31
0.0
  0
LINE
  5
7AD1
  8
1
  6
CONTINUOUS
 10
4678.3099350000002
 20
9045.9968279999994
 30
0.0
 11
4678.3099350000002
 21
9995.9968279999994
 31
0.0
  0
DIMENSION
  5
7AE5
  8
3
  6
CONTINUOUS
  2
*D1
 10
3777.776382
 20
3815.976983
 30
0.0
 11
2917.0808969999989
 21
3815.976983
 31
0.0
 70
   128
 13
1977.776382
 23
4168.3170680000003
 33
0.0
 14
3777.776382
 24
4029.7130819999988
 34
0.0
1001
ACAD
1000
DSTYLE
1002
{
1070
   287
1070
     3
1070
   287
1070
     3
1070
    40
1040
45.0
1070
   143
1040
0.039
1070
   172
1070
     1
1070
   271
1070
     0
1070
   279
1070
     0
1070
   288
1070
     1
1002
}
  0
DIMENSION
  5
7AF1
  8
3
  6
CONTINUOUS
  2
*D2
 10
4527.776382
 20
3815.976983
 30
0.0
 11
4152.776382
 21
3928.476983
 31
0.0
 70
     0
 13
3777.776382
 23
4029.7130819999988
 33
0.0
 14
4527.776382
 24
4168.3170680000003
 34
0.0
1001
ACAD
1000
DSTYLE
1002
{
1070
   287
1070
     4
1070
   287
1070
     4
1070
    40
1040
45.0
1070
    75
1070
     1
1070
   143
1040
0.039
1070
   172
1070
     1
1070
   271
1070
     0
1070
   279
1070
     1
1070
   288
1070
     1
1002
}
  0
DIMENSION
  5
7AFE
  8
3
  6
CONTINUOUS
  2
*D3
 10
3723.776382
 20
6359.6248999999998
 30
0.0
 11
3070.410652
 21
6359.6248999999998
 31
0.0
 70
   128
 13
2443.776382
 23
6103.3170680000003
 33
0.0
 14
3723.776382
 24
6103.3170680000003
 34
0.0
1001
ACAD
1000
DSTYLE
1002
{
1070
   287
1070
     3
1070
   287
1070
     3
1070
    40
1040
45.0
1070
   143
1040
0.039
1070
   172
1070
     1
1070
   271
1070
     0
1070
   279
1070
     0
1070
   288
1070
     1
1002
}
  0
DIMENSION
  5
7B0B
  8
3
  6
CONTINUOUS
  2
*D4
 10
3777.776382
 20
6614.8984659999987
 30
0.0
 11
3138.5571679999998
 21
6614.8984659999987
 31
0.0
 70
   128
 13
2443.776382
 23
6103.3170680000003
 33
0.0
 14
3777.776382
 24
6019.8219829999989
 34
0.0
1001
ACAD
1000
DSTYLE
1002
{
1070
   287
1070
     3
1070
   287
1070
     3
1070
    40
1040
45.0
1070
   143
1040
0.039
1070
   172
1070
     1
1070
   271
1070
     0
1070
   279
1070
     0
1070
   288
1070
     1
1002
}
  0
DIMENSION
  5
7B23
  8
3
  6
CONTINUOUS
  2
*D5
 10
4674.8849380000001
 20
6614.8984659999987
 30
0.0
 11
4226.3306599999996
 21
6727.3984659999996
 31
0.0
 70
     0
 13
3777.776382
 23
6019.8219829999989
 33
0.0
 14
4674.8849380000001
 24
5269.6594479999994
 34
0.0
1001
ACAD
1000
DSTYLE
1002
{
1070
   287
1070
     4
1070
   287
1070
     4
1070
    40
1040
45.0
1070
    75
1070
     1
1070
   143
1040
0.039
1070
   172
1070
     1
1070
   271
1070
     0
1070
   279
1070
     1
1070
   288
1070
     1
1002
}
  0
DIMENSION
  5
7B30
  8
3
  6
CONTINUOUS
  2
*D6
 10
5029.6237550000014
 20
5278.3170680000003
 30
0.0
 11
5029.6237549999996
 21
5794.7456389999998
 31
0.0
 70
   128
 13
3773.7763819999991
 23
6103.3170680000003
 33
0.0
 14
4674.1174060000003
 24
5278.3170680000003
 34
0.0
 50
90.0
1001
ACAD
1000
DSTYLE
1002
{
1070
   287
1070
     3
1070
   287
1070
     3
1070
    40
1040
45.0
1070
   143
1040
0.039
1070
   172
1070
     1
1070
   271
1070
     0
1070
   279
1070
     0
1070
   288
1070
     1
1002
}
  0
DIMENSION
  5
7B3C
  8
3
  6
CONTINUOUS
  2
*D7
 10
5029.6237549999996
 20
4168.3170680000003
 30
0.0
 11
4917.1237549999978
 21
4723.3170680000012
 31
0.0
 70
     0
 13
4674.1174060000003
 23
5278.3170680000003
 33
0.0
 14
4527.776382
 24
4168.3170680000003
 34
0.0
 50
90.0
1001
ACAD
1000
DSTYLE
1002
{
1070
   287
1070
     4
1070
   287
1070
     4
1070
    40
1040
45.0
1070
    75
1070
     1
1070
   143
1040
0.039
1070
   172
1070
     1
1070
   271
1070
     0
1070
   279
1070
     1
1070
   288
1070
     1
1002
}
  0
DIMENSION
  5
7B49
  8
3
  6
CONTINUOUS
  2
*D8
 10
5381.7142230000009
 20
4168.3170680000003
 30
0.0
 11
5381.7142229999999
 21
5200.6915570000001
 31
0.0
 70
   128
 13
3773.7763819999991
 23
6103.3170680000003
 33
0.0
 14
4527.776382
 24
4168.3170680000003
 34
0.0
 50
90.0
1001
ACAD
1000
DSTYLE
1002
{
1070
   287
1070
     3
1070
   287
1070
     3
1070
    40
1040
45.0
1070
   143
1040
0.039
1070
   172
1070
     1
1070
   271
1070
     0
1070
   279
1070
     0
1070
   288
1070
     1
1002
}
  0
DIMENSION
  5
7B56
  8
3
  6
CONTINUOUS
  2
*D9
 10
5002.950264000001
 20
8793.9968279999994
 30
0.0
 11
5002.9502640000001
 21
9469.5373810000001
 31
0.0
 70
   128
 13
4527.776382
 23
10073.996827999999
 33
0.0
 14
4527.776382
 24
8793.9968279999994
 34
0.0
 50
90.0
1001
ACAD
1000
DSTYLE
1002
{
1070
   287
1070
     3
1070
   287
1070
     3
1070
    40
1040
45.0
1070
   143
1040
0.039
1070
   172
1070
     1
1070
   271
1070
     0
1070
   279
1070
     0
1070
   288
1070
     1
1002
}
  0
DIMENSION
  5
7B63
  8
3
  6
CONTINUOUS
  2
*D10
 10
4527.776382
 20
8313.1566160000002
 30
0.0
 11
3365.1961090000009
 21
8313.1566160000002
 31
0.0
 70
   128
 13
1977.776382
 23
8793.9968279999994
 33
0.0
 14
4527.776382
 24
8793.9968279999994
 34
0.0
1001
ACAD
1000
DSTYLE
1002
{
1070
   287
1070
     3
1070
   287
1070
     3
1070
    40
1040
45.0
1070
   143
1040
0.039
1070
   172
1070
     1
1070
   271
1070
     0
1070
   279
1070
     0
1070
   288
1070
     1
1002
}
  0
LINE
  5
7B64
  8
2
  6
CENTER
 10
4806.3428309999999
 20
9520.9968279999994
 30
0.0
 11
2271.581690999999
 21
9520.9968279999994
 31
0.0
  0
LINE
  5
7B65
  8
2
  6
CENTER
 10
3777.776382
 20
8458.0695039999991
 30
0.0
 11
3777.776382
 21
10231.858234999991
 31
0.0
  0
LINE
  5
7B67
  8
2
  6
CENTER
 10
4797.517734
 20
5278.3170680000003
 30
0.0
 11
2389.555629
 21
5278.3170680000003
 31
0.0
  0
LINE
  5
7B68
  8
2
  6
CENTER
 10
7668.9009050000004
 20
6320.928355
 30
0.0
 11
7668.9009050000004
 21
3963.5028619999998
 31
0.0
  0
DIMENSION
  5
7B75
  8
3
  6
CONTINUOUS
  2
*D11
 10
8143.9009050000004
 20
6299.8951239999997
 30
0.0
 11
7610.7137579999999
 21
6299.8951239999997
 31
0.0
 70
   128
 13
7193.9009049999986
 23
6103.3170680000003
 33
0.0
 14
8143.9009050000004
 24
6103.3170680000003
 34
0.0
1001
ACAD
1000
DSTYLE
1002
{
1070
   287
1070
     3
1070
   287
1070
     3
1070
    40
1040
45.0
1070
   143
1040
0.039
1070
   172
1070
     1
1070
   271
1070
     0
1070
   279
1070
     0
1070
   288
1070
     1
1002
}
  0
DIMENSION
  5
7BB3
  8
3
  6
CONTINUOUS
  2
*D12
 10
8595.611173000003
 20
4653.3170680000003
 30
0.0
 11
8595.6111730000011
 21
5271.9247049999994
 31
0.0
 70
   128
 13
8246.9009050000022
 23
5903.3170680000003
 33
0.0
 14
8246.9009050000022
 24
4653.3170680000003
 34
0.0
 50
90.0
1001
ACAD
1000
DSTYLE
1002
{
1070
   287
1070
     3
1070
   287
1070
     3
1070
     3
1000
φ<>
1070
    40
1040
45.0
1070
   143
1040
0.039
1070
   172
1070
     1
1070
   271
1070
     0
1070
   279
1070
     0
1070
   288
1070
     1
1002
}
  0
DIMENSION
  5
7BC0
  8
3
  6
CONTINUOUS
  2
*D13
 10
7668.9009050000004
 20
3834.4507669999998
 30
0.0
 11
7360.3294760000008
 21
3834.4507669999998
 31
0.0
 70
   128
 13
6941.9009050000004
 23
4168.3170680000003
 33
0.0
 14
7668.9009050000004
 24
4168.3170680000003
 34
0.0
1001
ACAD
1000
DSTYLE
1002
{
1070
   287
1070
     3
1070
   287
1070
     3
1070
    40
1040
45.0
1070
   143
1040
0.039
1070
   172
1070
     1
1070
   271
1070
     0
1070
   279
1070
     0
1070
   288
1070
     1
1002
}
  0
DIMENSION
  5
7BCE
  8
3
  6
CONTINUOUS
  2
*D14
 10
8221.9009050000004
 20
3834.4507669999998
 30
0.0
 11
7935.6566219999986
 21
3833.8949429999998
 31
0.0
 70
   128
 13
7668.9009050000004
 23
4168.3170680000003
 33
0.0
 14
8221.9009050000004
 24
4168.3170680000003
 34
0.0
1001
ACAD
1000
DSTYLE
1002
{
1070
   287
1070
     4
1070
   287
1070
     4
1070
    40
1040
45.0
1070
    75
1070
     1
1070
   143
1040
0.039
1070
   172
1070
     1
1070
   271
1070
     0
1070
   279
1070
     1
1070
   288
1070
     1
1002
}
  0
LINE
  5
7BE5
  8
4
  6
CONTINUOUS
 10
9250.0
 20
2500.0
 30
0.0
 11
9250.0
 21
1500.0
 31
0.0
  0
LINE
  5
7BE6
  8
4
  6
CONTINUOUS
 10
5750.0
 20
2500.0
 30
0.0
 11
5750.0
 21
1500.0
 31
0.0
  0
LINE
  5
7BE7
  8
4
  6
CONTINUOUS
 10
3250.0
 20
2500.0
 30
0.0
 11
3250.0
 21
1500.0
 31
0.0
  0
LINE
  5
7BEA
  8
4
  6
CONTINUOUS
 10
3250.0
 20
1500.0
 30
0.0
 11
9250.0
 21
1500.0
 31
0.0
  0
LINE
  5
7BEB
  8
4
  6
CONTINUOUS
 10
3250.0
 20
2000.0
 30
0.0
 11
9250.0
 21
2000.0
 31
0.0
  0
TEXT
  5
7BEC
  8
4
  6
CONTINUOUS
 10
3442.5104040000001
 20
2157.7151289999988
 30
0.0
 40
250.0
  1
機器名称
  0
TEXT
  5
7BED
  8
4
  6
CONTINUOUS
 10
3431.2905300000002
 20
1608.225782999999
 30
0.0
 40
250.0
  1
機器型番
  0
TEXT
  5
7BEE
  8
4
  6
CONTINUOUS
 10
5888.393728
 20
2112.8588439999999
 30
0.0
 40
211.11111099999991
  1
ミツヤリミットロードファン
  0
TEXT
  5
7BEF
  8
4
  6
CONTINUOUS
 10
5933.2724779999999
 20
1585.7979210000001
 30
0.0
 40
250.0
  1
LLE#8-4
  0
TEXT
  5
7BF1
  8
4
  6
CONTINUOUS
 10
4523.9288280000001
 20
11917.14420699999
 30
0.0
 40
270.0
  1
床置ベット
  0
TEXT
  5
7BF2
  8
4
  6
CONTINUOUS
 10
1580.837966999999
 20
12669.404881
 30
0.0
 40
300.0
  1
ベルト駆動式片吸込両持排煙ファン
  0
LINE
  5
7BF3
  8
4
  6
CONTINUOUS
 10
1250.0
 20
12347.04377099999
 30
0.0
 11
9250.0
 21
12347.04377099999
 31
0.0
  0
LINE
  5
7BF4
  8
4
  6
CONTINUOUS
 10
1250.0
 20
13347.043771000001
 30
0.0
 11
9250.0
 21
13347.043771000001
 31
0.0
  0
LINE
  5
7BF5
  8
4
  6
CONTINUOUS
 10
3250.0
 20
2500.0
 30
0.0
 11
9250.0
 21
2500.0
 31
0.0
  0
LINE
  5
7BF6
  8
4
  6
CONTINUOUS
 10
1250.0
 20
13347.043771000001
 30
0.0
 11
1250.0
 21
12347.04377099999
 31
0.0
  0
TEXT
  5
7BF7
  8
4
  6
CONTINUOUS
 10
2344.6346669999998
 20
11911.597388
 30
0.0
 40
270.0
  1
右回転上向
  0
TEXT
  5
7BF8
  8
4
  6
CONTINUOUS
 10
7344.8477969999994
 20
13530.305408
 30
0.0
 40
280.0
  1
No.
  0
TEXT
  5
7BF9
  8
4
  6
CONTINUOUS
 10
6556.480313
 20
11917.14420699999
 30
0.0
 40
270.0
  1
縮尺：1/50
  0
LINE
  5
7BFA
  8
4
  6
CONTINUOUS
 10
9250.0
 20
13347.043771000001
 30
0.0
 11
9250.0
 21
12347.04377099999
 31
0.0
  0
LINE
  5
7BFC
  8
4
  6
CONTINUOUS
 10
7203.0871120000002
 20
13406.317916
 30
0.0
 11
7203.0871120000002
 21
13933.261307999999
 31
0.0
  0
LINE
  5
7BFD
  8
4
  6
CONTINUOUS
 10
7203.0871120000002
 20
13933.261307999999
 30
0.0
 11
9250.0
 21
13933.261307999999
 31
0.0
  0
LINE
  5
7BFE
  8
4
  6
CONTINUOUS
 10
9250.0
 20
13933.261307999999
 30
0.0
 11
9250.0
 21
13406.317916
 31
0.0
  0
LINE
  5
7BFF
  8
4
  6
CONTINUOUS
 10
9250.0
 20
13406.317916
 30
0.0
 11
7203.0871120000002
 21
13406.317916
 31
0.0
  0
DIMENSION
  5
7CEF
  8
3
  6
CONTINUOUS
  2
*D15
 10
7668.9009050000004
 20
6584.8217560000012
 30
0.0
 11
7957.9009049999986
 21
6711.6581218229767
 31
0.0
 70
   128
 13
8246.9009050000022
 23
5953.3170680000003
 33
0.0
 14
7668.9009050000004
 24
6501.580629
 34
0.0
1001
ACAD
1000
DSTYLE
1002
{
1070
   288
1070
     1
1070
   172
1070
     1
1070
    40
1040
45.0
1070
   271
1070
     0
1070
   143
1040
0.039
1002
}
  0
DIMENSION
  5
7CFB
  8
3
  6
CONTINUOUS
  2
*D16
 10
6828.9009049999986
 20
6584.8217560000012
 30
0.0
 11
7248.9009049999986
 21
6809.8217560000012
 31
0.0
 70
     0
  1
MAX\P890
 13
7668.9009050000004
 23
6501.580629
 33
0.0
 14
6828.9009049999986
 24
5656.3170680000003
 34
0.0
1001
ACAD
1000
DSTYLE
1002
{
1070
   287
1070
     4
1070
   287
1070
     4
1070
    40
1040
45.0
1070
    75
1070
     1
1070
   143
1040
0.039
1070
   172
1070
     1
1070
   271
1070
     0
1070
   279
1070
     1
1070
   288
1070
     1
1002
}
  0
DIMENSION
  5
7D50
  8
3
  2
*D17
 10
4674.8849380000001
 20
6886.387210472818
 30
0.0
 11
3465.5660893488312
 21
6886.387210472818
 31
0.0
 70
   128
 13
1977.776382
 23
4318.3170680000003
 33
0.0
 14
4674.8849380000001
 24
5292.1594479999994
 34
0.0
1001
ACAD
1000
DSTYLE
1002
{
1070
   287
1070
     3
1070
   287
1070
     3
1070
    40
1040
45.0
1070
   143
1040
0.039
1070
   172
1070
     1
1070
   271
1070
     0
1070
   279
1070
     0
1070
   288
1070
     1
1002
}
  0
ENDSEC
  0
EOF
