  0
SECTION
  2
HEADER
  9
$ACADVER
  1
AC1009
  9
$INSBASE
 10
0.0
 20
0.0
 30
0.0
  9
$EXTMIN
 10
1250.0
 20
1500.0
 30
0.0
  9
$EXTMAX
 10
9250.0
 20
13933.261307999999
 30
0.0
  9
$LIMMIN
 10
0.0
 20
0.0
  9
$LIMMAX
 10
297.0
 20
210.0
  9
$ORTHOMODE
 70
     0
  9
$REGENMODE
 70
     1
  9
$FILLMODE
 70
     0
  9
$QTEXTMODE
 70
     0
  9
$MIRRTEXT
 70
     1
  9
$DRAGMODE
 70
     2
  9
$LTSCALE
 40
100.0
  9
$OSMODE
 70
    37
  9
$ATTMODE
 70
     1
  9
$TEXTSIZE
 40
180.0
  9
$TRACEWID
 40
0.05
  9
$TEXTSTYLE
  7
STANDARD
  9
$CLAYER
  8
3
  9
$CELTYPE
  6
BYLAYER
  9
$CECOLOR
 62
   256
  9
$DIMSCALE
 40
45.0
  9
$DIMASZ
 40
2.0
  9
$DIMEXO
 40
0.5
  9
$DIMDLI
 40
10.0
  9
$DIMRND
 40
0.0
  9
$DIMDLE
 40
0.0
  9
$DIMEXE
 40
1.0
  9
$DIMTP
 40
1.0
  9
$DIMTM
 40
1.0
  9
$DIMTXT
 40
3.0
  9
$DIMCEN
 40
0.0
  9
$DIMTSZ
 40
0.0
  9
$DIMTOL
 70
     0
  9
$DIMLIM
 70
     0
  9
$DIMTIH
 70
     0
  9
$DIMTOH
 70
     0
  9
$DIMSE1
 70
     0
  9
$DIMSE2
 70
     0
  9
$DIMTAD
 70
     1
  9
$DIMZIN
 70
     8
  9
$DIMBLK
  1

  9
$DIMASO
 70
     1
  9
$DIMSHO
 70
     1
  9
$DIMPOST
  1

  9
$DIMAPOST
  1

  9
$DIMALT
 70
     0
  9
$DIMALTD
 70
     2
  9
$DIMALTF
 40
0.039
  9
$DIMLFAC
 40
1.0
  9
$DIMTOFL
 70
     1
  9
$DIMTVP
 40
0.0
  9
$DIMTIX
 70
     0
  9
$DIMSOXD
 70
     0
  9
$DIMSAH
 70
     1
  9
$DIMBLK1
  1
OPEN
  9
$DIMBLK2
  1
OPEN
  9
$DIMSTYLE
  2
IGA
  9
$DIMCLRD
 70
     0
  9
$DIMCLRE
 70
     0
  9
$DIMCLRT
 70
     0
  9
$DIMTFAC
 40
10.0
  9
$DIMGAP
 40
1.0
  9
$LUNITS
 70
     2
  9
$LUPREC
 70
     3
  9
$SKETCHINC
 40
0.1
  9
$FILLETRAD
 40
50.0
  9
$AUNITS
 70
     0
  9
$AUPREC
 70
     0
  9
$MENU
  1
acad
  9
$ELEVATION
 40
0.0
  9
$PELEVATION
 40
0.0
  9
$THICKNESS
 40
0.0
  9
$LIMCHECK
 70
     0
  9
$BLIPMODE
 70
     0
  9
$CHAMFERA
 40
0.5
  9
$CHAMFERB
 40
0.5
  9
$SKPOLY
 70
     0
  9
$TDCREATE
 40
2450750.4483909719
  9
$TDUPDATE
 40
2454953.6883013188
  9
$TDINDWG
 40
0.0119797106
  9
$TDUSRTIMER
 40
0.0119797106
  9
$USRTIMER
 70
     1
  9
$ANGBASE
 50
0.0
  9
$ANGDIR
 70
     0
  9
$PDMODE
 70
     0
  9
$PDSIZE
 40
0.0
  9
$PLINEWID
 40
0.0
  9
$COORDS
 70
     1
  9
$SPLFRAME
 70
     0
  9
$SPLINETYPE
 70
     6
  9
$SPLINESEGS
 70
     8
  9
$ATTDIA
 70
     0
  9
$ATTREQ
 70
     1
  9
$HANDLING
 70
 10241
  9
$HANDSEED
  5
7F7A
  9
$SURFTAB1
 70
     6
  9
$SURFTAB2
 70
     6
  9
$SURFTYPE
 70
     6
  9
$SURFU
 70
     6
  9
$SURFV
 70
     6
  9
$UCSNAME
  2

  9
$UCSORG
 10
0.0
 20
0.0
 30
0.0
  9
$UCSXDIR
 10
1.0
 20
0.0
 30
0.0
  9
$UCSYDIR
 10
0.0
 20
1.0
 30
0.0
  9
$PUCSNAME
  2

  9
$PUCSORG
 10
0.0
 20
0.0
 30
0.0
  9
$PUCSXDIR
 10
1.0
 20
0.0
 30
0.0
  9
$PUCSYDIR
 10
0.0
 20
1.0
 30
0.0
  9
$USERI1
 70
     0
  9
$USERI2
 70
     0
  9
$USERI3
 70
     0
  9
$USERI4
 70
     0
  9
$USERI5
 70
     0
  9
$USERR1
 40
0.0
  9
$USERR2
 40
0.0
  9
$USERR3
 40
0.0
  9
$USERR4
 40
0.0
  9
$USERR5
 40
0.0
  9
$WORLDVIEW
 70
     1
  9
$SHADEDGE
 70
     3
  9
$SHADEDIF
 70
    70
  9
$TILEMODE
 70
     1
  9
$MAXACTVP
 70
    16
  9
$PLIMCHECK
 70
     0
  9
$PEXTMIN
 10
1.0000000000000000E+020
 20
1.0000000000000000E+020
 30
1.0000000000000000E+020
  9
$PEXTMAX
 10
-1.0000000000000000E+020
 20
-1.0000000000000000E+020
 30
-1.0000000000000000E+020
  9
$PLIMMIN
 10
0.0
 20
0.0
  9
$PLIMMAX
 10
12.0
 20
9.0
  9
$UNITMODE
 70
     0
  9
$VISRETAIN
 70
     0
  9
$PLINEGEN
 70
     0
  9
$PSLTSCALE
 70
     1
  0
ENDSEC
  0
SECTION
  2
TABLES
  0
TABLE
  2
VPORT
 70
     2
  0
VPORT
  2
*ACTIVE
 70
     0
 10
0.0
 20
0.0
 11
1.0
 21
1.0
 12
20332.174412963301
 22
6191.6711700938476
 13
0.0
 23
0.0
 14
10.0
 24
10.0
 15
10.0
 25
10.0
 16
0.0
 26
0.0
 36
1.0
 17
0.0
 27
0.0
 37
0.0
 40
16455.03196394489
 41
3.1666666666666661
 42
50.0
 43
0.0
 44
0.0
 50
0.0
 51
0.0
 71
     0
 72
   100
 73
     1
 74
     0
 75
     0
 76
     0
 77
     0
 78
     0
  0
ENDTAB
  0
TABLE
  2
LTYPE
 70
     2
  0
LTYPE
  2
CONTINUOUS
 70
     0
  3
Solid line
 72
    65
 73
     0
 40
0.0
  0
LTYPE
  2
CENTER
 70
     0
  3
____ _ ____ _ ____ _ ____ _ ____ _ ____ _ ____ 
 72
    65
 73
     4
 40
2.0
 49
1.25
 49
-0.25
 49
0.25
 49
-0.25
  0
ENDTAB
  0
TABLE
  2
LAYER
 70
     6
  0
LAYER
  2
0
 70
     0
 62
     7
  6
CONTINUOUS
  0
LAYER
  2
3
 70
     0
 62
     2
  6
CONTINUOUS
  0
LAYER
  2
2
 70
     0
 62
     3
  6
CENTER
  0
LAYER
  2
1
 70
     0
 62
     4
  6
CONTINUOUS
  0
LAYER
  2
4
 70
     0
 62
     7
  6
CONTINUOUS
  0
LAYER
  2
DEFPOINTS
 70
     0
 62
     7
  6
CONTINUOUS
  0
ENDTAB
  0
TABLE
  2
STYLE
 70
     1
  0
STYLE
  2
STANDARD
 70
     0
 40
0.0
 41
1.0
 50
0.0
 71
     0
 42
180.0
  3
simplex.shx
  4
extfont.shx
  0
ENDTAB
  0
TABLE
  2
VIEW
 70
     0
  0
ENDTAB
  0
TABLE
  2
UCS
 70
     0
  0
ENDTAB
  0
TABLE
  2
APPID
 70
     1
  0
APPID
  2
ACAD
 70
     0
  0
ENDTAB
  0
TABLE
  2
DIMSTYLE
 70
     1
  0
DIMSTYLE
  2
IGA
 70
     0
  3

  4

  5

  6
OPEN
  7
OPEN
 40
2.0
 41
2.0
 42
0.5
 43
10.0
 44
1.0
 45
0.0
 46
0.0
 47
1.0
 48
1.0
140
3.0
141
0.0
142
0.0
143
0.03937
144
1.0
145
0.0
146
10.0
147
1.0
 71
     0
 72
     0
 73
     0
 74
     0
 75
     0
 76
     0
 77
     1
 78
     8
170
     0
171
     2
172
     0
173
     1
174
     0
175
     0
176
     0
177
     0
178
     0
  0
ENDTAB
  0
ENDSEC
  0
SECTION
  2
BLOCKS
  0
BLOCK
  8
0
  2
$MODEL_SPACE
 70
     0
 10
0.0
 20
0.0
 30
0.0
  3
$MODEL_SPACE
  1

  0
ENDBLK
  5
1B
  8
0
  0
BLOCK
 67
     1
  8
0
  2
$PAPER_SPACE
 70
     0
 10
0.0
 20
0.0
 30
0.0
  3
$PAPER_SPACE
  1

  0
ENDBLK
  5
18
 67
     1
  8
0
  0
BLOCK
  8
0
  2
_OPEN
 70
     0
 10
0.0
 20
0.0
 30
0.0
  3
_OPEN
  1

  0
LINE
  5
7AD8
  8
0
  6
BYBLOCK
 62
     0
 10
-1.0
 20
0.166667
 30
0.0
 11
0.0
 21
0.0
 31
0.0
  0
LINE
  5
7AD9
  8
0
  6
BYBLOCK
 62
     0
 10
0.0
 20
0.0
 30
0.0
 11
-1.0
 21
-0.166667
 31
0.0
  0
LINE
  5
7ADA
  8
0
  6
BYBLOCK
 62
     0
 10
0.0
 20
0.0
 30
0.0
 11
-1.0
 21
0.0
 31
0.0
  0
ENDBLK
  5
7ADB
  8
0
  0
BLOCK
  8
0
  2
*D1
 70
     1
 10
0.0
 20
0.0
 30
0.0
  3
*D1
  1

  0
LINE
  5
7ECA
  8
3
  6
CONTINUOUS
 62
     0
 10
2217.3726179999999
 20
4348.4085687156858
 30
0.0
 11
2217.3726179999999
 21
3891.362866715685
 31
0.0
  0
LINE
  5
7ECB
  8
3
  6
CONTINUOUS
 62
     0
 10
4017.3726179999999
 20
4250.4113787156857
 30
0.0
 11
4017.3726179999999
 21
3891.362866715685
 31
0.0
  0
LINE
  5
7ECC
  8
3
  6
CONTINUOUS
 62
     0
 10
2307.3726179999999
 20
3936.362866715685
 30
0.0
 11
3927.372617999999
 21
3936.362866715685
 31
0.0
  0
INSERT
  5
7ECD
  8
3
  6
CONTINUOUS
 62
     0
  2
_OPEN
 10
2217.3726179999999
 20
3936.362866715685
 30
0.0
 41
90.0
 42
90.0
 43
90.0
 50
180.0
  0
INSERT
  5
7ECE
  8
3
  6
CONTINUOUS
 62
     0
  2
_OPEN
 10
4017.3726179999999
 20
3936.362866715685
 30
0.0
 41
90.0
 42
90.0
 43
90.0
  0
TEXT
  8
3
  40
135
  5
7F67
  62
0
  72
0
  71
0
 10
2876.12
 20
3809.91
 30
0.000000
  1
1800
  0
POINT
  5
7ED0
  8
DEFPOINTS
  6
CONTINUOUS
 62
     0
 10
2217.3726179999999
 20
4370.9085687156858
 30
0.0
  0
POINT
  5
7ED1
  8
DEFPOINTS
  6
CONTINUOUS
 62
     0
 10
4017.3726179999999
 20
4272.9113787156857
 30
0.0
  0
POINT
  5
7ED2
  8
DEFPOINTS
  6
CONTINUOUS
 62
     0
 10
4017.3726179999999
 20
3936.362866715685
 30
0.0
  0
ENDBLK
  5
7C93
  8
0
  0
BLOCK
  8
0
  2
*D2
 70
     1
 10
0.0
 20
0.0
 30
0.0
  3
*D2
  1

  0
LINE
  5
7ED3
  8
3
  6
CONTINUOUS
 62
     0
 10
4767.3726180000003
 20
4348.4085687156858
 30
0.0
 11
4767.3726180000003
 21
3891.362866715685
 31
0.0
  0
LINE
  5
7ED4
  8
3
  6
CONTINUOUS
 62
     0
 10
4107.3726179999994
 20
3936.362866715685
 30
0.0
 11
4677.3726180000003
 21
3936.362866715685
 31
0.0
  0
INSERT
  5
7ED5
  8
3
  6
CONTINUOUS
 62
     0
  2
_OPEN
 10
4017.3726179999999
 20
3936.362866715685
 30
0.0
 41
90.0
 42
90.0
 43
90.0
 50
180.0
  0
INSERT
  5
7ED6
  8
3
  6
CONTINUOUS
 62
     0
  2
_OPEN
 10
4767.3726180000003
 20
3936.362866715685
 30
0.0
 41
90.0
 42
90.0
 43
90.0
  0
TEXT
  8
3
  40
135
  5
7F68
  62
0
  72
0
  71
0
 10
4122.37
 20
3809.91
 30
0.000000
  1
750
  0
POINT
  5
7ED8
  8
DEFPOINTS
  6
CONTINUOUS
 62
     0
 10
4017.3726179999999
 20
4272.9113787156857
 30
0.0
  0
POINT
  5
7ED9
  8
DEFPOINTS
  6
CONTINUOUS
 62
     0
 10
4767.3726180000003
 20
4370.9085687156858
 30
0.0
  0
POINT
  5
7EDA
  8
DEFPOINTS
  6
CONTINUOUS
 62
     0
 10
4767.3726180000003
 20
3936.362866715685
 30
0.0
  0
ENDBLK
  5
7AF4
  8
0
  0
BLOCK
  8
0
  2
*D3
 70
     1
 10
0.0
 20
0.0
 30
0.0
  3
*D3
  1

  0
LINE
  5
7EDB
  8
3
  6
CONTINUOUS
 62
     0
 10
4864.8726180000003
 20
5866.9085687156858
 30
0.0
 11
5303.2220540000008
 21
5866.9085687156858
 31
0.0
  0
LINE
  5
7EDC
  8
3
  6
CONTINUOUS
 62
     0
 10
4864.8726180000003
 20
4586.9085687156858
 30
0.0
 11
5303.2220540000008
 21
4586.9085687156858
 31
0.0
  0
LINE
  5
7EDD
  8
3
  6
CONTINUOUS
 62
     0
 10
5258.2220539999998
 20
5776.9085687156858
 30
0.0
 11
5258.2220539999998
 21
4676.9085687156858
 31
0.0
  0
INSERT
  5
7EDE
  8
3
  6
CONTINUOUS
 62
     0
  2
_OPEN
 10
5258.2220539999998
 20
5866.9085687156858
 30
0.0
 41
90.0
 42
90.0
 43
90.0
 50
90.0
  0
INSERT
  5
7EDF
  8
3
  6
CONTINUOUS
 62
     0
  2
_OPEN
 10
5258.2220539999998
 20
4586.9085687156858
 30
0.0
 41
90.0
 42
90.0
 43
90.0
 50
270.0
  0
TEXT
  8
3
  40
135
  5
7F69
  62
0
  72
0
  71
0
 10
4875.72
 20
4962.62
 30
0.000000
  1
1280
  0
POINT
  5
7EE1
  8
DEFPOINTS
  6
CONTINUOUS
 62
     0
 10
4842.3726180000003
 20
5866.9085687156858
 30
0.0
  0
POINT
  5
7EE2
  8
DEFPOINTS
  6
CONTINUOUS
 62
     0
 10
4842.3726180000003
 20
4586.9085687156858
 30
0.0
  0
POINT
  5
7EE3
  8
DEFPOINTS
  6
CONTINUOUS
 62
     0
 10
5258.2220539999998
 20
4586.9085687156858
 30
0.0
  0
ENDBLK
  5
7B01
  8
0
  0
BLOCK
  8
0
  2
*D4
 70
     1
 10
0.0
 20
0.0
 30
0.0
  3
*D4
  1

  0
LINE
  5
7EE4
  8
3
  6
CONTINUOUS
 62
     0
 10
4864.8726180000003
 20
4586.9085687156858
 30
0.0
 11
5566.340596573842
 21
4586.9085687156858
 31
0.0
  0
LINE
  5
7EE5
  8
3
  6
CONTINUOUS
 62
     0
 10
4781.3775329999989
 20
5920.9085687156849
 30
0.0
 11
5566.340596573842
 21
5920.9085687156849
 31
0.0
  0
LINE
  5
7EE6
  8
3
  6
CONTINUOUS
 62
     0
 10
5521.340596573843
 20
4676.9085687156858
 30
0.0
 11
5521.340596573843
 21
5830.9085687156858
 31
0.0
  0
INSERT
  5
7EE7
  8
3
  6
CONTINUOUS
 62
     0
  2
_OPEN
 10
5521.340596573843
 20
4586.9085687156858
 30
0.0
 41
90.0
 42
90.0
 43
90.0
 50
270.0
  0
INSERT
  5
7EE8
  8
3
  6
CONTINUOUS
 62
     0
  2
_OPEN
 10
5521.340596573843
 20
5920.9085687156849
 30
0.0
 41
90.0
 42
90.0
 43
90.0
 50
90.0
  0
TEXT
  8
3
  40
135
  5
7F6A
  62
0
  72
0
  71
0
 10
5138.84
 20
5063.78
 30
0.000000
  1
1334
  0
POINT
  5
7EEA
  8
DEFPOINTS
  6
CONTINUOUS
 62
     0
 10
4842.3726180000003
 20
4586.9085687156858
 30
0.0
  0
POINT
  5
7EEB
  8
DEFPOINTS
  6
CONTINUOUS
 62
     0
 10
4758.8775329999989
 20
5920.9085687156849
 30
0.0
  0
POINT
  5
7EEC
  8
DEFPOINTS
  6
CONTINUOUS
 62
     0
 10
5521.340596573843
 20
5920.9085687156849
 30
0.0
  0
ENDBLK
  5
7DA4
  8
0
  0
BLOCK
  8
0
  2
*D5
 70
     1
 10
0.0
 20
0.0
 30
0.0
  3
*D5
  1

  0
LINE
  5
7EED
  8
3
  6
CONTINUOUS
 62
     0
 10
2938.3726179999999
 20
5943.4085687156849
 30
0.0
 11
2938.3726179999999
 21
7025.4819767156851
 31
0.0
  0
LINE
  5
7EEE
  8
3
  6
CONTINUOUS
 62
     0
 10
4017.3726179999999
 20
6840.7495917156857
 30
0.0
 11
4017.3726179999999
 21
7025.4819767156851
 31
0.0
  0
LINE
  5
7EEF
  8
3
  6
CONTINUOUS
 62
     0
 10
3028.3726179999999
 20
6980.481976715686
 30
0.0
 11
3927.372617999999
 21
6980.481976715686
 31
0.0
  0
INSERT
  5
7EF0
  8
3
  6
CONTINUOUS
 62
     0
  2
_OPEN
 10
2938.3726179999999
 20
6980.481976715686
 30
0.0
 41
90.0
 42
90.0
 43
90.0
 50
180.0
  0
INSERT
  5
7EF1
  8
3
  6
CONTINUOUS
 62
     0
  2
_OPEN
 10
4017.3726179999999
 20
6980.481976715686
 30
0.0
 41
90.0
 42
90.0
 43
90.0
  0
TEXT
  8
3
  40
135
  5
7F6B
  62
0
  72
0
  71
0
 10
3230.55
 20
6854.03
 30
0.000000
  1
1079
  0
POINT
  5
7EF3
  8
DEFPOINTS
  6
CONTINUOUS
 62
     0
 10
2938.3726179999999
 20
5920.9085687156849
 30
0.0
  0
POINT
  5
7EF4
  8
DEFPOINTS
  6
CONTINUOUS
 62
     0
 10
4017.3726179999999
 20
6818.2495917156857
 30
0.0
  0
POINT
  5
7EF5
  8
DEFPOINTS
  6
CONTINUOUS
 62
     0
 10
4017.3726179999999
 20
6980.481976715686
 30
0.0
  0
ENDBLK
  5
7D79
  8
0
  0
BLOCK
  8
0
  2
*D6
 70
     1
 10
0.0
 20
0.0
 30
0.0
  3
*D6
  1

  0
LINE
  5
7EF6
  8
3
  6
CONTINUOUS
 62
     0
 10
4842.3726180000003
 20
5939.4085687156858
 30
0.0
 11
4842.3726180000003
 21
7025.4819767156851
 31
0.0
  0
LINE
  5
7EF7
  8
3
  6
CONTINUOUS
 62
     0
 10
4107.3726179999994
 20
6980.481976715686
 30
0.0
 11
4752.3726180000003
 21
6980.481976715686
 31
0.0
  0
INSERT
  5
7EF8
  8
3
  6
CONTINUOUS
 62
     0
  2
_OPEN
 10
4017.3726179999999
 20
6980.481976715686
 30
0.0
 41
90.0
 42
90.0
 43
90.0
 50
180.0
  0
INSERT
  5
7EF9
  8
3
  6
CONTINUOUS
 62
     0
  2
_OPEN
 10
4842.3726180000003
 20
6980.481976715686
 30
0.0
 41
90.0
 42
90.0
 43
90.0
  0
TEXT
  8
3
  40
135
  5
7F6C
  62
0
  72
0
  71
0
 10
4159.87
 20
6854.03
 30
0.000000
  1
825
  0
POINT
  5
7EFB
  8
DEFPOINTS
  6
CONTINUOUS
 62
     0
 10
4017.3726179999999
 20
6818.2495917156857
 30
0.0
  0
POINT
  5
7EFC
  8
DEFPOINTS
  6
CONTINUOUS
 62
     0
 10
4842.3726180000003
 20
5916.9085687156858
 30
0.0
  0
POINT
  5
7EFD
  8
DEFPOINTS
  6
CONTINUOUS
 62
     0
 10
4842.3726180000003
 20
6980.481976715686
 30
0.0
  0
ENDBLK
  5
7D04
  8
0
  0
BLOCK
  8
0
  2
*D7
 70
     1
 10
0.0
 20
0.0
 30
0.0
  3
*D7
  1

  0
LINE
  5
7EFE
  8
3
  6
CONTINUOUS
 62
     0
 10
2217.3726179999999
 20
8958.2073759134582
 30
0.0
 11
2217.3726179999999
 21
8409.7476129134593
 31
0.0
  0
LINE
  5
7EFF
  8
3
  6
CONTINUOUS
 62
     0
 10
4767.3726180000003
 20
8958.2073759134582
 30
0.0
 11
4767.3726180000003
 21
8409.7476129134593
 31
0.0
  0
LINE
  5
7F00
  8
3
  6
CONTINUOUS
 62
     0
 10
2307.3726179999999
 20
8454.7476129134593
 30
0.0
 11
4677.3726180000003
 21
8454.7476129134593
 31
0.0
  0
INSERT
  5
7F01
  8
3
  6
CONTINUOUS
 62
     0
  2
_OPEN
 10
2217.3726179999999
 20
8454.7476129134593
 30
0.0
 41
90.0
 42
90.0
 43
90.0
 50
180.0
  0
INSERT
  5
7F02
  8
3
  6
CONTINUOUS
 62
     0
  2
_OPEN
 10
4767.3726180000003
 20
8454.7476129134593
 30
0.0
 41
90.0
 42
90.0
 43
90.0
  0
TEXT
  8
3
  40
135
  5
7F6D
  62
0
  72
0
  71
0
 10
3252.25
 20
8328.30
 30
0.000000
  1
2550
  0
POINT
  5
7F04
  8
DEFPOINTS
  6
CONTINUOUS
 62
     0
 10
2217.3726179999999
 20
8980.7073759134582
 30
0.0
  0
POINT
  5
7F05
  8
DEFPOINTS
  6
CONTINUOUS
 62
     0
 10
4767.3726180000003
 20
8980.7073759134582
 30
0.0
  0
POINT
  5
7F06
  8
DEFPOINTS
  6
CONTINUOUS
 62
     0
 10
4767.3726180000003
 20
8454.7476129134593
 30
0.0
  0
ENDBLK
  5
7C88
  8
0
  0
BLOCK
  8
0
  2
*D8
 70
     1
 10
0.0
 20
0.0
 30
0.0
  3
*D8
  1

  0
LINE
  5
7F07
  8
3
  6
CONTINUOUS
 62
     0
 10
4789.8726180000003
 20
10260.707375913449
 30
0.0
 11
5288.7555780000021
 21
10260.707375913449
 31
0.0
  0
LINE
  5
7F08
  8
3
  6
CONTINUOUS
 62
     0
 10
4789.8726180000003
 20
8980.7073759134582
 30
0.0
 11
5288.7555780000012
 21
8980.7073759134582
 31
0.0
  0
LINE
  5
7F09
  8
3
  6
CONTINUOUS
 62
     0
 10
5243.7555780000012
 20
10170.707375913449
 30
0.0
 11
5243.7555780000012
 21
9070.7073759134582
 31
0.0
  0
INSERT
  5
7F0A
  8
3
  6
CONTINUOUS
 62
     0
  2
_OPEN
 10
5243.7555780000021
 20
10260.707375913449
 30
0.0
 41
90.0
 42
90.0
 43
90.0
 50
90.0
  0
INSERT
  5
7F0B
  8
3
  6
CONTINUOUS
 62
     0
  2
_OPEN
 10
5243.7555780000012
 20
8980.7073759134582
 30
0.0
 41
90.0
 42
90.0
 43
90.0
 50
270.0
  0
TEXT
  8
3
  40
135
  5
7F6E
  62
0
  72
0
  71
0
 10
4861.26
 20
9452.06
 30
0.000000
  1
1280
  0
POINT
  5
7F0D
  8
DEFPOINTS
  6
CONTINUOUS
 62
     0
 10
4767.3726180000003
 20
10260.707375913449
 30
0.0
  0
POINT
  5
7F0E
  8
DEFPOINTS
  6
CONTINUOUS
 62
     0
 10
4767.3726180000003
 20
8980.7073759134582
 30
0.0
  0
POINT
  5
7F0F
  8
DEFPOINTS
  6
CONTINUOUS
 62
     0
 10
5243.7555780000012
 20
8980.7073759134582
 30
0.0
  0
ENDBLK
  5
7B8B
  8
0
  0
BLOCK
  8
0
  2
*D9
 70
     1
 10
0.0
 20
0.0
 30
0.0
  3
*D9
  1

  0
LINE
  5
7F10
  8
3
  6
CONTINUOUS
 62
     0
 10
7123.1785050839999
 20
6772.4085687156858
 30
0.0
 11
7123.1785050839999
 21
6961.1907367156864
 31
0.0
  0
LINE
  5
7F11
  8
3
  6
CONTINUOUS
 62
     0
 10
8073.178505083999
 20
6772.4085687156858
 30
0.0
 11
8073.178505083999
 21
6961.1907367156864
 31
0.0
  0
LINE
  5
7F12
  8
3
  6
CONTINUOUS
 62
     0
 10
7213.178505083999
 20
6916.1907367156864
 30
0.0
 11
7983.1785050839999
 21
6916.1907367156864
 31
0.0
  0
INSERT
  5
7F13
  8
3
  6
CONTINUOUS
 62
     0
  2
_OPEN
 10
7123.1785050839999
 20
6916.1907367156864
 30
0.0
 41
90.0
 42
90.0
 43
90.0
 50
180.0
  0
INSERT
  5
7F14
  8
3
  6
CONTINUOUS
 62
     0
  2
_OPEN
 10
8073.178505083999
 20
6916.1907367156864
 30
0.0
 41
90.0
 42
90.0
 43
90.0
  0
TEXT
  8
3
  40
135
  5
7F6F
  62
0
  72
0
  71
0
 10
7284.26
 20
6789.74
 30
0.000000
  1
950
  0
POINT
  5
7F16
  8
DEFPOINTS
  6
CONTINUOUS
 62
     0
 10
7123.1785050839999
 20
6749.9085687156858
 30
0.0
  0
POINT
  5
7F17
  8
DEFPOINTS
  6
CONTINUOUS
 62
     0
 10
8073.178505083999
 20
6749.9085687156858
 30
0.0
  0
POINT
  5
7F18
  8
DEFPOINTS
  6
CONTINUOUS
 62
     0
 10
8073.178505083999
 20
6916.1907367156864
 30
0.0
  0
ENDBLK
  5
7B9B
  8
0
  0
BLOCK
  8
0
  2
*D10
 70
     1
 10
0.0
 20
0.0
 30
0.0
  3
*D10
  1

  0
LINE
  5
7F19
  8
3
  6
CONTINUOUS
 62
     0
 10
6758.1785050839999
 20
6321.4085687156858
 30
0.0
 11
6758.1785050839999
 21
7389.7582903938574
 31
0.0
  0
LINE
  5
7F1A
  8
3
  6
CONTINUOUS
 62
     0
 10
7598.1785050839999
 20
7145.6837267156852
 30
0.0
 11
7598.1785050839999
 21
7389.7582903938574
 31
0.0
  0
LINE
  5
7F1B
  8
3
  6
CONTINUOUS
 62
     0
 10
6848.178505083999
 20
7344.7582903938583
 30
0.0
 11
7508.1785050839999
 21
7344.7582903938583
 31
0.0
  0
INSERT
  5
7F1C
  8
3
  6
CONTINUOUS
 62
     0
  2
_OPEN
 10
6758.1785050839999
 20
7344.7582903938583
 30
0.0
 41
90.0
 42
90.0
 43
90.0
 50
180.0
  0
INSERT
  5
7F1D
  8
3
  6
CONTINUOUS
 62
     0
  2
_OPEN
 10
7598.1785050839999
 20
7344.7582903938583
 30
0.0
 41
90.0
 42
90.0
 43
90.0
  0
TEXT
  8
3
  40
135
  5
7F70
  62
0
  72
0
  71
0
 10
6908.13
 20
7330.81
 30
0.000000
  1
MAX
  0
TEXT
  8
3
  40
135
  5
7F71
  62
0
  72
0
  71
0
 10
6908.13
 20
7155.31
 30
0.000000
  1
890
  0
POINT
  5
7F1F
  8
DEFPOINTS
  6
CONTINUOUS
 62
     0
 10
6758.1785050839999
 20
6298.9085687156858
 30
0.0
  0
POINT
  5
7F20
  8
DEFPOINTS
  6
CONTINUOUS
 62
     0
 10
7598.1785050839999
 20
7123.1837267156852
 30
0.0
  0
POINT
  5
7F21
  8
DEFPOINTS
  6
CONTINUOUS
 62
     0
 10
7598.1785050839999
 20
7344.7582903938583
 30
0.0
  0
ENDBLK
  5
7DCE
  8
0
  0
BLOCK
  8
0
  2
*D11
 70
     1
 10
0.0
 20
0.0
 30
0.0
  3
*D11
  1

  0
LINE
  5
7F22
  8
3
  6
CONTINUOUS
 62
     0
 10
8176.1785050840008
 20
6618.4085687156849
 30
0.0
 11
8176.1785050840008
 21
7389.7582903938574
 31
0.0
  0
LINE
  5
7F23
  8
3
  6
CONTINUOUS
 62
     0
 10
7688.1785050839999
 20
7344.7582903938583
 30
0.0
 11
8086.178505083999
 21
7344.7582903938583
 31
0.0
  0
TEXT
  8
3
  40
135
  5
7F72
  62
0
  72
0
  71
0
 10
7602.52
 20
7218.31
 30
0.000000
  1
578
  0
INSERT
  5
7F25
  8
3
  6
CONTINUOUS
 62
     0
  2
_OPEN
 10
7598.1785050839999
 20
7344.7582903938583
 30
0.0
 41
90.0
 42
90.0
 43
90.0
 50
180.0
  0
INSERT
  5
7F26
  8
3
  6
CONTINUOUS
 62
     0
  2
_OPEN
 10
8176.1785050840008
 20
7344.7582903938583
 30
0.0
 41
90.0
 42
90.0
 43
90.0
  0
POINT
  5
7F27
  8
DEFPOINTS
  6
CONTINUOUS
 62
     0
 10
7598.1785050839999
 20
7123.1837267156852
 30
0.0
  0
POINT
  5
7F28
  8
DEFPOINTS
  6
CONTINUOUS
 62
     0
 10
8176.1785050840008
 20
6595.9085687156849
 30
0.0
  0
POINT
  5
7F29
  8
DEFPOINTS
  6
CONTINUOUS
 62
     0
 10
8176.1785050840008
 20
7344.7582903938583
 30
0.0
  0
ENDBLK
  5
7DC3
  8
0
  0
BLOCK
  8
0
  2
*D12
 70
     1
 10
0.0
 20
0.0
 30
0.0
  3
*D12
  1

  0
LINE
  5
7F2A
  8
3
  6
CONTINUOUS
 62
     0
 10
8198.6785050840008
 20
6545.9085687156849
 30
0.0
 11
8575.7422190840007
 21
6545.9085687156849
 31
0.0
  0
LINE
  5
7F2B
  8
3
  6
CONTINUOUS
 62
     0
 10
8198.6785050840026
 20
5295.9085687156849
 30
0.0
 11
8575.7422190840007
 21
5295.9085687156849
 31
0.0
  0
LINE
  5
7F2C
  8
3
  6
CONTINUOUS
 62
     0
 10
8530.7422190840025
 20
6455.9085687156849
 30
0.0
 11
8530.7422190840025
 21
5385.9085687156849
 31
0.0
  0
INSERT
  5
7F2D
  8
3
  6
CONTINUOUS
 62
     0
  2
_OPEN
 10
8530.7422190840025
 20
6545.9085687156849
 30
0.0
 41
90.0
 42
90.0
 43
90.0
 50
90.0
  0
INSERT
  5
7F2E
  8
3
  6
CONTINUOUS
 62
     0
  2
_OPEN
 10
8530.7422190840025
 20
5295.9085687156849
 30
0.0
 41
90.0
 42
90.0
 43
90.0
 50
270.0
  0
TEXT
  8
3
  40
135
  5
7F73
  62
0
  72
0
  71
0
 10
8148.24
 20
5723.49
 30
0.000000
  1
φ1250
  0
POINT
  5
7F30
  8
DEFPOINTS
  6
CONTINUOUS
 62
     0
 10
8176.1785050840008
 20
6545.9085687156849
 30
0.0
  0
POINT
  5
7F31
  8
DEFPOINTS
  6
CONTINUOUS
 62
     0
 10
8176.1785050840008
 20
5295.9085687156849
 30
0.0
  0
POINT
  5
7F32
  8
DEFPOINTS
  6
CONTINUOUS
 62
     0
 10
8530.7422190840025
 20
5295.9085687156849
 30
0.0
  0
ENDBLK
  5
7D55
  8
0
  0
BLOCK
  8
0
  2
*D13
 70
     1
 10
0.0
 20
0.0
 30
0.0
  3
*D13
  1

  0
LINE
  5
7F33
  8
3
  6
CONTINUOUS
 62
     0
 10
6871.178505083999
 20
4348.4085687156858
 30
0.0
 11
6871.178505083999
 21
3988.9248507156858
 31
0.0
  0
LINE
  5
7F34
  8
3
  6
CONTINUOUS
 62
     0
 10
7598.1785050839999
 20
4207.229910715685
 30
0.0
 11
7598.1785050839999
 21
3988.9248507156858
 31
0.0
  0
LINE
  5
7F35
  8
3
  6
CONTINUOUS
 62
     0
 10
6961.178505083999
 20
4033.9248507156858
 30
0.0
 11
7508.1785050839999
 21
4033.9248507156858
 31
0.0
  0
INSERT
  5
7F36
  8
3
  6
CONTINUOUS
 62
     0
  2
_OPEN
 10
6871.178505083999
 20
4033.9248507156858
 30
0.0
 41
90.0
 42
90.0
 43
90.0
 50
180.0
  0
INSERT
  5
7F37
  8
3
  6
CONTINUOUS
 62
     0
  2
_OPEN
 10
7598.1785050839999
 20
4033.9248507156858
 30
0.0
 41
90.0
 42
90.0
 43
90.0
  0
TEXT
  8
3
  40
135
  5
7F74
  62
0
  72
0
  71
0
 10
6965.99
 20
3907.47
 30
0.000000
  1
727
  0
POINT
  5
7F39
  8
DEFPOINTS
  6
CONTINUOUS
 62
     0
 10
6871.178505083999
 20
4370.9085687156858
 30
0.0
  0
POINT
  5
7F3A
  8
DEFPOINTS
  6
CONTINUOUS
 62
     0
 10
7598.1785050839999
 20
4229.729910715685
 30
0.0
  0
POINT
  5
7F3B
  8
DEFPOINTS
  6
CONTINUOUS
 62
     0
 10
7598.1785050839999
 20
4033.9248507156858
 30
0.0
  0
ENDBLK
  5
7BE6
  8
0
  0
BLOCK
  8
0
  2
*D14
 70
     1
 10
0.0
 20
0.0
 30
0.0
  3
*D14
  1

  0
LINE
  5
7F3C
  8
3
  6
CONTINUOUS
 62
     0
 10
8151.1785050840008
 20
4348.4085687156858
 30
0.0
 11
8151.1785050840008
 21
3988.9248507156858
 31
0.0
  0
LINE
  5
7F3D
  8
3
  6
CONTINUOUS
 62
     0
 10
7688.1785050839999
 20
4033.9248507156858
 30
0.0
 11
8061.178505083999
 21
4033.9248507156858
 31
0.0
  0
TEXT
  8
3
  40
135
  5
7F75
  62
0
  72
0
  71
0
 10
7609.75
 20
3906.76
 30
0.000000
  1
553
  0
INSERT
  5
7F3F
  8
3
  6
CONTINUOUS
 62
     0
  2
_OPEN
 10
7598.1785050839999
 20
4033.9248507156858
 30
0.0
 41
90.0
 42
90.0
 43
90.0
 50
180.0
  0
INSERT
  5
7F40
  8
3
  6
CONTINUOUS
 62
     0
  2
_OPEN
 10
8151.1785050840008
 20
4033.9248507156858
 30
0.0
 41
90.0
 42
90.0
 43
90.0
  0
POINT
  5
7F41
  8
DEFPOINTS
  6
CONTINUOUS
 62
     0
 10
7598.1785050839999
 20
4229.729910715685
 30
0.0
  0
POINT
  5
7F42
  8
DEFPOINTS
  6
CONTINUOUS
 62
     0
 10
8151.1785050840008
 20
4370.9085687156858
 30
0.0
  0
POINT
  5
7F43
  8
DEFPOINTS
  6
CONTINUOUS
 62
     0
 10
8151.1785050840008
 20
4033.9248507156858
 30
0.0
  0
ENDBLK
  5
7C0B
  8
0
  0
BLOCK
  8
0
  2
*D15
 70
     1
 10
0.0
 20
0.0
 30
0.0
  3
*D15
  1

  0
LINE
  5
7F44
  8
3
  6
CONTINUOUS
 62
     0
 10
4039.872617999999
 20
6818.2495917156857
 30
0.0
 11
5844.0679385738422
 21
6818.2495917156857
 31
0.0
  0
LINE
  5
7F45
  8
3
  6
CONTINUOUS
 62
     0
 10
4781.3775329999989
 20
5920.9085687156849
 30
0.0
 11
5844.0679385738413
 21
5920.9085687156849
 31
0.0
  0
LINE
  5
7F46
  8
3
  6
CONTINUOUS
 62
     0
 10
5799.0679385738422
 20
6728.2495917156866
 30
0.0
 11
5799.0679385738413
 21
6010.9085687156849
 31
0.0
  0
INSERT
  5
7F47
  8
3
  6
CONTINUOUS
 62
     0
  2
_OPEN
 10
5799.0679385738422
 20
6818.2495917156857
 30
0.0
 41
90.0
 42
90.0
 43
90.0
 50
90.0
  0
INSERT
  5
7F48
  8
3
  6
CONTINUOUS
 62
     0
  2
_OPEN
 10
5799.0679385738413
 20
5920.9085687156849
 30
0.0
 41
90.0
 42
90.0
 43
90.0
 50
270.0
  0
TEXT
  8
3
  40
135
  5
7F76
  62
0
  72
0
  71
0
 10
5416.57
 20
6130.63
 30
0.000000
  1
897
  0
POINT
  5
7F4A
  8
DEFPOINTS
  6
CONTINUOUS
 62
     0
 10
4017.3726179999999
 20
6818.2495917156857
 30
0.0
  0
POINT
  5
7F4B
  8
DEFPOINTS
  6
CONTINUOUS
 62
     0
 10
4758.8775329999989
 20
5920.9085687156849
 30
0.0
  0
POINT
  5
7F4C
  8
DEFPOINTS
  6
CONTINUOUS
 62
     0
 10
5799.0679385738413
 20
5920.9085687156849
 30
0.0
  0
ENDBLK
  5
7D8F
  8
0
  0
BLOCK
  8
0
  2
*D16
 70
     1
 10
0.0
 20
0.0
 30
0.0
  3
*D16
  1

  0
LINE
  5
7F4D
  8
3
  6
CONTINUOUS
 62
     0
 10
4789.8726180000003
 20
4370.9085687156858
 30
0.0
 11
5844.0679385738413
 21
4370.9085687156858
 31
0.0
  0
LINE
  5
7F4E
  8
3
  6
CONTINUOUS
 62
     0
 10
5799.0679385738413
 20
5830.9085687156858
 30
0.0
 11
5799.0679385738413
 21
4460.9085687156849
 31
0.0
  0
INSERT
  5
7F4F
  8
3
  6
CONTINUOUS
 62
     0
  2
_OPEN
 10
5799.0679385738413
 20
5920.9085687156849
 30
0.0
 41
90.0
 42
90.0
 43
90.0
 50
90.0
  0
INSERT
  5
7F50
  8
3
  6
CONTINUOUS
 62
     0
  2
_OPEN
 10
5799.0679385738413
 20
4370.9085687156858
 30
0.0
 41
90.0
 42
90.0
 43
90.0
 50
270.0
  0
TEXT
  8
3
  40
135
  5
7F77
  62
0
  72
0
  71
0
 10
5416.57
 20
4906.96
 30
0.000000
  1
1550
  0
POINT
  5
7F52
  8
DEFPOINTS
  6
CONTINUOUS
 62
     0
 10
4758.8775329999989
 20
5920.9085687156849
 30
0.0
  0
POINT
  5
7F53
  8
DEFPOINTS
  6
CONTINUOUS
 62
     0
 10
4767.3726180000003
 20
4370.9085687156858
 30
0.0
  0
POINT
  5
7F54
  8
DEFPOINTS
  6
CONTINUOUS
 62
     0
 10
5799.0679385738413
 20
4370.9085687156858
 30
0.0
  0
ENDBLK
  5
7D99
  8
0
  0
BLOCK
  8
0
  2
*D17
 70
     1
 10
0.0
 20
0.0
 30
0.0
  3
*D17
  1

  0
LINE
  5
7F55
  8
3
 62
     0
 10
4062.3726179999999
 20
6818.2495917156857
 30
0.0
 11
6128.9035139526923
 21
6818.2495917156857
 31
0.0
  0
LINE
  5
7F56
  8
3
 62
     0
 10
4789.8726180000003
 20
4370.9085687156858
 30
0.0
 11
6128.9035139526904
 21
4370.9085687156858
 31
0.0
  0
LINE
  5
7F57
  8
3
 62
     0
 10
6083.9035139526914
 20
6728.2495917156866
 30
0.0
 11
6083.9035139526914
 21
4460.9085687156849
 31
0.0
  0
INSERT
  5
7F58
  8
3
 62
     0
  2
_OPEN
 10
6083.9035139526914
 20
6818.2495917156857
 30
0.0
 41
90.0
 42
90.0
 43
90.0
 50
90.0
  0
INSERT
  5
7F59
  8
3
 62
     0
  2
_OPEN
 10
6083.9035139526914
 20
4370.9085687156858
 30
0.0
 41
90.0
 42
90.0
 43
90.0
 50
270.0
  0
TEXT
  8
3
  40
135
  5
7F78
  62
0
  72
0
  71
0
 10
5701.40
 20
5399.67
 30
0.000000
  1
2447
  0
POINT
  5
7F5B
  8
DEFPOINTS
 62
     0
 10
4039.872617999999
 20
6818.2495917156857
 30
0.0
  0
POINT
  5
7F5C
  8
DEFPOINTS
 62
     0
 10
4767.3726180000003
 20
4370.9085687156858
 30
0.0
  0
POINT
  5
7F5D
  8
DEFPOINTS
 62
     0
 10
6083.9035139526914
 20
4370.9085687156858
 30
0.0
  0
ENDBLK
  5
7D84
  8
0
  0
BLOCK
  8
0
  2
*D18
 70
     1
 10
0.0
 20
0.0
 30
0.0
  3
*D18
  1

  0
LINE
  5
7F5E
  8
3
 62
     0
 10
4842.3726180000003
 20
5939.4085687156858
 30
0.0
 11
4842.3726180000003
 21
7339.1026605801517
 31
0.0
  0
LINE
  5
7F5F
  8
3
 62
     0
 10
2217.3726179999999
 20
4543.4085687156858
 30
0.0
 11
2217.3726179999999
 21
7339.1026605801517
 31
0.0
  0
LINE
  5
7F60
  8
3
 62
     0
 10
4752.3726180000003
 20
7294.1026605801517
 30
0.0
 11
2307.3726179999999
 21
7294.1026605801517
 31
0.0
  0
INSERT
  5
7F61
  8
3
 62
     0
  2
_OPEN
 10
4842.3726180000003
 20
7294.1026605801517
 30
0.0
 41
90.0
 42
90.0
 43
90.0
  0
INSERT
  5
7F62
  8
3
 62
     0
  2
_OPEN
 10
2217.3726179999999
 20
7294.1026605801517
 30
0.0
 41
90.0
 42
90.0
 43
90.0
 50
180.0
  0
TEXT
  8
3
  40
135
  5
7F79
  62
0
  72
0
  71
0
 10
3339.05
 20
7167.65
 30
0.000000
  1
2625
  0
POINT
  5
7F64
  8
DEFPOINTS
 62
     0
 10
4842.3726180000003
 20
5916.9085687156858
 30
0.0
  0
POINT
  5
7F65
  8
DEFPOINTS
 62
     0
 10
2217.3726179999999
 20
4520.9085687156849
 30
0.0
  0
POINT
  5
7F66
  8
DEFPOINTS
 62
     0
 10
2217.3726179999999
 20
7294.1026605801517
 30
0.0
  0
ENDBLK
  5
7D61
  8
0
  0
ENDSEC
  0
SECTION
  2
ENTITIES
  0
LINE
  5
7A6D
  8
1
  6
CONTINUOUS
 10
7123.1785050839999
 20
5866.9085687156858
 30
0.0
 11
8073.178505083999
 21
5866.9085687156858
 31
0.0
  0
LINE
  5
7A6E
  8
1
  6
CONTINUOUS
 10
8151.1785050840008
 20
4370.9085687156858
 30
0.0
 11
6871.178505083999
 21
4370.9085687156858
 31
0.0
  0
LINE
  5
7A6F
  8
1
  6
CONTINUOUS
 10
7123.1785050839999
 20
6749.9085687156858
 30
0.0
 11
8073.178505083999
 21
6749.9085687156858
 31
0.0
  0
LINE
  5
7A70
  8
1
  6
CONTINUOUS
 10
7123.1785050839999
 20
4586.9085687156858
 30
0.0
 11
8073.178505083999
 21
4586.9085687156858
 31
0.0
  0
LINE
  5
7A71
  8
1
  6
CONTINUOUS
 10
7123.1785050839999
 20
4586.9085687156858
 30
0.0
 11
8073.178505083999
 21
5866.9085687156858
 31
0.0
  0
LINE
  5
7A72
  8
1
  6
CONTINUOUS
 10
7123.1785050839999
 20
5866.9085687156858
 30
0.0
 11
8073.178505083999
 21
4586.9085687156858
 31
0.0
  0
ARC
  5
7A73
  8
1
  6
CONTINUOUS
 10
4017.3726179999999
 20
5920.9085687156849
 30
0.0
 40
378.0
 50
301.98571699999991
 51
132.48395099999991
  0
POLYLINE
  5
7A74
  8
1
  6
CONTINUOUS
 66
     1
 10
0.0
 20
0.0
 30
0.0
  0
VERTEX
  5
7EC3
  8
1
  6
CONTINUOUS
 10
4842.3726180000003
 20
4586.9085687156858
 30
0.0
  0
VERTEX
  5
7EC4
  8
1
  6
CONTINUOUS
 10
4017.3726179999999
 20
4659.9085687156849
 30
0.0
 42
-0.391657
  0
VERTEX
  5
7EC5
  8
1
  6
CONTINUOUS
 10
2934.8390650000001
 20
5829.9085687156858
 30
0.0
 42
-0.4385764470603612
  0
VERTEX
  5
7EC6
  8
1
  6
CONTINUOUS
 10
4008.714997999999
 20
6819.017124715685
 30
0.0
 42
-0.3898085351194426
  0
VERTEX
  5
7EC7
  8
1
  6
CONTINUOUS
 10
4763.3238469999988
 20
5997.9085687156858
 30
0.0
 42
-0.049316
  0
VERTEX
  5
7EC8
  8
1
  6
CONTINUOUS
 10
4750.3716629999999
 20
5866.9085687156858
 30
0.0
 42
-0.393627
  0
SEQEND
  5
7EC9
  8
1
  6
CONTINUOUS
  0
LINE
  5
7A7C
  8
1
  6
CONTINUOUS
 10
4767.3726180000003
 20
4370.9085687156858
 30
0.0
 11
2217.3726179999999
 21
4370.9085687156858
 31
0.0
  0
LINE
  5
7A7D
  8
1
  6
CONTINUOUS
 10
4767.3726180000003
 20
4520.9085687156849
 30
0.0
 11
2217.3726179999999
 21
4520.9085687156849
 31
0.0
  0
CIRCLE
  5
7A7E
  8
1
  6
CONTINUOUS
 10
4017.3726179999999
 20
5920.9085687156849
 30
0.0
 40
625.0
  0
CIRCLE
  5
7A7F
  8
1
  6
CONTINUOUS
 10
4017.3726179999999
 20
5920.9085687156849
 30
0.0
 40
675.0
  0
LINE
  5
7A80
  8
1
  6
CONTINUOUS
 10
2758.9083430000001
 20
4569.3089307156852
 30
0.0
 11
4217.6021810000002
 21
5600.2964637156847
 31
0.0
  0
LINE
  5
7A81
  8
1
  6
CONTINUOUS
 10
2705.937559
 20
4654.1269477156857
 30
0.0
 11
4164.6313969999992
 21
5685.1144807156861
 31
0.0
  0
LINE
  5
7A82
  8
1
  6
CONTINUOUS
 10
2493.7882119999999
 20
4918.1512087156852
 30
0.0
 11
3762.077593
 21
6199.6709227156862
 31
0.0
  0
LINE
  5
7A83
  8
1
  6
CONTINUOUS
 10
2561.3265780000002
 20
4844.4045537156853
 30
0.0
 11
3829.6159590000002
 21
6125.9242677156863
 31
0.0
  0
ARC
  5
7A84
  8
1
  6
CONTINUOUS
 10
2642.3726179999999
 20
4755.9085687156849
 30
0.0
 40
220.0
 50
132.48395099999991
 51
301.98571699999991
  0
ARC
  5
7A85
  8
1
  6
CONTINUOUS
 10
2642.3726179999999
 20
4755.9085687156849
 30
0.0
 40
199.0
 50
320.126825
 51
219.87317499999989
  0
LINE
  5
7A86
  8
1
  6
CONTINUOUS
 10
2867.3726179999999
 20
4575.9085687156858
 30
0.0
 11
2417.372617999999
 21
4575.9085687156858
 31
0.0
  0
LINE
  5
7A87
  8
1
  6
CONTINUOUS
 10
2480.3726179999999
 20
4575.9085687156858
 30
0.0
 11
2540.3726179999999
 21
4575.9085687156858
 31
0.0
  0
LINE
  5
7A88
  8
1
  6
CONTINUOUS
 10
2217.3726179999999
 20
4520.9085687156849
 30
0.0
 11
2217.3726179999999
 21
4370.9085687156858
 31
0.0
  0
LINE
  5
7A89
  8
1
  6
CONTINUOUS
 10
2480.3726179999999
 20
4618.4077517156848
 30
0.0
 11
2489.647007
 21
4628.331580715685
 31
0.0
  0
LINE
  5
7A8A
  8
1
  6
CONTINUOUS
 10
2480.3726179999999
 20
4575.9085687156858
 30
0.0
 11
2480.3726179999999
 21
4618.4077517156848
 31
0.0
  0
LINE
  5
7A8B
  8
1
  6
CONTINUOUS
 10
2417.372617999999
 20
4520.9085687156849
 30
0.0
 11
2417.372617999999
 21
4575.9085687156858
 31
0.0
  0
LINE
  5
7A8C
  8
1
  6
CONTINUOUS
 10
2804.3726179999999
 20
4618.4077517156848
 30
0.0
 11
2795.0982290000002
 21
4628.331580715685
 31
0.0
  0
LINE
  5
7A8D
  8
1
  6
CONTINUOUS
 10
2804.3726179999999
 20
4575.9085687156858
 30
0.0
 11
2804.3726179999999
 21
4618.4077517156848
 31
0.0
  0
CIRCLE
  5
7A8E
  8
1
  6
CONTINUOUS
 10
2642.3726179999999
 20
4755.9085687156849
 30
0.0
 40
120.0
  0
LINE
  5
7A8F
  8
2
  6
CENTER
 10
2642.3726179999999
 20
4635.9085687156849
 30
0.0
 11
2642.3726179999999
 21
4875.9085687156858
 31
0.0
  0
LINE
  5
7A90
  8
2
  6
CENTER
 10
2522.3726179999999
 20
4755.9085687156849
 30
0.0
 11
2762.3726179999999
 21
4755.9085687156849
 31
0.0
  0
LINE
  5
7A91
  8
1
  6
CONTINUOUS
 10
2867.3726179999999
 20
4520.9085687156849
 30
0.0
 11
2867.3726179999999
 21
4575.9085687156858
 31
0.0
  0
CIRCLE
  5
7A92
  8
1
  6
CONTINUOUS
 10
4017.3726179999999
 20
5920.9085687156849
 30
0.0
 40
278.0
  0
LINE
  5
7A93
  8
2
  6
CENTER
 10
4017.3726179999999
 20
10456.37924091346
 30
0.0
 11
4017.3726179999999
 21
8808.0742329134591
 31
0.0
  0
LINE
  5
7A94
  8
2
  6
CENTER
 10
2762.8868590000002
 20
5920.9085687156849
 30
0.0
 11
4925.4935539999988
 21
5920.9085687156849
 31
0.0
  0
LINE
  5
7A95
  8
1
  6
CONTINUOUS
 10
4842.3726180000003
 20
5916.9085687156858
 30
0.0
 11
4842.3726180000003
 21
4530.9085687156858
 31
0.0
  0
LINE
  5
7A96
  8
1
  6
CONTINUOUS
 10
4792.3726180000003
 20
5866.9085687156858
 30
0.0
 11
4792.3726180000003
 21
4586.9085687156858
 31
0.0
  0
LINE
  5
7A97
  8
1
  6
CONTINUOUS
 10
4767.3726180000003
 20
4520.9085687156849
 30
0.0
 11
4767.3726180000003
 21
4370.9085687156858
 31
0.0
  0
LINE
  5
7A98
  8
1
  6
CONTINUOUS
 10
4750.3716629999999
 20
5866.9085687156858
 30
0.0
 11
4842.3726180000003
 21
5866.9085687156858
 31
0.0
  0
LINE
  5
7A99
  8
1
  6
CONTINUOUS
 10
7123.1785050839999
 20
4586.9085687156858
 30
0.0
 11
7123.1785050839999
 21
6749.9085687156858
 31
0.0
  0
LINE
  5
7A9A
  8
1
  6
CONTINUOUS
 10
6758.1785050839999
 20
4655.9085687156858
 30
0.0
 11
6758.1785050839999
 21
6298.9085687156858
 31
0.0
  0
LINE
  5
7A9B
  8
1
  6
CONTINUOUS
 10
6998.1785050839999
 20
4655.9085687156858
 30
0.0
 11
6998.1785050839999
 21
6298.9085687156858
 31
0.0
  0
LINE
  5
7A9C
  8
1
  6
CONTINUOUS
 10
6828.1785050839981
 20
5642.9085687156858
 30
0.0
 11
6828.1785050839981
 21
6198.9085687156858
 31
0.0
  0
LINE
  5
7A9D
  8
1
  6
CONTINUOUS
 10
6928.1785050839999
 20
5642.9085687156858
 30
0.0
 11
6928.1785050839999
 21
6198.9085687156858
 31
0.0
  0
LINE
  5
7A9E
  8
1
  6
CONTINUOUS
 10
8151.178505083999
 20
4520.9085687156849
 30
0.0
 11
6871.178505083999
 21
4520.9085687156849
 31
0.0
  0
LINE
  5
7A9F
  8
1
  6
CONTINUOUS
 10
6828.1785050839981
 20
4755.9085687156849
 30
0.0
 11
6928.1785050839999
 21
4755.9085687156849
 31
0.0
  0
LINE
  5
7AA0
  8
1
  6
CONTINUOUS
 10
6828.1785050839981
 20
4995.9085687156858
 30
0.0
 11
6928.1785050839999
 21
4995.9085687156858
 31
0.0
  0
LINE
  5
7AA1
  8
1
  6
CONTINUOUS
 10
6758.1785050839999
 20
4655.9085687156858
 30
0.0
 11
6998.1785050839999
 21
4655.9085687156858
 31
0.0
  0
LINE
  5
7AA2
  8
1
  6
CONTINUOUS
 10
6871.178505083999
 20
4370.9085687156858
 30
0.0
 11
6871.178505083999
 21
4520.9085687156849
 31
0.0
  0
LINE
  5
7AA3
  8
1
  6
CONTINUOUS
 10
6828.1785050839981
 20
4755.9085687156849
 30
0.0
 11
6828.1785050839981
 21
4995.9085687156858
 31
0.0
  0
LINE
  5
7AA4
  8
1
  6
CONTINUOUS
 10
6928.1785050839999
 20
4848.4085687156858
 30
0.0
 11
7123.1785050839999
 21
4848.4085687156858
 31
0.0
  0
LINE
  5
7AA5
  8
1
  6
CONTINUOUS
 10
6928.1785050839999
 20
4903.4085687156858
 30
0.0
 11
7123.1785050839999
 21
4903.4085687156858
 31
0.0
  0
LINE
  5
7AA6
  8
1
  6
CONTINUOUS
 10
6928.1785050839999
 20
4755.9085687156849
 30
0.0
 11
6928.1785050839999
 21
4995.9085687156858
 31
0.0
  0
LINE
  5
7AA7
  8
1
  6
CONTINUOUS
 10
6828.1785050839981
 20
5642.9085687156858
 30
0.0
 11
6928.1785050839999
 21
5642.9085687156858
 31
0.0
  0
LINE
  5
7AA8
  8
1
  6
CONTINUOUS
 10
6928.1785050839999
 20
5948.4085687156849
 30
0.0
 11
7123.1785050839999
 21
5948.4085687156849
 31
0.0
  0
LINE
  5
7AA9
  8
1
  6
CONTINUOUS
 10
6928.1785050839999
 20
5893.4085687156858
 30
0.0
 11
7123.1785050839999
 21
5893.4085687156858
 31
0.0
  0
LINE
  5
7AAA
  8
1
  6
CONTINUOUS
 10
6828.1785050839981
 20
6198.9085687156858
 30
0.0
 11
6928.1785050839999
 21
6198.9085687156858
 31
0.0
  0
LINE
  5
7AAB
  8
1
  6
CONTINUOUS
 10
6758.1785050839999
 20
6298.9085687156858
 30
0.0
 11
6998.1785050839999
 21
6298.9085687156858
 31
0.0
  0
LINE
  5
7AAC
  8
1
  6
CONTINUOUS
 10
8073.178505083999
 20
4586.9085687156858
 30
0.0
 11
8073.178505083999
 21
6749.9085687156858
 31
0.0
  0
LINE
  5
7AAD
  8
1
  6
CONTINUOUS
 10
8176.1785050840008
 20
5245.9085687156858
 30
0.0
 11
8176.1785050840008
 21
6595.9085687156849
 31
0.0
  0
LINE
  5
7AAE
  8
1
  6
CONTINUOUS
 10
8151.1785050840008
 20
4520.9085687156849
 30
0.0
 11
8073.178505083999
 21
4520.9085687156849
 31
0.0
  0
LINE
  5
7AAF
  8
1
  6
CONTINUOUS
 10
8151.1785050840008
 20
4370.9085687156858
 30
0.0
 11
8151.1785050840008
 21
4520.9085687156849
 31
0.0
  0
LINE
  5
7AB0
  8
1
  6
CONTINUOUS
 10
8073.178505083999
 20
5295.9085687156849
 30
0.0
 11
8176.1785050840008
 21
5295.9085687156849
 31
0.0
  0
LINE
  5
7AB1
  8
1
  6
CONTINUOUS
 10
8073.178505083999
 20
6545.9085687156849
 30
0.0
 11
8176.1785050840008
 21
6545.9085687156849
 31
0.0
  0
LINE
  5
7AB2
  8
1
  6
CONTINUOUS
 10
4295.3726180000003
 20
8980.7073759134582
 30
0.0
 11
4767.3726180000003
 21
8980.7073759134582
 31
0.0
  0
LINE
  5
7AB3
  8
1
  6
CONTINUOUS
 10
4842.3726180000003
 20
10182.707375913449
 30
0.0
 11
2934.8390650000001
 21
10182.707375913449
 31
0.0
  0
LINE
  5
7AB4
  8
1
  6
CONTINUOUS
 10
4842.3726180000003
 20
9232.7073759134582
 30
0.0
 11
2934.8390650000001
 21
9232.7073759134582
 31
0.0
  0
LINE
  5
7AB5
  8
1
  6
CONTINUOUS
 10
4692.3726180000003
 20
10285.707375913449
 30
0.0
 11
3342.3726179999999
 21
10285.707375913449
 31
0.0
  0
LINE
  5
7AB6
  8
1
  6
CONTINUOUS
 10
4395.3726180000003
 20
8867.7073759134582
 30
0.0
 11
2322.3726179999999
 21
8867.7073759134582
 31
0.0
  0
LINE
  5
7AB7
  8
1
  6
CONTINUOUS
 10
4395.3726180000003
 20
9107.7073759134582
 30
0.0
 11
2322.3726179999999
 21
9107.7073759134582
 31
0.0
  0
LINE
  5
7AB8
  8
1
  6
CONTINUOUS
 10
3392.3726179999999
 20
10260.707375913449
 30
0.0
 11
2217.3726179999999
 21
10260.707375913449
 31
0.0
  0
LINE
  5
7AB9
  8
1
  6
CONTINUOUS
 10
2762.3726179999999
 20
8980.7073759134582
 30
0.0
 11
3739.3726179999999
 21
8980.7073759134582
 31
0.0
  0
LINE
  5
7ABA
  8
1
  6
CONTINUOUS
 10
2217.3726179999999
 20
10260.707375913449
 30
0.0
 11
2217.3726179999999
 21
8980.7073759134582
 31
0.0
  0
LINE
  5
7ABB
  8
1
  6
CONTINUOUS
 10
2443.2746039999988
 20
9751.7405689134594
 30
0.0
 11
2841.470632
 21
9751.7405689134594
 31
0.0
  0
LINE
  5
7ABC
  8
1
  6
CONTINUOUS
 10
2443.2746039999988
 20
9152.2405689134612
 30
0.0
 11
2841.470632
 21
9152.2405689134612
 31
0.0
  0
LINE
  5
7ABD
  8
1
  6
CONTINUOUS
 10
2217.3726179999999
 20
8980.7073759134582
 30
0.0
 11
2522.3726179999999
 21
8980.7073759134582
 31
0.0
  0
LINE
  5
7ABE
  8
1
  6
CONTINUOUS
 10
2443.2746039999988
 20
9152.2405689134612
 30
0.0
 11
2443.2746039999988
 21
9751.7405689134594
 31
0.0
  0
LINE
  5
7ABF
  8
1
  6
CONTINUOUS
 10
2322.3726179999999
 20
8867.7073759134582
 30
0.0
 11
2322.3726179999999
 21
9107.7073759134582
 31
0.0
  0
LINE
  5
7AC0
  8
1
  6
CONTINUOUS
 10
2841.470632
 20
9152.2405689134612
 30
0.0
 11
2841.470632
 21
9751.7405689134594
 31
0.0
  0
LINE
  5
7AC1
  8
1
  6
CONTINUOUS
 10
2934.8390650000001
 20
9232.7073759134582
 30
0.0
 11
2934.8390650000001
 21
10182.707375913449
 31
0.0
  0
LINE
  5
7AC2
  8
1
  6
CONTINUOUS
 10
2669.872617999999
 20
9037.7073759134582
 30
0.0
 11
2669.872617999999
 21
9152.2405689134612
 31
0.0
  0
LINE
  5
7AC3
  8
1
  6
CONTINUOUS
 10
2614.8726179999999
 20
9037.7073759134582
 30
0.0
 11
2614.8726179999999
 21
9152.2405689134612
 31
0.0
  0
LINE
  5
7AC4
  8
1
  6
CONTINUOUS
 10
2522.3726179999999
 20
8937.7073759134582
 30
0.0
 11
2522.3726179999999
 21
9037.7073759134582
 31
0.0
  0
LINE
  5
7AC5
  8
1
  6
CONTINUOUS
 10
2762.3726179999999
 20
8937.7073759134582
 30
0.0
 11
2762.3726179999999
 21
9037.7073759134582
 31
0.0
  0
LINE
  5
7AC6
  8
1
  6
CONTINUOUS
 10
2522.3726179999999
 20
9037.7073759134582
 30
0.0
 11
2762.3726179999999
 21
9037.7073759134582
 31
0.0
  0
LINE
  5
7AC7
  8
1
  6
CONTINUOUS
 10
2522.3726179999999
 20
8937.7073759134582
 30
0.0
 11
2762.3726179999999
 21
8937.7073759134582
 31
0.0
  0
LINE
  5
7AC8
  8
1
  6
CONTINUOUS
 10
3392.3726179999999
 20
10182.707375913449
 30
0.0
 11
3392.3726179999999
 21
10285.707375913449
 31
0.0
  0
LINE
  5
7AC9
  8
1
  6
CONTINUOUS
 10
3739.3726179999999
 20
9037.7073759134582
 30
0.0
 11
4295.3726180000003
 21
9037.7073759134582
 31
0.0
  0
LINE
  5
7ACA
  8
1
  6
CONTINUOUS
 10
3739.3726179999999
 20
8937.7073759134582
 30
0.0
 11
4295.3726180000003
 21
8937.7073759134582
 31
0.0
  0
LINE
  5
7ACB
  8
1
  6
CONTINUOUS
 10
3989.872617999999
 20
9037.7073759134582
 30
0.0
 11
3989.872617999999
 21
9232.7073759134582
 31
0.0
  0
LINE
  5
7ACC
  8
1
  6
CONTINUOUS
 10
3739.3726179999999
 20
8937.7073759134582
 30
0.0
 11
3739.3726179999999
 21
9037.7073759134582
 31
0.0
  0
LINE
  5
7ACD
  8
1
  6
CONTINUOUS
 10
4044.8726179999999
 20
9037.7073759134582
 30
0.0
 11
4044.8726179999999
 21
9232.7073759134582
 31
0.0
  0
LINE
  5
7ACE
  8
1
  6
CONTINUOUS
 10
4295.3726180000003
 20
8937.7073759134582
 30
0.0
 11
4295.3726180000003
 21
9037.7073759134582
 31
0.0
  0
LINE
  5
7ACF
  8
1
  6
CONTINUOUS
 10
4767.3726180000003
 20
10182.707375913449
 30
0.0
 11
4767.3726180000003
 21
10260.707375913449
 31
0.0
  0
LINE
  5
7AD0
  8
1
  6
CONTINUOUS
 10
4842.3726180000003
 20
9182.7073759134564
 30
0.0
 11
4842.3726180000003
 21
10232.707375913449
 31
0.0
  0
LINE
  5
7AD1
  8
1
  6
CONTINUOUS
 10
4642.3726180000003
 20
10182.707375913449
 30
0.0
 11
4642.3726180000003
 21
10285.707375913449
 31
0.0
  0
LINE
  5
7AD2
  8
1
  6
CONTINUOUS
 10
4792.3726180000003
 20
9232.7073759134582
 30
0.0
 11
4792.3726180000003
 21
10182.707375913449
 31
0.0
  0
LINE
  5
7AD3
  8
1
  6
CONTINUOUS
 10
4395.3726180000003
 20
8867.7073759134582
 30
0.0
 11
4395.3726180000003
 21
9107.7073759134582
 31
0.0
  0
LINE
  5
7AD4
  8
1
  6
CONTINUOUS
 10
4767.3726180000003
 20
8980.7073759134582
 30
0.0
 11
4767.3726180000003
 21
9232.7073759134582
 31
0.0
  0
LINE
  5
7AD5
  8
1
  6
CONTINUOUS
 10
4767.3726180000003
 20
10260.707375913449
 30
0.0
 11
4642.3726180000003
 21
10260.707375913449
 31
0.0
  0
DIMENSION
  5
7AE9
  8
3
  6
CONTINUOUS
  2
*D1
 10
4017.3726179999999
 20
3936.362866715685
 30
0.0
 11
3146.1194700000001
 21
3936.362866715685
 31
0.0
 70
   128
 13
2217.3726179999999
 23
4370.9085687156858
 33
0.0
 14
4017.3726179999999
 24
4272.9113787156857
 34
0.0
1001
ACAD
1000
DSTYLE
1002
{
1070
   287
1070
     3
1070
   287
1070
     3
1070
    40
1040
45.0
1070
   143
1040
0.039
1070
   172
1070
     1
1070
   271
1070
     0
1070
   279
1070
     0
1070
   288
1070
     1
1002
}
  0
DIMENSION
  5
7AF5
  8
3
  6
CONTINUOUS
  2
*D2
 10
4767.3726180000003
 20
3936.362866715685
 30
0.0
 11
4392.3726179999994
 21
4048.862866715685
 31
0.0
 70
     0
 13
4017.3726179999999
 23
4272.9113787156857
 33
0.0
 14
4767.3726180000003
 24
4370.9085687156858
 34
0.0
1001
ACAD
1000
DSTYLE
1002
{
1070
   287
1070
     4
1070
   287
1070
     4
1070
    40
1040
45.0
1070
    75
1070
     1
1070
   143
1040
0.039
1070
   172
1070
     1
1070
   271
1070
     0
1070
   279
1070
     1
1070
   288
1070
     1
1002
}
  0
DIMENSION
  5
7B02
  8
3
  6
CONTINUOUS
  2
*D3
 10
5258.2220539999998
 20
4586.9085687156858
 30
0.0
 11
5258.2220539999998
 21
5201.5731177156849
 31
0.0
 70
   128
 13
4842.3726180000003
 23
5866.9085687156858
 33
0.0
 14
4842.3726180000003
 24
4586.9085687156858
 34
0.0
 50
90.0
1001
ACAD
1000
DSTYLE
1002
{
1070
   287
1070
     3
1070
   287
1070
     3
1070
    40
1040
45.0
1070
   143
1040
0.039
1070
   172
1070
     1
1070
   271
1070
     0
1070
   279
1070
     0
1070
   288
1070
     1
1002
}
  0
DIMENSION
  5
7B0F
  8
3
  6
CONTINUOUS
  2
*D4
 10
5521.340596573843
 20
5920.9085687156849
 30
0.0
 11
5521.3405965738411
 21
5302.7289737156852
 31
0.0
 70
   128
 13
4842.3726180000003
 23
4586.9085687156858
 33
0.0
 14
4758.8775329999989
 24
5920.9085687156849
 34
0.0
 50
90.0
1001
ACAD
1000
DSTYLE
1002
{
1070
   287
1070
     3
1070
   287
1070
     3
1070
    40
1040
45.0
1070
   143
1040
0.039
1070
   172
1070
     1
1070
   271
1070
     0
1070
   279
1070
     0
1070
   288
1070
     1
1002
}
  0
LINE
  5
7B59
  8
2
  6
CENTER
 10
6669.6359440839979
 20
5920.9085687156849
 30
0.0
 11
8334.6151630839995
 21
5920.9085687156849
 31
0.0
  0
DIMENSION
  5
7B66
  8
3
  6
CONTINUOUS
  2
*D5
 10
4017.3726179999999
 20
6980.481976715686
 30
0.0
 11
3500.5476549999998
 21
6980.481976715686
 31
0.0
 70
   128
 13
2938.3726179999999
 23
5920.9085687156849
 33
0.0
 14
4017.3726179999999
 24
6818.2495917156857
 34
0.0
1001
ACAD
1000
DSTYLE
1002
{
1070
   287
1070
     3
1070
   287
1070
     3
1070
    40
1040
45.0
1070
   143
1040
0.039
1070
   172
1070
     1
1070
   271
1070
     0
1070
   279
1070
     0
1070
   288
1070
     1
1002
}
  0
DIMENSION
  5
7B72
  8
3
  6
CONTINUOUS
  2
*D6
 10
4842.3726180000003
 20
6980.481976715686
 30
0.0
 11
4429.8726180000003
 21
7092.981976715686
 31
0.0
 70
     0
 13
4017.3726179999999
 23
6818.2495917156857
 33
0.0
 14
4842.3726180000003
 24
5916.9085687156858
 34
0.0
1001
ACAD
1000
DSTYLE
1002
{
1070
   287
1070
     4
1070
   287
1070
     4
1070
    40
1040
45.0
1070
    75
1070
     1
1070
   143
1040
0.039
1070
   172
1070
     1
1070
   271
1070
     0
1070
   279
1070
     1
1070
   288
1070
     1
1002
}
  0
DIMENSION
  5
7B7F
  8
3
  6
CONTINUOUS
  2
*D7
 10
4767.3726180000003
 20
8454.7476129134593
 30
0.0
 11
3522.2473409999989
 21
8454.7476129134593
 31
0.0
 70
   128
 13
2217.3726179999999
 23
8980.7073759134582
 33
0.0
 14
4767.3726180000003
 24
8980.7073759134582
 34
0.0
1001
ACAD
1000
DSTYLE
1002
{
1070
   287
1070
     3
1070
   287
1070
     3
1070
    40
1040
45.0
1070
   143
1040
0.039
1070
   172
1070
     1
1070
   271
1070
     0
1070
   279
1070
     0
1070
   288
1070
     1
1002
}
  0
DIMENSION
  5
7B8C
  8
3
  6
CONTINUOUS
  2
*D8
 10
5243.7555780000012
 20
8980.7073759134582
 30
0.0
 11
5243.7555780000002
 21
9691.0128229134589
 31
0.0
 70
   128
 13
4767.3726180000003
 23
10260.707375913449
 33
0.0
 14
4767.3726180000003
 24
8980.7073759134582
 34
0.0
 50
90.0
1001
ACAD
1000
DSTYLE
1002
{
1070
   287
1070
     3
1070
   287
1070
     3
1070
    40
1040
45.0
1070
   143
1040
0.039
1070
   172
1070
     1
1070
   271
1070
     0
1070
   279
1070
     0
1070
   288
1070
     1
1002
}
  0
LINE
  5
7B8D
  8
2
  6
CENTER
 10
2848.040375
 20
9707.7073759134564
 30
0.0
 11
4932.7268189999986
 21
9707.7073759134564
 31
0.0
  0
LINE
  5
7B8E
  8
2
  6
CENTER
 10
4017.3726179999999
 20
6870.9257427156863
 30
0.0
 11
4017.3726179999999
 21
4272.9113787156857
 31
0.0
  0
LINE
  5
7B8F
  8
2
  6
CENTER
 10
7598.1785050839999
 20
6938.2692577156859
 30
0.0
 11
7598.1785050839999
 21
4229.729910715685
 31
0.0
  0
DIMENSION
  5
7B9C
  8
3
  6
CONTINUOUS
  2
*D9
 10
8073.178505083999
 20
6916.1907367156864
 30
0.0
 11
7554.2564610839991
 21
6916.1907367156864
 31
0.0
 70
   128
 13
7123.1785050839999
 23
6749.9085687156858
 33
0.0
 14
8073.178505083999
 24
6749.9085687156858
 34
0.0
1001
ACAD
1000
DSTYLE
1002
{
1070
   287
1070
     3
1070
   287
1070
     3
1070
    40
1040
45.0
1070
   143
1040
0.039
1070
   172
1070
     1
1070
   271
1070
     0
1070
   279
1070
     0
1070
   288
1070
     1
1002
}
  0
DIMENSION
  5
7BA9
  8
3
  6
CONTINUOUS
  2
*D10
 10
7598.1785050839999
 20
7344.7582903938583
 30
0.0
 11
7178.128643084
 21
7344.7582903938583
 31
0.0
 70
   128
  1
MAX\P890
 13
6758.1785050839999
 23
6298.9085687156858
 33
0.0
 14
7598.1785050839999
 24
7123.1837267156852
 34
0.0
1001
ACAD
1000
DSTYLE
1002
{
1070
   287
1070
     3
1070
   287
1070
     3
1070
    40
1040
45.0
1070
   143
1040
0.039
1070
   172
1070
     1
1070
   271
1070
     0
1070
   279
1070
     0
1070
   288
1070
     1
1002
}
  0
DIMENSION
  5
7BB7
  8
3
  6
CONTINUOUS
  2
*D11
 10
8176.1785050840008
 20
7344.7582903938583
 30
0.0
 11
7872.5184850839987
 21
7344.7582903938583
 31
0.0
 70
   128
 13
7598.1785050839999
 23
7123.1837267156852
 33
0.0
 14
8176.1785050840008
 24
6595.9085687156849
 34
0.0
1001
ACAD
1000
DSTYLE
1002
{
1070
   287
1070
     4
1070
   287
1070
     4
1070
    40
1040
45.0
1070
    75
1070
     1
1070
   143
1040
0.039
1070
   172
1070
     1
1070
   271
1070
     0
1070
   279
1070
     1
1070
   288
1070
     1
1002
}
  0
DIMENSION
  5
7BDA
  8
3
  6
CONTINUOUS
  2
*D12
 10
8530.7422190840025
 20
5295.9085687156849
 30
0.0
 11
8530.7422190839989
 21
5962.4356627156858
 31
0.0
 70
   128
 13
8176.1785050840008
 23
6545.9085687156849
 33
0.0
 14
8176.1785050840008
 24
5295.9085687156849
 34
0.0
 50
90.0
1001
ACAD
1000
DSTYLE
1002
{
1070
   287
1070
     3
1070
   287
1070
     3
1070
     3
1000
φ<>
1070
    40
1040
45.0
1070
   143
1040
0.039
1070
   172
1070
     1
1070
   271
1070
     0
1070
   279
1070
     0
1070
   288
1070
     1
1002
}
  0
DIMENSION
  5
7BE7
  8
3
  6
CONTINUOUS
  2
*D13
 10
7598.1785050839999
 20
4033.9248507156858
 30
0.0
 11
7235.9944360839982
 21
4033.9248507156858
 31
0.0
 70
   128
 13
6871.178505083999
 23
4370.9085687156858
 33
0.0
 14
7598.1785050839999
 24
4229.729910715685
 34
0.0
1001
ACAD
1000
DSTYLE
1002
{
1070
   287
1070
     3
1070
   287
1070
     3
1070
    40
1040
45.0
1070
   143
1040
0.039
1070
   172
1070
     1
1070
   271
1070
     0
1070
   279
1070
     0
1070
   288
1070
     1
1002
}
  0
DIMENSION
  5
7BF5
  8
3
  6
CONTINUOUS
  2
*D14
 10
8151.1785050840008
 20
4033.9248507156858
 30
0.0
 11
7879.7517490839991
 21
4033.2060207156851
 31
0.0
 70
   128
 13
7598.1785050839999
 23
4229.729910715685
 33
0.0
 14
8151.1785050840008
 24
4370.9085687156858
 34
0.0
1001
ACAD
1000
DSTYLE
1002
{
1070
   287
1070
     4
1070
   287
1070
     4
1070
    40
1040
45.0
1070
    75
1070
     1
1070
   143
1040
0.039
1070
   172
1070
     1
1070
   271
1070
     0
1070
   279
1070
     1
1070
   288
1070
     1
1002
}
  0
LINE
  5
7C0D
  8
4
  6
CONTINUOUS
 10
9250.0
 20
2500.0
 30
0.0
 11
9250.0
 21
1500.0
 31
0.0
  0
LINE
  5
7C0E
  8
4
  6
CONTINUOUS
 10
5750.0
 20
2500.0
 30
0.0
 11
5750.0
 21
1500.0
 31
0.0
  0
LINE
  5
7C0F
  8
4
  6
CONTINUOUS
 10
3250.0
 20
2500.0
 30
0.0
 11
3250.0
 21
1500.0
 31
0.0
  0
LINE
  5
7C12
  8
4
  6
CONTINUOUS
 10
3250.0
 20
1500.0
 30
0.0
 11
9250.0
 21
1500.0
 31
0.0
  0
LINE
  5
7C13
  8
4
  6
CONTINUOUS
 10
3250.0
 20
2000.0
 30
0.0
 11
9250.0
 21
2000.0
 31
0.0
  0
TEXT
  5
7C14
  8
4
  6
CONTINUOUS
 10
3442.5104040000001
 20
2157.7151289999988
 30
0.0
 40
250.0
  1
機器名称
  0
TEXT
  5
7C15
  8
4
  6
CONTINUOUS
 10
3431.2905300000002
 20
1608.225782999999
 30
0.0
 40
250.0
  1
機器型番
  0
TEXT
  5
7C16
  8
4
  6
CONTINUOUS
 10
5888.393728
 20
2112.8588439999999
 30
0.0
 40
211.11111099999991
  1
ミツヤリミットロードファン
  0
TEXT
  5
7C17
  8
4
  6
CONTINUOUS
 10
5933.2724779999999
 20
1585.7979210000001
 30
0.0
 40
250.0
  1
LLE#8-4
  0
TEXT
  5
7C19
  8
4
  6
CONTINUOUS
 10
4523.9288280000001
 20
11917.14420699999
 30
0.0
 40
270.0
  1
床置ベット
  0
TEXT
  5
7C1A
  8
4
  6
CONTINUOUS
 10
1580.837966999999
 20
12669.404881
 30
0.0
 40
300.0
  1
ベルト駆動式片吸込両持排煙ファン
  0
LINE
  5
7C1B
  8
4
  6
CONTINUOUS
 10
1250.0
 20
12347.04377099999
 30
0.0
 11
9250.0
 21
12347.04377099999
 31
0.0
  0
LINE
  5
7C1C
  8
4
  6
CONTINUOUS
 10
1250.0
 20
13347.043771000001
 30
0.0
 11
9250.0
 21
13347.043771000001
 31
0.0
  0
LINE
  5
7C1D
  8
4
  6
CONTINUOUS
 10
3250.0
 20
2500.0
 30
0.0
 11
9250.0
 21
2500.0
 31
0.0
  0
LINE
  5
7C1E
  8
4
  6
CONTINUOUS
 10
1250.0
 20
13347.043771000001
 30
0.0
 11
1250.0
 21
12347.04377099999
 31
0.0
  0
TEXT
  5
7C1F
  8
4
  6
CONTINUOUS
 10
2344.6346669999998
 20
11911.597388
 30
0.0
 40
270.0
  1
左回転右横向
  0
TEXT
  5
7C20
  8
4
  6
CONTINUOUS
 10
7344.8477969999994
 20
13530.305408
 30
0.0
 40
280.0
  1
No.
  0
TEXT
  5
7C21
  8
4
  6
CONTINUOUS
 10
6556.480313
 20
11917.14420699999
 30
0.0
 40
270.0
  1
縮尺：1/50
  0
LINE
  5
7C22
  8
4
  6
CONTINUOUS
 10
9250.0
 20
13347.043771000001
 30
0.0
 11
9250.0
 21
12347.04377099999
 31
0.0
  0
LINE
  5
7C24
  8
4
  6
CONTINUOUS
 10
7203.0871120000002
 20
13406.317916
 30
0.0
 11
7203.0871120000002
 21
13933.261307999999
 31
0.0
  0
LINE
  5
7C25
  8
4
  6
CONTINUOUS
 10
7203.0871120000002
 20
13933.261307999999
 30
0.0
 11
9250.0
 21
13933.261307999999
 31
0.0
  0
LINE
  5
7C26
  8
4
  6
CONTINUOUS
 10
9250.0
 20
13933.261307999999
 30
0.0
 11
9250.0
 21
13406.317916
 31
0.0
  0
LINE
  5
7C27
  8
4
  6
CONTINUOUS
 10
9250.0
 20
13406.317916
 30
0.0
 11
7203.0871120000002
 21
13406.317916
 31
0.0
  0
DIMENSION
  5
7C48
  8
3
  6
CONTINUOUS
  2
*D15
 10
5799.0679385738413
 20
5920.9085687156849
 30
0.0
 11
5686.5679385738413
 21
6369.5790802156862
 31
0.0
 70
     0
 13
4017.3726179999999
 23
6818.2495917156857
 33
0.0
 14
4758.8775329999989
 24
5920.9085687156849
 34
0.0
 50
90.0
1001
ACAD
1000
DSTYLE
1002
{
1070
   287
1070
     3
1070
   287
1070
     3
1070
    40
1040
45.0
1070
   143
1040
0.039
1070
   172
1070
     1
1070
   271
1070
     0
1070
   279
1070
     0
1070
   288
1070
     1
1002
}
  0
DIMENSION
  5
7C54
  8
3
  6
CONTINUOUS
  2
*D16
 10
5799.0679385738413
 20
4370.9085687156858
 30
0.0
 11
5686.5679385738413
 21
5145.9085687156858
 31
0.0
 70
     0
 13
4758.8775329999989
 23
5920.9085687156849
 33
0.0
 14
4767.3726180000003
 24
4370.9085687156858
 34
0.0
 50
90.0
1001
ACAD
1000
DSTYLE
1002
{
1070
   287
1070
     4
1070
   287
1070
     4
1070
    40
1040
45.0
1070
    75
1070
     1
1070
   143
1040
0.039
1070
   172
1070
     1
1070
   271
1070
     0
1070
   279
1070
     1
1070
   288
1070
     1
1002
}
  0
DIMENSION
  5
7D31
  8
3
  2
*D17
 10
6083.9035139526914
 20
4370.9085687156858
 30
0.0
 11
6083.9035139526904
 21
5638.6217367166137
 31
0.0
 70
   128
 13
4039.872617999999
 23
6818.2495917156857
 33
0.0
 14
4767.3726180000003
 24
4370.9085687156858
 34
0.0
 50
90.0
1001
ACAD
1000
DSTYLE
1002
{
1070
   287
1070
     3
1070
   287
1070
     3
1070
    40
1040
45.0
1070
   143
1040
0.039
1070
   172
1070
     1
1070
   271
1070
     0
1070
   279
1070
     0
1070
   288
1070
     1
1002
}
  0
DIMENSION
  5
7D62
  8
3
  2
*D18
 10
2217.3726179999999
 20
7294.1026605801517
 30
0.0
 11
3609.0496656411328
 21
7294.1026605801517
 31
0.0
 70
   128
 13
4842.3726180000003
 23
5916.9085687156858
 33
0.0
 14
2217.3726179999999
 24
4520.9085687156849
 34
0.0
1001
ACAD
1000
DSTYLE
1002
{
1070
   287
1070
     3
1070
   287
1070
     3
1070
    40
1040
45.0
1070
   143
1040
0.039
1070
   172
1070
     1
1070
   271
1070
     0
1070
   279
1070
     0
1070
   288
1070
     1
1002
}
  0
ENDSEC
  0
EOF
