  0
SECTION
  2
HEADER
  9
$ACADVER
  1
AC1009
  9
$INSBASE
 10
0.0
 20
0.0
 30
0.0
  9
$EXTMIN
 10
1250.0
 20
1500.0
 30
0.0
  9
$EXTMAX
 10
9250.0
 20
13933.261307999999
 30
0.0
  9
$LIMMIN
 10
0.0
 20
0.0
  9
$LIMMAX
 10
297.0
 20
210.0
  9
$ORTHOMODE
 70
     0
  9
$REGENMODE
 70
     1
  9
$FILLMODE
 70
     0
  9
$QTEXTMODE
 70
     0
  9
$MIRRTEXT
 70
     1
  9
$DRAGMODE
 70
     2
  9
$LTSCALE
 40
100.0
  9
$OSMODE
 70
    37
  9
$ATTMODE
 70
     1
  9
$TEXTSIZE
 40
180.0
  9
$TRACEWID
 40
0.05
  9
$TEXTSTYLE
  7
STANDARD
  9
$CLAYER
  8
3
  9
$CELTYPE
  6
BYLAYER
  9
$CECOLOR
 62
   256
  9
$DIMSCALE
 40
45.0
  9
$DIMASZ
 40
2.0
  9
$DIMEXO
 40
0.5
  9
$DIMDLI
 40
10.0
  9
$DIMRND
 40
0.0
  9
$DIMDLE
 40
0.0
  9
$DIMEXE
 40
1.0
  9
$DIMTP
 40
1.0
  9
$DIMTM
 40
1.0
  9
$DIMTXT
 40
3.0
  9
$DIMCEN
 40
0.0
  9
$DIMTSZ
 40
0.0
  9
$DIMTOL
 70
     0
  9
$DIMLIM
 70
     0
  9
$DIMTIH
 70
     0
  9
$DIMTOH
 70
     0
  9
$DIMSE1
 70
     0
  9
$DIMSE2
 70
     0
  9
$DIMTAD
 70
     1
  9
$DIMZIN
 70
     8
  9
$DIMBLK
  1

  9
$DIMASO
 70
     1
  9
$DIMSHO
 70
     1
  9
$DIMPOST
  1

  9
$DIMAPOST
  1

  9
$DIMALT
 70
     0
  9
$DIMALTD
 70
     2
  9
$DIMALTF
 40
0.039
  9
$DIMLFAC
 40
1.0
  9
$DIMTOFL
 70
     1
  9
$DIMTVP
 40
0.0
  9
$DIMTIX
 70
     0
  9
$DIMSOXD
 70
     0
  9
$DIMSAH
 70
     1
  9
$DIMBLK1
  1
OPEN
  9
$DIMBLK2
  1
OPEN
  9
$DIMSTYLE
  2
IGA
  9
$DIMCLRD
 70
     0
  9
$DIMCLRE
 70
     0
  9
$DIMCLRT
 70
     0
  9
$DIMTFAC
 40
10.0
  9
$DIMGAP
 40
1.0
  9
$LUNITS
 70
     2
  9
$LUPREC
 70
     3
  9
$SKETCHINC
 40
0.1
  9
$FILLETRAD
 40
50.0
  9
$AUNITS
 70
     0
  9
$AUPREC
 70
     0
  9
$MENU
  1
acad
  9
$ELEVATION
 40
0.0
  9
$PELEVATION
 40
0.0
  9
$THICKNESS
 40
0.0
  9
$LIMCHECK
 70
     0
  9
$BLIPMODE
 70
     0
  9
$CHAMFERA
 40
0.5
  9
$CHAMFERB
 40
0.5
  9
$SKPOLY
 70
     0
  9
$TDCREATE
 40
2450750.3465988422
  9
$TDUPDATE
 40
2454953.6881958912
  9
$TDINDWG
 40
0.0039892593
  9
$TDUSRTIMER
 40
0.0039892593
  9
$USRTIMER
 70
     1
  9
$ANGBASE
 50
0.0
  9
$ANGDIR
 70
     0
  9
$PDMODE
 70
     0
  9
$PDSIZE
 40
0.0
  9
$PLINEWID
 40
0.0
  9
$COORDS
 70
     1
  9
$SPLFRAME
 70
     0
  9
$SPLINETYPE
 70
     6
  9
$SPLINESEGS
 70
     8
  9
$ATTDIA
 70
     0
  9
$ATTREQ
 70
     1
  9
$HANDLING
 70
 10241
  9
$HANDSEED
  5
7EAF
  9
$SURFTAB1
 70
     6
  9
$SURFTAB2
 70
     6
  9
$SURFTYPE
 70
     6
  9
$SURFU
 70
     6
  9
$SURFV
 70
     6
  9
$UCSNAME
  2

  9
$UCSORG
 10
0.0
 20
0.0
 30
0.0
  9
$UCSXDIR
 10
1.0
 20
0.0
 30
0.0
  9
$UCSYDIR
 10
0.0
 20
1.0
 30
0.0
  9
$PUCSNAME
  2

  9
$PUCSORG
 10
0.0
 20
0.0
 30
0.0
  9
$PUCSXDIR
 10
1.0
 20
0.0
 30
0.0
  9
$PUCSYDIR
 10
0.0
 20
1.0
 30
0.0
  9
$USERI1
 70
     0
  9
$USERI2
 70
     0
  9
$USERI3
 70
     0
  9
$USERI4
 70
     0
  9
$USERI5
 70
     0
  9
$USERR1
 40
0.0
  9
$USERR2
 40
0.0
  9
$USERR3
 40
0.0
  9
$USERR4
 40
0.0
  9
$USERR5
 40
0.0
  9
$WORLDVIEW
 70
     1
  9
$SHADEDGE
 70
     3
  9
$SHADEDIF
 70
    70
  9
$TILEMODE
 70
     1
  9
$MAXACTVP
 70
    16
  9
$PLIMCHECK
 70
     0
  9
$PEXTMIN
 10
1.0000000000000000E+020
 20
1.0000000000000000E+020
 30
1.0000000000000000E+020
  9
$PEXTMAX
 10
-1.0000000000000000E+020
 20
-1.0000000000000000E+020
 30
-1.0000000000000000E+020
  9
$PLIMMIN
 10
0.0
 20
0.0
  9
$PLIMMAX
 10
12.0
 20
9.0
  9
$UNITMODE
 70
     0
  9
$VISRETAIN
 70
     0
  9
$PLINEGEN
 70
     0
  9
$PSLTSCALE
 70
     1
  0
ENDSEC
  0
SECTION
  2
TABLES
  0
TABLE
  2
VPORT
 70
     2
  0
VPORT
  2
*ACTIVE
 70
     0
 10
0.0
 20
0.0
 11
1.0
 21
1.0
 12
26475.485583238369
 22
7710.1684244299058
 13
0.0
 23
0.0
 14
10.0
 24
10.0
 15
10.0
 25
10.0
 16
0.0
 26
0.0
 36
1.0
 17
0.0
 27
0.0
 37
0.0
 40
19407.513569272211
 41
3.1666666666666661
 42
50.0
 43
0.0
 44
0.0
 50
0.0
 51
0.0
 71
     0
 72
   100
 73
     1
 74
     0
 75
     0
 76
     0
 77
     0
 78
     0
  0
ENDTAB
  0
TABLE
  2
LTYPE
 70
     2
  0
LTYPE
  2
CONTINUOUS
 70
     0
  3
Solid line
 72
    65
 73
     0
 40
0.0
  0
LTYPE
  2
CENTER
 70
     0
  3
____ _ ____ _ ____ _ ____ _ ____ _ ____ _ ____ 
 72
    65
 73
     4
 40
2.0
 49
1.25
 49
-0.25
 49
0.25
 49
-0.25
  0
ENDTAB
  0
TABLE
  2
LAYER
 70
     6
  0
LAYER
  2
0
 70
     0
 62
     7
  6
CONTINUOUS
  0
LAYER
  2
3
 70
     0
 62
     2
  6
CONTINUOUS
  0
LAYER
  2
2
 70
     0
 62
     3
  6
CENTER
  0
LAYER
  2
1
 70
     0
 62
     4
  6
CONTINUOUS
  0
LAYER
  2
4
 70
     0
 62
     7
  6
CONTINUOUS
  0
LAYER
  2
DEFPOINTS
 70
     0
 62
     7
  6
CONTINUOUS
  0
ENDTAB
  0
TABLE
  2
STYLE
 70
     1
  0
STYLE
  2
STANDARD
 70
     0
 40
0.0
 41
1.0
 50
0.0
 71
     0
 42
180.0
  3
simplex.shx
  4
extfont.shx
  0
ENDTAB
  0
TABLE
  2
VIEW
 70
     0
  0
ENDTAB
  0
TABLE
  2
UCS
 70
     0
  0
ENDTAB
  0
TABLE
  2
APPID
 70
     1
  0
APPID
  2
ACAD
 70
     0
  0
ENDTAB
  0
TABLE
  2
DIMSTYLE
 70
     1
  0
DIMSTYLE
  2
IGA
 70
     0
  3

  4

  5

  6
OPEN
  7
OPEN
 40
2.0
 41
2.0
 42
0.5
 43
10.0
 44
1.0
 45
0.0
 46
0.0
 47
1.0
 48
1.0
140
3.0
141
0.0
142
0.0
143
0.03937
144
1.0
145
0.0
146
10.0
147
1.0
 71
     0
 72
     0
 73
     0
 74
     0
 75
     0
 76
     0
 77
     1
 78
     8
170
     0
171
     2
172
     0
173
     1
174
     0
175
     0
176
     0
177
     0
178
     0
  0
ENDTAB
  0
ENDSEC
  0
SECTION
  2
BLOCKS
  0
BLOCK
  8
0
  2
$MODEL_SPACE
 70
     0
 10
0.0
 20
0.0
 30
0.0
  3
$MODEL_SPACE
  1

  0
ENDBLK
  5
1B
  8
0
  0
BLOCK
 67
     1
  8
0
  2
$PAPER_SPACE
 70
     0
 10
0.0
 20
0.0
 30
0.0
  3
$PAPER_SPACE
  1

  0
ENDBLK
  5
18
 67
     1
  8
0
  0
BLOCK
  8
0
  2
_OPEN
 70
     0
 10
0.0
 20
0.0
 30
0.0
  3
_OPEN
  1

  0
LINE
  5
7AD4
  8
0
  6
BYBLOCK
 62
     0
 10
-1.0
 20
0.166667
 30
0.0
 11
0.0
 21
0.0
 31
0.0
  0
LINE
  5
7AD5
  8
0
  6
BYBLOCK
 62
     0
 10
0.0
 20
0.0
 30
0.0
 11
-1.0
 21
-0.166667
 31
0.0
  0
LINE
  5
7AD6
  8
0
  6
BYBLOCK
 62
     0
 10
0.0
 20
0.0
 30
0.0
 11
-1.0
 21
0.0
 31
0.0
  0
ENDBLK
  5
7AD7
  8
0
  0
BLOCK
  8
0
  2
*D1
 70
     1
 10
0.0
 20
0.0
 30
0.0
  3
*D1
  1

  0
LINE
  5
7E09
  8
3
  6
CONTINUOUS
 62
     0
 10
2748.2194549999999
 20
4083.8252759999991
 30
0.0
 11
2748.2194549999999
 21
3697.80953
 31
0.0
  0
LINE
  5
7E0A
  8
3
  6
CONTINUOUS
 62
     0
 10
3498.2194549999999
 20
3934.062265
 30
0.0
 11
3498.2194549999999
 21
3697.80953
 31
0.0
  0
LINE
  5
7E0B
  8
3
  6
CONTINUOUS
 62
     0
 10
2838.2194549999999
 20
3742.8095299999991
 30
0.0
 11
3408.219454999999
 21
3742.8095299999991
 31
0.0
  0
INSERT
  5
7E0C
  8
3
  6
CONTINUOUS
 62
     0
  2
_OPEN
 10
2748.2194549999999
 20
3742.8095299999991
 30
0.0
 41
90.0
 42
90.0
 43
90.0
 50
180.0
  0
INSERT
  5
7E0D
  8
3
  6
CONTINUOUS
 62
     0
  2
_OPEN
 10
3498.2194549999999
 20
3742.8095299999991
 30
0.0
 41
90.0
 42
90.0
 43
90.0
  0
TEXT
  8
3
  40
135
  5
7E9D
  62
0
  72
0
  71
0
 10
2842.68
 20
3616.36
 30
0.000000
  1
750
  0
POINT
  5
7E0F
  8
DEFPOINTS
  6
CONTINUOUS
 62
     0
 10
2748.2194549999999
 20
4106.3252759999987
 30
0.0
  0
POINT
  5
7E10
  8
DEFPOINTS
  6
CONTINUOUS
 62
     0
 10
3498.2194549999999
 20
3956.562265
 30
0.0
  0
POINT
  5
7E11
  8
DEFPOINTS
  6
CONTINUOUS
 62
     0
 10
3498.2194549999999
 20
3742.8095299999991
 30
0.0
  0
ENDBLK
  5
7AE4
  8
0
  0
BLOCK
  8
0
  2
*D2
 70
     1
 10
0.0
 20
0.0
 30
0.0
  3
*D2
  1

  0
LINE
  5
7E12
  8
3
  6
CONTINUOUS
 62
     0
 10
5298.2194549999986
 20
4083.8252759999991
 30
0.0
 11
5298.2194549999986
 21
3697.80953
 31
0.0
  0
LINE
  5
7E13
  8
3
  6
CONTINUOUS
 62
     0
 10
3588.2194549999999
 20
3742.8095299999991
 30
0.0
 11
5208.2194550000004
 21
3742.8095299999991
 31
0.0
  0
INSERT
  5
7E14
  8
3
  6
CONTINUOUS
 62
     0
  2
_OPEN
 10
3498.2194549999999
 20
3742.8095299999991
 30
0.0
 41
90.0
 42
90.0
 43
90.0
 50
180.0
  0
INSERT
  5
7E15
  8
3
  6
CONTINUOUS
 62
     0
  2
_OPEN
 10
5298.2194549999986
 20
3742.8095299999991
 30
0.0
 41
90.0
 42
90.0
 43
90.0
  0
TEXT
  8
3
  40
135
  5
7E9E
  62
0
  72
0
  71
0
 10
4128.22
 20
3616.36
 30
0.000000
  1
1800
  0
POINT
  5
7E17
  8
DEFPOINTS
  6
CONTINUOUS
 62
     0
 10
3498.2194549999999
 20
3956.562265
 30
0.0
  0
POINT
  5
7E18
  8
DEFPOINTS
  6
CONTINUOUS
 62
     0
 10
5298.2194549999986
 20
4106.3252759999987
 30
0.0
  0
POINT
  5
7E19
  8
DEFPOINTS
  6
CONTINUOUS
 62
     0
 10
5298.2194549999986
 20
3742.8095299999991
 30
0.0
  0
ENDBLK
  5
7CF0
  8
0
  0
BLOCK
  8
0
  2
*D3
 70
     1
 10
0.0
 20
0.0
 30
0.0
  3
*D3
  1

  0
LINE
  5
7E1A
  8
3
  6
CONTINUOUS
 62
     0
 10
2650.7194549999999
 20
6365.3252759999996
 30
0.0
 11
2394.1298959999999
 21
6365.3252759999996
 31
0.0
  0
LINE
  5
7E1B
  8
3
  6
CONTINUOUS
 62
     0
 10
2650.7194549999999
 20
5085.3252759999987
 30
0.0
 11
2394.1298959999999
 21
5085.3252759999987
 31
0.0
  0
LINE
  5
7E1C
  8
3
  6
CONTINUOUS
 62
     0
 10
2439.1298959999999
 20
6275.3252759999996
 30
0.0
 11
2439.1298959999999
 21
5175.3252759999987
 31
0.0
  0
INSERT
  5
7E1D
  8
3
  6
CONTINUOUS
 62
     0
  2
_OPEN
 10
2439.1298959999999
 20
6365.3252759999996
 30
0.0
 41
90.0
 42
90.0
 43
90.0
 50
90.0
  0
INSERT
  5
7E1E
  8
3
  6
CONTINUOUS
 62
     0
  2
_OPEN
 10
2439.1298959999999
 20
5085.3252759999987
 30
0.0
 41
90.0
 42
90.0
 43
90.0
 50
270.0
  0
TEXT
  8
3
  40
135
  5
7E9F
  62
0
  72
0
  71
0
 10
2056.63
 20
5478.06
 30
0.000000
  1
1280
  0
POINT
  5
7E20
  8
DEFPOINTS
  6
CONTINUOUS
 62
     0
 10
2673.219454999999
 20
6365.3252759999996
 30
0.0
  0
POINT
  5
7E21
  8
DEFPOINTS
  6
CONTINUOUS
 62
     0
 10
2673.219454999999
 20
5085.3252759999987
 30
0.0
  0
POINT
  5
7E22
  8
DEFPOINTS
  6
CONTINUOUS
 62
     0
 10
2439.1298959999999
 20
5085.3252759999987
 30
0.0
  0
ENDBLK
  5
7AFD
  8
0
  0
BLOCK
  8
0
  2
*D4
 70
     1
 10
0.0
 20
0.0
 30
0.0
  3
*D4
  1

  0
LINE
  5
7E23
  8
3
  6
CONTINUOUS
 62
     0
 10
2650.7194549999999
 20
6365.3252759999996
 30
0.0
 11
2056.4702290000009
 21
6365.3252759999996
 31
0.0
  0
LINE
  5
7E24
  8
3
  6
CONTINUOUS
 62
     0
 10
2734.214539999999
 20
5031.3252759999996
 30
0.0
 11
2056.470229
 21
5031.3252759999996
 31
0.0
  0
LINE
  5
7E25
  8
3
  6
CONTINUOUS
 62
     0
 10
2101.4702290000009
 20
6275.3252759999996
 30
0.0
 11
2101.4702290000009
 21
5121.3252759999996
 31
0.0
  0
INSERT
  5
7E26
  8
3
  6
CONTINUOUS
 62
     0
  2
_OPEN
 10
2101.4702290000009
 20
6365.3252759999996
 30
0.0
 41
90.0
 42
90.0
 43
90.0
 50
90.0
  0
INSERT
  5
7E27
  8
3
  6
CONTINUOUS
 62
     0
  2
_OPEN
 10
2101.470229
 20
5031.3252759999996
 30
0.0
 41
90.0
 42
90.0
 43
90.0
 50
270.0
  0
TEXT
  8
3
  40
135
  5
7EA0
  62
0
  72
0
  71
0
 10
1718.97
 20
5478.06
 30
0.000000
  1
1334
  0
POINT
  5
7E29
  8
DEFPOINTS
  6
CONTINUOUS
 62
     0
 10
2673.219454999999
 20
6365.3252759999996
 30
0.0
  0
POINT
  5
7E2A
  8
DEFPOINTS
  6
CONTINUOUS
 62
     0
 10
2756.7145399999999
 20
5031.3252759999996
 30
0.0
  0
POINT
  5
7E2B
  8
DEFPOINTS
  6
CONTINUOUS
 62
     0
 10
2101.470229
 20
5031.3252759999996
 30
0.0
  0
ENDBLK
  5
7B23
  8
0
  0
BLOCK
  8
0
  2
*D5
 70
     1
 10
0.0
 20
0.0
 30
0.0
  3
*D5
  1

  0
LINE
  5
7E2C
  8
3
  6
CONTINUOUS
 62
     0
 10
2725.7194549999999
 20
4106.3252759999987
 30
0.0
 11
2056.4702289999991
 21
4106.3252759999987
 31
0.0
  0
LINE
  5
7E2D
  8
3
  6
CONTINUOUS
 62
     0
 10
2101.4702289999991
 20
4941.3252759999996
 30
0.0
 11
2101.4702289999991
 21
4196.3252759999987
 31
0.0
  0
INSERT
  5
7E2E
  8
3
  6
CONTINUOUS
 62
     0
  2
_OPEN
 10
2101.4702289999991
 20
5031.3252759999996
 30
0.0
 41
90.0
 42
90.0
 43
90.0
 50
90.0
  0
INSERT
  5
7E2F
  8
3
  6
CONTINUOUS
 62
     0
  2
_OPEN
 10
2101.4702289999991
 20
4106.3252759999987
 30
0.0
 41
90.0
 42
90.0
 43
90.0
 50
270.0
  0
TEXT
  8
3
  40
135
  5
7EA1
  62
0
  72
0
  71
0
 10
1718.97
 20
4329.88
 30
0.000000
  1
925
  0
POINT
  5
7E31
  8
DEFPOINTS
  6
CONTINUOUS
 62
     0
 10
2756.7145399999999
 20
5031.3252759999996
 30
0.0
  0
POINT
  5
7E32
  8
DEFPOINTS
  6
CONTINUOUS
 62
     0
 10
2748.2194549999999
 20
4106.3252759999987
 30
0.0
  0
POINT
  5
7E33
  8
DEFPOINTS
  6
CONTINUOUS
 62
     0
 10
2101.4702289999991
 20
4106.3252759999987
 30
0.0
  0
ENDBLK
  5
7B2F
  8
0
  0
BLOCK
  8
0
  2
*D6
 70
     1
 10
0.0
 20
0.0
 30
0.0
  3
*D6
  1

  0
LINE
  5
7E34
  8
3
  6
CONTINUOUS
 62
     0
 10
2748.2194549999999
 20
8995.7542859999976
 30
0.0
 11
2748.2194549999999
 21
8507.7180510000017
 31
0.0
  0
LINE
  5
7E35
  8
3
  6
CONTINUOUS
 62
     0
 10
5298.2194549999986
 20
8995.7542859999976
 30
0.0
 11
5298.2194549999986
 21
8507.7180510000017
 31
0.0
  0
LINE
  5
7E36
  8
3
  6
CONTINUOUS
 62
     0
 10
2838.2194549999999
 20
8552.7180509999998
 30
0.0
 11
5208.2194550000004
 21
8552.7180509999998
 31
0.0
  0
INSERT
  5
7E37
  8
3
  6
CONTINUOUS
 62
     0
  2
_OPEN
 10
2748.2194549999999
 20
8552.7180509999998
 30
0.0
 41
90.0
 42
90.0
 43
90.0
 50
180.0
  0
INSERT
  5
7E38
  8
3
  6
CONTINUOUS
 62
     0
  2
_OPEN
 10
5298.2194549999986
 20
8552.7180509999998
 30
0.0
 41
90.0
 42
90.0
 43
90.0
  0
TEXT
  8
3
  40
135
  5
7EA2
  62
0
  72
0
  71
0
 10
3736.91
 20
8426.27
 30
0.000000
  1
2550
  0
POINT
  5
7E3A
  8
DEFPOINTS
  6
CONTINUOUS
 62
     0
 10
2748.2194549999999
 20
9018.2542859999994
 30
0.0
  0
POINT
  5
7E3B
  8
DEFPOINTS
  6
CONTINUOUS
 62
     0
 10
5298.2194549999986
 20
9018.2542859999994
 30
0.0
  0
POINT
  5
7E3C
  8
DEFPOINTS
  6
CONTINUOUS
 62
     0
 10
5298.2194549999986
 20
8552.7180509999998
 30
0.0
  0
ENDBLK
  5
7CDB
  8
0
  0
BLOCK
  8
0
  2
*D7
 70
     1
 10
0.0
 20
0.0
 30
0.0
  3
*D7
  1

  0
LINE
  5
7E3D
  8
3
  6
CONTINUOUS
 62
     0
 10
5320.7194549999986
 20
10298.25428599999
 30
0.0
 11
5664.8797890000023
 21
10298.25428599999
 31
0.0
  0
LINE
  5
7E3E
  8
3
  6
CONTINUOUS
 62
     0
 10
5315.7194549999986
 20
9018.2542859999994
 30
0.0
 11
5664.8797889999996
 21
9018.2542859999994
 31
0.0
  0
LINE
  5
7E3F
  8
3
  6
CONTINUOUS
 62
     0
 10
5619.8797890000014
 20
10208.254285999999
 30
0.0
 11
5619.8797890000014
 21
9108.2542859999994
 31
0.0
  0
INSERT
  5
7E40
  8
3
  6
CONTINUOUS
 62
     0
  2
_OPEN
 10
5619.8797890000023
 20
10298.25428599999
 30
0.0
 41
90.0
 42
90.0
 43
90.0
 50
90.0
  0
INSERT
  5
7E41
  8
3
  6
CONTINUOUS
 62
     0
  2
_OPEN
 10
5619.8797890000014
 20
9018.2542859999994
 30
0.0
 41
90.0
 42
90.0
 43
90.0
 50
270.0
  0
TEXT
  8
3
  40
135
  5
7EA3
  62
0
  72
0
  71
0
 10
5237.38
 20
9482.35
 30
0.000000
  1
1280
  0
POINT
  5
7E43
  8
DEFPOINTS
  6
CONTINUOUS
 62
     0
 10
5298.2194549999986
 20
10298.25428599999
 30
0.0
  0
POINT
  5
7E44
  8
DEFPOINTS
  6
CONTINUOUS
 62
     0
 10
5293.2194550000004
 20
9018.2542859999994
 30
0.0
  0
POINT
  5
7E45
  8
DEFPOINTS
  6
CONTINUOUS
 62
     0
 10
5619.8797890000014
 20
9018.2542859999994
 30
0.0
  0
ENDBLK
  5
7CE6
  8
0
  0
BLOCK
  8
0
  2
*D8
 70
     1
 10
0.0
 20
0.0
 30
0.0
  3
*D8
  1

  0
LINE
  5
7E46
  8
3
  6
CONTINUOUS
 62
     0
 10
6960.7822260000003
 20
4083.8252759999991
 30
0.0
 11
6960.7822260000003
 21
3715.5155920000002
 31
0.0
  0
LINE
  5
7E47
  8
3
  6
CONTINUOUS
 62
     0
 10
7687.7822260000003
 20
3898.2489489999998
 30
0.0
 11
7687.7822260000003
 21
3715.5155920000002
 31
0.0
  0
LINE
  5
7E48
  8
3
  6
CONTINUOUS
 62
     0
 10
7050.7822259999994
 20
3760.5155920000002
 30
0.0
 11
7597.7822260000012
 21
3760.5155920000002
 31
0.0
  0
INSERT
  5
7E49
  8
3
  6
CONTINUOUS
 62
     0
  2
_OPEN
 10
6960.7822260000003
 20
3760.5155920000002
 30
0.0
 41
90.0
 42
90.0
 43
90.0
 50
180.0
  0
INSERT
  5
7E4A
  8
3
  6
CONTINUOUS
 62
     0
  2
_OPEN
 10
7687.7822260000003
 20
3760.5155920000002
 30
0.0
 41
90.0
 42
90.0
 43
90.0
  0
TEXT
  8
3
  40
135
  5
7EA4
  62
0
  72
0
  71
0
 10
7060.36
 20
3634.07
 30
0.000000
  1
727
  0
POINT
  5
7E4C
  8
DEFPOINTS
  6
CONTINUOUS
 62
     0
 10
6960.7822260000003
 20
4106.3252759999987
 30
0.0
  0
POINT
  5
7E4D
  8
DEFPOINTS
  6
CONTINUOUS
 62
     0
 10
7687.7822260000003
 20
3920.7489489999998
 30
0.0
  0
POINT
  5
7E4E
  8
DEFPOINTS
  6
CONTINUOUS
 62
     0
 10
7687.7822260000003
 20
3760.5155920000002
 30
0.0
  0
ENDBLK
  5
7B67
  8
0
  0
BLOCK
  8
0
  2
*D9
 70
     1
 10
0.0
 20
0.0
 30
0.0
  3
*D9
  1

  0
LINE
  5
7E4F
  8
3
  6
CONTINUOUS
 62
     0
 10
8240.7822260000012
 20
4083.8252759999991
 30
0.0
 11
8240.7822260000012
 21
3715.5155920000002
 31
0.0
  0
LINE
  5
7E50
  8
3
  6
CONTINUOUS
 62
     0
 10
7777.7822260000012
 20
3760.5155920000002
 30
0.0
 11
8150.7822260000021
 21
3760.5155920000002
 31
0.0
  0
TEXT
  8
3
  40
135
  5
7EA5
  62
0
  72
0
  71
0
 10
7680.74
 20
3624.33
 30
0.000000
  1
553
  0
INSERT
  5
7E52
  8
3
  6
CONTINUOUS
 62
     0
  2
_OPEN
 10
7687.7822260000003
 20
3760.5155920000002
 30
0.0
 41
90.0
 42
90.0
 43
90.0
 50
180.0
  0
INSERT
  5
7E53
  8
3
  6
CONTINUOUS
 62
     0
  2
_OPEN
 10
8240.7822260000012
 20
3760.5155920000002
 30
0.0
 41
90.0
 42
90.0
 43
90.0
  0
POINT
  5
7E54
  8
DEFPOINTS
  6
CONTINUOUS
 62
     0
 10
7687.7822260000003
 20
3920.7489489999998
 30
0.0
  0
POINT
  5
7E55
  8
DEFPOINTS
  6
CONTINUOUS
 62
     0
 10
8240.7822260000012
 20
4106.3252759999987
 30
0.0
  0
POINT
  5
7E56
  8
DEFPOINTS
  6
CONTINUOUS
 62
     0
 10
8240.7822260000012
 20
3760.5155920000002
 30
0.0
  0
ENDBLK
  5
7B98
  8
0
  0
BLOCK
  8
0
  2
*D10
 70
     1
 10
0.0
 20
0.0
 30
0.0
  3
*D10
  1

  0
LINE
  5
7E57
  8
3
  6
CONTINUOUS
 62
     0
 10
7212.7822260000003
 20
6387.8252759999996
 30
0.0
 11
7212.7822260000003
 21
6647.303739
 31
0.0
  0
LINE
  5
7E58
  8
3
  6
CONTINUOUS
 62
     0
 10
8162.7822260000003
 20
6387.8252759999996
 30
0.0
 11
8162.7822260000003
 21
6647.303739
 31
0.0
  0
LINE
  5
7E59
  8
3
  6
CONTINUOUS
 62
     0
 10
7302.7822260000012
 20
6602.303738999999
 30
0.0
 11
8072.7822260000012
 21
6602.303738999999
 31
0.0
  0
INSERT
  5
7E5A
  8
3
  6
CONTINUOUS
 62
     0
  2
_OPEN
 10
7212.7822260000003
 20
6602.303738999999
 30
0.0
 41
90.0
 42
90.0
 43
90.0
 50
180.0
  0
INSERT
  5
7E5B
  8
3
  6
CONTINUOUS
 62
     0
  2
_OPEN
 10
8162.7822260000003
 20
6602.303738999999
 30
0.0
 41
90.0
 42
90.0
 43
90.0
  0
TEXT
  8
3
  40
135
  5
7EA6
  62
0
  72
0
  71
0
 10
7370.55
 20
6475.85
 30
0.000000
  1
950
  0
POINT
  5
7E5D
  8
DEFPOINTS
  6
CONTINUOUS
 62
     0
 10
7212.7822260000003
 20
6365.3252759999996
 30
0.0
  0
POINT
  5
7E5E
  8
DEFPOINTS
  6
CONTINUOUS
 62
     0
 10
8162.7822260000003
 20
6365.3252759999996
 30
0.0
  0
POINT
  5
7E5F
  8
DEFPOINTS
  6
CONTINUOUS
 62
     0
 10
8162.7822260000003
 20
6602.303738999999
 30
0.0
  0
ENDBLK
  5
7BA4
  8
0
  0
BLOCK
  8
0
  2
*D11
 70
     1
 10
0.0
 20
0.0
 30
0.0
  3
*D11
  1

  0
LINE
  5
7E60
  8
3
  6
CONTINUOUS
 62
     0
 10
6847.7822260000012
 20
5431.8252759999996
 30
0.0
 11
6847.7822260000012
 21
6904.9192810000013
 31
0.0
  0
LINE
  5
7E61
  8
3
  6
CONTINUOUS
 62
     0
 10
7687.7822260000003
 20
6824.1194059999998
 30
0.0
 11
7687.7822260000003
 21
6904.9192810000013
 31
0.0
  0
LINE
  5
7E62
  8
3
  6
CONTINUOUS
 62
     0
 10
6937.7822260000003
 20
6859.9192810000004
 30
0.0
 11
7597.7822260000012
 21
6859.9192810000004
 31
0.0
  0
INSERT
  5
7E63
  8
3
  6
CONTINUOUS
 62
     0
  2
_OPEN
 10
6847.7822260000012
 20
6859.9192810000004
 30
0.0
 41
90.0
 42
90.0
 43
90.0
 50
180.0
  0
INSERT
  5
7E64
  8
3
  6
CONTINUOUS
 62
     0
  2
_OPEN
 10
7687.7822260000003
 20
6859.9192810000004
 30
0.0
 41
90.0
 42
90.0
 43
90.0
  0
TEXT
  8
3
  40
135
  5
7EA7
  62
0
  72
0
  71
0
 10
6989.46
 20
6845.97
 30
0.000000
  1
MAX
  0
TEXT
  8
3
  40
135
  5
7EA8
  62
0
  72
0
  71
0
 10
6989.46
 20
6670.47
 30
0.000000
  1
890
  0
POINT
  5
7E66
  8
DEFPOINTS
  6
CONTINUOUS
 62
     0
 10
6847.7822260000012
 20
5409.3252759999996
 30
0.0
  0
POINT
  5
7E67
  8
DEFPOINTS
  6
CONTINUOUS
 62
     0
 10
7687.7822260000003
 20
6801.6194059999998
 30
0.0
  0
POINT
  5
7E68
  8
DEFPOINTS
  6
CONTINUOUS
 62
     0
 10
7687.7822260000003
 20
6859.9192810000004
 30
0.0
  0
ENDBLK
  5
7D01
  8
0
  0
BLOCK
  8
0
  2
*D12
 70
     1
 10
0.0
 20
0.0
 30
0.0
  3
*D12
  1

  0
LINE
  5
7E69
  8
3
  6
CONTINUOUS
 62
     0
 10
8265.7822260000012
 20
5728.8252759999996
 30
0.0
 11
8265.7822260000012
 21
6904.9192810000013
 31
0.0
  0
LINE
  5
7E6A
  8
3
  6
CONTINUOUS
 62
     0
 10
7777.7822260000012
 20
6859.9192810000004
 30
0.0
 11
8175.7822260000003
 21
6859.9192810000004
 31
0.0
  0
TEXT
  8
3
  40
135
  5
7EA9
  62
0
  72
0
  71
0
 10
7680.74
 20
6734.35
 30
0.000000
  1
578
  0
INSERT
  5
7E6C
  8
3
  6
CONTINUOUS
 62
     0
  2
_OPEN
 10
7687.7822260000003
 20
6859.9192810000004
 30
0.0
 41
90.0
 42
90.0
 43
90.0
 50
180.0
  0
INSERT
  5
7E6D
  8
3
  6
CONTINUOUS
 62
     0
  2
_OPEN
 10
8265.7822260000012
 20
6859.9192810000004
 30
0.0
 41
90.0
 42
90.0
 43
90.0
  0
POINT
  5
7E6E
  8
DEFPOINTS
  6
CONTINUOUS
 62
     0
 10
7687.7822260000003
 20
6801.6194059999998
 30
0.0
  0
POINT
  5
7E6F
  8
DEFPOINTS
  6
CONTINUOUS
 62
     0
 10
8265.7822260000012
 20
5706.3252759999996
 30
0.0
  0
POINT
  5
7E70
  8
DEFPOINTS
  6
CONTINUOUS
 62
     0
 10
8265.7822260000012
 20
6859.9192810000004
 30
0.0
  0
ENDBLK
  5
7CB1
  8
0
  0
BLOCK
  8
0
  2
*D13
 70
     1
 10
0.0
 20
0.0
 30
0.0
  3
*D13
  1

  0
LINE
  5
7E71
  8
3
  6
CONTINUOUS
 62
     0
 10
8288.2822260000012
 20
5656.3252759999996
 30
0.0
 11
8661.3093910000007
 21
5656.3252759999996
 31
0.0
  0
LINE
  5
7E72
  8
3
  6
CONTINUOUS
 62
     0
 10
8288.2822260000012
 20
4406.3252759999987
 30
0.0
 11
8661.3093910000007
 21
4406.3252759999987
 31
0.0
  0
LINE
  5
7E73
  8
3
  6
CONTINUOUS
 62
     0
 10
8616.3093910000007
 20
5566.3252759999996
 30
0.0
 11
8616.3093910000007
 21
4496.3252759999987
 31
0.0
  0
INSERT
  5
7E74
  8
3
  6
CONTINUOUS
 62
     0
  2
_OPEN
 10
8616.3093910000007
 20
5656.3252759999996
 30
0.0
 41
90.0
 42
90.0
 43
90.0
 50
90.0
  0
INSERT
  5
7E75
  8
3
  6
CONTINUOUS
 62
     0
  2
_OPEN
 10
8616.3093910000007
 20
4406.3252759999987
 30
0.0
 41
90.0
 42
90.0
 43
90.0
 50
270.0
  0
TEXT
  8
3
  40
135
  5
7EAA
  62
0
  72
0
  71
0
 10
8233.81
 20
4788.41
 30
0.000000
  1
φ1250
  0
POINT
  5
7E77
  8
DEFPOINTS
  6
CONTINUOUS
 62
     0
 10
8265.7822260000012
 20
5656.3252759999996
 30
0.0
  0
POINT
  5
7E78
  8
DEFPOINTS
  6
CONTINUOUS
 62
     0
 10
8265.7822260000012
 20
4406.3252759999987
 30
0.0
  0
POINT
  5
7E79
  8
DEFPOINTS
  6
CONTINUOUS
 62
     0
 10
8616.3093910000007
 20
4406.3252759999987
 30
0.0
  0
ENDBLK
  5
7D0C
  8
0
  0
BLOCK
  8
0
  2
*D14
 70
     1
 10
0.0
 20
0.0
 30
0.0
  3
*D14
  1

  0
LINE
  5
7E7A
  8
3
  6
CONTINUOUS
 62
     0
 10
2673.219454999999
 20
6443.8252759999996
 30
0.0
 11
2673.219454999999
 21
6659.9313849999999
 31
0.0
  0
LINE
  5
7E7B
  8
3
  6
CONTINUOUS
 62
     0
 10
3498.2194549999999
 20
6314.8252759999996
 30
0.0
 11
3498.2194549999999
 21
6659.9313849999999
 31
0.0
  0
LINE
  5
7E7C
  8
3
  6
CONTINUOUS
 62
     0
 10
2763.2194549999999
 20
6614.9313849999999
 30
0.0
 11
3408.219454999999
 21
6614.9313849999999
 31
0.0
  0
INSERT
  5
7E7D
  8
3
  6
CONTINUOUS
 62
     0
  2
_OPEN
 10
2673.219454999999
 20
6614.9313849999999
 30
0.0
 41
90.0
 42
90.0
 43
90.0
 50
180.0
  0
INSERT
  5
7E7E
  8
3
  6
CONTINUOUS
 62
     0
  2
_OPEN
 10
3498.2194549999999
 20
6614.9313849999999
 30
0.0
 41
90.0
 42
90.0
 43
90.0
  0
TEXT
  8
3
  40
135
  5
7EAB
  62
0
  72
0
  71
0
 10
2828.41
 20
6488.48
 30
0.000000
  1
825
  0
POINT
  5
7E80
  8
DEFPOINTS
  6
CONTINUOUS
 62
     0
 10
2673.219454999999
 20
6421.3252760000014
 30
0.0
  0
POINT
  5
7E81
  8
DEFPOINTS
  6
CONTINUOUS
 62
     0
 10
3498.2194549999999
 20
6292.3252759999987
 30
0.0
  0
POINT
  5
7E82
  8
DEFPOINTS
  6
CONTINUOUS
 62
     0
 10
3498.2194549999999
 20
6614.9313849999999
 30
0.0
  0
ENDBLK
  5
7C66
  8
0
  0
BLOCK
  8
0
  2
*D15
 70
     1
 10
0.0
 20
0.0
 30
0.0
  3
*D15
  1

  0
LINE
  5
7E83
  8
3
  6
CONTINUOUS
 62
     0
 10
4577.2194550000004
 20
5053.8252759999996
 30
0.0
 11
4577.2194550000004
 21
6659.9313849999999
 31
0.0
  0
LINE
  5
7E84
  8
3
  6
CONTINUOUS
 62
     0
 10
3588.2194549999999
 20
6614.9313849999999
 30
0.0
 11
4487.2194550000004
 21
6614.9313849999999
 31
0.0
  0
INSERT
  5
7E85
  8
3
  6
CONTINUOUS
 62
     0
  2
_OPEN
 10
3498.2194549999999
 20
6614.9313849999999
 30
0.0
 41
90.0
 42
90.0
 43
90.0
 50
180.0
  0
INSERT
  5
7E86
  8
3
  6
CONTINUOUS
 62
     0
  2
_OPEN
 10
4577.2194550000004
 20
6614.9313849999999
 30
0.0
 41
90.0
 42
90.0
 43
90.0
  0
TEXT
  8
3
  40
135
  5
7EAC
  62
0
  72
0
  71
0
 10
3767.72
 20
6488.48
 30
0.000000
  1
1079
  0
POINT
  5
7E88
  8
DEFPOINTS
  6
CONTINUOUS
 62
     0
 10
3498.2194549999999
 20
6292.3252759999987
 30
0.0
  0
POINT
  5
7E89
  8
DEFPOINTS
  6
CONTINUOUS
 62
     0
 10
4577.2194550000004
 20
5031.3252759999996
 30
0.0
  0
POINT
  5
7E8A
  8
DEFPOINTS
  6
CONTINUOUS
 62
     0
 10
4577.2194550000004
 20
6614.9313849999999
 30
0.0
  0
ENDBLK
  5
7D24
  8
0
  0
BLOCK
  8
0
  2
*D16
 70
     1
 10
0.0
 20
0.0
 30
0.0
  3
*D16
  1

  0
LINE
  5
7E8B
  8
3
  6
CONTINUOUS
 62
     0
 10
2650.7194549999999
 20
6443.8252759999996
 30
0.0
 11
1676.3585720000001
 21
6443.8252760000014
 31
0.0
  0
LINE
  5
7E8C
  8
3
  6
CONTINUOUS
 62
     0
 10
2725.7194549999999
 20
4106.3252759999987
 30
0.0
 11
1676.3585720000001
 21
4106.3252759999996
 31
0.0
  0
LINE
  5
7E8D
  8
3
  6
CONTINUOUS
 62
     0
 10
1721.358572000001
 20
6353.8252760000014
 30
0.0
 11
1721.3585720000001
 21
4196.3252759999996
 31
0.0
  0
INSERT
  5
7E8E
  8
3
  6
CONTINUOUS
 62
     0
  2
_OPEN
 10
1721.358572000001
 20
6443.8252760000014
 30
0.0
 41
90.0
 42
90.0
 43
90.0
 50
90.0
  0
INSERT
  5
7E8F
  8
3
  6
CONTINUOUS
 62
     0
  2
_OPEN
 10
1721.3585720000001
 20
4106.3252759999996
 30
0.0
 41
90.0
 42
90.0
 43
90.0
 50
270.0
  0
TEXT
  8
3
  40
135
  5
7EAD
  62
0
  72
0
  71
0
 10
1338.86
 20
5032.63
 30
0.000000
  1
2338
  0
POINT
  5
7E91
  8
DEFPOINTS
  6
CONTINUOUS
 62
     0
 10
2673.219454999999
 20
6443.8252759999996
 30
0.0
  0
POINT
  5
7E92
  8
DEFPOINTS
  6
CONTINUOUS
 62
     0
 10
2748.2194549999999
 20
4106.3252759999987
 30
0.0
  0
POINT
  5
7E93
  8
DEFPOINTS
  6
CONTINUOUS
 62
     0
 10
1721.3585720000001
 20
4106.3252759999996
 30
0.0
  0
ENDBLK
  5
7CA6
  8
0
  0
BLOCK
  8
0
  2
*D17
 70
     1
 10
0.0
 20
0.0
 30
0.0
  3
*D17
  1

  0
LINE
  5
7E94
  8
3
 62
     0
 10
2673.219454999999
 20
6443.8252759999996
 30
0.0
 11
2673.219454999999
 21
6962.2982415214346
 31
0.0
  0
LINE
  5
7E95
  8
3
 62
     0
 10
5298.2194549999986
 20
4278.8252759999996
 30
0.0
 11
5298.2194549999986
 21
6962.2982415214346
 31
0.0
  0
LINE
  5
7E96
  8
3
 62
     0
 10
2763.2194549999999
 20
6917.2982415214356
 30
0.0
 11
5208.2194550000004
 21
6917.2982415214356
 31
0.0
  0
INSERT
  5
7E97
  8
3
 62
     0
  2
_OPEN
 10
2673.219454999999
 20
6917.2982415214356
 30
0.0
 41
90.0
 42
90.0
 43
90.0
 50
180.0
  0
INSERT
  5
7E98
  8
3
 62
     0
  2
_OPEN
 10
5298.2194549999986
 20
6917.2982415214356
 30
0.0
 41
90.0
 42
90.0
 43
90.0
  0
TEXT
  8
3
  40
135
  5
7EAE
  62
0
  72
0
  71
0
 10
3711.53
 20
6790.85
 30
0.000000
  1
2625
  0
POINT
  5
7E9A
  8
DEFPOINTS
 62
     0
 10
2673.219454999999
 20
6421.3252760000014
 30
0.0
  0
POINT
  5
7E9B
  8
DEFPOINTS
 62
     0
 10
5298.2194549999986
 20
4256.3252759999996
 30
0.0
  0
POINT
  5
7E9C
  8
DEFPOINTS
 62
     0
 10
5298.2194549999986
 20
6917.2982415214356
 30
0.0
  0
ENDBLK
  5
7D18
  8
0
  0
ENDSEC
  0
SECTION
  2
ENTITIES
  0
LINE
  5
7A73
  8
1
  6
CONTINUOUS
 10
2748.2194549999999
 20
4106.3252759999987
 30
0.0
 11
5298.2194549999986
 21
4106.3252759999987
 31
0.0
  0
LINE
  5
7A74
  8
1
  6
CONTINUOUS
 10
2748.2194549999999
 20
4256.3252759999996
 30
0.0
 11
5298.2194549999986
 21
4256.3252759999996
 31
0.0
  0
CIRCLE
  5
7A75
  8
1
  6
CONTINUOUS
 10
3498.2194549999999
 20
5031.3252759999996
 30
0.0
 40
625.0
  0
CIRCLE
  5
7A76
  8
1
  6
CONTINUOUS
 10
3498.2194549999999
 20
5031.3252759999996
 30
0.0
 40
675.0
  0
LINE
  5
7A77
  8
1
  6
CONTINUOUS
 10
2673.219454999999
 20
10220.25428599999
 30
0.0
 11
4580.7530079999997
 21
10220.25428599999
 31
0.0
  0
LINE
  5
7A78
  8
1
  6
CONTINUOUS
 10
2673.219454999999
 20
9270.2542859999994
 30
0.0
 11
4580.7530079999997
 21
9270.2542859999994
 31
0.0
  0
LINE
  5
7A79
  8
1
  6
CONTINUOUS
 10
2823.2194549999999
 20
10323.254285999999
 30
0.0
 11
4173.2194549999986
 21
10323.254285999999
 31
0.0
  0
LINE
  5
7A7A
  8
1
  6
CONTINUOUS
 10
3120.2194549999999
 20
8905.2542859999994
 30
0.0
 11
5193.2194550000004
 21
8905.2542859999994
 31
0.0
  0
LINE
  5
7A7B
  8
1
  6
CONTINUOUS
 10
3120.2194549999999
 20
9145.2542859999994
 30
0.0
 11
5193.2194550000004
 21
9145.2542859999994
 31
0.0
  0
LINE
  5
7A7C
  8
1
  6
CONTINUOUS
 10
4753.2194549999986
 20
9018.2542859999994
 30
0.0
 11
3776.219454999999
 21
9018.2542859999994
 31
0.0
  0
LINE
  5
7A7D
  8
1
  6
CONTINUOUS
 10
3626.9348759999989
 20
5277.7321350000002
 30
0.0
 11
4928.780068
 21
4597.6879489999992
 31
0.0
  0
LINE
  5
7A7E
  8
1
  6
CONTINUOUS
 10
3673.2353870000002
 20
5366.3676960000012
 30
0.0
 11
4975.0805799999998
 21
4686.3235100000002
 31
0.0
  0
LINE
  5
7A7F
  8
1
  6
CONTINUOUS
 10
3424.8562549999988
 20
4763.1800899999998
 30
0.0
 11
4841.5518860000011
 21
4375.5791529999988
 31
0.0
  0
LINE
  5
7A80
  8
1
  6
CONTINUOUS
 10
3398.4666139999999
 20
4666.7249869999996
 30
0.0
 11
4815.162245999999
 21
4279.1240500000004
 31
0.0
  0
LINE
  5
7A81
  8
1
  6
CONTINUOUS
 10
2673.219454999999
 20
5035.3252759999996
 30
0.0
 11
2673.219454999999
 21
6421.3252760000014
 31
0.0
  0
LINE
  5
7A82
  8
1
  6
CONTINUOUS
 10
2723.2194549999999
 20
5085.3252759999987
 30
0.0
 11
2723.2194549999999
 21
6365.3252759999996
 31
0.0
  0
LINE
  5
7A83
  8
1
  6
CONTINUOUS
 10
2748.2194549999999
 20
4256.3252759999996
 30
0.0
 11
2748.2194549999999
 21
4106.3252759999987
 31
0.0
  0
LINE
  5
7A84
  8
1
  6
CONTINUOUS
 10
2765.2204099999999
 20
5085.3252759999987
 30
0.0
 11
2673.219454999999
 21
5085.3252759999987
 31
0.0
  0
CIRCLE
  5
7A85
  8
1
  6
CONTINUOUS
 10
3498.2194549999999
 20
5031.3252759999996
 30
0.0
 40
278.0
  0
LINE
  5
7A86
  8
2
  6
CENTER
 10
8374.9902380000003
 20
5031.3252759999996
 30
0.0
 11
6763.1634400000012
 21
5031.3252759999996
 31
0.0
  0
ARC
  5
7A87
  8
1
  6
CONTINUOUS
 10
3498.2194549999999
 20
5031.3252759999996
 30
0.0
 40
378.0
 50
62.418807000000001
 51
254.69861299999999
  0
LINE
  5
7A88
  8
2
  6
CENTER
 10
3498.2194549999999
 20
3956.562265
 30
0.0
 11
3498.2194549999999
 21
6379.1737249999996
 31
0.0
  0
LINE
  5
7A89
  8
1
  6
CONTINUOUS
 10
2748.2194549999999
 20
10298.25428599999
 30
0.0
 11
2873.2194549999999
 21
10298.25428599999
 31
0.0
  0
LINE
  5
7A8A
  8
1
  6
CONTINUOUS
 10
3220.2194549999999
 20
9018.2542859999994
 30
0.0
 11
2748.2194549999999
 21
9018.2542859999994
 31
0.0
  0
LINE
  5
7A8B
  8
1
  6
CONTINUOUS
 10
2673.219454999999
 20
9220.2542859999994
 30
0.0
 11
2673.219454999999
 21
10270.254285999999
 31
0.0
  0
LINE
  5
7A8C
  8
1
  6
CONTINUOUS
 10
2748.2194549999999
 20
10220.25428599999
 30
0.0
 11
2748.2194549999999
 21
10298.25428599999
 31
0.0
  0
LINE
  5
7A8D
  8
1
  6
CONTINUOUS
 10
2723.2194549999999
 20
9270.2542859999994
 30
0.0
 11
2723.2194549999999
 21
10220.25428599999
 31
0.0
  0
LINE
  5
7A8E
  8
1
  6
CONTINUOUS
 10
2748.2194549999999
 20
9018.2542859999994
 30
0.0
 11
2748.2194549999999
 21
9270.2542859999994
 31
0.0
  0
LINE
  5
7A8F
  8
1
  6
CONTINUOUS
 10
2873.2194549999999
 20
10220.25428599999
 30
0.0
 11
2873.2194549999999
 21
10323.254285999999
 31
0.0
  0
LINE
  5
7A90
  8
1
  6
CONTINUOUS
 10
3776.219454999999
 20
9075.2542859999994
 30
0.0
 11
3220.2194549999999
 21
9075.2542859999994
 31
0.0
  0
LINE
  5
7A91
  8
1
  6
CONTINUOUS
 10
3776.219454999999
 20
8975.2542859999994
 30
0.0
 11
3220.2194549999999
 21
8975.2542859999994
 31
0.0
  0
LINE
  5
7A92
  8
1
  6
CONTINUOUS
 10
3220.2194549999999
 20
8975.2542859999994
 30
0.0
 11
3220.2194549999999
 21
9075.2542859999994
 31
0.0
  0
LINE
  5
7A93
  8
1
  6
CONTINUOUS
 10
3120.2194549999999
 20
8905.2542859999994
 30
0.0
 11
3120.2194549999999
 21
9145.2542859999994
 31
0.0
  0
LINE
  5
7A94
  8
1
  6
CONTINUOUS
 10
3525.7194549999999
 20
9075.2542859999994
 30
0.0
 11
3525.7194549999999
 21
9270.2542859999994
 31
0.0
  0
LINE
  5
7A95
  8
1
  6
CONTINUOUS
 10
3470.719454999999
 20
9075.2542859999994
 30
0.0
 11
3470.719454999999
 21
9270.2542859999994
 31
0.0
  0
LINE
  5
7A96
  8
1
  6
CONTINUOUS
 10
3776.219454999999
 20
8975.2542859999994
 30
0.0
 11
3776.219454999999
 21
9075.2542859999994
 31
0.0
  0
ARC
  5
7A97
  8
1
  6
CONTINUOUS
 10
4873.2194550000004
 20
4491.3252759999996
 30
0.0
 40
199.0
 50
320.126825
 51
219.87317499999989
  0
ARC
  5
7A98
  8
1
  6
CONTINUOUS
 10
4873.2194550000004
 20
4491.3252759999996
 30
0.0
 40
220.0
 50
254.69861299999999
 51
62.418807000000001
  0
LINE
  5
7A99
  8
1
  6
CONTINUOUS
 10
4648.2194549999986
 20
4311.3252759999987
 30
0.0
 11
5098.2194549999986
 21
4311.3252759999987
 31
0.0
  0
CIRCLE
  5
7A9A
  8
1
  6
CONTINUOUS
 10
4873.2194550000004
 20
4491.3252759999996
 30
0.0
 40
120.0
  0
LINE
  5
7A9B
  8
2
  6
CENTER
 10
4993.2194550000004
 20
4491.3252759999996
 30
0.0
 11
4753.2194549999986
 21
4491.3252759999996
 31
0.0
  0
LINE
  5
7A9C
  8
1
  6
CONTINUOUS
 10
4711.2194550000004
 20
4353.8244590000013
 30
0.0
 11
4720.4938439999987
 21
4363.7482879999998
 31
0.0
  0
LINE
  5
7A9D
  8
1
  6
CONTINUOUS
 10
4711.2194550000004
 20
4311.3252759999987
 30
0.0
 11
4711.2194550000004
 21
4353.8244590000013
 31
0.0
  0
LINE
  5
7A9E
  8
1
  6
CONTINUOUS
 10
4648.2194549999986
 20
4256.3252759999996
 30
0.0
 11
4648.2194549999986
 21
4311.3252759999987
 31
0.0
  0
LINE
  5
7A9F
  8
2
  6
CENTER
 10
4873.2194550000004
 20
4371.3252759999987
 30
0.0
 11
4873.2194550000004
 21
4611.3252759999987
 31
0.0
  0
LINE
  5
7AA0
  8
1
  6
CONTINUOUS
 10
5298.2194549999986
 20
4256.3252759999996
 30
0.0
 11
5298.2194549999986
 21
4106.3252759999987
 31
0.0
  0
LINE
  5
7AA1
  8
1
  6
CONTINUOUS
 10
5035.2194550000004
 20
4353.8244590000013
 30
0.0
 11
5025.9450659999993
 21
4363.7482879999998
 31
0.0
  0
LINE
  5
7AA2
  8
1
  6
CONTINUOUS
 10
5035.2194550000004
 20
4311.3252759999987
 30
0.0
 11
4975.2194550000004
 21
4311.3252759999987
 31
0.0
  0
LINE
  5
7AA3
  8
1
  6
CONTINUOUS
 10
5035.2194550000004
 20
4311.3252759999987
 30
0.0
 11
5035.2194550000004
 21
4353.8244590000013
 31
0.0
  0
LINE
  5
7AA4
  8
1
  6
CONTINUOUS
 10
5098.2194549999986
 20
4256.3252759999996
 30
0.0
 11
5098.2194549999986
 21
4311.3252759999987
 31
0.0
  0
LINE
  5
7AA5
  8
1
  6
CONTINUOUS
 10
5298.2194549999986
 20
10298.25428599999
 30
0.0
 11
5298.2194549999986
 21
9018.2542859999994
 31
0.0
  0
LINE
  5
7AA6
  8
1
  6
CONTINUOUS
 10
4123.2194550000004
 20
10220.25428599999
 30
0.0
 11
4123.2194550000004
 21
10323.254285999999
 31
0.0
  0
LINE
  5
7AA7
  8
1
  6
CONTINUOUS
 10
4580.7530079999997
 20
9270.2542859999994
 30
0.0
 11
4580.7530079999997
 21
10220.25428599999
 31
0.0
  0
LINE
  5
7AA8
  8
1
  6
CONTINUOUS
 10
4674.1214409999993
 20
9189.7874790000005
 30
0.0
 11
4674.1214409999993
 21
9789.2874790000023
 31
0.0
  0
LINE
  5
7AA9
  8
1
  6
CONTINUOUS
 10
5072.3174689999996
 20
9189.7874790000005
 30
0.0
 11
5072.3174689999996
 21
9789.2874790000023
 31
0.0
  0
LINE
  5
7AAA
  8
1
  6
CONTINUOUS
 10
5072.3174689999996
 20
9189.7874790000005
 30
0.0
 11
4674.1214409999993
 21
9189.7874790000005
 31
0.0
  0
LINE
  5
7AAB
  8
1
  6
CONTINUOUS
 10
4993.2194550000004
 20
9075.2542859999994
 30
0.0
 11
4753.2194549999986
 21
9075.2542859999994
 31
0.0
  0
LINE
  5
7AAC
  8
1
  6
CONTINUOUS
 10
4993.2194550000004
 20
8975.2542859999994
 30
0.0
 11
4753.2194549999986
 21
8975.2542859999994
 31
0.0
  0
LINE
  5
7AAD
  8
1
  6
CONTINUOUS
 10
4845.7194550000004
 20
9075.2542859999994
 30
0.0
 11
4845.7194550000004
 21
9189.7874790000005
 31
0.0
  0
LINE
  5
7AAE
  8
1
  6
CONTINUOUS
 10
4900.7194549999986
 20
9075.2542859999994
 30
0.0
 11
4900.7194549999986
 21
9189.7874790000005
 31
0.0
  0
LINE
  5
7AAF
  8
1
  6
CONTINUOUS
 10
4753.2194549999986
 20
8975.2542859999994
 30
0.0
 11
4753.2194549999986
 21
9075.2542859999994
 31
0.0
  0
LINE
  5
7AB0
  8
1
  6
CONTINUOUS
 10
5298.2194549999986
 20
9018.2542859999994
 30
0.0
 11
4993.2194550000004
 21
9018.2542859999994
 31
0.0
  0
LINE
  5
7AB1
  8
1
  6
CONTINUOUS
 10
4993.2194550000004
 20
8975.2542859999994
 30
0.0
 11
4993.2194550000004
 21
9075.2542859999994
 31
0.0
  0
LINE
  5
7AB2
  8
1
  6
CONTINUOUS
 10
5193.2194550000004
 20
8905.2542859999994
 30
0.0
 11
5193.2194550000004
 21
9145.2542859999994
 31
0.0
  0
LINE
  5
7AB3
  8
1
  6
CONTINUOUS
 10
5072.3174689999996
 20
9789.2874790000023
 30
0.0
 11
4674.1214409999993
 21
9789.2874790000023
 31
0.0
  0
LINE
  5
7AB4
  8
1
  6
CONTINUOUS
 10
4123.2194550000004
 20
10298.25428599999
 30
0.0
 11
5298.2194549999986
 21
10298.25428599999
 31
0.0
  0
LINE
  5
7AB5
  8
1
  6
CONTINUOUS
 10
7212.7822260000003
 20
6365.3252759999996
 30
0.0
 11
8162.7822260000003
 21
5085.3252759999987
 31
0.0
  0
LINE
  5
7AB6
  8
1
  6
CONTINUOUS
 10
7212.7822260000003
 20
5085.3252759999987
 30
0.0
 11
8162.7822260000003
 21
6365.3252759999996
 31
0.0
  0
LINE
  5
7AB7
  8
1
  6
CONTINUOUS
 10
7212.7822260000003
 20
5085.3252759999987
 30
0.0
 11
8162.7822260000003
 21
5085.3252759999987
 31
0.0
  0
LINE
  5
7AB8
  8
1
  6
CONTINUOUS
 10
7212.7822260000003
 20
6365.3252759999996
 30
0.0
 11
8162.7822260000003
 21
6365.3252759999996
 31
0.0
  0
LINE
  5
7AB9
  8
1
  6
CONTINUOUS
 10
8240.7822260000012
 20
4256.3252759999996
 30
0.0
 11
6960.7822260000003
 21
4256.3252759999996
 31
0.0
  0
LINE
  5
7ABA
  8
1
  6
CONTINUOUS
 10
8240.7822260000012
 20
4106.3252759999987
 30
0.0
 11
6960.7822260000003
 21
4106.3252759999987
 31
0.0
  0
LINE
  5
7ABB
  8
1
  6
CONTINUOUS
 10
7212.7822260000003
 20
4256.3252759999996
 30
0.0
 11
7212.7822260000003
 21
6365.3252759999996
 31
0.0
  0
LINE
  5
7ABC
  8
1
  6
CONTINUOUS
 10
7017.7822260000003
 20
4518.8252759999996
 30
0.0
 11
7212.7822260000003
 21
4518.8252759999996
 31
0.0
  0
LINE
  5
7ABD
  8
1
  6
CONTINUOUS
 10
7017.7822260000003
 20
4463.8252759999987
 30
0.0
 11
7212.7822260000003
 21
4463.8252759999987
 31
0.0
  0
LINE
  5
7ABE
  8
1
  6
CONTINUOUS
 10
7017.7822260000003
 20
5003.8252759999996
 30
0.0
 11
7212.7822260000003
 21
5003.8252759999996
 31
0.0
  0
LINE
  5
7ABF
  8
1
  6
CONTINUOUS
 10
7017.7822260000003
 20
5058.8252759999996
 30
0.0
 11
7212.7822260000003
 21
5058.8252759999996
 31
0.0
  0
LINE
  5
7AC0
  8
1
  6
CONTINUOUS
 10
7087.7822260000003
 20
4271.3252759999987
 30
0.0
 11
7087.7822260000003
 21
5409.3252759999996
 31
0.0
  0
LINE
  5
7AC1
  8
1
  6
CONTINUOUS
 10
6847.7822260000012
 20
4271.3252759999987
 30
0.0
 11
6847.7822260000012
 21
5409.3252759999996
 31
0.0
  0
LINE
  5
7AC2
  8
1
  6
CONTINUOUS
 10
6917.7822259999994
 20
4371.3252759999987
 30
0.0
 11
6917.7822259999994
 21
4611.3252759999987
 31
0.0
  0
LINE
  5
7AC3
  8
1
  6
CONTINUOUS
 10
7017.7822260000003
 20
4371.3252759999987
 30
0.0
 11
7017.7822260000003
 21
4611.3252759999987
 31
0.0
  0
LINE
  5
7AC4
  8
1
  6
CONTINUOUS
 10
6847.7822260000012
 20
4271.3252759999987
 30
0.0
 11
7087.7822260000003
 21
4271.3252759999987
 31
0.0
  0
LINE
  5
7AC5
  8
1
  6
CONTINUOUS
 10
6917.7822259999994
 20
4611.3252759999987
 30
0.0
 11
7017.7822260000003
 21
4611.3252759999987
 31
0.0
  0
LINE
  5
7AC6
  8
1
  6
CONTINUOUS
 10
6917.7822259999994
 20
4371.3252759999987
 30
0.0
 11
7017.7822260000003
 21
4371.3252759999987
 31
0.0
  0
LINE
  5
7AC7
  8
1
  6
CONTINUOUS
 10
6960.7822260000003
 20
4106.3252759999987
 30
0.0
 11
6960.7822260000003
 21
4256.3252759999996
 31
0.0
  0
LINE
  5
7AC8
  8
1
  6
CONTINUOUS
 10
7017.7822260000003
 20
4753.3252759999987
 30
0.0
 11
7017.7822260000003
 21
5309.3252759999996
 31
0.0
  0
LINE
  5
7AC9
  8
1
  6
CONTINUOUS
 10
6917.7822259999994
 20
4753.3252759999987
 30
0.0
 11
6917.7822259999994
 21
5309.3252759999996
 31
0.0
  0
LINE
  5
7ACA
  8
1
  6
CONTINUOUS
 10
6847.7822260000012
 20
5409.3252759999996
 30
0.0
 11
7087.7822260000003
 21
5409.3252759999996
 31
0.0
  0
LINE
  5
7ACB
  8
1
  6
CONTINUOUS
 10
6917.7822259999994
 20
4753.3252759999987
 30
0.0
 11
7017.7822260000003
 21
4753.3252759999987
 31
0.0
  0
LINE
  5
7ACC
  8
1
  6
CONTINUOUS
 10
6917.7822259999994
 20
5309.3252759999996
 30
0.0
 11
7017.7822260000003
 21
5309.3252759999996
 31
0.0
  0
LINE
  5
7ACD
  8
1
  6
CONTINUOUS
 10
8265.7822260000012
 20
4356.3252759999987
 30
0.0
 11
8265.7822260000012
 21
5706.3252759999996
 31
0.0
  0
LINE
  5
7ACE
  8
1
  6
CONTINUOUS
 10
8162.7822260000003
 20
4256.3252759999996
 30
0.0
 11
8162.7822260000003
 21
6365.3252759999996
 31
0.0
  0
LINE
  5
7ACF
  8
1
  6
CONTINUOUS
 10
8162.7822260000003
 20
4406.3252759999987
 30
0.0
 11
8265.7822260000012
 21
4406.3252759999987
 31
0.0
  0
LINE
  5
7AD0
  8
1
  6
CONTINUOUS
 10
8240.7822260000012
 20
4106.3252759999987
 30
0.0
 11
8240.7822260000012
 21
4256.3252759999996
 31
0.0
  0
LINE
  5
7AD1
  8
1
  6
CONTINUOUS
 10
8162.7822260000003
 20
5656.3252759999996
 30
0.0
 11
8265.7822260000012
 21
5656.3252759999996
 31
0.0
  0
DIMENSION
  5
7AE5
  8
3
  6
CONTINUOUS
  2
*D1
 10
3498.2194549999999
 20
3742.8095299999991
 30
0.0
 11
3112.6792890000002
 21
3742.8095299999991
 31
0.0
 70
   128
 13
2748.2194549999999
 23
4106.3252759999987
 33
0.0
 14
3498.2194549999999
 24
3956.562265
 34
0.0
1001
ACAD
1000
DSTYLE
1002
{
1070
   287
1070
     3
1070
   287
1070
     3
1070
    40
1040
45.0
1070
   143
1040
0.039
1070
   172
1070
     1
1070
   271
1070
     0
1070
   279
1070
     0
1070
   288
1070
     1
1002
}
  0
DIMENSION
  5
7AF1
  8
3
  6
CONTINUOUS
  2
*D2
 10
5298.2194549999986
 20
3742.8095299999991
 30
0.0
 11
4398.2194549999986
 21
3855.3095299999991
 31
0.0
 70
     0
 13
3498.2194549999999
 23
3956.562265
 33
0.0
 14
5298.2194549999986
 24
4106.3252759999987
 34
0.0
1001
ACAD
1000
DSTYLE
1002
{
1070
   287
1070
     4
1070
   287
1070
     4
1070
    40
1040
45.0
1070
    75
1070
     1
1070
   143
1040
0.039
1070
   172
1070
     1
1070
   271
1070
     0
1070
   279
1070
     1
1070
   288
1070
     1
1002
}
  0
DIMENSION
  5
7AFE
  8
3
  6
CONTINUOUS
  2
*D3
 10
2439.1298959999999
 20
5085.3252759999987
 30
0.0
 11
2439.1298959999999
 21
5717.0111979999992
 31
0.0
 70
   128
 13
2673.219454999999
 23
6365.3252759999996
 33
0.0
 14
2673.219454999999
 24
5085.3252759999987
 34
0.0
 50
90.0
1001
ACAD
1000
DSTYLE
1002
{
1070
   287
1070
     3
1070
   287
1070
     3
1070
    40
1040
45.0
1070
   143
1040
0.039
1070
   172
1070
     1
1070
   271
1070
     0
1070
   279
1070
     0
1070
   288
1070
     1
1002
}
  0
DIMENSION
  5
7B24
  8
3
  6
CONTINUOUS
  2
*D4
 10
2101.470229
 20
5031.3252759999996
 30
0.0
 11
2101.4702289999991
 21
5717.0111979999992
 31
0.0
 70
   128
 13
2673.219454999999
 23
6365.3252759999996
 33
0.0
 14
2756.7145399999999
 24
5031.3252759999996
 34
0.0
 50
90.0
1001
ACAD
1000
DSTYLE
1002
{
1070
   287
1070
     3
1070
   287
1070
     3
1070
    40
1040
45.0
1070
   143
1040
0.039
1070
   172
1070
     1
1070
   271
1070
     0
1070
   279
1070
     0
1070
   288
1070
     1
1002
}
  0
DIMENSION
  5
7B30
  8
3
  6
CONTINUOUS
  2
*D5
 10
2101.4702289999991
 20
4106.3252759999987
 30
0.0
 11
1988.9702289999991
 21
4568.8252759999996
 31
0.0
 70
     0
 13
2756.7145399999999
 23
5031.3252759999996
 33
0.0
 14
2748.2194549999999
 24
4106.3252759999987
 34
0.0
 50
90.0
1001
ACAD
1000
DSTYLE
1002
{
1070
   287
1070
     4
1070
   287
1070
     4
1070
    40
1040
45.0
1070
    75
1070
     1
1070
   143
1040
0.039
1070
   172
1070
     1
1070
   271
1070
     0
1070
   279
1070
     1
1070
   288
1070
     1
1002
}
  0
DIMENSION
  5
7B4A
  8
3
  6
CONTINUOUS
  2
*D6
 10
5298.2194549999986
 20
8552.7180509999998
 30
0.0
 11
4006.906160999999
 21
8552.7180509999998
 31
0.0
 70
   128
 13
2748.2194549999999
 23
9018.2542859999994
 33
0.0
 14
5298.2194549999986
 24
9018.2542859999994
 34
0.0
1001
ACAD
1000
DSTYLE
1002
{
1070
   287
1070
     3
1070
   287
1070
     3
1070
    40
1040
45.0
1070
   143
1040
0.039
1070
   172
1070
     1
1070
   271
1070
     0
1070
   279
1070
     0
1070
   288
1070
     1
1002
}
  0
DIMENSION
  5
7B57
  8
3
  6
CONTINUOUS
  2
*D7
 10
5619.8797890000014
 20
9018.2542859999994
 30
0.0
 11
5619.8797889999987
 21
9721.3038020000004
 31
0.0
 70
   128
 13
5298.2194549999986
 23
10298.25428599999
 33
0.0
 14
5293.2194550000004
 24
9018.2542859999994
 34
0.0
 50
90.0
1001
ACAD
1000
DSTYLE
1002
{
1070
   287
1070
     3
1070
   287
1070
     3
1070
    40
1040
45.0
1070
   143
1040
0.039
1070
   172
1070
     1
1070
   271
1070
     0
1070
   279
1070
     0
1070
   288
1070
     1
1002
}
  0
LINE
  5
7B58
  8
2
  6
CENTER
 10
4820.0403329999999
 20
9745.2542859999994
 30
0.0
 11
2488.2272888427028
 21
9745.2542859999994
 31
0.0
  0
LINE
  5
7B59
  8
2
  6
CENTER
 10
3498.2194549999999
 20
8809.4527940000007
 30
0.0
 11
3498.2194549999999
 21
10456.525680999999
 31
0.0
  0
LINE
  5
7B5A
  8
2
  6
CENTER
 10
7687.7822260000003
 20
6620.4243719999986
 30
0.0
 11
7687.7822260000003
 21
3920.7489489999998
 31
0.0
  0
LINE
  5
7B5B
  8
2
  6
CENTER
 10
4700.8354499999987
 20
5031.3252759999996
 30
0.0
 11
2502.3575339999989
 21
5031.3252759999996
 31
0.0
  0
DIMENSION
  5
7B68
  8
3
  6
CONTINUOUS
  2
*D8
 10
7687.7822260000003
 20
3760.5155920000002
 30
0.0
 11
7330.362983
 21
3760.5155920000002
 31
0.0
 70
   128
 13
6960.7822260000003
 23
4106.3252759999987
 33
0.0
 14
7687.7822260000003
 24
3920.7489489999998
 34
0.0
1001
ACAD
1000
DSTYLE
1002
{
1070
   287
1070
     3
1070
   287
1070
     3
1070
    40
1040
45.0
1070
   143
1040
0.039
1070
   172
1070
     1
1070
   271
1070
     0
1070
   279
1070
     0
1070
   288
1070
     1
1002
}
  0
DIMENSION
  5
7B76
  8
3
  6
CONTINUOUS
  2
*D9
 10
8240.7822260000012
 20
3760.5155920000002
 30
0.0
 11
7950.7374510000009
 21
3750.781919
 31
0.0
 70
   128
 13
7687.7822260000003
 23
3920.7489489999998
 33
0.0
 14
8240.7822260000012
 24
4106.3252759999987
 34
0.0
1001
ACAD
1000
DSTYLE
1002
{
1070
   287
1070
     4
1070
   287
1070
     4
1070
    40
1040
45.0
1070
    75
1070
     1
1070
   143
1040
0.039
1070
   172
1070
     1
1070
   271
1070
     0
1070
   279
1070
     1
1070
   288
1070
     1
1002
}
  0
DIMENSION
  5
7BA5
  8
3
  6
CONTINUOUS
  2
*D10
 10
8162.7822260000003
 20
6602.303738999999
 30
0.0
 11
7640.5502450000004
 21
6602.303738999999
 31
0.0
 70
   128
 13
7212.7822260000003
 23
6365.3252759999996
 33
0.0
 14
8162.7822260000003
 24
6365.3252759999996
 34
0.0
1001
ACAD
1000
DSTYLE
1002
{
1070
   287
1070
     3
1070
   287
1070
     3
1070
    40
1040
45.0
1070
   143
1040
0.039
1070
   172
1070
     1
1070
   271
1070
     0
1070
   279
1070
     0
1070
   288
1070
     1
1002
}
  0
DIMENSION
  5
7BB2
  8
3
  6
CONTINUOUS
  2
*D11
 10
7687.7822260000003
 20
6859.9192810000004
 30
0.0
 11
7259.4630470000002
 21
6859.9192810000004
 31
0.0
 70
   128
  1
MAX\P890
 13
6847.7822260000012
 23
5409.3252759999996
 33
0.0
 14
7687.7822260000003
 24
6801.6194059999998
 34
0.0
1001
ACAD
1000
DSTYLE
1002
{
1070
   287
1070
     3
1070
   287
1070
     3
1070
    40
1040
45.0
1070
   143
1040
0.039
1070
   172
1070
     1
1070
   271
1070
     0
1070
   279
1070
     0
1070
   288
1070
     1
1002
}
  0
DIMENSION
  5
7BC0
  8
3
  6
CONTINUOUS
  2
*D12
 10
8265.7822260000012
 20
6859.9192810000004
 30
0.0
 11
7950.7374510000009
 21
6860.8000480000001
 31
0.0
 70
   128
 13
7687.7822260000003
 23
6801.6194059999998
 33
0.0
 14
8265.7822260000012
 24
5706.3252759999996
 34
0.0
1001
ACAD
1000
DSTYLE
1002
{
1070
   287
1070
     4
1070
   287
1070
     4
1070
    40
1040
45.0
1070
    75
1070
     1
1070
   143
1040
0.039
1070
   172
1070
     1
1070
   271
1070
     0
1070
   279
1070
     1
1070
   288
1070
     1
1002
}
  0
DIMENSION
  5
7BE4
  8
3
  6
CONTINUOUS
  2
*D13
 10
8616.3093910000007
 20
4406.3252759999987
 30
0.0
 11
8616.3093909999989
 21
5027.3643590000001
 31
0.0
 70
   128
 13
8265.7822260000012
 23
5656.3252759999996
 33
0.0
 14
8265.7822260000012
 24
4406.3252759999987
 34
0.0
 50
90.0
1001
ACAD
1000
DSTYLE
1002
{
1070
   287
1070
     3
1070
   287
1070
     3
1070
     3
1000
φ<>
1070
    40
1040
45.0
1070
   143
1040
0.039
1070
   172
1070
     1
1070
   271
1070
     0
1070
   279
1070
     0
1070
   288
1070
     1
1002
}
  0
LINE
  5
7C2F
  8
4
  6
CONTINUOUS
 10
9250.0
 20
2500.0
 30
0.0
 11
9250.0
 21
1500.0
 31
0.0
  0
LINE
  5
7C30
  8
4
  6
CONTINUOUS
 10
5750.0
 20
2500.0
 30
0.0
 11
5750.0
 21
1500.0
 31
0.0
  0
LINE
  5
7C31
  8
4
  6
CONTINUOUS
 10
3250.0
 20
2500.0
 30
0.0
 11
3250.0
 21
1500.0
 31
0.0
  0
LINE
  5
7C34
  8
4
  6
CONTINUOUS
 10
3250.0
 20
1500.0
 30
0.0
 11
9250.0
 21
1500.0
 31
0.0
  0
LINE
  5
7C35
  8
4
  6
CONTINUOUS
 10
3250.0
 20
2000.0
 30
0.0
 11
9250.0
 21
2000.0
 31
0.0
  0
TEXT
  5
7C36
  8
4
  6
CONTINUOUS
 10
3442.5104040000001
 20
2157.7151289999988
 30
0.0
 40
250.0
  1
機器名称
  0
TEXT
  5
7C37
  8
4
  6
CONTINUOUS
 10
3431.2905300000002
 20
1608.225782999999
 30
0.0
 40
250.0
  1
機器型番
  0
TEXT
  5
7C38
  8
4
  6
CONTINUOUS
 10
5888.393728
 20
2112.8588439999999
 30
0.0
 40
211.11111099999991
  1
ミツヤリミットロードファン
  0
TEXT
  5
7C39
  8
4
  6
CONTINUOUS
 10
5933.2724779999999
 20
1585.7979210000001
 30
0.0
 40
250.0
  1
LLE#8-4
  0
TEXT
  5
7C3B
  8
4
  6
CONTINUOUS
 10
4523.9288280000001
 20
11917.14420699999
 30
0.0
 40
270.0
  1
床置ベット
  0
TEXT
  5
7C3C
  8
4
  6
CONTINUOUS
 10
1580.837966999999
 20
12669.404881
 30
0.0
 40
300.0
  1
ベルト駆動式片吸込両持排煙ファン
  0
LINE
  5
7C3D
  8
4
  6
CONTINUOUS
 10
1250.0
 20
12347.04377099999
 30
0.0
 11
9250.0
 21
12347.04377099999
 31
0.0
  0
LINE
  5
7C3E
  8
4
  6
CONTINUOUS
 10
1250.0
 20
13347.043771000001
 30
0.0
 11
9250.0
 21
13347.043771000001
 31
0.0
  0
LINE
  5
7C3F
  8
4
  6
CONTINUOUS
 10
3250.0
 20
2500.0
 30
0.0
 11
9250.0
 21
2500.0
 31
0.0
  0
LINE
  5
7C40
  8
4
  6
CONTINUOUS
 10
1250.0
 20
13347.043771000001
 30
0.0
 11
1250.0
 21
12347.04377099999
 31
0.0
  0
TEXT
  5
7C41
  8
4
  6
CONTINUOUS
 10
2344.6346669999998
 20
11911.597388
 30
0.0
 40
270.0
  1
左回転左横向
  0
TEXT
  5
7C42
  8
4
  6
CONTINUOUS
 10
7344.8477969999994
 20
13530.305408
 30
0.0
 40
280.0
  1
No.
  0
TEXT
  5
7C43
  8
4
  6
CONTINUOUS
 10
6556.480313
 20
11917.14420699999
 30
0.0
 40
270.0
  1
縮尺：1/50
  0
LINE
  5
7C44
  8
4
  6
CONTINUOUS
 10
9250.0
 20
13347.043771000001
 30
0.0
 11
9250.0
 21
12347.04377099999
 31
0.0
  0
LINE
  5
7C46
  8
4
  6
CONTINUOUS
 10
7203.0871120000002
 20
13406.317916
 30
0.0
 11
7203.0871120000002
 21
13933.261307999999
 31
0.0
  0
LINE
  5
7C47
  8
4
  6
CONTINUOUS
 10
7203.0871120000002
 20
13933.261307999999
 30
0.0
 11
9250.0
 21
13933.261307999999
 31
0.0
  0
LINE
  5
7C48
  8
4
  6
CONTINUOUS
 10
9250.0
 20
13933.261307999999
 30
0.0
 11
9250.0
 21
13406.317916
 31
0.0
  0
LINE
  5
7C49
  8
4
  6
CONTINUOUS
 10
9250.0
 20
13406.317916
 30
0.0
 11
7203.0871120000002
 21
13406.317916
 31
0.0
  0
DIMENSION
  5
7C67
  8
3
  6
CONTINUOUS
  2
*D14
 10
3498.2194549999999
 20
6614.9313849999999
 30
0.0
 11
3098.4128460000002
 21
6614.9313849999999
 31
0.0
 70
   128
 13
2673.219454999999
 23
6421.3252760000014
 33
0.0
 14
3498.2194549999999
 24
6292.3252759999987
 34
0.0
1001
ACAD
1000
DSTYLE
1002
{
1070
   287
1070
     3
1070
   287
1070
     3
1070
    40
1040
45.0
1070
   143
1040
0.039
1070
   172
1070
     1
1070
   271
1070
     0
1070
   279
1070
     0
1070
   288
1070
     1
1002
}
  0
LINE
  5
7C74
  8
1
  6
CONTINUOUS
 10
2673.219454999999
 20
6365.3252759999996
 30
0.0
 11
3498.2194549999999
 21
6292.3252759999987
 31
0.0
  0
ARC
  5
7C75
  8
1
  6
CONTINUOUS
 10
3407.218961
 20
5122.3248189999986
 30
0.0
 40
1173.5340470000001
 50
0.000022
 51
85.552593000000016
  0
ARC
  5
7C76
  8
1
  6
CONTINUOUS
 10
3589.219286
 20
5122.32546
 30
0.0
 40
991.5337219999999
 50
265.23636899999991
 51
359.99998900000003
  0
ARC
  5
7C77
  8
1
  6
CONTINUOUS
 10
3575.2201960000002
 20
4954.3259580000004
 30
0.0
 40
822.95196999999996
 50
180.00004799999991
 51
265.236311
  0
ARC
  5
7C78
  8
1
  6
CONTINUOUS
 10
3421.2138970000001
 20
4954.3258270000006
 30
0.0
 40
668.94567099999995
 50
168.70680200000001
 51
180.000047
  0
DIMENSION
  5
7C90
  8
3
  6
CONTINUOUS
  2
*D15
 10
4577.2194550000004
 20
6614.9313849999999
 30
0.0
 11
4037.7194549999999
 21
6727.4313849999999
 31
0.0
 70
     0
 13
3498.2194549999999
 23
6292.3252759999987
 33
0.0
 14
4577.2194550000004
 24
5031.3252759999996
 34
0.0
1001
ACAD
1000
DSTYLE
1002
{
1070
   287
1070
     4
1070
   287
1070
     4
1070
    40
1040
45.0
1070
    75
1070
     1
1070
   143
1040
0.039
1070
   172
1070
     1
1070
   271
1070
     0
1070
   279
1070
     1
1070
   288
1070
     1
1002
}
  0
DIMENSION
  5
7CA7
  8
3
  6
CONTINUOUS
  2
*D16
 10
1721.3585720000001
 20
4106.3252759999996
 30
0.0
 11
1721.358571999999
 21
5271.5838179999992
 31
0.0
 70
   128
 13
2673.219454999999
 23
6443.8252759999996
 33
0.0
 14
2748.2194549999999
 24
4106.3252759999987
 34
0.0
 50
90.0
1001
ACAD
1000
DSTYLE
1002
{
1070
   287
1070
     3
1070
   287
1070
     3
1070
    40
1040
45.0
1070
   143
1040
0.039
1070
   172
1070
     1
1070
   271
1070
     0
1070
   279
1070
     0
1070
   288
1070
     1
1002
}
  0
DIMENSION
  5
7D19
  8
3
  2
*D17
 10
5298.2194549999986
 20
6917.2982415214356
 30
0.0
 11
3981.532545292589
 21
6917.2982415214356
 31
0.0
 70
   128
 13
2673.219454999999
 23
6421.3252760000014
 33
0.0
 14
5298.2194549999986
 24
4256.3252759999996
 34
0.0
1001
ACAD
1000
DSTYLE
1002
{
1070
   287
1070
     3
1070
   287
1070
     3
1070
    40
1040
45.0
1070
   143
1040
0.039
1070
   172
1070
     1
1070
   271
1070
     0
1070
   279
1070
     0
1070
   288
1070
     1
1002
}
  0
ENDSEC
  0
EOF
