  0
SECTION
  2
HEADER
  9
$ACADVER
  1
AC1009
  9
$INSBASE
 10
0.0
 20
0.0
 30
0.0
  9
$EXTMIN
 10
-8886.0328709999994
 20
-6819.3395299999993
 30
0.0
  9
$EXTMAX
 10
-886.032871
 20
5613.9217779999999
 30
0.0
  9
$LIMMIN
 10
0.0
 20
0.0
  9
$LIMMAX
 10
297.0
 20
210.0
  9
$ORTHOMODE
 70
     0
  9
$REGENMODE
 70
     1
  9
$FILLMODE
 70
     0
  9
$QTEXTMODE
 70
     0
  9
$MIRRTEXT
 70
     1
  9
$DRAGMODE
 70
     2
  9
$LTSCALE
 40
100.0
  9
$OSMODE
 70
    37
  9
$ATTMODE
 70
     1
  9
$TEXTSIZE
 40
180.0
  9
$TRACEWID
 40
0.05
  9
$TEXTSTYLE
  7
STANDARD
  9
$CLAYER
  8
3
  9
$CELTYPE
  6
BYLAYER
  9
$CECOLOR
 62
   256
  9
$DIMSCALE
 40
45.0
  9
$DIMASZ
 40
2.0
  9
$DIMEXO
 40
0.5
  9
$DIMDLI
 40
10.0
  9
$DIMRND
 40
0.0
  9
$DIMDLE
 40
0.0
  9
$DIMEXE
 40
1.0
  9
$DIMTP
 40
1.0
  9
$DIMTM
 40
1.0
  9
$DIMTXT
 40
3.0
  9
$DIMCEN
 40
0.0
  9
$DIMTSZ
 40
0.0
  9
$DIMTOL
 70
     0
  9
$DIMLIM
 70
     0
  9
$DIMTIH
 70
     0
  9
$DIMTOH
 70
     0
  9
$DIMSE1
 70
     0
  9
$DIMSE2
 70
     0
  9
$DIMTAD
 70
     1
  9
$DIMZIN
 70
     8
  9
$DIMBLK
  1

  9
$DIMASO
 70
     1
  9
$DIMSHO
 70
     1
  9
$DIMPOST
  1
(<>)
  9
$DIMAPOST
  1

  9
$DIMALT
 70
     0
  9
$DIMALTD
 70
     2
  9
$DIMALTF
 40
0.039
  9
$DIMLFAC
 40
1.0
  9
$DIMTOFL
 70
     1
  9
$DIMTVP
 40
0.0
  9
$DIMTIX
 70
     0
  9
$DIMSOXD
 70
     0
  9
$DIMSAH
 70
     1
  9
$DIMBLK1
  1
OPEN
  9
$DIMBLK2
  1
OPEN
  9
$DIMSTYLE
  2
IGA
  9
$DIMCLRD
 70
     0
  9
$DIMCLRE
 70
     0
  9
$DIMCLRT
 70
     0
  9
$DIMTFAC
 40
10.0
  9
$DIMGAP
 40
1.0
  9
$LUNITS
 70
     2
  9
$LUPREC
 70
     3
  9
$SKETCHINC
 40
0.1
  9
$FILLETRAD
 40
50.0
  9
$AUNITS
 70
     0
  9
$AUPREC
 70
     0
  9
$MENU
  1
acad
  9
$ELEVATION
 40
0.0
  9
$PELEVATION
 40
0.0
  9
$THICKNESS
 40
0.0
  9
$LIMCHECK
 70
     0
  9
$BLIPMODE
 70
     0
  9
$CHAMFERA
 40
0.5
  9
$CHAMFERB
 40
0.5
  9
$SKPOLY
 70
     0
  9
$TDCREATE
 40
2450751.3476452548
  9
$TDUPDATE
 40
2454953.68809515
  9
$TDINDWG
 40
0.0061649421
  9
$TDUSRTIMER
 40
0.0061649421
  9
$USRTIMER
 70
     1
  9
$ANGBASE
 50
0.0
  9
$ANGDIR
 70
     0
  9
$PDMODE
 70
     0
  9
$PDSIZE
 40
0.0
  9
$PLINEWID
 40
0.0
  9
$COORDS
 70
     1
  9
$SPLFRAME
 70
     0
  9
$SPLINETYPE
 70
     6
  9
$SPLINESEGS
 70
     8
  9
$ATTDIA
 70
     0
  9
$ATTREQ
 70
     1
  9
$HANDLING
 70
 10241
  9
$HANDSEED
  5
7EDF
  9
$SURFTAB1
 70
     6
  9
$SURFTAB2
 70
     6
  9
$SURFTYPE
 70
     6
  9
$SURFU
 70
     6
  9
$SURFV
 70
     6
  9
$UCSNAME
  2

  9
$UCSORG
 10
0.0
 20
0.0
 30
0.0
  9
$UCSXDIR
 10
1.0
 20
0.0
 30
0.0
  9
$UCSYDIR
 10
0.0
 20
1.0
 30
0.0
  9
$PUCSNAME
  2

  9
$PUCSORG
 10
0.0
 20
0.0
 30
0.0
  9
$PUCSXDIR
 10
1.0
 20
0.0
 30
0.0
  9
$PUCSYDIR
 10
0.0
 20
1.0
 30
0.0
  9
$USERI1
 70
     0
  9
$USERI2
 70
     0
  9
$USERI3
 70
     0
  9
$USERI4
 70
     0
  9
$USERI5
 70
     0
  9
$USERR1
 40
0.0
  9
$USERR2
 40
0.0
  9
$USERR3
 40
0.0
  9
$USERR4
 40
0.0
  9
$USERR5
 40
0.0
  9
$WORLDVIEW
 70
     1
  9
$SHADEDGE
 70
     3
  9
$SHADEDIF
 70
    70
  9
$TILEMODE
 70
     1
  9
$MAXACTVP
 70
    16
  9
$PLIMCHECK
 70
     0
  9
$PEXTMIN
 10
1.0000000000000000E+020
 20
1.0000000000000000E+020
 30
1.0000000000000000E+020
  9
$PEXTMAX
 10
-1.0000000000000000E+020
 20
-1.0000000000000000E+020
 30
-1.0000000000000000E+020
  9
$PLIMMIN
 10
0.0
 20
0.0
  9
$PLIMMAX
 10
12.0
 20
9.0
  9
$UNITMODE
 70
     0
  9
$VISRETAIN
 70
     0
  9
$PLINEGEN
 70
     0
  9
$PSLTSCALE
 70
     1
  0
ENDSEC
  0
SECTION
  2
TABLES
  0
TABLE
  2
VPORT
 70
     2
  0
VPORT
  2
*ACTIVE
 70
     0
 10
0.0
 20
0.0
 11
1.0
 21
1.0
 12
13161.828099068471
 22
-1496.0374245053199
 13
0.0
 23
0.0
 14
10.0
 24
10.0
 15
10.0
 25
10.0
 16
0.0
 26
0.0
 36
1.0
 17
0.0
 27
0.0
 37
0.0
 40
17561.987942535241
 41
3.1666666666666661
 42
50.0
 43
0.0
 44
0.0
 50
0.0
 51
0.0
 71
     0
 72
   100
 73
     1
 74
     0
 75
     0
 76
     0
 77
     0
 78
     0
  0
ENDTAB
  0
TABLE
  2
LTYPE
 70
     2
  0
LTYPE
  2
CONTINUOUS
 70
     0
  3
Solid line
 72
    65
 73
     0
 40
0.0
  0
LTYPE
  2
CENTER
 70
     0
  3
____ _ ____ _ ____ _ ____ _ ____ _ ____ _ ____ 
 72
    65
 73
     4
 40
2.0
 49
1.25
 49
-0.25
 49
0.25
 49
-0.25
  0
ENDTAB
  0
TABLE
  2
LAYER
 70
     6
  0
LAYER
  2
0
 70
     0
 62
     7
  6
CONTINUOUS
  0
LAYER
  2
3
 70
     0
 62
     2
  6
CONTINUOUS
  0
LAYER
  2
2
 70
     0
 62
     3
  6
CENTER
  0
LAYER
  2
1
 70
     0
 62
     4
  6
CONTINUOUS
  0
LAYER
  2
4
 70
     0
 62
     7
  6
CONTINUOUS
  0
LAYER
  2
DEFPOINTS
 70
     0
 62
     7
  6
CONTINUOUS
  0
ENDTAB
  0
TABLE
  2
STYLE
 70
     1
  0
STYLE
  2
STANDARD
 70
     0
 40
0.0
 41
1.0
 50
0.0
 71
     0
 42
180.0
  3
simplex.shx
  4
extfont.shx
  0
ENDTAB
  0
TABLE
  2
VIEW
 70
     0
  0
ENDTAB
  0
TABLE
  2
UCS
 70
     0
  0
ENDTAB
  0
TABLE
  2
APPID
 70
     1
  0
APPID
  2
ACAD
 70
     0
  0
ENDTAB
  0
TABLE
  2
DIMSTYLE
 70
     1
  0
DIMSTYLE
  2
IGA
 70
     0
  3

  4

  5

  6
OPEN
  7
OPEN
 40
2.0
 41
2.0
 42
0.5
 43
10.0
 44
1.0
 45
0.0
 46
0.0
 47
1.0
 48
1.0
140
3.0
141
0.0
142
0.0
143
0.03937
144
1.0
145
0.0
146
10.0
147
1.0
 71
     0
 72
     0
 73
     0
 74
     0
 75
     0
 76
     0
 77
     1
 78
     8
170
     0
171
     2
172
     0
173
     1
174
     0
175
     0
176
     0
177
     0
178
     0
  0
ENDTAB
  0
ENDSEC
  0
SECTION
  2
BLOCKS
  0
BLOCK
  8
0
  2
$MODEL_SPACE
 70
     0
 10
0.0
 20
0.0
 30
0.0
  3
$MODEL_SPACE
  1

  0
ENDBLK
  5
1B
  8
0
  0
BLOCK
 67
     1
  8
0
  2
$PAPER_SPACE
 70
     0
 10
0.0
 20
0.0
 30
0.0
  3
$PAPER_SPACE
  1

  0
ENDBLK
  5
18
 67
     1
  8
0
  0
BLOCK
  8
0
  2
_OPEN
 70
     0
 10
0.0
 20
0.0
 30
0.0
  3
_OPEN
  1

  0
LINE
  5
7ADC
  8
0
  6
BYBLOCK
 62
     0
 10
-1.0
 20
0.166667
 30
0.0
 11
0.0
 21
0.0
 31
0.0
  0
LINE
  5
7ADD
  8
0
  6
BYBLOCK
 62
     0
 10
0.0
 20
0.0
 30
0.0
 11
-1.0
 21
-0.166667
 31
0.0
  0
LINE
  5
7ADE
  8
0
  6
BYBLOCK
 62
     0
 10
0.0
 20
0.0
 30
0.0
 11
-1.0
 21
0.0
 31
0.0
  0
ENDBLK
  5
7ADF
  8
0
  0
BLOCK
  8
0
  2
*D1
 70
     1
 10
0.0
 20
0.0
 30
0.0
  3
*D1
  1

  0
LINE
  5
7E28
  8
3
  6
CONTINUOUS
 62
     0
 10
-7382.7440050288596
 20
-1845.1475560071201
 30
0.0
 11
-7382.7440050288596
 21
-1534.06872000712
 31
0.0
  0
LINE
  5
7E29
  8
3
  6
CONTINUOUS
 62
     0
 10
-6232.7440050288606
 20
-1845.1475560071201
 30
0.0
 11
-6232.7440050288606
 21
-1534.06872000712
 31
0.0
  0
LINE
  5
7E2A
  8
3
  6
CONTINUOUS
 62
     0
 10
-7292.7440050288606
 20
-1579.06872000712
 30
0.0
 11
-6322.7440050288606
 21
-1579.06872000712
 31
0.0
  0
INSERT
  5
7E2B
  8
3
  6
CONTINUOUS
 62
     0
  2
_OPEN
 10
-7382.7440050288596
 20
-1579.06872000712
 30
0.0
 41
90.0
 42
90.0
 43
90.0
 50
180.0
  0
INSERT
  5
7E2C
  8
3
  6
CONTINUOUS
 62
     0
  2
_OPEN
 10
-6232.7440050288606
 20
-1579.06872000712
 30
0.0
 41
90.0
 42
90.0
 43
90.0
  0
TEXT
  8
3
  40
135
  5
7ECC
  62
0
  72
0
  71
0
 10
-7069.05
 20
-1705.52
 30
0.000000
  1
1150
  0
POINT
  5
7E2E
  8
DEFPOINTS
  6
CONTINUOUS
 62
     0
 10
-7382.7440050288596
 20
-1867.6475560071201
 30
0.0
  0
POINT
  5
7E2F
  8
DEFPOINTS
  6
CONTINUOUS
 62
     0
 10
-6232.7440050288606
 20
-1867.6475560071201
 30
0.0
  0
POINT
  5
7E30
  8
DEFPOINTS
  6
CONTINUOUS
 62
     0
 10
-6232.7440050288606
 20
-1579.06872000712
 30
0.0
  0
ENDBLK
  5
7B05
  8
0
  0
BLOCK
  8
0
  2
*D2
 70
     1
 10
0.0
 20
0.0
 30
0.0
  3
*D2
  1

  0
LINE
  5
7E31
  8
3
  6
CONTINUOUS
 62
     0
 10
-7382.7440050288596
 20
-1845.1475560071201
 30
0.0
 11
-7382.7440050288596
 21
-1275.3003110071199
 31
0.0
  0
LINE
  5
7E32
  8
3
  6
CONTINUOUS
 62
     0
 10
-6184.7440050288606
 20
-1938.45681700712
 30
0.0
 11
-6184.7440050288606
 21
-1275.3003110071199
 31
0.0
  0
LINE
  5
7E33
  8
3
  6
CONTINUOUS
 62
     0
 10
-7292.7440050288606
 20
-1320.3003110071199
 30
0.0
 11
-6274.7440050288596
 21
-1320.3003110071199
 31
0.0
  0
INSERT
  5
7E34
  8
3
  6
CONTINUOUS
 62
     0
  2
_OPEN
 10
-7382.7440050288596
 20
-1320.3003110071199
 30
0.0
 41
90.0
 42
90.0
 43
90.0
 50
180.0
  0
INSERT
  5
7E35
  8
3
  6
CONTINUOUS
 62
     0
  2
_OPEN
 10
-6184.7440050288606
 20
-1320.3003110071199
 30
0.0
 41
90.0
 42
90.0
 43
90.0
  0
TEXT
  8
3
  40
135
  5
7ECD
  62
0
  72
0
  71
0
 10
-7009.42
 20
-1446.75
 30
0.000000
  1
1198
  0
POINT
  5
7E37
  8
DEFPOINTS
  6
CONTINUOUS
 62
     0
 10
-7382.7440050288596
 20
-1867.6475560071201
 30
0.0
  0
POINT
  5
7E38
  8
DEFPOINTS
  6
CONTINUOUS
 62
     0
 10
-6184.7440050288606
 20
-1960.95681700712
 30
0.0
  0
POINT
  5
7E39
  8
DEFPOINTS
  6
CONTINUOUS
 62
     0
 10
-6184.7440050288606
 20
-1320.3003110071199
 30
0.0
  0
ENDBLK
  5
7B12
  8
0
  0
BLOCK
  8
0
  2
*D3
 70
     1
 10
0.0
 20
0.0
 30
0.0
  3
*D3
  1

  0
LINE
  5
7E3A
  8
3
  6
CONTINUOUS
 62
     0
 10
-5379.7440050288606
 20
-2605.1475560071199
 30
0.0
 11
-5379.7440050288606
 21
-1275.3003110071199
 31
0.0
  0
LINE
  5
7E3B
  8
3
  6
CONTINUOUS
 62
     0
 10
-6094.7440050288606
 20
-1320.3003110071199
 30
0.0
 11
-5469.7440050288606
 21
-1320.3003110071199
 31
0.0
  0
INSERT
  5
7E3C
  8
3
  6
CONTINUOUS
 62
     0
  2
_OPEN
 10
-6184.7440050288606
 20
-1320.3003110071199
 30
0.0
 41
90.0
 42
90.0
 43
90.0
 50
180.0
  0
INSERT
  5
7E3D
  8
3
  6
CONTINUOUS
 62
     0
  2
_OPEN
 10
-5379.7440050288606
 20
-1320.3003110071199
 30
0.0
 41
90.0
 42
90.0
 43
90.0
  0
TEXT
  8
3
  40
135
  5
7ECE
  62
0
  72
0
  71
0
 10
-6052.24
 20
-1446.75
 30
0.000000
  1
805
  0
POINT
  5
7E3F
  8
DEFPOINTS
  6
CONTINUOUS
 62
     0
 10
-6184.7440050288606
 20
-1960.95681700712
 30
0.0
  0
POINT
  5
7E40
  8
DEFPOINTS
  6
CONTINUOUS
 62
     0
 10
-5379.7440050288606
 20
-2627.6475560071199
 30
0.0
  0
POINT
  5
7E41
  8
DEFPOINTS
  6
CONTINUOUS
 62
     0
 10
-5379.7440050288606
 20
-1320.3003110071199
 30
0.0
  0
ENDBLK
  5
7C81
  8
0
  0
BLOCK
  8
0
  2
*D4
 70
     1
 10
0.0
 20
0.0
 30
0.0
  3
*D4
  1

  0
LINE
  5
7E42
  8
3
  6
CONTINUOUS
 62
     0
 10
-6157.2440050288606
 20
-1867.6475560071201
 30
0.0
 11
-4982.4359400288613
 21
-1867.6475560071201
 31
0.0
  0
LINE
  5
7E43
  8
3
  6
CONTINUOUS
 62
     0
 10
-5357.825151028861
 20
-2627.6475560071199
 30
0.0
 11
-4982.4359400288622
 21
-2627.6475560071199
 31
0.0
  0
LINE
  5
7E44
  8
3
  6
CONTINUOUS
 62
     0
 10
-5027.4359400288622
 20
-1957.6475560071201
 30
0.0
 11
-5027.4359400288622
 21
-2537.6475560071199
 31
0.0
  0
INSERT
  5
7E45
  8
3
  6
CONTINUOUS
 62
     0
  2
_OPEN
 10
-5027.4359400288622
 20
-1867.6475560071201
 30
0.0
 41
90.0
 42
90.0
 43
90.0
 50
90.0
  0
INSERT
  5
7E46
  8
3
  6
CONTINUOUS
 62
     0
  2
_OPEN
 10
-5027.4359400288622
 20
-2627.6475560071199
 30
0.0
 41
90.0
 42
90.0
 43
90.0
 50
270.0
  0
TEXT
  8
3
  40
135
  5
7ECF
  62
0
  72
0
  71
0
 10
-5409.94
 20
-2467.92
 30
0.000000
  1
760
  0
POINT
  5
7E48
  8
DEFPOINTS
  6
CONTINUOUS
 62
     0
 10
-6179.7440050288606
 20
-1867.6475560071201
 30
0.0
  0
POINT
  5
7E49
  8
DEFPOINTS
  6
CONTINUOUS
 62
     0
 10
-5380.325151028861
 20
-2627.6475560071199
 30
0.0
  0
POINT
  5
7E4A
  8
DEFPOINTS
  6
CONTINUOUS
 62
     0
 10
-5027.4359400288622
 20
-2627.6475560071199
 30
0.0
  0
ENDBLK
  5
7B38
  8
0
  0
BLOCK
  8
0
  2
*D5
 70
     1
 10
0.0
 20
0.0
 30
0.0
  3
*D5
  1

  0
LINE
  5
7E4B
  8
3
  6
CONTINUOUS
 62
     0
 10
-5502.2440050288606
 20
-3637.6475560071199
 30
0.0
 11
-4982.4359400288613
 21
-3637.6475560071199
 31
0.0
  0
LINE
  5
7E4C
  8
3
  6
CONTINUOUS
 62
     0
 10
-5027.4359400288622
 20
-2717.6475560071199
 30
0.0
 11
-5027.4359400288622
 21
-3547.6475560071199
 31
0.0
  0
INSERT
  5
7E4D
  8
3
  6
CONTINUOUS
 62
     0
  2
_OPEN
 10
-5027.4359400288622
 20
-2627.6475560071199
 30
0.0
 41
90.0
 42
90.0
 43
90.0
 50
90.0
  0
INSERT
  5
7E4E
  8
3
  6
CONTINUOUS
 62
     0
  2
_OPEN
 10
-5027.4359400288622
 20
-3637.6475560071199
 30
0.0
 41
90.0
 42
90.0
 43
90.0
 50
270.0
  0
TEXT
  8
3
  40
135
  5
7ED0
  62
0
  72
0
  71
0
 10
-5409.94
 20
-3371.60
 30
0.000000
  1
1010
  0
POINT
  5
7E50
  8
DEFPOINTS
  6
CONTINUOUS
 62
     0
 10
-5380.325151028861
 20
-2627.6475560071199
 30
0.0
  0
POINT
  5
7E51
  8
DEFPOINTS
  6
CONTINUOUS
 62
     0
 10
-5524.7440050288596
 20
-3637.6475560071199
 30
0.0
  0
POINT
  5
7E52
  8
DEFPOINTS
  6
CONTINUOUS
 62
     0
 10
-5027.4359400288622
 20
-3637.6475560071199
 30
0.0
  0
ENDBLK
  5
7B44
  8
0
  0
BLOCK
  8
0
  2
*D6
 70
     1
 10
0.0
 20
0.0
 30
0.0
  3
*D6
  1

  0
LINE
  5
7E53
  8
3
  6
CONTINUOUS
 62
     0
 10
-5502.2440050288606
 20
1771.5618689999999
 30
0.0
 11
-4883.7170970288607
 21
1771.5618689999999
 31
0.0
  0
LINE
  5
7E54
  8
3
  6
CONTINUOUS
 62
     0
 10
-5502.2440050288606
 20
591.56186900000012
 30
0.0
 11
-4883.7170970288607
 21
591.561869
 31
0.0
  0
LINE
  5
7E55
  8
3
  6
CONTINUOUS
 62
     0
 10
-4928.7170970288607
 20
1681.5618689999999
 30
0.0
 11
-4928.7170970288607
 21
681.56186899999989
 31
0.0
  0
INSERT
  5
7E56
  8
3
  6
CONTINUOUS
 62
     0
  2
_OPEN
 10
-4928.7170970288607
 20
1771.5618689999999
 30
0.0
 41
90.0
 42
90.0
 43
90.0
 50
90.0
  0
INSERT
  5
7E57
  8
3
  6
CONTINUOUS
 62
     0
  2
_OPEN
 10
-4928.7170970288607
 20
591.561869
 30
0.0
 41
90.0
 42
90.0
 43
90.0
 50
270.0
  0
TEXT
  8
3
  40
135
  5
7ED1
  62
0
  72
0
  71
0
 10
-5311.22
 20
916.523
 30
0.000000
  1
1180
  0
POINT
  5
7E59
  8
DEFPOINTS
  6
CONTINUOUS
 62
     0
 10
-5524.7440050288596
 20
1771.5618689999999
 30
0.0
  0
POINT
  5
7E5A
  8
DEFPOINTS
  6
CONTINUOUS
 62
     0
 10
-5524.7440050288596
 20
591.56186900000012
 30
0.0
  0
POINT
  5
7E5B
  8
DEFPOINTS
  6
CONTINUOUS
 62
     0
 10
-4928.7170970288607
 20
591.561869
 30
0.0
  0
ENDBLK
  5
7B8B
  8
0
  0
BLOCK
  8
0
  2
*D7
 70
     1
 10
0.0
 20
0.0
 30
0.0
  3
*D7
  1

  0
LINE
  5
7E5C
  8
3
  6
CONTINUOUS
 62
     0
 10
-7884.7440050288606
 20
569.061869
 30
0.0
 11
-7884.7440050288606
 21
109.8077769999999
 31
0.0
  0
LINE
  5
7E5D
  8
3
  6
CONTINUOUS
 62
     0
 10
-5524.7440050288596
 20
569.061869
 30
0.0
 11
-5524.7440050288596
 21
109.8077769999999
 31
0.0
  0
LINE
  5
7E5E
  8
3
  6
CONTINUOUS
 62
     0
 10
-7794.7440050288596
 20
154.8077769999999
 30
0.0
 11
-5614.7440050288596
 21
154.8077769999999
 31
0.0
  0
INSERT
  5
7E5F
  8
3
  6
CONTINUOUS
 62
     0
  2
_OPEN
 10
-7884.7440050288606
 20
154.8077769999999
 30
0.0
 41
90.0
 42
90.0
 43
90.0
 50
180.0
  0
INSERT
  5
7E60
  8
3
  6
CONTINUOUS
 62
     0
  2
_OPEN
 10
-5524.7440050288596
 20
154.8077769999999
 30
0.0
 41
90.0
 42
90.0
 43
90.0
  0
TEXT
  8
3
  40
135
  5
7ED2
  62
0
  72
0
  71
0
 10
-6921.31
 20
28.3578
 30
0.000000
  1
2360
  0
POINT
  5
7E62
  8
DEFPOINTS
  6
CONTINUOUS
 62
     0
 10
-7884.7440050288606
 20
591.56186900000012
 30
0.0
  0
POINT
  5
7E63
  8
DEFPOINTS
  6
CONTINUOUS
 62
     0
 10
-5524.7440050288596
 20
591.56186900000012
 30
0.0
  0
POINT
  5
7E64
  8
DEFPOINTS
  6
CONTINUOUS
 62
     0
 10
-5524.7440050288596
 20
154.8077769999999
 30
0.0
  0
ENDBLK
  5
7B98
  8
0
  0
BLOCK
  8
0
  2
*D8
 70
     1
 10
0.0
 20
0.0
 30
0.0
  3
*D8
  1

  0
LINE
  5
7E65
  8
3
  6
CONTINUOUS
 62
     0
 10
-3383.6109180288599
 20
-1845.1475560071201
 30
0.0
 11
-3383.6109180288599
 21
-1607.49313400712
 31
0.0
  0
LINE
  5
7E66
  8
3
  6
CONTINUOUS
 62
     0
 10
-2533.6109180288609
 20
-1845.1475560071201
 30
0.0
 11
-2533.6109180288609
 21
-1607.49313400712
 31
0.0
  0
LINE
  5
7E67
  8
3
  6
CONTINUOUS
 62
     0
 10
-3293.6109180288609
 20
-1652.49313400712
 30
0.0
 11
-2623.6109180288609
 21
-1652.49313400712
 31
0.0
  0
INSERT
  5
7E68
  8
3
  6
CONTINUOUS
 62
     0
  2
_OPEN
 10
-3383.6109180288599
 20
-1652.49313400712
 30
0.0
 41
90.0
 42
90.0
 43
90.0
 50
180.0
  0
INSERT
  5
7E69
  8
3
  6
CONTINUOUS
 62
     0
  2
_OPEN
 10
-2533.6109180288609
 20
-1652.49313400712
 30
0.0
 41
90.0
 42
90.0
 43
90.0
  0
TEXT
  8
3
  40
135
  5
7ED3
  62
0
  72
0
  71
0
 10
-3260.80
 20
-1778.94
 30
0.000000
  1
850
  0
POINT
  5
7E6B
  8
DEFPOINTS
  6
CONTINUOUS
 62
     0
 10
-3383.6109180288599
 20
-1867.6475560071201
 30
0.0
  0
POINT
  5
7E6C
  8
DEFPOINTS
  6
CONTINUOUS
 62
     0
 10
-2533.6109180288609
 20
-1867.6475560071201
 30
0.0
  0
POINT
  5
7E6D
  8
DEFPOINTS
  6
CONTINUOUS
 62
     0
 10
-2533.6109180288609
 20
-1652.49313400712
 30
0.0
  0
ENDBLK
  5
7BA7
  8
0
  0
BLOCK
  8
0
  2
*D9
 70
     1
 10
0.0
 20
0.0
 30
0.0
  3
*D9
  1

  0
LINE
  5
7E6E
  8
3
  6
CONTINUOUS
 62
     0
 10
-2408.1109180288609
 20
-2067.6475560071199
 30
0.0
 11
-1985.1276680288611
 21
-2067.6475560071199
 31
0.0
  0
LINE
  5
7E6F
  8
3
  6
CONTINUOUS
 62
     0
 10
-2408.1109180288609
 20
-3187.6475560071199
 30
0.0
 11
-1985.1276680288611
 21
-3187.6475560071199
 31
0.0
  0
LINE
  5
7E70
  8
3
  6
CONTINUOUS
 62
     0
 10
-2030.1276680288611
 20
-2157.6475560071199
 30
0.0
 11
-2030.1276680288611
 21
-3097.6475560071199
 31
0.0
  0
INSERT
  5
7E71
  8
3
  6
CONTINUOUS
 62
     0
  2
_OPEN
 10
-2030.1276680288611
 20
-2067.6475560071199
 30
0.0
 41
90.0
 42
90.0
 43
90.0
 50
90.0
  0
INSERT
  5
7E72
  8
3
  6
CONTINUOUS
 62
     0
  2
_OPEN
 10
-2030.1276680288611
 20
-3187.6475560071199
 30
0.0
 41
90.0
 42
90.0
 43
90.0
 50
270.0
  0
TEXT
  8
3
  40
135
  5
7ED4
  62
0
  72
0
  71
0
 10
-2412.63
 20
-2890.79
 30
0.000000
  1
φ1120
  0
POINT
  5
7E74
  8
DEFPOINTS
  6
CONTINUOUS
 62
     0
 10
-2430.6109180288609
 20
-2067.6475560071199
 30
0.0
  0
POINT
  5
7E75
  8
DEFPOINTS
  6
CONTINUOUS
 62
     0
 10
-2430.6109180288609
 20
-3187.6475560071199
 30
0.0
  0
POINT
  5
7E76
  8
DEFPOINTS
  6
CONTINUOUS
 62
     0
 10
-2030.1276680288611
 20
-3187.6475560071199
 30
0.0
  0
ENDBLK
  5
7C6B
  8
0
  0
BLOCK
  8
0
  2
*D10
 70
     1
 10
0.0
 20
0.0
 30
0.0
  3
*D10
  1

  0
LINE
  5
7E77
  8
3
  6
CONTINUOUS
 62
     0
 10
-3718.6036330288612
 20
-2227.1475560071199
 30
0.0
 11
-3718.6036330288612
 21
-1361.9610670071199
 31
0.0
  0
LINE
  5
7E78
  8
3
  6
CONTINUOUS
 62
     0
 10
-2958.6109180288609
 20
-1430.8235630071199
 30
0.0
 11
-2958.6109180288609
 21
-1361.9610670071199
 31
0.0
  0
LINE
  5
7E79
  8
3
  6
CONTINUOUS
 62
     0
 10
-3628.6036330288612
 20
-1406.9610670071199
 30
0.0
 11
-3048.6109180288599
 21
-1406.9610670071199
 31
0.0
  0
INSERT
  5
7E7A
  8
3
  6
CONTINUOUS
 62
     0
  2
_OPEN
 10
-3718.6036330288612
 20
-1406.9610670071199
 30
0.0
 41
90.0
 42
90.0
 43
90.0
 50
180.0
  0
INSERT
  5
7E7B
  8
3
  6
CONTINUOUS
 62
     0
  2
_OPEN
 10
-2958.6109180288609
 20
-1406.9610670071199
 30
0.0
 41
90.0
 42
90.0
 43
90.0
  0
TEXT
  8
3
  40
135
  5
7ED5
  62
0
  72
0
  71
0
 10
-3605.32
 20
-1420.91
 30
0.000000
  1
MAX
  0
TEXT
  8
3
  40
135
  5
7ED6
  62
0
  72
0
  71
0
 10
-3605.32
 20
-1596.41
 30
0.000000
  1
850
  0
POINT
  5
7E7D
  8
DEFPOINTS
  6
CONTINUOUS
 62
     0
 10
-3718.6036330288612
 20
-2249.6475560071199
 30
0.0
  0
POINT
  5
7E7E
  8
DEFPOINTS
  6
CONTINUOUS
 62
     0
 10
-2958.6109180288609
 20
-1453.3235630071199
 30
0.0
  0
POINT
  5
7E7F
  8
DEFPOINTS
  6
CONTINUOUS
 62
     0
 10
-2958.6109180288609
 20
-1406.9610670071199
 30
0.0
  0
ENDBLK
  5
7C76
  8
0
  0
BLOCK
  8
0
  2
*D11
 70
     1
 10
0.0
 20
0.0
 30
0.0
  3
*D11
  1

  0
LINE
  5
7E80
  8
3
  6
CONTINUOUS
 62
     0
 10
-2430.6109180288609
 20
-1995.1475560071201
 30
0.0
 11
-2430.6109180288609
 21
-1361.9610670071199
 31
0.0
  0
LINE
  5
7E81
  8
3
  6
CONTINUOUS
 62
     0
 10
-2868.6109180288609
 20
-1406.9610670071199
 30
0.0
 11
-2520.6109180288609
 21
-1406.9610670071199
 31
0.0
  0
TEXT
  8
3
  40
135
  5
7ED7
  62
0
  72
0
  71
0
 10
-2969.29
 20
-1532.75
 30
0.000000
  1
528
  0
INSERT
  5
7E83
  8
3
  6
CONTINUOUS
 62
     0
  2
_OPEN
 10
-2958.6109180288609
 20
-1406.9610670071199
 30
0.0
 41
90.0
 42
90.0
 43
90.0
 50
180.0
  0
INSERT
  5
7E84
  8
3
  6
CONTINUOUS
 62
     0
  2
_OPEN
 10
-2430.6109180288609
 20
-1406.9610670071199
 30
0.0
 41
90.0
 42
90.0
 43
90.0
  0
POINT
  5
7E85
  8
DEFPOINTS
  6
CONTINUOUS
 62
     0
 10
-2958.6109180288609
 20
-1453.3235630071199
 30
0.0
  0
POINT
  5
7E86
  8
DEFPOINTS
  6
CONTINUOUS
 62
     0
 10
-2430.6109180288609
 20
-2017.6475560071201
 30
0.0
  0
POINT
  5
7E87
  8
DEFPOINTS
  6
CONTINUOUS
 62
     0
 10
-2430.6109180288609
 20
-1406.9610670071199
 30
0.0
  0
ENDBLK
  5
7C51
  8
0
  0
BLOCK
  8
0
  2
*D12
 70
     1
 10
0.0
 20
0.0
 30
0.0
  3
*D12
  1

  0
LINE
  5
7E88
  8
3
 62
     0
 10
-7884.7440050288606
 20
-3490.1475560071199
 30
0.0
 11
-7884.7440050288606
 21
-995.96013108773332
 31
0.0
  0
LINE
  5
7E89
  8
3
 62
     0
 10
-5379.7440050288606
 20
-2582.6475560071199
 30
0.0
 11
-5379.7440050288606
 21
-995.96013108773332
 31
0.0
  0
LINE
  5
7E8A
  8
3
 62
     0
 10
-7794.7440050288596
 20
-1040.9601310877331
 30
0.0
 11
-5469.7440050288606
 21
-1040.9601310877331
 31
0.0
  0
INSERT
  5
7E8B
  8
3
 62
     0
  2
_OPEN
 10
-7884.7440050288606
 20
-1040.9601310877331
 30
0.0
 41
90.0
 42
90.0
 43
90.0
 50
180.0
  0
INSERT
  5
7E8C
  8
3
 62
     0
  2
_OPEN
 10
-5379.7440050288606
 20
-1040.9601310877331
 30
0.0
 41
90.0
 42
90.0
 43
90.0
  0
TEXT
  8
3
  40
135
  5
7ED8
  62
0
  72
0
  71
0
 10
-6849.68
 20
-1167.41
 30
0.000000
  1
2505
  0
POINT
  5
7E8E
  8
DEFPOINTS
 62
     0
 10
-7884.7440050288606
 20
-3512.6475560071199
 30
0.0
  0
POINT
  5
7E8F
  8
DEFPOINTS
 62
     0
 10
-5379.7440050288606
 20
-2605.1475560071199
 30
0.0
  0
POINT
  5
7E90
  8
DEFPOINTS
 62
     0
 10
-5379.7440050288606
 20
-1040.9601310877331
 30
0.0
  0
ENDBLK
  5
7C9A
  8
0
  0
BLOCK
  8
0
  2
*D13
 70
     1
 10
0.0
 20
0.0
 30
0.0
  3
*D13
  1

  0
LINE
  5
7E91
  8
3
 62
     0
 10
-7884.7440050288606
 20
-3840.1475560071199
 30
0.0
 11
-7884.7440050288606
 21
-4168.1383444222047
 31
0.0
  0
LINE
  5
7E92
  8
3
 62
     0
 10
-6184.7440050288606
 20
-3840.1475560071199
 30
0.0
 11
-6184.7440050288606
 21
-4168.1383444222047
 31
0.0
  0
LINE
  5
7E93
  8
3
 62
     0
 10
-7794.7440050288596
 20
-4123.1383444222038
 30
0.0
 11
-6274.7440050288596
 21
-4123.1383444222038
 31
0.0
  0
INSERT
  5
7E94
  8
3
 62
     0
  2
_OPEN
 10
-7884.7440050288606
 20
-4123.1383444222038
 30
0.0
 41
90.0
 42
90.0
 43
90.0
 50
180.0
  0
INSERT
  5
7E95
  8
3
 62
     0
  2
_OPEN
 10
-6184.7440050288606
 20
-4123.1383444222038
 30
0.0
 41
90.0
 42
90.0
 43
90.0
  0
TEXT
  8
3
  40
135
  5
7ED9
  62
0
  72
0
  71
0
 10
-7304.74
 20
-4249.59
 30
0.000000
  1
1700
  0
POINT
  5
7E97
  8
DEFPOINTS
 62
     0
 10
-7884.7440050288606
 20
-3817.6475560071199
 30
0.0
  0
POINT
  5
7E98
  8
DEFPOINTS
 62
     0
 10
-6184.7440050288606
 20
-3817.6475560071199
 30
0.0
  0
POINT
  5
7E99
  8
DEFPOINTS
 62
     0
 10
-6184.7440050288606
 20
-4123.1383444222038
 30
0.0
  0
ENDBLK
  5
7CD9
  8
0
  0
BLOCK
  8
0
  2
*D14
 70
     1
 10
0.0
 20
0.0
 30
0.0
  3
*D14
  1

  0
LINE
  5
7E9A
  8
3
 62
     0
 10
-6184.7440050288606
 20
-3840.1475560071199
 30
0.0
 11
-6184.7440050288606
 21
-4168.1383444222047
 31
0.0
  0
LINE
  5
7E9B
  8
3
 62
     0
 10
-5524.7440050288596
 20
-3840.1475560071199
 30
0.0
 11
-5524.7440050288596
 21
-4168.1383444222047
 31
0.0
  0
LINE
  5
7E9C
  8
3
 62
     0
 10
-6094.7440050288606
 20
-4123.1383444222038
 30
0.0
 11
-5614.7440050288596
 21
-4123.1383444222038
 31
0.0
  0
INSERT
  5
7E9D
  8
3
 62
     0
  2
_OPEN
 10
-6184.7440050288606
 20
-4123.1383444222038
 30
0.0
 41
90.0
 42
90.0
 43
90.0
 50
180.0
  0
INSERT
  5
7E9E
  8
3
 62
     0
  2
_OPEN
 10
-5524.7440050288596
 20
-4123.1383444222038
 30
0.0
 41
90.0
 42
90.0
 43
90.0
  0
TEXT
  8
3
  40
135
  5
7EDA
  62
0
  72
0
  71
0
 10
-6124.74
 20
-4249.59
 30
0.000000
  1
660
  0
POINT
  5
7EA0
  8
DEFPOINTS
 62
     0
 10
-6184.7440050288606
 20
-3817.6475560071199
 30
0.0
  0
POINT
  5
7EA1
  8
DEFPOINTS
 62
     0
 10
-5524.7440050288596
 20
-3817.6475560071199
 30
0.0
  0
POINT
  5
7EA2
  8
DEFPOINTS
 62
     0
 10
-5524.7440050288596
 20
-4123.1383444222038
 30
0.0
  0
ENDBLK
  5
7CE6
  8
0
  0
BLOCK
  8
0
  2
*D15
 70
     1
 10
0.0
 20
0.0
 30
0.0
  3
*D15
  1

  0
LINE
  5
7EA3
  8
3
 62
     0
 10
-3645.6109180288599
 20
-3840.1475560071199
 30
0.0
 11
-3645.6109180288599
 21
-4168.1383444222047
 31
0.0
  0
LINE
  5
7EA4
  8
3
 62
     0
 10
-2958.6109180288599
 20
-3840.147556007119
 30
0.0
 11
-2958.6109180288599
 21
-4168.1383444222047
 31
0.0
  0
LINE
  5
7EA5
  8
3
 62
     0
 10
-3555.6109180288609
 20
-4123.1383444222038
 30
0.0
 11
-3048.6109180288599
 21
-4123.1383444222038
 31
0.0
  0
INSERT
  5
7EA6
  8
3
 62
     0
  2
_OPEN
 10
-3645.6109180288599
 20
-4123.1383444222038
 30
0.0
 41
90.0
 42
90.0
 43
90.0
 50
180.0
  0
INSERT
  5
7EA7
  8
3
 62
     0
  2
_OPEN
 10
-2958.6109180288599
 20
-4123.1383444222038
 30
0.0
 41
90.0
 42
90.0
 43
90.0
  0
TEXT
  8
3
  40
135
  5
7EDB
  62
0
  72
0
  71
0
 10
-3572.11
 20
-4249.59
 30
0.000000
  1
687
  0
POINT
  5
7EA9
  8
DEFPOINTS
 62
     0
 10
-3645.6109180288599
 20
-3817.6475560071199
 30
0.0
  0
POINT
  5
7EAA
  8
DEFPOINTS
 62
     0
 10
-2958.6109180288599
 20
-3817.6475560071199
 30
0.0
  0
POINT
  5
7EAB
  8
DEFPOINTS
 62
     0
 10
-2958.6109180288599
 20
-4123.1383444222038
 30
0.0
  0
ENDBLK
  5
7CF3
  8
0
  0
BLOCK
  8
0
  2
*D16
 70
     1
 10
0.0
 20
0.0
 30
0.0
  3
*D16
  1

  0
LINE
  5
7EAC
  8
3
 62
     0
 10
-2958.6109180288599
 20
-3840.147556007119
 30
0.0
 11
-2958.6109180288599
 21
-4168.1383444222047
 31
0.0
  0
LINE
  5
7EAD
  8
3
 62
     0
 10
-2465.6109180288609
 20
-3840.1475560071199
 30
0.0
 11
-2465.6109180288609
 21
-4168.1383444222047
 31
0.0
  0
LINE
  5
7EAE
  8
3
 62
     0
 10
-2868.6109180288599
 20
-4123.1383444222038
 30
0.0
 11
-2555.6109180288609
 21
-4123.1383444222038
 31
0.0
  0
INSERT
  5
7EAF
  8
3
 62
     0
  2
_OPEN
 10
-2958.6109180288599
 20
-4123.1383444222038
 30
0.0
 41
90.0
 42
90.0
 43
90.0
 50
180.0
  0
INSERT
  5
7EB0
  8
3
 62
     0
  2
_OPEN
 10
-2465.6109180288609
 20
-4123.1383444222038
 30
0.0
 41
90.0
 42
90.0
 43
90.0
  0
TEXT
  8
3
  40
135
  5
7EDC
  62
0
  72
0
  71
0
 10
-2982.11
 20
-4249.59
 30
0.000000
  1
493
  0
POINT
  5
7EB2
  8
DEFPOINTS
 62
     0
 10
-2958.6109180288599
 20
-3817.6475560071199
 30
0.0
  0
POINT
  5
7EB3
  8
DEFPOINTS
 62
     0
 10
-2465.6109180288609
 20
-3817.6475560071199
 30
0.0
  0
POINT
  5
7EB4
  8
DEFPOINTS
 62
     0
 10
-2465.6109180288609
 20
-4123.1383444222038
 30
0.0
  0
ENDBLK
  5
7D02
  8
0
  0
BLOCK
  8
0
  2
_DOT
 70
     0
 10
0.0
 20
0.0
 30
0.0
  3
_DOT
  1

  0
POLYLINE
  5
7D06
  8
0
  6
BYBLOCK
 62
     0
 66
     1
 10
0.0
 20
0.0
 30
0.0
 70
     1
 40
0.5
 41
0.5
  0
VERTEX
  5
7EB5
  8
0
  6
BYBLOCK
 62
     0
 10
-0.25
 20
0.0
 30
0.0
 42
1.0
  0
VERTEX
  5
7EB6
  8
0
  6
BYBLOCK
 62
     0
 10
0.25
 20
0.0
 30
0.0
 42
1.0
  0
SEQEND
  5
7EB7
  8
0
  6
BYBLOCK
 62
     0
  0
LINE
  5
7D0A
  8
0
  6
BYBLOCK
 62
     0
 10
-0.5
 20
0.0
 30
0.0
 11
-1.0
 21
0.0
 31
0.0
  0
ENDBLK
  5
7D0B
  8
0
  0
BLOCK
  8
0
  2
*D18
 70
     1
 10
0.0
 20
0.0
 30
0.0
  3
*D18
  1

  0
LINE
  5
7EB8
  8
3
 62
     0
 10
-5502.2440050288606
 20
-3752.6475560071199
 30
0.0
 11
-4981.0101439458667
 21
-3752.6475560071208
 31
0.0
  0
LINE
  5
7EB9
  8
3
 62
     0
 10
-5502.2440050288606
 20
-3817.6475560071199
 30
0.0
 11
-4981.0101439458667
 21
-3817.6475560071208
 31
0.0
  0
LINE
  5
7EBA
  8
3
 62
     0
 10
-5026.0101439458667
 20
-3662.6475560071199
 30
0.0
 11
-5026.0101439458667
 21
-3572.6475560071208
 31
0.0
  0
LINE
  5
7EBB
  8
3
 62
     0
 10
-5026.0101439458667
 20
-3907.6475560071208
 30
0.0
 11
-5026.0101439458667
 21
-4306.2189845785488
 31
0.0
  0
LINE
  5
7EBC
  8
3
 62
     0
 10
-5026.0101439458667
 20
-3752.6475560071208
 30
0.0
 11
-5026.0101439458667
 21
-3817.6475560071208
 31
0.0
  0
INSERT
  5
7EBD
  8
3
 62
     0
  2
_DOT
 10
-5026.0101439458667
 20
-3752.6475560071208
 30
0.0
 41
90.0
 42
90.0
 43
90.0
 50
270.0
  0
INSERT
  5
7EBE
  8
3
 62
     0
  2
_OPEN
 10
-5026.0101439458667
 20
-3817.6475560071208
 30
0.0
 41
90.0
 42
90.0
 43
90.0
 50
90.0
  0
TEXT
  8
3
  40
135
  5
7EDD
  62
0
  72
0
  71
0
 10
-5408.51
 20
-4390.88
 30
0.000000
  1
65
  0
POINT
  5
7EC0
  8
DEFPOINTS
 62
     0
 10
-5524.7440050288596
 20
-3752.6475560071199
 30
0.0
  0
POINT
  5
7EC1
  8
DEFPOINTS
 62
     0
 10
-5524.7440050288596
 20
-3817.6475560071199
 30
0.0
  0
POINT
  5
7EC2
  8
DEFPOINTS
 62
     0
 10
-5026.0101439458667
 20
-3817.6475560071208
 30
0.0
  0
ENDBLK
  5
7D19
  8
0
  0
BLOCK
  8
0
  2
*D19
 70
     1
 10
0.0
 20
0.0
 30
0.0
  3
*D19
  1

  0
LINE
  5
7D1D
  8
0
  6
BYBLOCK
 62
     0
 10
-5502.2440050288606
 20
-3752.6475560071199
 30
0.0
 11
-4981.0101439458667
 21
-3752.6475560071199
 31
0.0
  0
LINE
  5
7D1E
  8
0
  6
BYBLOCK
 62
     0
 10
-5502.2440050288606
 20
-3637.6475560071199
 30
0.0
 11
-4981.0101439458667
 21
-3637.6475560071199
 31
0.0
  0
LINE
  5
7D1F
  8
0
  6
BYBLOCK
 62
     0
 10
-5026.0101439458667
 20
-3842.6475560071199
 30
0.0
 11
-5026.0101439458667
 21
-3932.6475560071199
 31
0.0
  0
LINE
  5
7D20
  8
0
  6
BYBLOCK
 62
     0
 10
-5026.0101439458667
 20
-3547.6475560071199
 30
0.0
 11
-5026.0101439458667
 21
-3457.6475560071199
 31
0.0
  0
TEXT
  5
7D21
  8
3
 62
     0
 10
-4765.6530010887236
 20
-3929.7904131499772
 30
0.0
 40
135.0
  1
(115)
 50
90.0
  0
LINE
  5
7D22
  8
0
  6
BYBLOCK
 62
     0
 10
-5026.0101439458667
 20
-3752.6475560071199
 30
0.0
 11
-5026.0101439458667
 21
-3637.6475560071199
 31
0.0
  0
INSERT
  5
7D23
  8
0
  6
BYBLOCK
 62
     0
  2
_DOT
 10
-5026.0101439458667
 20
-3752.6475560071199
 30
0.0
 41
90.0
 42
90.0
 43
90.0
 50
90.0
  0
INSERT
  5
7D24
  8
0
  6
BYBLOCK
 62
     0
  2
_OPEN
 10
-5026.0101439458667
 20
-3637.6475560071199
 30
0.0
 41
90.0
 42
90.0
 43
90.0
 50
270.0
  0
POINT
  5
7D25
  8
DEFPOINTS
  6
BYBLOCK
 62
     0
 10
-5524.7440050288596
 20
-3752.6475560071199
 30
0.0
  0
POINT
  5
7D26
  8
DEFPOINTS
  6
BYBLOCK
 62
     0
 10
-5524.7440050288596
 20
-3637.6475560071199
 30
0.0
  0
POINT
  5
7D27
  8
DEFPOINTS
  6
BYBLOCK
 62
     0
 10
-5026.0101439458667
 20
-3637.6475560071199
 30
0.0
  0
ENDBLK
  5
7D28
  8
0
  0
BLOCK
  8
0
  2
*D20
 70
     1
 10
0.0
 20
0.0
 30
0.0
  3
*D20
  1

  0
LINE
  5
7EC3
  8
3
 62
     0
 10
-6157.2440050288606
 20
-1867.6475560071201
 30
0.0
 11
-4535.2721888700671
 21
-1867.647556007121
 31
0.0
  0
LINE
  5
7EC4
  8
3
 62
     0
 10
-5502.2440050288606
 20
-3817.6475560071199
 30
0.0
 11
-4535.2721888700689
 21
-3817.6475560071208
 31
0.0
  0
LINE
  5
7EC5
  8
3
 62
     0
 10
-4580.2721888700671
 20
-1957.6475560071201
 30
0.0
 11
-4580.272188870068
 21
-3727.6475560071208
 31
0.0
  0
INSERT
  5
7EC6
  8
3
 62
     0
  2
_OPEN
 10
-4580.2721888700671
 20
-1867.647556007121
 30
0.0
 41
90.0
 42
90.0
 43
90.0
 50
90.0
  0
INSERT
  5
7EC7
  8
3
 62
     0
  2
_OPEN
 10
-4580.272188870068
 20
-3817.6475560071208
 30
0.0
 41
90.0
 42
90.0
 43
90.0
 50
270.0
  0
TEXT
  8
3
  40
135
  5
7EDE
  62
0
  72
0
  71
0
 10
-4998.13
 20
-3081.60
 30
0.000000
  1
(1950)
  0
POINT
  5
7EC9
  8
DEFPOINTS
 62
     0
 10
-6179.7440050288606
 20
-1867.6475560071201
 30
0.0
  0
POINT
  5
7ECA
  8
DEFPOINTS
 62
     0
 10
-5524.7440050288596
 20
-3817.6475560071199
 30
0.0
  0
POINT
  5
7ECB
  8
DEFPOINTS
 62
     0
 10
-4580.272188870068
 20
-3817.6475560071208
 30
0.0
  0
ENDBLK
  5
7D35
  8
0
  0
ENDSEC
  0
SECTION
  2
ENTITIES
  0
LINE
  5
7A6E
  8
1
  6
CONTINUOUS
 10
-2465.6109180288609
 20
-3512.6475560071199
 30
0.0
 11
-3645.6109180288599
 21
-3512.6475560071199
 31
0.0
  0
LINE
  5
7A6F
  8
1
  6
CONTINUOUS
 10
-2465.6109180288609
 20
-3637.6475560071199
 30
0.0
 11
-3645.6109180288599
 21
-3637.6475560071199
 31
0.0
  0
LINE
  5
7A70
  8
1
  6
CONTINUOUS
 10
-3718.6036330288612
 20
-2249.6475560071199
 30
0.0
 11
-3458.6109180288609
 21
-2249.6475560071199
 31
0.0
  0
LINE
  5
7A71
  8
1
  6
CONTINUOUS
 10
-3718.6036330288612
 20
-3497.6475560071199
 30
0.0
 11
-3458.6109180288609
 21
-3497.6475560071199
 31
0.0
  0
LINE
  5
7A72
  8
1
  6
CONTINUOUS
 10
-3528.6109180288609
 20
-3250.1475560071199
 30
0.0
 11
-3383.6109180288599
 21
-3250.1475560071199
 31
0.0
  0
LINE
  5
7A73
  8
1
  6
CONTINUOUS
 10
-3528.6109180288609
 20
-3305.1475560071199
 30
0.0
 11
-3383.6109180288599
 21
-3305.1475560071199
 31
0.0
  0
LINE
  5
7A74
  8
1
  6
CONTINUOUS
 10
-3528.6109180288609
 20
-2600.1475560071199
 30
0.0
 11
-3383.6109180288599
 21
-2600.1475560071199
 31
0.0
  0
LINE
  5
7A75
  8
1
  6
CONTINUOUS
 10
-3528.6109180288609
 20
-2655.1475560071199
 30
0.0
 11
-3383.6109180288599
 21
-2655.1475560071199
 31
0.0
  0
LINE
  5
7A76
  8
1
  6
CONTINUOUS
 10
-2465.6109180288609
 20
-3817.6475560071199
 30
0.0
 11
-3645.6109180288599
 21
-3817.6475560071199
 31
0.0
  0
LINE
  5
7A77
  8
1
  6
CONTINUOUS
 10
-2465.6109180288609
 20
-3752.6475560071199
 30
0.0
 11
-3645.6109180288599
 21
-3752.6475560071199
 31
0.0
  0
LINE
  5
7A78
  8
1
  6
CONTINUOUS
 10
-7486.8440050288609
 20
-3485.2475560071198
 30
0.0
 11
-6059.5440050288607
 21
-2984.3475560071201
 31
0.0
  0
LINE
  5
7A79
  8
1
  6
CONTINUOUS
 10
-7520.0440050288607
 20
-3390.8475560071201
 30
0.0
 11
-6092.6440050288611
 21
-2889.9475560071201
 31
0.0
  0
LINE
  5
7A7A
  8
1
  6
CONTINUOUS
 10
-7673.9440050288613
 20
-3089.54755600712
 30
0.0
 11
-6380.9440050288622
 21
-2304.54755600712
 31
0.0
  0
LINE
  5
7A7B
  8
1
  6
CONTINUOUS
 10
-7622.0440050288607
 20
-3175.04755600712
 30
0.0
 11
-6329.0440050288607
 21
-2390.04755600712
 31
0.0
  0
CIRCLE
  5
7A7C
  8
1
  6
CONTINUOUS
 10
-6184.7440050288606
 20
-2627.6475560071199
 30
0.0
 40
610.0
  0
CIRCLE
  5
7A7D
  8
1
  6
CONTINUOUS
 10
-6184.7440050288606
 20
-2627.6475560071199
 30
0.0
 40
560.0
  0
LINE
  5
7A7E
  8
1
  6
CONTINUOUS
 10
-5524.7440050288596
 20
-3512.6475560071199
 30
0.0
 11
-7884.7440050288606
 21
-3512.6475560071199
 31
0.0
  0
LINE
  5
7A7F
  8
1
  6
CONTINUOUS
 10
-6232.7440050288606
 20
-1907.6475560071201
 30
0.0
 11
-7379.3440050288609
 21
-1907.6475560071201
 31
0.0
  0
LINE
  5
7A80
  8
1
  6
CONTINUOUS
 10
-5524.7440050288596
 20
-3637.6475560071199
 30
0.0
 11
-7884.7440050288606
 21
-3637.6475560071199
 31
0.0
  0
ARC
  5
7A81
  8
1
  6
CONTINUOUS
 10
-6266.7440050288596
 20
-2545.6475560071199
 30
0.0
 40
1054.2
 50
184.49999999999989
 51
270.0
  0
LINE
  5
7A82
  8
1
  6
CONTINUOUS
 10
-6179.7440050288606
 20
-1867.6475560071201
 30
0.0
 11
-7435.7440050288596
 21
-1867.6475560071201
 31
0.0
  0
LINE
  5
7A83
  8
1
  6
CONTINUOUS
 10
-5524.7440050288596
 20
-3817.6475560071199
 30
0.0
 11
-7884.7440050288606
 21
-3817.6475560071199
 31
0.0
  0
LINE
  5
7A84
  8
1
  6
CONTINUOUS
 10
-5524.7440050288596
 20
-3752.6475560071199
 30
0.0
 11
-7884.7440050288606
 21
-3752.6475560071199
 31
0.0
  0
LINE
  5
7A85
  8
1
  6
CONTINUOUS
 10
-7884.7440050288606
 20
-3512.6475560071199
 30
0.0
 11
-7884.7440050288606
 21
-3637.6475560071199
 31
0.0
  0
LINE
  5
7A86
  8
1
  6
CONTINUOUS
 10
-7884.7440050288606
 20
-3752.6475560071199
 30
0.0
 11
-7884.7440050288606
 21
-3817.6475560071199
 31
0.0
  0
LINE
  5
7A87
  8
1
  6
CONTINUOUS
 10
-7382.7440050288596
 20
-1867.6475560071201
 30
0.0
 11
-7317.7440050288606
 21
-2627.6475560071199
 31
0.0
  0
ARC
  5
7A88
  8
1
  6
CONTINUOUS
 10
-7559.7440050288606
 20
-3277.6475560071199
 30
0.0
 40
199.0
 50
320.10000000000002
 51
219.90000000000001
  0
CIRCLE
  5
7A89
  8
1
  6
CONTINUOUS
 10
-7559.7440050288606
 20
-3277.6475560071199
 30
0.0
 40
120.0
  0
ARC
  5
7A8A
  8
1
  6
CONTINUOUS
 10
-7559.7440050288606
 20
-3277.6475560071199
 30
0.0
 40
220.0
 50
121.3
 51
289.30000000000001
  0
LINE
  5
7A8B
  8
2
  6
CENTER
 10
-7559.7440050288606
 20
-3397.6475560071199
 30
0.0
 11
-7559.7440050288606
 21
-3157.6475560071199
 31
0.0
  0
LINE
  5
7A8C
  8
1
  6
CONTINUOUS
 10
-7784.7440050288606
 20
-3457.6475560071199
 30
0.0
 11
-7334.7440050288606
 21
-3457.6475560071199
 31
0.0
  0
LINE
  5
7A8D
  8
1
  6
CONTINUOUS
 10
-7784.7440050288606
 20
-3512.6475560071199
 30
0.0
 11
-7334.7440050288606
 21
-3512.6475560071199
 31
0.0
  0
LINE
  5
7A8E
  8
1
  6
CONTINUOUS
 10
-7721.7440050288596
 20
-3457.6475560071199
 30
0.0
 11
-7721.7440050288596
 21
-3415.1475560071199
 31
0.0
  0
LINE
  5
7A8F
  8
1
  6
CONTINUOUS
 10
-7721.7440050288596
 20
-3415.1475560071199
 30
0.0
 11
-7712.4440050288613
 21
-3405.2475560071198
 31
0.0
  0
LINE
  5
7A90
  8
1
  6
CONTINUOUS
 10
-7784.7440050288606
 20
-3512.6475560071199
 30
0.0
 11
-7784.7440050288606
 21
-3457.6475560071199
 31
0.0
  0
LINE
  5
7A91
  8
1
  6
CONTINUOUS
 10
-7397.7440050288606
 20
-3457.6475560071199
 30
0.0
 11
-7397.7440050288606
 21
-3415.1475560071199
 31
0.0
  0
LINE
  5
7A92
  8
1
  6
CONTINUOUS
 10
-7397.7440050288606
 20
-3415.1475560071199
 30
0.0
 11
-7407.0440050288607
 21
-3405.2475560071198
 31
0.0
  0
LINE
  5
7A93
  8
1
  6
CONTINUOUS
 10
-7334.7440050288606
 20
-3512.6475560071199
 30
0.0
 11
-7334.7440050288606
 21
-3457.6475560071199
 31
0.0
  0
LINE
  5
7A94
  8
2
  6
CENTER
 10
-7679.7440050288624
 20
-3277.6475560071199
 30
0.0
 11
-7439.7440050288606
 21
-3277.6475560071199
 31
0.0
  0
ARC
  5
7A95
  8
1
  6
CONTINUOUS
 10
-6116.2440050288596
 20
-2696.1475560071199
 30
0.0
 40
739.10000000000002
 50
5.0999999999999988
 51
90.0
  0
ARC
  5
7A96
  8
1
  6
CONTINUOUS
 10
-6266.7440050288596
 20
-2709.6475560071199
 30
0.0
 40
890.20000000000005
 50
270.0
 51
5.0999999999999988
  0
CIRCLE
  5
7A97
  8
1
  6
CONTINUOUS
 10
-6184.7440050288606
 20
-2627.6475560071199
 30
0.0
 40
278.0
  0
ARC
  5
7A98
  8
1
  6
CONTINUOUS
 10
-6184.7440050288606
 20
-2627.6475560071199
 30
0.0
 40
378.0
 50
289.30000000000001
 51
121.3
  0
LINE
  5
7A99
  8
2
  6
CENTER
 10
-6184.7440050288606
 20
-3817.6475560071199
 30
0.0
 11
-6184.7440050288606
 21
-1806.0627180071201
 31
0.0
  0
LINE
  5
7A9A
  8
2
  6
CENTER
 10
-2333.6910900288599
 20
-2627.6475560071199
 30
0.0
 11
-3768.6177810288609
 21
-2627.6475560071199
 31
0.0
  0
LINE
  5
7A9B
  8
1
  6
CONTINUOUS
 10
-5524.7440050288596
 20
-3512.6475560071199
 30
0.0
 11
-5524.7440050288596
 21
-3637.6475560071199
 31
0.0
  0
LINE
  5
7A9C
  8
1
  6
CONTINUOUS
 10
-5524.7440050288596
 20
-3752.6475560071199
 30
0.0
 11
-5524.7440050288596
 21
-3817.6475560071199
 31
0.0
  0
ARC
  5
7A9D
  8
1
  6
CONTINUOUS
 10
-6116.2440050288596
 20
-2559.1475560071199
 30
0.0
 40
602.10000000000002
 50
90.0
 51
101.2
  0
LINE
  5
7A9E
  8
1
  6
CONTINUOUS
 10
-6232.7440050288606
 20
-1968.4475560071201
 30
0.0
 11
-6232.7440050288606
 21
-1867.6475560071201
 31
0.0
  0
LINE
  5
7A9F
  8
1
  6
CONTINUOUS
 10
-3718.6036330288612
 20
-3497.6475560071199
 30
0.0
 11
-3718.6036330288612
 21
-2249.1077960071202
 31
0.0
  0
LINE
  5
7AA0
  8
1
  6
CONTINUOUS
 10
-3628.6109180288609
 20
-2349.6475560071199
 30
0.0
 11
-3628.6109180288609
 21
-2905.6475560071199
 31
0.0
  0
LINE
  5
7AA1
  8
1
  6
CONTINUOUS
 10
-3528.6109180288609
 20
-2349.6475560071199
 30
0.0
 11
-3528.6109180288609
 21
-2905.6475560071199
 31
0.0
  0
LINE
  5
7AA2
  8
1
  6
CONTINUOUS
 10
-3628.6109180288609
 20
-3157.6475560071199
 30
0.0
 11
-3628.6109180288609
 21
-3397.6475560071199
 31
0.0
  0
LINE
  5
7AA3
  8
1
  6
CONTINUOUS
 10
-3528.6109180288609
 20
-3157.6475560071199
 30
0.0
 11
-3528.6109180288609
 21
-3397.6475560071199
 31
0.0
  0
LINE
  5
7AA6
  8
1
  6
CONTINUOUS
 10
-3645.6109180288599
 20
-3637.6475560071199
 30
0.0
 11
-3645.6109180288599
 21
-3512.6475560071199
 31
0.0
  0
LINE
  5
7AA7
  8
1
  6
CONTINUOUS
 10
-3628.6109180288609
 20
-3397.6475560071199
 30
0.0
 11
-3528.6109180288609
 21
-3397.6475560071199
 31
0.0
  0
LINE
  5
7AA8
  8
1
  6
CONTINUOUS
 10
-3645.6109180288599
 20
-3817.6475560071199
 30
0.0
 11
-3645.6109180288599
 21
-3752.6475560071199
 31
0.0
  0
LINE
  5
7AA9
  8
1
  6
CONTINUOUS
 10
-3628.6109180288609
 20
-3157.6475560071199
 30
0.0
 11
-3528.6109180288609
 21
-3157.6475560071199
 31
0.0
  0
LINE
  5
7AAA
  8
1
  6
CONTINUOUS
 10
-3628.6109180288609
 20
-2905.6475560071199
 30
0.0
 11
-3528.6109180288609
 21
-2905.6475560071199
 31
0.0
  0
LINE
  5
7AAB
  8
1
  6
CONTINUOUS
 10
-3628.6109180288609
 20
-2349.6475560071199
 30
0.0
 11
-3528.6109180288609
 21
-2349.6475560071199
 31
0.0
  0
LINE
  5
7AAC
  8
1
  6
CONTINUOUS
 10
-7382.7440050288596
 20
853.56186900000012
 30
0.0
 11
-6232.7440050288606
 21
1703.5618689999999
 31
0.0
  0
LINE
  5
7AAD
  8
1
  6
CONTINUOUS
 10
-7382.7440050288596
 20
1703.5618689999999
 30
0.0
 11
-6232.7440050288606
 21
853.56186900000012
 31
0.0
  0
LINE
  5
7AAE
  8
1
  6
CONTINUOUS
 10
-7884.7440050288606
 20
591.56186900000012
 30
0.0
 11
-5524.7440050288596
 21
591.56186900000012
 31
0.0
  0
LINE
  5
7AAF
  8
1
  6
CONTINUOUS
 10
-7382.7440050288596
 20
1703.5618689999999
 30
0.0
 11
-5376.5440050288607
 21
1703.5618689999999
 31
0.0
  0
LINE
  5
7AB0
  8
1
  6
CONTINUOUS
 10
-7382.7440050288596
 20
853.56186900000012
 30
0.0
 11
-5376.5440050288607
 21
853.56186900000012
 31
0.0
  0
LINE
  5
7AB1
  8
1
  6
CONTINUOUS
 10
-7779.7440050288606
 20
538.56186900000012
 30
0.0
 11
-5806.7440050288606
 21
538.56186900000012
 31
0.0
  0
LINE
  5
7AB2
  8
1
  6
CONTINUOUS
 10
-6794.7440050288596
 20
1806.5618689999999
 30
0.0
 11
-5574.7440050288606
 21
1806.5618689999999
 31
0.0
  0
LINE
  5
7AB3
  8
1
  6
CONTINUOUS
 10
-7779.7440050288606
 20
778.56186900000012
 30
0.0
 11
-5806.7440050288606
 21
778.56186900000012
 31
0.0
  0
LINE
  5
7AB4
  8
1
  6
CONTINUOUS
 10
-7884.7440050288606
 20
1771.5618689999999
 30
0.0
 11
-6744.7440050288596
 21
1771.5618689999999
 31
0.0
  0
LINE
  5
7AB5
  8
1
  6
CONTINUOUS
 10
-7884.7440050288606
 20
1771.5618689999999
 30
0.0
 11
-7884.7440050288606
 21
591.56186900000012
 31
0.0
  0
LINE
  5
7AB6
  8
1
  6
CONTINUOUS
 10
-7382.7440050288596
 20
853.56186900000012
 30
0.0
 11
-7382.7440050288596
 21
1703.5618689999999
 31
0.0
  0
LINE
  5
7AB7
  8
1
  6
CONTINUOUS
 10
-7439.7440050288606
 20
608.56186900000012
 30
0.0
 11
-7439.7440050288606
 21
708.56186900000012
 31
0.0
  0
LINE
  5
7AB8
  8
1
  6
CONTINUOUS
 10
-7679.7440050288624
 20
608.56186900000012
 30
0.0
 11
-7679.7440050288624
 21
708.56186900000012
 31
0.0
  0
LINE
  5
7AB9
  8
1
  6
CONTINUOUS
 10
-7779.7440050288606
 20
538.56186900000012
 30
0.0
 11
-7779.7440050288606
 21
778.56186900000012
 31
0.0
  0
LINE
  5
7ABA
  8
1
  6
CONTINUOUS
 10
-7439.7440050288606
 20
608.56186900000012
 30
0.0
 11
-7679.7440050288624
 21
608.56186900000012
 31
0.0
  0
LINE
  5
7ABB
  8
1
  6
CONTINUOUS
 10
-7758.8440050288591
 20
827.26186899999993
 30
0.0
 11
-7360.6440050288611
 21
827.26186899999993
 31
0.0
  0
LINE
  5
7ABC
  8
1
  6
CONTINUOUS
 10
-7758.8440050288591
 20
1426.761868999999
 30
0.0
 11
-7382.7440050288596
 21
1426.761868999999
 31
0.0
  0
LINE
  5
7ABD
  8
1
  6
CONTINUOUS
 10
-7439.7440050288606
 20
708.56186900000012
 30
0.0
 11
-7679.7440050288624
 21
708.56186900000012
 31
0.0
  0
LINE
  5
7ABE
  8
1
  6
CONTINUOUS
 10
-7758.8440050288591
 20
827.26186899999993
 30
0.0
 11
-7758.8440050288591
 21
1426.761868999999
 31
0.0
  0
LINE
  5
7ABF
  8
1
  6
CONTINUOUS
 10
-7587.2440050288596
 20
708.56186900000012
 30
0.0
 11
-7587.2440050288596
 21
827.26186899999993
 31
0.0
  0
LINE
  5
7AC0
  8
1
  6
CONTINUOUS
 10
-7532.2440050288606
 20
708.56186900000012
 30
0.0
 11
-7532.2440050288606
 21
827.26186899999993
 31
0.0
  0
LINE
  5
7AC1
  8
1
  6
CONTINUOUS
 10
-7360.6440050288611
 20
827.26186899999993
 30
0.0
 11
-7360.6440050288611
 21
853.56186900000012
 31
0.0
  0
LINE
  5
7AC2
  8
1
  6
CONTINUOUS
 10
-6744.7440050288596
 20
1806.5618689999999
 30
0.0
 11
-6744.7440050288596
 21
1703.5618689999999
 31
0.0
  0
LINE
  5
7AC3
  8
1
  6
CONTINUOUS
 10
-6232.7440050288606
 20
853.56186900000012
 30
0.0
 11
-6232.7440050288606
 21
1703.5618689999999
 31
0.0
  0
LINE
  5
7AC4
  8
1
  6
CONTINUOUS
 10
-5906.7440050288606
 20
608.56186900000012
 30
0.0
 11
-6462.7440050288606
 21
608.56186900000012
 31
0.0
  0
LINE
  5
7AC5
  8
1
  6
CONTINUOUS
 10
-5906.7440050288606
 20
708.56186900000012
 30
0.0
 11
-6462.7440050288606
 21
708.56186900000012
 31
0.0
  0
LINE
  5
7AC6
  8
1
  6
CONTINUOUS
 10
-6462.7440050288606
 20
608.56186900000012
 30
0.0
 11
-6462.7440050288606
 21
708.56186900000012
 31
0.0
  0
LINE
  5
7AC7
  8
1
  6
CONTINUOUS
 10
-6157.2440050288606
 20
853.56186900000012
 30
0.0
 11
-6157.2440050288606
 21
708.56186900000012
 31
0.0
  0
LINE
  5
7AC8
  8
1
  6
CONTINUOUS
 10
-6212.2440050288596
 20
853.56186900000012
 30
0.0
 11
-6212.2440050288596
 21
708.56186900000012
 31
0.0
  0
LINE
  5
7AC9
  8
1
  6
CONTINUOUS
 10
-5524.7440050288596
 20
853.56186900000012
 30
0.0
 11
-5524.7440050288596
 21
591.56186900000012
 31
0.0
  0
LINE
  5
7ACA
  8
1
  6
CONTINUOUS
 10
-5906.7440050288606
 20
608.56186900000012
 30
0.0
 11
-5906.7440050288606
 21
708.56186900000012
 31
0.0
  0
LINE
  5
7ACB
  8
1
  6
CONTINUOUS
 10
-5806.7440050288606
 20
538.56186900000012
 30
0.0
 11
-5806.7440050288606
 21
778.56186900000012
 31
0.0
  0
LINE
  5
7ACC
  8
1
  6
CONTINUOUS
 10
-5624.7440050288606
 20
1771.5618689999999
 30
0.0
 11
-5524.7440050288596
 21
1771.5618689999999
 31
0.0
  0
LINE
  5
7ACD
  8
1
  6
CONTINUOUS
 10
-5524.7440050288596
 20
1771.5618689999999
 30
0.0
 11
-5524.7440050288596
 21
1703.5618689999999
 31
0.0
  0
LINE
  5
7ACE
  8
1
  6
CONTINUOUS
 10
-5624.7440050288606
 20
1806.5618689999999
 30
0.0
 11
-5624.7440050288606
 21
1703.5618689999999
 31
0.0
  0
LINE
  5
7ACF
  8
1
  6
CONTINUOUS
 10
-5376.5440050288607
 20
853.56186900000012
 30
0.0
 11
-5376.5440050288607
 21
1703.5618689999999
 31
0.0
  0
LINE
  5
7AD0
  8
1
  6
CONTINUOUS
 10
-3383.6109180288599
 20
-3512.6475560071199
 30
0.0
 11
-3383.6109180288599
 21
-1867.6475560071201
 31
0.0
  0
LINE
  5
7AD1
  8
1
  6
CONTINUOUS
 10
-2533.6109180288609
 20
-3512.6475560071199
 30
0.0
 11
-2533.6109180288609
 21
-1867.6475560071201
 31
0.0
  0
LINE
  5
7AD2
  8
1
  6
CONTINUOUS
 10
-2430.6109180288609
 20
-3237.6475560071199
 30
0.0
 11
-2430.6109180288609
 21
-2017.6475560071201
 31
0.0
  0
LINE
  5
7AD3
  8
1
  6
CONTINUOUS
 10
-3458.6109180288609
 20
-3497.6475560071199
 30
0.0
 11
-3458.6109180288609
 21
-2249.6475560071199
 31
0.0
  0
LINE
  5
7AD4
  8
1
  6
CONTINUOUS
 10
-2465.6109180288609
 20
-3637.6475560071199
 30
0.0
 11
-2465.6109180288609
 21
-3512.6475560071199
 31
0.0
  0
LINE
  5
7AD5
  8
1
  6
CONTINUOUS
 10
-2465.6109180288609
 20
-3817.6475560071199
 30
0.0
 11
-2465.6109180288609
 21
-3752.6475560071199
 31
0.0
  0
LINE
  5
7AD6
  8
1
  6
CONTINUOUS
 10
-2533.6109180288609
 20
-3187.6475560071199
 30
0.0
 11
-2430.6109180288609
 21
-3187.6475560071199
 31
0.0
  0
LINE
  5
7AD7
  8
1
  6
CONTINUOUS
 10
-2483.6109180288609
 20
-1867.6475560071201
 30
0.0
 11
-3433.6109180288609
 21
-1867.6475560071201
 31
0.0
  0
LINE
  5
7AD8
  8
1
  6
CONTINUOUS
 10
-2533.6109180288609
 20
-1907.6475560071201
 30
0.0
 11
-3383.6109180288599
 21
-1907.6475560071201
 31
0.0
  0
LINE
  5
7AD9
  8
1
  6
CONTINUOUS
 10
-2533.6109180288609
 20
-2067.6475560071199
 30
0.0
 11
-2430.6109180288609
 21
-2067.6475560071199
 31
0.0
  0
DIMENSION
  5
7B06
  8
3
  6
CONTINUOUS
  2
*D1
 10
-6232.7440050288606
 20
-1579.06872000712
 30
0.0
 11
-6799.0528960288602
 21
-1579.06872000712
 31
0.0
 70
   128
 13
-7382.7440050288596
 23
-1867.6475560071201
 33
0.0
 14
-6232.7440050288606
 24
-1867.6475560071201
 34
0.0
1001
ACAD
1000
DSTYLE
1002
{
1070
   287
1070
     3
1070
   287
1070
     3
1070
    40
1040
45.0
1070
   143
1040
0.039
1070
   172
1070
     1
1070
   271
1070
     0
1070
   279
1070
     0
1070
   288
1070
     1
1002
}
  0
DIMENSION
  5
7B13
  8
3
  6
CONTINUOUS
  2
*D2
 10
-6184.7440050288606
 20
-1320.3003110071199
 30
0.0
 11
-6739.4246650288624
 21
-1320.3003110071199
 31
0.0
 70
   128
 13
-7382.7440050288596
 23
-1867.6475560071201
 33
0.0
 14
-6184.7440050288606
 24
-1960.95681700712
 34
0.0
1001
ACAD
1000
DSTYLE
1002
{
1070
   287
1070
     3
1070
   287
1070
     3
1070
    40
1040
45.0
1070
   143
1040
0.039
1070
   172
1070
     1
1070
   271
1070
     0
1070
   279
1070
     0
1070
   288
1070
     1
1002
}
  0
DIMENSION
  5
7B1F
  8
3
  6
CONTINUOUS
  2
*D3
 10
-5379.7440050288606
 20
-1320.3003110071199
 30
0.0
 11
-5782.2440050288606
 21
-1207.8003110071199
 31
0.0
 70
     0
 13
-6184.7440050288606
 23
-1960.95681700712
 33
0.0
 14
-5379.7440050288606
 24
-2627.6475560071199
 34
0.0
1001
ACAD
1000
DSTYLE
1002
{
1070
   287
1070
     4
1070
   287
1070
     4
1070
    40
1040
45.0
1070
    75
1070
     1
1070
   143
1040
0.039
1070
   172
1070
     1
1070
   271
1070
     0
1070
   279
1070
     1
1070
   288
1070
     1
1002
}
  0
DIMENSION
  5
7B39
  8
3
  6
CONTINUOUS
  2
*D4
 10
-5027.4359400288622
 20
-2627.6475560071199
 30
0.0
 11
-5027.4359400288622
 21
-2228.9695450071199
 31
0.0
 70
   128
 13
-6179.7440050288606
 23
-1867.6475560071201
 33
0.0
 14
-5380.325151028861
 24
-2627.6475560071199
 34
0.0
 50
90.0
1001
ACAD
1000
DSTYLE
1002
{
1070
   287
1070
     3
1070
   287
1070
     3
1070
    40
1040
45.0
1070
   143
1040
0.039
1070
   172
1070
     1
1070
   271
1070
     0
1070
   279
1070
     0
1070
   288
1070
     1
1002
}
  0
DIMENSION
  5
7B45
  8
3
  6
CONTINUOUS
  2
*D5
 10
-5027.4359400288622
 20
-3637.6475560071199
 30
0.0
 11
-5139.9359400288604
 21
-3132.6475560071208
 31
0.0
 70
     0
 13
-5380.325151028861
 23
-2627.6475560071199
 33
0.0
 14
-5524.7440050288596
 24
-3637.6475560071199
 34
0.0
 50
90.0
1001
ACAD
1000
DSTYLE
1002
{
1070
   287
1070
     4
1070
   287
1070
     4
1070
    40
1040
45.0
1070
    75
1070
     1
1070
   143
1040
0.039
1070
   172
1070
     1
1070
   271
1070
     0
1070
   279
1070
     1
1070
   288
1070
     1
1002
}
  0
LINE
  5
7B7D
  8
2
  6
CENTER
 10
-5285.8249080288606
 20
-2627.6475560071199
 30
0.0
 11
-7436.6716990288614
 21
-2627.6475560071199
 31
0.0
  0
LINE
  5
7B7F
  8
2
  6
CENTER
 10
-7574.8793940288624
 20
1278.5618689999999
 30
0.0
 11
-5246.0727180288613
 21
1278.5618689999999
 31
0.0
  0
DIMENSION
  5
7B8C
  8
3
  6
CONTINUOUS
  2
*D6
 10
-4928.7170970288607
 20
591.561869
 30
0.0
 11
-4928.7170970288607
 21
1155.473461
 31
0.0
 70
   128
 13
-5524.7440050288596
 23
1771.5618689999999
 33
0.0
 14
-5524.7440050288596
 24
591.56186900000012
 34
0.0
 50
90.0
1001
ACAD
1000
DSTYLE
1002
{
1070
   287
1070
     3
1070
   287
1070
     3
1070
    40
1040
45.0
1070
   143
1040
0.039
1070
   172
1070
     1
1070
   271
1070
     0
1070
   279
1070
     0
1070
   288
1070
     1
1002
}
  0
DIMENSION
  5
7B99
  8
3
  6
CONTINUOUS
  2
*D7
 10
-5524.7440050288596
 20
154.8077769999999
 30
0.0
 11
-6651.3103610288608
 21
154.8077769999999
 31
0.0
 70
   128
 13
-7884.7440050288606
 23
591.56186900000012
 33
0.0
 14
-5524.7440050288596
 24
591.56186900000012
 34
0.0
1001
ACAD
1000
DSTYLE
1002
{
1070
   287
1070
     3
1070
   287
1070
     3
1070
    40
1040
45.0
1070
   143
1040
0.039
1070
   172
1070
     1
1070
   271
1070
     0
1070
   279
1070
     0
1070
   288
1070
     1
1002
}
  0
LINE
  5
7B9A
  8
2
  6
CENTER
 10
-6184.7440050288606
 20
462.57129099999992
 30
0.0
 11
-6184.7440050288606
 21
1920.2841629999989
 31
0.0
  0
LINE
  5
7B9B
  8
2
  6
CENTER
 10
-2958.6109180288609
 20
-1630.3698280071201
 30
0.0
 11
-2958.6109180288599
 21
-3817.6475560071199
 31
0.0
  0
DIMENSION
  5
7BA8
  8
3
  6
CONTINUOUS
  2
*D8
 10
-2533.6109180288609
 20
-1652.49313400712
 30
0.0
 11
-2990.8046690288611
 21
-1652.49313400712
 31
0.0
 70
   128
 13
-3383.6109180288599
 23
-1867.6475560071201
 33
0.0
 14
-2533.6109180288609
 24
-1867.6475560071201
 34
0.0
1001
ACAD
1000
DSTYLE
1002
{
1070
   287
1070
     3
1070
   287
1070
     3
1070
    40
1040
45.0
1070
   143
1040
0.039
1070
   172
1070
     1
1070
   271
1070
     0
1070
   279
1070
     0
1070
   288
1070
     1
1002
}
  0
DIMENSION
  5
7BB5
  8
3
  6
CONTINUOUS
  2
*D9
 10
-2030.1276680288611
 20
-3187.6475560071199
 30
0.0
 11
-2030.1276680288611
 21
-2651.8419710071212
 31
0.0
 70
   128
 13
-2430.6109180288609
 23
-2067.6475560071199
 33
0.0
 14
-2430.6109180288609
 24
-3187.6475560071199
 34
0.0
 50
90.0
1001
ACAD
1000
DSTYLE
1002
{
1070
   287
1070
     3
1070
   287
1070
     3
1070
     3
1000
φ<>
1070
    40
1040
45.0
1070
   143
1040
0.039
1070
   172
1070
     1
1070
   271
1070
     0
1070
   279
1070
     0
1070
   288
1070
     1
1002
}
  0
DIMENSION
  5
7BF4
  8
3
  6
CONTINUOUS
  2
*D10
 10
-2958.6109180288609
 20
-1406.9610670071199
 30
0.0
 11
-3335.3233110288602
 21
-1406.9610670071199
 31
0.0
 70
   128
  1
MAX\P850
 13
-3718.6036330288612
 23
-2249.6475560071199
 33
0.0
 14
-2958.6109180288609
 24
-1453.3235630071199
 34
0.0
1001
ACAD
1000
DSTYLE
1002
{
1070
   287
1070
     3
1070
   287
1070
     3
1070
    40
1040
45.0
1070
   143
1040
0.039
1070
   172
1070
     1
1070
   271
1070
     0
1070
   279
1070
     0
1070
   288
1070
     1
1002
}
  0
DIMENSION
  5
7C02
  8
3
  6
CONTINUOUS
  2
*D11
 10
-2430.6109180288609
 20
-1406.9610670071199
 30
0.0
 11
-2699.2889110288602
 21
-1406.30262900712
 31
0.0
 70
   128
 13
-2958.6109180288609
 23
-1453.3235630071199
 33
0.0
 14
-2430.6109180288609
 24
-2017.6475560071201
 34
0.0
1001
ACAD
1000
DSTYLE
1002
{
1070
   287
1070
     4
1070
   287
1070
     4
1070
    40
1040
45.0
1070
    75
1070
     1
1070
   143
1040
0.039
1070
   172
1070
     1
1070
   271
1070
     0
1070
   279
1070
     1
1070
   288
1070
     1
1002
}
  0
LINE
  5
7C19
  8
4
  6
CONTINUOUS
 10
-886.032871
 20
-5819.3395299999993
 30
0.0
 11
-886.03287100000023
 21
-6819.3395299999993
 31
0.0
  0
LINE
  5
7C1A
  8
4
  6
CONTINUOUS
 10
-4386.0328710000003
 20
-5819.3395299999993
 30
0.0
 11
-4386.0328710000013
 21
-6819.3395299999993
 31
0.0
  0
LINE
  5
7C1B
  8
4
  6
CONTINUOUS
 10
-6886.0328709999994
 20
-5819.3395299999993
 30
0.0
 11
-6886.0328709999994
 21
-6819.3395299999993
 31
0.0
  0
LINE
  5
7C1E
  8
4
  6
CONTINUOUS
 10
-6886.0328709999994
 20
-6819.3395299999993
 30
0.0
 11
-886.032871
 21
-6819.3395299999993
 31
0.0
  0
LINE
  5
7C1F
  8
4
  6
CONTINUOUS
 10
-6886.0328709999994
 20
-6319.3395299999993
 30
0.0
 11
-886.032871
 21
-6319.3395299999993
 31
0.0
  0
TEXT
  5
7C20
  8
4
  6
CONTINUOUS
 10
-6693.5224669999998
 20
-6161.624401
 30
0.0
 40
250.0
  1
機器名称
  0
TEXT
  5
7C21
  8
4
  6
CONTINUOUS
 10
-6704.7423409999992
 20
-6711.1137470000003
 30
0.0
 40
250.0
  1
機器型番
  0
TEXT
  5
7C22
  8
4
  6
CONTINUOUS
 10
-4247.6391439999989
 20
-6206.480685999999
 30
0.0
 40
211.11111099999991
  1
ミツヤリミットロードファン
  0
TEXT
  5
7C23
  8
4
  6
CONTINUOUS
 10
-4202.7603929999996
 20
-6733.5416090000008
 30
0.0
 40
250.0
  1
LLE#7-4
  0
TEXT
  5
7C25
  8
4
  6
CONTINUOUS
 10
-6175.6897239999998
 20
3597.8046770000001
 30
0.0
 40
270.0
  1
床置防振ベット
  0
TEXT
  5
7C26
  8
4
  6
CONTINUOUS
 10
-8555.194904
 20
4350.0653499999999
 30
0.0
 40
300.0
  1
ベルト駆動式片吸込両持排煙ファン
  0
LINE
  5
7C27
  8
4
  6
CONTINUOUS
 10
-8886.0328709999994
 20
4027.704240999999
 30
0.0
 11
-886.032871
 21
4027.704240999999
 31
0.0
  0
LINE
  5
7C28
  8
4
  6
CONTINUOUS
 10
-8886.0328709999994
 20
5027.7042409999985
 30
0.0
 11
-886.032871
 21
5027.7042409999985
 31
0.0
  0
LINE
  5
7C29
  8
4
  6
CONTINUOUS
 10
-6886.0328709999994
 20
-5819.3395299999993
 30
0.0
 11
-886.032871
 21
-5819.3395299999993
 31
0.0
  0
LINE
  5
7C2A
  8
4
  6
CONTINUOUS
 10
-8886.0328709999994
 20
5027.7042409999985
 30
0.0
 11
-8886.0328709999994
 21
4027.704240999999
 31
0.0
  0
TEXT
  5
7C2B
  8
4
  6
CONTINUOUS
 10
-8354.9838860000018
 20
3592.257857999999
 30
0.0
 40
270.0
  1
右回転上向
  0
TEXT
  5
7C2C
  8
4
  6
CONTINUOUS
 10
-2791.1850760000002
 20
5210.9658770000005
 30
0.0
 40
280.0
  1
No.
  0
TEXT
  5
7C2D
  8
4
  6
CONTINUOUS
 10
-3579.5525590000002
 20
3597.8046770000001
 30
0.0
 40
270.0
  1
縮尺：1/50
  0
LINE
  5
7C2E
  8
4
  6
CONTINUOUS
 10
-886.032871
 20
5027.7042409999985
 30
0.0
 11
-886.032871
 21
4027.704240999999
 31
0.0
  0
LINE
  5
7C30
  8
4
  6
CONTINUOUS
 10
-2932.9457600000001
 20
5086.9783859999998
 30
0.0
 11
-2932.9457600000001
 21
5613.9217779999999
 31
0.0
  0
LINE
  5
7C31
  8
4
  6
CONTINUOUS
 10
-2932.9457600000001
 20
5613.9217779999999
 30
0.0
 11
-886.032871
 21
5613.9217779999999
 31
0.0
  0
LINE
  5
7C32
  8
4
  6
CONTINUOUS
 10
-886.032871
 20
5613.9217779999999
 30
0.0
 11
-886.032871
 21
5086.9783859999998
 31
0.0
  0
LINE
  5
7C33
  8
4
  6
CONTINUOUS
 10
-886.032871
 20
5086.9783859999998
 30
0.0
 11
-2932.9457600000001
 21
5086.9783859999998
 31
0.0
  0
DIMENSION
  5
7C9B
  8
3
  2
*D12
 10
-5379.7440050288606
 20
-1040.9601310877331
 30
0.0
 11
-6579.6806570545295
 21
-1040.9601310877331
 31
0.0
 70
   128
 13
-7884.7440050288606
 23
-3512.6475560071199
 33
0.0
 14
-5379.7440050288606
 24
-2605.1475560071199
 34
0.0
1001
ACAD
1000
DSTYLE
1002
{
1070
   287
1070
     3
1070
   287
1070
     3
1070
    40
1040
45.0
1070
   143
1040
0.039
1070
   172
1070
     1
1070
   271
1070
     0
1070
   279
1070
     0
1070
   288
1070
     1
1002
}
  0
DIMENSION
  5
7CDA
  8
3
  2
*D13
 10
-6184.7440050288606
 20
-4123.1383444222038
 30
0.0
 11
-7034.7440050288606
 21
-4010.6383444222042
 31
0.0
 70
     0
 13
-7884.7440050288606
 23
-3817.6475560071199
 33
0.0
 14
-6184.7440050288606
 24
-3817.6475560071199
 34
0.0
1001
ACAD
1000
DSTYLE
1002
{
1070
   287
1070
     3
1070
   287
1070
     3
1070
    40
1040
45.0
1070
   143
1040
0.039
1070
   172
1070
     1
1070
   271
1070
     0
1070
   279
1070
     0
1002
}
  0
DIMENSION
  5
7CE7
  8
3
  2
*D14
 10
-5524.7440050288596
 20
-4123.1383444222038
 30
0.0
 11
-5854.7440050288606
 21
-4010.6383444222042
 31
0.0
 70
     0
 13
-6184.7440050288606
 23
-3817.6475560071199
 33
0.0
 14
-5524.7440050288596
 24
-3817.6475560071199
 34
0.0
1001
ACAD
1000
DSTYLE
1002
{
1070
   287
1070
     3
1070
   287
1070
     3
1070
    40
1040
45.0
1070
   143
1040
0.039
1070
   172
1070
     1
1070
   271
1070
     0
1070
   279
1070
     0
1002
}
  0
DIMENSION
  5
7CF4
  8
3
  2
*D15
 10
-2958.6109180288599
 20
-4123.1383444222038
 30
0.0
 11
-3302.1109180288599
 21
-4010.6383444222042
 31
0.0
 70
     0
 13
-3645.6109180288599
 23
-3817.6475560071199
 33
0.0
 14
-2958.6109180288599
 24
-3817.6475560071199
 34
0.0
1001
ACAD
1000
DSTYLE
1002
{
1070
   287
1070
     3
1070
   287
1070
     3
1070
    40
1040
45.0
1070
   143
1040
0.039
1070
   172
1070
     1
1070
   271
1070
     0
1070
   279
1070
     0
1002
}
  0
DIMENSION
  5
7D03
  8
3
  2
*D16
 10
-2465.6109180288609
 20
-4123.1383444222038
 30
0.0
 11
-2712.1109180288599
 21
-4010.6383444222042
 31
0.0
 70
     0
 13
-2958.6109180288599
 23
-3817.6475560071199
 33
0.0
 14
-2465.6109180288609
 24
-3817.6475560071199
 34
0.0
1001
ACAD
1000
DSTYLE
1002
{
1070
   287
1070
     3
1070
   287
1070
     3
1070
    40
1040
45.0
1070
   143
1040
0.039
1070
   172
1070
     1
1070
   271
1070
     0
1070
   279
1070
     0
1002
}
  0
DIMENSION
  5
7D1A
  8
3
  2
*D18
 10
-5026.0101439458667
 20
-3817.6475560071208
 30
0.0
 11
-5138.5101439458658
 21
-4151.933270292835
 31
0.0
 70
     0
 13
-5524.7440050288596
 23
-3752.6475560071199
 33
0.0
 14
-5524.7440050288596
 24
-3817.6475560071199
 34
0.0
 50
90.0
1001
ACAD
1000
DSTYLE
1002
{
1070
   287
1070
     3
1070
   287
1070
     3
1070
    40
1040
45.0
1070
   143
1040
0.039
1070
   172
1070
     1
1070
   271
1070
     0
1070
   279
1070
     0
1070
     6
1000
DOT
1002
}
  0
DIMENSION
  5
7D29
  8
3
  2
*D19
 10
-5026.0101439458667
 20
-3637.6475560071199
 30
0.0
 11
-4810.6530010887236
 21
-3695.1475560071199
 31
0.0
 70
     0
 13
-5524.7440050288596
 23
-3752.6475560071199
 33
0.0
 14
-5524.7440050288596
 24
-3637.6475560071199
 34
0.0
 50
90.0
1001
ACAD
1000
DSTYLE
1002
{
1070
   172
1070
     1
1070
    40
1040
45.0
1070
     3
1000
(<>)
1070
   271
1070
     0
1070
     6
1000
_DOT
1070
   143
1040
0.039
1002
}
  0
DIMENSION
  5
7D36
  8
3
  2
*D20
 10
-4580.272188870068
 20
-3817.6475560071208
 30
0.0
 11
-4728.1293317272111
 21
-2842.6475560071208
 31
0.0
 70
     0
 13
-6179.7440050288606
 23
-1867.6475560071201
 33
0.0
 14
-5524.7440050288596
 24
-3817.6475560071199
 34
0.0
 50
90.0
1001
ACAD
1000
DSTYLE
1002
{
1070
   287
1070
     3
1070
   287
1070
     3
1070
     3
1000
(<>)
1070
    40
1040
45.0
1070
   143
1040
0.039
1070
   172
1070
     1
1070
   271
1070
     0
1070
   279
1070
     0
1002
}
  0
ENDSEC
  0
EOF
