  0
SECTION
  2
HEADER
  9
$ACADVER
  1
AC1009
  9
$INSBASE
 10
0.0
 20
0.0
 30
0.0
  9
$EXTMIN
 10
1250.0
 20
1500.0
 30
0.0
  9
$EXTMAX
 10
9250.0
 20
13933.261307999999
 30
0.0
  9
$LIMMIN
 10
0.0
 20
0.0
  9
$LIMMAX
 10
297.0
 20
210.0
  9
$ORTHOMODE
 70
     0
  9
$REGENMODE
 70
     1
  9
$FILLMODE
 70
     0
  9
$QTEXTMODE
 70
     0
  9
$MIRRTEXT
 70
     1
  9
$DRAGMODE
 70
     2
  9
$LTSCALE
 40
100.0
  9
$OSMODE
 70
    37
  9
$ATTMODE
 70
     1
  9
$TEXTSIZE
 40
180.0
  9
$TRACEWID
 40
0.05
  9
$TEXTSTYLE
  7
STANDARD
  9
$CLAYER
  8
3
  9
$CELTYPE
  6
BYLAYER
  9
$CECOLOR
 62
   256
  9
$DIMSCALE
 40
45.0
  9
$DIMASZ
 40
2.0
  9
$DIMEXO
 40
0.5
  9
$DIMDLI
 40
10.0
  9
$DIMRND
 40
0.0
  9
$DIMDLE
 40
0.0
  9
$DIMEXE
 40
1.0
  9
$DIMTP
 40
1.0
  9
$DIMTM
 40
1.0
  9
$DIMTXT
 40
3.0
  9
$DIMCEN
 40
0.0
  9
$DIMTSZ
 40
0.0
  9
$DIMTOL
 70
     0
  9
$DIMLIM
 70
     0
  9
$DIMTIH
 70
     0
  9
$DIMTOH
 70
     0
  9
$DIMSE1
 70
     0
  9
$DIMSE2
 70
     0
  9
$DIMTAD
 70
     1
  9
$DIMZIN
 70
     8
  9
$DIMBLK
  1

  9
$DIMASO
 70
     1
  9
$DIMSHO
 70
     1
  9
$DIMPOST
  1
(<>)
  9
$DIMAPOST
  1

  9
$DIMALT
 70
     0
  9
$DIMALTD
 70
     2
  9
$DIMALTF
 40
0.039
  9
$DIMLFAC
 40
1.0
  9
$DIMTOFL
 70
     1
  9
$DIMTVP
 40
0.0
  9
$DIMTIX
 70
     0
  9
$DIMSOXD
 70
     0
  9
$DIMSAH
 70
     1
  9
$DIMBLK1
  1
OPEN
  9
$DIMBLK2
  1
OPEN
  9
$DIMSTYLE
  2
IGA
  9
$DIMCLRD
 70
     0
  9
$DIMCLRE
 70
     0
  9
$DIMCLRT
 70
     0
  9
$DIMTFAC
 40
10.0
  9
$DIMGAP
 40
1.0
  9
$LUNITS
 70
     2
  9
$LUPREC
 70
     3
  9
$SKETCHINC
 40
0.1
  9
$FILLETRAD
 40
50.0
  9
$AUNITS
 70
     0
  9
$AUPREC
 70
     0
  9
$MENU
  1
acad
  9
$ELEVATION
 40
0.0
  9
$PELEVATION
 40
0.0
  9
$THICKNESS
 40
0.0
  9
$LIMCHECK
 70
     0
  9
$BLIPMODE
 70
     0
  9
$CHAMFERA
 40
0.5
  9
$CHAMFERB
 40
0.5
  9
$SKPOLY
 70
     0
  9
$TDCREATE
 40
2450750.6698436341
  9
$TDUPDATE
 40
2454953.6879407172
  9
$TDINDWG
 40
0.0092862731
  9
$TDUSRTIMER
 40
0.0092862731
  9
$USRTIMER
 70
     1
  9
$ANGBASE
 50
0.0
  9
$ANGDIR
 70
     0
  9
$PDMODE
 70
     0
  9
$PDSIZE
 40
0.0
  9
$PLINEWID
 40
0.0
  9
$COORDS
 70
     1
  9
$SPLFRAME
 70
     0
  9
$SPLINETYPE
 70
     6
  9
$SPLINESEGS
 70
     8
  9
$ATTDIA
 70
     0
  9
$ATTREQ
 70
     1
  9
$HANDLING
 70
 10241
  9
$HANDSEED
  5
7EE0
  9
$SURFTAB1
 70
     6
  9
$SURFTAB2
 70
     6
  9
$SURFTYPE
 70
     6
  9
$SURFU
 70
     6
  9
$SURFV
 70
     6
  9
$UCSNAME
  2

  9
$UCSORG
 10
0.0
 20
0.0
 30
0.0
  9
$UCSXDIR
 10
1.0
 20
0.0
 30
0.0
  9
$UCSYDIR
 10
0.0
 20
1.0
 30
0.0
  9
$PUCSNAME
  2

  9
$PUCSORG
 10
0.0
 20
0.0
 30
0.0
  9
$PUCSXDIR
 10
1.0
 20
0.0
 30
0.0
  9
$PUCSYDIR
 10
0.0
 20
1.0
 30
0.0
  9
$USERI1
 70
     0
  9
$USERI2
 70
     0
  9
$USERI3
 70
     0
  9
$USERI4
 70
     0
  9
$USERI5
 70
     0
  9
$USERR1
 40
0.0
  9
$USERR2
 40
0.0
  9
$USERR3
 40
0.0
  9
$USERR4
 40
0.0
  9
$USERR5
 40
0.0
  9
$WORLDVIEW
 70
     1
  9
$SHADEDGE
 70
     3
  9
$SHADEDIF
 70
    70
  9
$TILEMODE
 70
     1
  9
$MAXACTVP
 70
    16
  9
$PLIMCHECK
 70
     0
  9
$PEXTMIN
 10
1.0000000000000000E+020
 20
1.0000000000000000E+020
 30
1.0000000000000000E+020
  9
$PEXTMAX
 10
-1.0000000000000000E+020
 20
-1.0000000000000000E+020
 30
-1.0000000000000000E+020
  9
$PLIMMIN
 10
0.0
 20
0.0
  9
$PLIMMAX
 10
12.0
 20
9.0
  9
$UNITMODE
 70
     0
  9
$VISRETAIN
 70
     0
  9
$PLINEGEN
 70
     0
  9
$PSLTSCALE
 70
     1
  0
ENDSEC
  0
SECTION
  2
TABLES
  0
TABLE
  2
VPORT
 70
     2
  0
VPORT
  2
*ACTIVE
 70
     0
 10
0.0
 20
0.0
 11
1.0
 21
1.0
 12
25324.6384727154
 22
6695.8619831186743
 13
0.0
 23
0.0
 14
10.0
 24
10.0
 15
10.0
 25
10.0
 16
0.0
 26
0.0
 36
1.0
 17
0.0
 27
0.0
 37
0.0
 40
18899.797321461141
 41
3.1666666666666661
 42
50.0
 43
0.0
 44
0.0
 50
0.0
 51
0.0
 71
     0
 72
   100
 73
     1
 74
     0
 75
     0
 76
     0
 77
     0
 78
     0
  0
ENDTAB
  0
TABLE
  2
LTYPE
 70
     2
  0
LTYPE
  2
CONTINUOUS
 70
     0
  3
Solid line
 72
    65
 73
     0
 40
0.0
  0
LTYPE
  2
CENTER
 70
     0
  3
____ _ ____ _ ____ _ ____ _ ____ _ ____ _ ____ 
 72
    65
 73
     4
 40
2.0
 49
1.25
 49
-0.25
 49
0.25
 49
-0.25
  0
ENDTAB
  0
TABLE
  2
LAYER
 70
     6
  0
LAYER
  2
0
 70
     0
 62
     7
  6
CONTINUOUS
  0
LAYER
  2
3
 70
     0
 62
     2
  6
CONTINUOUS
  0
LAYER
  2
2
 70
     0
 62
     3
  6
CENTER
  0
LAYER
  2
1
 70
     0
 62
     4
  6
CONTINUOUS
  0
LAYER
  2
4
 70
     0
 62
     7
  6
CONTINUOUS
  0
LAYER
  2
DEFPOINTS
 70
     0
 62
     7
  6
CONTINUOUS
  0
ENDTAB
  0
TABLE
  2
STYLE
 70
     1
  0
STYLE
  2
STANDARD
 70
     0
 40
0.0
 41
1.0
 50
0.0
 71
     0
 42
180.0
  3
simplex.shx
  4
extfont.shx
  0
ENDTAB
  0
TABLE
  2
VIEW
 70
     0
  0
ENDTAB
  0
TABLE
  2
UCS
 70
     0
  0
ENDTAB
  0
TABLE
  2
APPID
 70
     1
  0
APPID
  2
ACAD
 70
     0
  0
ENDTAB
  0
TABLE
  2
DIMSTYLE
 70
     1
  0
DIMSTYLE
  2
IGA
 70
     0
  3

  4

  5

  6
OPEN
  7
OPEN
 40
2.0
 41
2.0
 42
0.5
 43
10.0
 44
1.0
 45
0.0
 46
0.0
 47
1.0
 48
1.0
140
3.0
141
0.0
142
0.0
143
0.03937
144
1.0
145
0.0
146
10.0
147
1.0
 71
     0
 72
     0
 73
     0
 74
     0
 75
     0
 76
     0
 77
     1
 78
     8
170
     0
171
     2
172
     0
173
     1
174
     0
175
     0
176
     0
177
     0
178
     0
  0
ENDTAB
  0
ENDSEC
  0
SECTION
  2
BLOCKS
  0
BLOCK
  8
0
  2
$MODEL_SPACE
 70
     0
 10
0.0
 20
0.0
 30
0.0
  3
$MODEL_SPACE
  1

  0
ENDBLK
  5
1B
  8
0
  0
BLOCK
 67
     1
  8
0
  2
$PAPER_SPACE
 70
     0
 10
0.0
 20
0.0
 30
0.0
  3
$PAPER_SPACE
  1

  0
ENDBLK
  5
18
 67
     1
  8
0
  0
BLOCK
  8
0
  2
_OPEN
 70
     0
 10
0.0
 20
0.0
 30
0.0
  3
_OPEN
  1

  0
LINE
  5
7AD6
  8
0
  6
BYBLOCK
 62
     0
 10
-1.0
 20
0.166667
 30
0.0
 11
0.0
 21
0.0
 31
0.0
  0
LINE
  5
7AD7
  8
0
  6
BYBLOCK
 62
     0
 10
0.0
 20
0.0
 30
0.0
 11
-1.0
 21
-0.166667
 31
0.0
  0
LINE
  5
7AD8
  8
0
  6
BYBLOCK
 62
     0
 10
0.0
 20
0.0
 30
0.0
 11
-1.0
 21
0.0
 31
0.0
  0
ENDBLK
  5
7AD9
  8
0
  0
BLOCK
  8
0
  2
*D1
 70
     1
 10
0.0
 20
0.0
 30
0.0
  3
*D1
  1

  0
LINE
  5
7E29
  8
3
  6
CONTINUOUS
 62
     0
 10
2974.7399789033079
 20
6436.544508
 30
0.0
 11
2974.7399789033079
 21
6593.1426499999998
 31
0.0
  0
LINE
  5
7E2A
  8
3
  6
CONTINUOUS
 62
     0
 10
3734.7399789033079
 20
6318.544508
 30
0.0
 11
3734.7399789033079
 21
6593.1426499999998
 31
0.0
  0
LINE
  5
7E2B
  8
3
  6
CONTINUOUS
 62
     0
 10
3064.7399789033079
 20
6548.1426499999989
 30
0.0
 11
3644.7399789033079
 21
6548.1426499999989
 31
0.0
  0
INSERT
  5
7E2C
  8
3
  6
CONTINUOUS
 62
     0
  2
_OPEN
 10
2974.7399789033079
 20
6548.1426499999989
 30
0.0
 41
90.0
 42
90.0
 43
90.0
 50
180.0
  0
INSERT
  5
7E2D
  8
3
  6
CONTINUOUS
 62
     0
  2
_OPEN
 10
3734.7399789033079
 20
6548.1426499999989
 30
0.0
 41
90.0
 42
90.0
 43
90.0
  0
TEXT
  8
3
  40
135
  5
7ECD
  62
0
  72
0
  71
0
 10
3079.88
 20
6421.69
 30
0.000000
  1
760
  0
POINT
  5
7E2F
  8
DEFPOINTS
  6
CONTINUOUS
 62
     0
 10
2974.7399789033079
 20
6414.044508
 30
0.0
  0
POINT
  5
7E30
  8
DEFPOINTS
  6
CONTINUOUS
 62
     0
 10
3734.7399789033079
 20
6296.044508
 30
0.0
  0
POINT
  5
7E31
  8
DEFPOINTS
  6
CONTINUOUS
 62
     0
 10
3734.7399789033079
 20
6548.1426499999989
 30
0.0
  0
ENDBLK
  5
7AFF
  8
0
  0
BLOCK
  8
0
  2
*D2
 70
     1
 10
0.0
 20
0.0
 30
0.0
  3
*D2
  1

  0
LINE
  5
7E32
  8
3
  6
CONTINUOUS
 62
     0
 10
4703.7399789033079
 20
5185.544508
 30
0.0
 11
4703.7399789033079
 21
6593.1426499999998
 31
0.0
  0
LINE
  5
7E33
  8
3
  6
CONTINUOUS
 62
     0
 10
3824.7399789033079
 20
6548.1426499999989
 30
0.0
 11
4613.7399789033079
 21
6548.1426499999989
 31
0.0
  0
INSERT
  5
7E34
  8
3
  6
CONTINUOUS
 62
     0
  2
_OPEN
 10
3734.7399789033079
 20
6548.1426499999989
 30
0.0
 41
90.0
 42
90.0
 43
90.0
 50
180.0
  0
INSERT
  5
7E35
  8
3
  6
CONTINUOUS
 62
     0
  2
_OPEN
 10
4703.7399789033079
 20
6548.1426499999989
 30
0.0
 41
90.0
 42
90.0
 43
90.0
  0
TEXT
  8
3
  40
135
  5
7ECE
  62
0
  72
0
  71
0
 10
3949.24
 20
6421.69
 30
0.000000
  1
969
  0
POINT
  5
7E37
  8
DEFPOINTS
  6
CONTINUOUS
 62
     0
 10
3734.7399789033079
 20
6296.044508
 30
0.0
  0
POINT
  5
7E38
  8
DEFPOINTS
  6
CONTINUOUS
 62
     0
 10
4703.7399789033079
 20
5163.044508
 30
0.0
  0
POINT
  5
7E39
  8
DEFPOINTS
  6
CONTINUOUS
 62
     0
 10
4703.7399789033079
 20
6548.1426499999989
 30
0.0
  0
ENDBLK
  5
7C42
  8
0
  0
BLOCK
  8
0
  2
*D3
 70
     1
 10
0.0
 20
0.0
 30
0.0
  3
*D3
  1

  0
LINE
  5
7E3A
  8
3
  6
CONTINUOUS
 62
     0
 10
2952.2399789033079
 20
6361.044507999999
 30
0.0
 11
2649.8306489033089
 21
6361.044507999999
 31
0.0
  0
LINE
  5
7E3B
  8
3
  6
CONTINUOUS
 62
     0
 10
2952.2399789033079
 20
5211.044508
 30
0.0
 11
2649.8306489033089
 21
5211.044508
 31
0.0
  0
LINE
  5
7E3C
  8
3
  6
CONTINUOUS
 62
     0
 10
2694.8306489033089
 20
6271.044508
 30
0.0
 11
2694.8306489033089
 21
5301.044508
 31
0.0
  0
INSERT
  5
7E3D
  8
3
  6
CONTINUOUS
 62
     0
  2
_OPEN
 10
2694.8306489033089
 20
6361.044507999999
 30
0.0
 41
90.0
 42
90.0
 43
90.0
 50
90.0
  0
INSERT
  5
7E3E
  8
3
  6
CONTINUOUS
 62
     0
  2
_OPEN
 10
2694.8306489033089
 20
5211.044508
 30
0.0
 41
90.0
 42
90.0
 43
90.0
 50
270.0
  0
TEXT
  8
3
  40
135
  5
7ECF
  62
0
  72
0
  71
0
 10
2312.33
 20
5566.46
 30
0.000000
  1
1150
  0
POINT
  5
7E40
  8
DEFPOINTS
  6
CONTINUOUS
 62
     0
 10
2974.7399789033079
 20
6361.044507999999
 30
0.0
  0
POINT
  5
7E41
  8
DEFPOINTS
  6
CONTINUOUS
 62
     0
 10
2974.7399789033079
 20
5211.044508
 30
0.0
  0
POINT
  5
7E42
  8
DEFPOINTS
  6
CONTINUOUS
 62
     0
 10
2694.8306489033089
 20
5211.044508
 30
0.0
  0
ENDBLK
  5
7B18
  8
0
  0
BLOCK
  8
0
  2
*D4
 70
     1
 10
0.0
 20
0.0
 30
0.0
  3
*D4
  1

  0
LINE
  5
7E43
  8
3
  6
CONTINUOUS
 62
     0
 10
2952.2399789033079
 20
6361.044507999999
 30
0.0
 11
2374.7233359033089
 21
6361.044507999999
 31
0.0
  0
LINE
  5
7E44
  8
3
  6
CONTINUOUS
 62
     0
 10
3045.5492409033081
 20
5163.044508
 30
0.0
 11
2374.7233359033089
 21
5163.044508
 31
0.0
  0
LINE
  5
7E45
  8
3
  6
CONTINUOUS
 62
     0
 10
2419.7233359033089
 20
6271.044508
 30
0.0
 11
2419.7233359033089
 21
5253.044508
 31
0.0
  0
INSERT
  5
7E46
  8
3
  6
CONTINUOUS
 62
     0
  2
_OPEN
 10
2419.7233359033089
 20
6361.044507999999
 30
0.0
 41
90.0
 42
90.0
 43
90.0
 50
90.0
  0
INSERT
  5
7E47
  8
3
  6
CONTINUOUS
 62
     0
  2
_OPEN
 10
2419.7233359033089
 20
5163.044508
 30
0.0
 41
90.0
 42
90.0
 43
90.0
 50
270.0
  0
TEXT
  8
3
  40
135
  5
7ED0
  62
0
  72
0
  71
0
 10
2037.22
 20
5573.15
 30
0.000000
  1
1198
  0
POINT
  5
7E49
  8
DEFPOINTS
  6
CONTINUOUS
 62
     0
 10
2974.7399789033079
 20
6361.044507999999
 30
0.0
  0
POINT
  5
7E4A
  8
DEFPOINTS
  6
CONTINUOUS
 62
     0
 10
3068.0492409033081
 20
5163.044508
 30
0.0
  0
POINT
  5
7E4B
  8
DEFPOINTS
  6
CONTINUOUS
 62
     0
 10
2419.7233359033089
 20
5163.044508
 30
0.0
  0
ENDBLK
  5
7B25
  8
0
  0
BLOCK
  8
0
  2
*D5
 70
     1
 10
0.0
 20
0.0
 30
0.0
  3
*D5
  1

  0
LINE
  5
7E4C
  8
3
  6
CONTINUOUS
 62
     0
 10
3052.2399789033079
 20
4323.044508
 30
0.0
 11
2374.723335903308
 21
4323.044508
 31
0.0
  0
LINE
  5
7E4D
  8
3
  6
CONTINUOUS
 62
     0
 10
2419.723335903308
 20
5073.044508
 30
0.0
 11
2419.723335903308
 21
4413.044508
 31
0.0
  0
INSERT
  5
7E4E
  8
3
  6
CONTINUOUS
 62
     0
  2
_OPEN
 10
2419.723335903308
 20
5163.044508
 30
0.0
 41
90.0
 42
90.0
 43
90.0
 50
90.0
  0
INSERT
  5
7E4F
  8
3
  6
CONTINUOUS
 62
     0
  2
_OPEN
 10
2419.723335903308
 20
4323.044508
 30
0.0
 41
90.0
 42
90.0
 43
90.0
 50
270.0
  0
TEXT
  8
3
  40
135
  5
7ED1
  62
0
  72
0
  71
0
 10
2037.22
 20
4504.09
 30
0.000000
  1
840
  0
POINT
  5
7E51
  8
DEFPOINTS
  6
CONTINUOUS
 62
     0
 10
3068.0492409033081
 20
5163.044508
 30
0.0
  0
POINT
  5
7E52
  8
DEFPOINTS
  6
CONTINUOUS
 62
     0
 10
3074.7399789033079
 20
4323.044508
 30
0.0
  0
POINT
  5
7E53
  8
DEFPOINTS
  6
CONTINUOUS
 62
     0
 10
2419.723335903308
 20
4323.044508
 30
0.0
  0
ENDBLK
  5
7B31
  8
0
  0
BLOCK
  8
0
  2
*D6
 70
     1
 10
0.0
 20
0.0
 30
0.0
  3
*D6
  1

  0
LINE
  5
7E54
  8
3
  6
CONTINUOUS
 62
     0
 10
3074.7399789033079
 20
9107.5548767668188
 30
0.0
 11
3074.7399789033079
 21
8576.1284547668183
 31
0.0
  0
LINE
  5
7E55
  8
3
  6
CONTINUOUS
 62
     0
 10
5434.7399789033088
 20
9107.5548767668188
 30
0.0
 11
5434.7399789033088
 21
8576.1284547668183
 31
0.0
  0
LINE
  5
7E56
  8
3
  6
CONTINUOUS
 62
     0
 10
3164.7399789033079
 20
8621.1284547668183
 30
0.0
 11
5344.7399789033079
 21
8621.1284547668183
 31
0.0
  0
INSERT
  5
7E57
  8
3
  6
CONTINUOUS
 62
     0
  2
_OPEN
 10
3074.7399789033079
 20
8621.1284547668183
 30
0.0
 41
90.0
 42
90.0
 43
90.0
 50
180.0
  0
INSERT
  5
7E58
  8
3
  6
CONTINUOUS
 62
     0
  2
_OPEN
 10
5434.7399789033088
 20
8621.1284547668183
 30
0.0
 41
90.0
 42
90.0
 43
90.0
  0
TEXT
  8
3
  40
135
  5
7ED2
  62
0
  72
0
  71
0
 10
3948.33
 20
8494.68
 30
0.000000
  1
2360
  0
POINT
  5
7E5A
  8
DEFPOINTS
  6
CONTINUOUS
 62
     0
 10
3074.7399789033079
 20
9130.0548767668188
 30
0.0
  0
POINT
  5
7E5B
  8
DEFPOINTS
  6
CONTINUOUS
 62
     0
 10
5434.7399789033088
 20
9130.0548767668188
 30
0.0
  0
POINT
  5
7E5C
  8
DEFPOINTS
  6
CONTINUOUS
 62
     0
 10
5434.7399789033088
 20
8621.1284547668183
 30
0.0
  0
ENDBLK
  5
7B67
  8
0
  0
BLOCK
  8
0
  2
*D7
 70
     1
 10
0.0
 20
0.0
 30
0.0
  3
*D7
  1

  0
LINE
  5
7E5D
  8
3
  6
CONTINUOUS
 62
     0
 10
5457.2399789033079
 20
10310.05487676681
 30
0.0
 11
5913.9752239033096
 21
10310.05487676681
 31
0.0
  0
LINE
  5
7E5E
  8
3
  6
CONTINUOUS
 62
     0
 10
5457.2399789033079
 20
9130.0548767668188
 30
0.0
 11
5913.9752239033096
 21
9130.0548767668188
 31
0.0
  0
LINE
  5
7E5F
  8
3
  6
CONTINUOUS
 62
     0
 10
5868.9752239033087
 20
10220.05487676681
 30
0.0
 11
5868.9752239033087
 21
9220.0548767668206
 31
0.0
  0
INSERT
  5
7E60
  8
3
  6
CONTINUOUS
 62
     0
  2
_OPEN
 10
5868.9752239033096
 20
10310.05487676681
 30
0.0
 41
90.0
 42
90.0
 43
90.0
 50
90.0
  0
INSERT
  5
7E61
  8
3
  6
CONTINUOUS
 62
     0
  2
_OPEN
 10
5868.9752239033087
 20
9130.0548767668188
 30
0.0
 41
90.0
 42
90.0
 43
90.0
 50
270.0
  0
TEXT
  8
3
  40
135
  5
7ED3
  62
0
  72
0
  71
0
 10
5486.48
 20
9497.75
 30
0.000000
  1
1180
  0
POINT
  5
7E63
  8
DEFPOINTS
  6
CONTINUOUS
 62
     0
 10
5434.7399789033088
 20
10310.05487676681
 30
0.0
  0
POINT
  5
7E64
  8
DEFPOINTS
  6
CONTINUOUS
 62
     0
 10
5434.7399789033088
 20
9130.0548767668188
 30
0.0
  0
POINT
  5
7E65
  8
DEFPOINTS
  6
CONTINUOUS
 62
     0
 10
5868.9752239033087
 20
9130.0548767668188
 30
0.0
  0
ENDBLK
  5
7B74
  8
0
  0
BLOCK
  8
0
  2
*D8
 70
     1
 10
0.0
 20
0.0
 30
0.0
  3
*D8
  1

  0
LINE
  5
7E66
  8
3
  6
CONTINUOUS
 62
     0
 10
8286.8524898954074
 20
5723.044508
 30
0.0
 11
8659.8574698954108
 21
5723.044508
 31
0.0
  0
LINE
  5
7E67
  8
3
  6
CONTINUOUS
 62
     0
 10
8286.8524898954074
 20
4603.044507999999
 30
0.0
 11
8659.8574698954108
 21
4603.044507999999
 31
0.0
  0
LINE
  5
7E68
  8
3
  6
CONTINUOUS
 62
     0
 10
8614.8574698954108
 20
5633.0445080000009
 30
0.0
 11
8614.8574698954108
 21
4693.044507999999
 31
0.0
  0
INSERT
  5
7E69
  8
3
  6
CONTINUOUS
 62
     0
  2
_OPEN
 10
8614.8574698954108
 20
5723.044508
 30
0.0
 41
90.0
 42
90.0
 43
90.0
 50
90.0
  0
INSERT
  5
7E6A
  8
3
  6
CONTINUOUS
 62
     0
  2
_OPEN
 10
8614.8574698954108
 20
4603.044507999999
 30
0.0
 41
90.0
 42
90.0
 43
90.0
 50
270.0
  0
TEXT
  8
3
  40
135
  5
7ED4
  62
0
  72
0
  71
0
 10
8232.36
 20
4949.28
 30
0.000000
  1
φ1120
  0
POINT
  5
7E6C
  8
DEFPOINTS
  6
CONTINUOUS
 62
     0
 10
8264.3524898954056
 20
5723.044508
 30
0.0
  0
POINT
  5
7E6D
  8
DEFPOINTS
  6
CONTINUOUS
 62
     0
 10
8264.3524898954056
 20
4603.044507999999
 30
0.0
  0
POINT
  5
7E6E
  8
DEFPOINTS
  6
CONTINUOUS
 62
     0
 10
8614.8574698954108
 20
4603.044507999999
 30
0.0
  0
ENDBLK
  5
7C67
  8
0
  0
BLOCK
  8
0
  2
*D9
 70
     1
 10
0.0
 20
0.0
 30
0.0
  3
*D9
  1

  0
LINE
  5
7E6F
  8
3
  6
CONTINUOUS
 62
     0
 10
7311.3524898954074
 20
6383.544507999999
 30
0.0
 11
7311.3524898954074
 21
6577.5680860000011
 31
0.0
  0
LINE
  5
7E70
  8
3
  6
CONTINUOUS
 62
     0
 10
8161.3524898954047
 20
6383.544507999999
 30
0.0
 11
8161.3524898954047
 21
6577.5680860000011
 31
0.0
  0
LINE
  5
7E71
  8
3
  6
CONTINUOUS
 62
     0
 10
7401.3524898954056
 20
6532.5680860000011
 30
0.0
 11
8071.3524898954056
 21
6532.5680860000011
 31
0.0
  0
INSERT
  5
7E72
  8
3
  6
CONTINUOUS
 62
     0
  2
_OPEN
 10
7311.3524898954074
 20
6532.5680860000011
 30
0.0
 41
90.0
 42
90.0
 43
90.0
 50
180.0
  0
INSERT
  5
7E73
  8
3
  6
CONTINUOUS
 62
     0
  2
_OPEN
 10
8161.3524898954047
 20
6532.5680860000011
 30
0.0
 41
90.0
 42
90.0
 43
90.0
  0
TEXT
  8
3
  40
135
  5
7ED5
  62
0
  72
0
  71
0
 10
7452.62
 20
6406.12
 30
0.000000
  1
850
  0
POINT
  5
7E75
  8
DEFPOINTS
  6
CONTINUOUS
 62
     0
 10
7311.3524898954074
 20
6361.044507999999
 30
0.0
  0
POINT
  5
7E76
  8
DEFPOINTS
  6
CONTINUOUS
 62
     0
 10
8161.3524898954047
 20
6361.044507999999
 30
0.0
  0
POINT
  5
7E77
  8
DEFPOINTS
  6
CONTINUOUS
 62
     0
 10
8161.3524898954047
 20
6532.5680860000011
 30
0.0
  0
ENDBLK
  5
7B91
  8
0
  0
BLOCK
  8
0
  2
*D10
 70
     1
 10
0.0
 20
0.0
 30
0.0
  3
*D10
  1

  0
LINE
  5
7E78
  8
3
  6
CONTINUOUS
 62
     0
 10
6976.3524898954056
 20
5563.544508
 30
0.0
 11
6976.3524898954056
 21
6938.3379537623914
 31
0.0
  0
LINE
  5
7E79
  8
3
  6
CONTINUOUS
 62
     0
 10
7736.3524898954074
 20
6735.4635015520362
 30
0.0
 11
7736.3524898954074
 21
6938.3379537623914
 31
0.0
  0
LINE
  5
7E7A
  8
3
  6
CONTINUOUS
 62
     0
 10
7066.3524898954074
 20
6893.3379537623923
 30
0.0
 11
7646.3524898954056
 21
6893.3379537623923
 31
0.0
  0
INSERT
  5
7E7B
  8
3
  6
CONTINUOUS
 62
     0
  2
_OPEN
 10
6976.3524898954056
 20
6893.3379537623923
 30
0.0
 41
90.0
 42
90.0
 43
90.0
 50
180.0
  0
INSERT
  5
7E7C
  8
3
  6
CONTINUOUS
 62
     0
  2
_OPEN
 10
7736.3524898954074
 20
6893.3379537623923
 30
0.0
 41
90.0
 42
90.0
 43
90.0
  0
TEXT
  8
3
  40
135
  5
7ED6
  62
0
  72
0
  71
0
 10
7088.29
 20
6879.39
 30
0.000000
  1
MAX
  0
TEXT
  8
3
  40
135
  5
7ED7
  62
0
  72
0
  71
0
 10
7088.29
 20
6703.89
 30
0.000000
  1
850
  0
POINT
  5
7E7E
  8
DEFPOINTS
  6
CONTINUOUS
 62
     0
 10
6976.3524898954056
 20
5541.044508
 30
0.0
  0
POINT
  5
7E7F
  8
DEFPOINTS
  6
CONTINUOUS
 62
     0
 10
7736.3524898954074
 20
6712.9635015520362
 30
0.0
  0
POINT
  5
7E80
  8
DEFPOINTS
  6
CONTINUOUS
 62
     0
 10
7736.3524898954074
 20
6893.3379537623923
 30
0.0
  0
ENDBLK
  5
7CC6
  8
0
  0
BLOCK
  8
0
  2
*D11
 70
     1
 10
0.0
 20
0.0
 30
0.0
  3
*D11
  1

  0
LINE
  5
7E81
  8
3
  6
CONTINUOUS
 62
     0
 10
8264.3524898954056
 20
5795.544508
 30
0.0
 11
8264.3524898954056
 21
6938.3379537623914
 31
0.0
  0
LINE
  5
7E82
  8
3
  6
CONTINUOUS
 62
     0
 10
7826.3524898954047
 20
6893.3379537623923
 30
0.0
 11
8174.3524898954056
 21
6893.3379537623923
 31
0.0
  0
TEXT
  8
3
  40
135
  5
7ED8
  62
0
  72
0
  71
0
 10
7720.29
 20
6766.89
 30
0.000000
  1
528
  0
INSERT
  5
7E84
  8
3
  6
CONTINUOUS
 62
     0
  2
_OPEN
 10
7736.3524898954074
 20
6893.3379537623923
 30
0.0
 41
90.0
 42
90.0
 43
90.0
 50
180.0
  0
INSERT
  5
7E85
  8
3
  6
CONTINUOUS
 62
     0
  2
_OPEN
 10
8264.3524898954056
 20
6893.3379537623923
 30
0.0
 41
90.0
 42
90.0
 43
90.0
  0
POINT
  5
7E86
  8
DEFPOINTS
  6
CONTINUOUS
 62
     0
 10
7736.3524898954074
 20
6712.9635015520362
 30
0.0
  0
POINT
  5
7E87
  8
DEFPOINTS
  6
CONTINUOUS
 62
     0
 10
8264.3524898954056
 20
5773.044508
 30
0.0
  0
POINT
  5
7E88
  8
DEFPOINTS
  6
CONTINUOUS
 62
     0
 10
8264.3524898954056
 20
6893.3379537623923
 30
0.0
  0
ENDBLK
  5
7CBB
  8
0
  0
BLOCK
  8
0
  2
*D12
 70
     1
 10
0.0
 20
0.0
 30
0.0
  3
*D12
  1

  0
LINE
  5
7E89
  8
3
 62
     0
 10
2974.7399789033079
 20
6436.544508
 30
0.0
 11
2974.7399789033079
 21
6865.6694818857941
 31
0.0
  0
LINE
  5
7E8A
  8
3
 62
     0
 10
5434.7399789033088
 20
4470.544507999999
 30
0.0
 11
5434.7399789033088
 21
6865.6694818857941
 31
0.0
  0
LINE
  5
7E8B
  8
3
 62
     0
 10
3064.7399789033079
 20
6820.6694818857941
 30
0.0
 11
5344.7399789033079
 21
6820.6694818857941
 31
0.0
  0
INSERT
  5
7E8C
  8
3
 62
     0
  2
_OPEN
 10
2974.7399789033079
 20
6820.6694818857941
 30
0.0
 41
90.0
 42
90.0
 43
90.0
 50
180.0
  0
INSERT
  5
7E8D
  8
3
 62
     0
  2
_OPEN
 10
5434.7399789033088
 20
6820.6694818857941
 30
0.0
 41
90.0
 42
90.0
 43
90.0
  0
TEXT
  8
3
  40
135
  5
7ED9
  62
0
  72
0
  71
0
 10
3942.09
 20
6694.22
 30
0.000000
  1
2460
  0
POINT
  5
7E8F
  8
DEFPOINTS
 62
     0
 10
2974.7399789033079
 20
6414.044508
 30
0.0
  0
POINT
  5
7E90
  8
DEFPOINTS
 62
     0
 10
5434.7399789033088
 20
4448.044508
 30
0.0
  0
POINT
  5
7E91
  8
DEFPOINTS
 62
     0
 10
5434.7399789033088
 20
6820.6694818857941
 30
0.0
  0
ENDBLK
  5
7C4E
  8
0
  0
BLOCK
  8
0
  2
*D13
 70
     1
 10
0.0
 20
0.0
 30
0.0
  3
*D13
  1

  0
LINE
  5
7E92
  8
3
 62
     0
 10
3074.7399789033079
 20
4120.544508
 30
0.0
 11
3074.7399789033079
 21
3796.7130605381421
 31
0.0
  0
LINE
  5
7E93
  8
3
 62
     0
 10
3734.7399789033079
 20
4120.544508
 30
0.0
 11
3734.7399789033079
 21
3796.7130605381421
 31
0.0
  0
LINE
  5
7E94
  8
3
 62
     0
 10
3164.7399789033079
 20
3841.7130605381421
 30
0.0
 11
3644.7399789033079
 21
3841.7130605381421
 31
0.0
  0
INSERT
  5
7E95
  8
3
 62
     0
  2
_OPEN
 10
3074.7399789033079
 20
3841.7130605381421
 30
0.0
 41
90.0
 42
90.0
 43
90.0
 50
180.0
  0
INSERT
  5
7E96
  8
3
 62
     0
  2
_OPEN
 10
3734.7399789033079
 20
3841.7130605381421
 30
0.0
 41
90.0
 42
90.0
 43
90.0
  0
TEXT
  8
3
  40
135
  5
7EDA
  62
0
  72
0
  71
0
 10
3134.74
 20
3715.26
 30
0.000000
  1
660
  0
POINT
  5
7E98
  8
DEFPOINTS
 62
     0
 10
3074.7399789033079
 20
4143.044508
 30
0.0
  0
POINT
  5
7E99
  8
DEFPOINTS
 62
     0
 10
3734.7399789033079
 20
4143.044508
 30
0.0
  0
POINT
  5
7E9A
  8
DEFPOINTS
 62
     0
 10
3734.7399789033079
 20
3841.7130605381421
 30
0.0
  0
ENDBLK
  5
7CDA
  8
0
  0
BLOCK
  8
0
  2
*D14
 70
     1
 10
0.0
 20
0.0
 30
0.0
  3
*D14
  1

  0
LINE
  5
7E9B
  8
3
 62
     0
 10
3734.7399789033079
 20
4120.544508
 30
0.0
 11
3734.7399789033079
 21
3796.7130605381421
 31
0.0
  0
LINE
  5
7E9C
  8
3
 62
     0
 10
5434.7399789033088
 20
4120.544508
 30
0.0
 11
5434.7399789033088
 21
3796.7130605381421
 31
0.0
  0
LINE
  5
7E9D
  8
3
 62
     0
 10
3824.7399789033079
 20
3841.7130605381421
 30
0.0
 11
5344.7399789033079
 21
3841.7130605381421
 31
0.0
  0
INSERT
  5
7E9E
  8
3
 62
     0
  2
_OPEN
 10
3734.7399789033079
 20
3841.7130605381421
 30
0.0
 41
90.0
 42
90.0
 43
90.0
 50
180.0
  0
INSERT
  5
7E9F
  8
3
 62
     0
  2
_OPEN
 10
5434.7399789033088
 20
3841.7130605381421
 30
0.0
 41
90.0
 42
90.0
 43
90.0
  0
TEXT
  8
3
  40
135
  5
7EDB
  62
0
  72
0
  71
0
 10
4314.74
 20
3715.26
 30
0.000000
  1
1700
  0
POINT
  5
7EA1
  8
DEFPOINTS
 62
     0
 10
3734.7399789033079
 20
4143.044508
 30
0.0
  0
POINT
  5
7EA2
  8
DEFPOINTS
 62
     0
 10
5434.7399789033088
 20
4143.044508
 30
0.0
  0
POINT
  5
7EA3
  8
DEFPOINTS
 62
     0
 10
5434.7399789033088
 20
3841.7130605381421
 30
0.0
  0
ENDBLK
  5
7CE7
  8
0
  0
BLOCK
  8
0
  2
*D15
 70
     1
 10
0.0
 20
0.0
 30
0.0
  3
*D15
  1

  0
LINE
  5
7EA4
  8
3
 62
     0
 10
7049.3524898954056
 20
4120.544508
 30
0.0
 11
7049.3524898954056
 21
3796.7130605381421
 31
0.0
  0
LINE
  5
7EA5
  8
3
 62
     0
 10
7736.3524898954056
 20
4120.544508
 30
0.0
 11
7736.3524898954056
 21
3796.7130605381421
 31
0.0
  0
LINE
  5
7EA6
  8
3
 62
     0
 10
7139.3524898954074
 20
3841.7130605381421
 30
0.0
 11
7646.3524898954056
 21
3841.7130605381421
 31
0.0
  0
INSERT
  5
7EA7
  8
3
 62
     0
  2
_OPEN
 10
7049.3524898954056
 20
3841.7130605381421
 30
0.0
 41
90.0
 42
90.0
 43
90.0
 50
180.0
  0
INSERT
  5
7EA8
  8
3
 62
     0
  2
_OPEN
 10
7736.3524898954056
 20
3841.7130605381421
 30
0.0
 41
90.0
 42
90.0
 43
90.0
  0
TEXT
  8
3
  40
135
  5
7EDC
  62
0
  72
0
  71
0
 10
7122.85
 20
3715.26
 30
0.000000
  1
687
  0
POINT
  5
7EAA
  8
DEFPOINTS
 62
     0
 10
7049.3524898954056
 20
4143.044508
 30
0.0
  0
POINT
  5
7EAB
  8
DEFPOINTS
 62
     0
 10
7736.3524898954056
 20
4143.044508
 30
0.0
  0
POINT
  5
7EAC
  8
DEFPOINTS
 62
     0
 10
7736.3524898954056
 20
3841.7130605381421
 30
0.0
  0
ENDBLK
  5
7CF4
  8
0
  0
BLOCK
  8
0
  2
*D16
 70
     1
 10
0.0
 20
0.0
 30
0.0
  3
*D16
  1

  0
LINE
  5
7EAD
  8
3
 62
     0
 10
7736.3524898954056
 20
4120.544508
 30
0.0
 11
7736.3524898954056
 21
3796.7130605381421
 31
0.0
  0
LINE
  5
7EAE
  8
3
 62
     0
 10
8229.3524898954056
 20
4120.544508
 30
0.0
 11
8229.3524898954056
 21
3796.7130605381421
 31
0.0
  0
LINE
  5
7EAF
  8
3
 62
     0
 10
7826.3524898954047
 20
3841.7130605381421
 30
0.0
 11
8139.3524898954056
 21
3841.7130605381421
 31
0.0
  0
INSERT
  5
7EB0
  8
3
 62
     0
  2
_OPEN
 10
7736.3524898954056
 20
3841.7130605381421
 30
0.0
 41
90.0
 42
90.0
 43
90.0
 50
180.0
  0
INSERT
  5
7EB1
  8
3
 62
     0
  2
_OPEN
 10
8229.3524898954056
 20
3841.7130605381421
 30
0.0
 41
90.0
 42
90.0
 43
90.0
  0
TEXT
  8
3
  40
135
  5
7EDD
  62
0
  72
0
  71
0
 10
7712.85
 20
3715.26
 30
0.000000
  1
493
  0
POINT
  5
7EB3
  8
DEFPOINTS
 62
     0
 10
7736.3524898954056
 20
4143.044508
 30
0.0
  0
POINT
  5
7EB4
  8
DEFPOINTS
 62
     0
 10
8229.3524898954056
 20
4143.044508
 30
0.0
  0
POINT
  5
7EB5
  8
DEFPOINTS
 62
     0
 10
8229.3524898954056
 20
3841.7130605381421
 30
0.0
  0
ENDBLK
  5
7D03
  8
0
  0
BLOCK
  8
0
  2
_DOT
 70
     0
 10
0.0
 20
0.0
 30
0.0
  3
_DOT
  1

  0
POLYLINE
  5
7D07
  8
0
  6
BYBLOCK
 62
     0
 66
     1
 10
0.0
 20
0.0
 30
0.0
 70
     1
 40
0.5
 41
0.5
  0
VERTEX
  5
7EB6
  8
0
  6
BYBLOCK
 62
     0
 10
-0.25
 20
0.0
 30
0.0
 42
1.0
  0
VERTEX
  5
7EB7
  8
0
  6
BYBLOCK
 62
     0
 10
0.25
 20
0.0
 30
0.0
 42
1.0
  0
SEQEND
  5
7EB8
  8
0
  6
BYBLOCK
 62
     0
  0
LINE
  5
7D0B
  8
0
  6
BYBLOCK
 62
     0
 10
-0.5
 20
0.0
 30
0.0
 11
-1.0
 21
0.0
 31
0.0
  0
ENDBLK
  5
7D0C
  8
0
  0
BLOCK
  8
0
  2
*D18
 70
     1
 10
0.0
 20
0.0
 30
0.0
  3
*D18
  1

  0
LINE
  5
7EB9
  8
3
 62
     0
 10
3052.2399789033079
 20
4208.044507999999
 30
0.0
 11
2371.516315373708
 21
4208.044507999999
 31
0.0
  0
LINE
  5
7EBA
  8
3
 62
     0
 10
3052.2399789033079
 20
4143.044508
 30
0.0
 11
2371.516315373708
 21
4143.044508
 31
0.0
  0
LINE
  5
7EBB
  8
3
 62
     0
 10
2416.5163153737089
 20
4298.044508
 30
0.0
 11
2416.5163153737089
 21
4388.044508
 31
0.0
  0
LINE
  5
7EBC
  8
3
 62
     0
 10
2416.5163153737089
 20
4053.0445080000009
 30
0.0
 11
2416.5163153737089
 21
3654.473079428572
 31
0.0
  0
LINE
  5
7EBD
  8
3
 62
     0
 10
2416.5163153737089
 20
4208.044507999999
 30
0.0
 11
2416.5163153737089
 21
4143.044508
 31
0.0
  0
INSERT
  5
7EBE
  8
3
 62
     0
  2
_DOT
 10
2416.5163153737089
 20
4208.044507999999
 30
0.0
 41
90.0
 42
90.0
 43
90.0
 50
270.0
  0
INSERT
  5
7EBF
  8
3
 62
     0
  2
_OPEN
 10
2416.5163153737089
 20
4143.044508
 30
0.0
 41
90.0
 42
90.0
 43
90.0
 50
90.0
  0
TEXT
  8
3
  40
135
  5
7EDE
  62
0
  72
0
  71
0
 10
2034.02
 20
3569.81
 30
0.000000
  1
65
  0
POINT
  5
7EC1
  8
DEFPOINTS
 62
     0
 10
3074.7399789033079
 20
4208.044507999999
 30
0.0
  0
POINT
  5
7EC2
  8
DEFPOINTS
 62
     0
 10
3074.7399789033079
 20
4143.044508
 30
0.0
  0
POINT
  5
7EC3
  8
DEFPOINTS
 62
     0
 10
2416.5163153737089
 20
4143.044508
 30
0.0
  0
ENDBLK
  5
7D1A
  8
0
  0
BLOCK
  8
0
  2
*D19
 70
     1
 10
0.0
 20
0.0
 30
0.0
  3
*D19
  1

  0
LINE
  5
7D1E
  8
0
  6
BYBLOCK
 62
     0
 10
3052.2399789033079
 20
4208.044507999999
 30
0.0
 11
2371.516315373708
 21
4208.044507999999
 31
0.0
  0
LINE
  5
7D1F
  8
0
  6
BYBLOCK
 62
     0
 10
3052.2399789033079
 20
4323.044508
 30
0.0
 11
2371.516315373708
 21
4323.044508
 31
0.0
  0
LINE
  5
7D20
  8
0
  6
BYBLOCK
 62
     0
 10
2416.5163153737089
 20
4118.044507999999
 30
0.0
 11
2416.5163153737089
 21
4028.044507999999
 31
0.0
  0
LINE
  5
7D21
  8
0
  6
BYBLOCK
 62
     0
 10
2416.5163153737089
 20
4413.044508
 30
0.0
 11
2416.5163153737089
 21
4503.044508
 31
0.0
  0
TEXT
  5
7D22
  8
3
 62
     0
 10
2246.1591725165649
 20
4030.9016508571422
 30
0.0
 40
135.0
  1
(115)
 50
90.0
  0
LINE
  5
7D23
  8
0
  6
BYBLOCK
 62
     0
 10
2416.5163153737089
 20
4208.044507999999
 30
0.0
 11
2416.5163153737089
 21
4323.044508
 31
0.0
  0
INSERT
  5
7D24
  8
0
  6
BYBLOCK
 62
     0
  2
_DOT
 10
2416.5163153737089
 20
4208.044507999999
 30
0.0
 41
90.0
 42
90.0
 43
90.0
 50
90.0
  0
INSERT
  5
7D25
  8
0
  6
BYBLOCK
 62
     0
  2
_OPEN
 10
2416.5163153737089
 20
4323.044508
 30
0.0
 41
90.0
 42
90.0
 43
90.0
 50
270.0
  0
POINT
  5
7D26
  8
DEFPOINTS
  6
BYBLOCK
 62
     0
 10
3074.7399789033079
 20
4208.044507999999
 30
0.0
  0
POINT
  5
7D27
  8
DEFPOINTS
  6
BYBLOCK
 62
     0
 10
3074.7399789033079
 20
4323.044508
 30
0.0
  0
POINT
  5
7D28
  8
DEFPOINTS
  6
BYBLOCK
 62
     0
 10
2416.5163153737089
 20
4323.044508
 30
0.0
  0
ENDBLK
  5
7D29
  8
0
  0
BLOCK
  8
0
  2
*D20
 70
     1
 10
0.0
 20
0.0
 30
0.0
  3
*D20
  1

  0
LINE
  5
7EC4
  8
3
 62
     0
 10
2952.2399789033079
 20
6414.044508
 30
0.0
 11
1965.5764540568489
 21
6414.044508
 31
0.0
  0
LINE
  5
7EC5
  8
3
 62
     0
 10
3052.2399789033079
 20
4143.044508
 30
0.0
 11
1965.5764540568489
 21
4143.0445080000009
 31
0.0
  0
LINE
  5
7EC6
  8
3
 62
     0
 10
2010.5764540568489
 20
6324.044508
 30
0.0
 11
2010.576454056848
 21
4233.0445080000009
 31
0.0
  0
INSERT
  5
7EC7
  8
3
 62
     0
  2
_OPEN
 10
2010.5764540568489
 20
6414.044508
 30
0.0
 41
90.0
 42
90.0
 43
90.0
 50
90.0
  0
INSERT
  5
7EC8
  8
3
 62
     0
  2
_OPEN
 10
2010.576454056848
 20
4143.0445080000009
 30
0.0
 41
90.0
 42
90.0
 43
90.0
 50
270.0
  0
TEXT
  8
3
  40
135
  5
7EDF
  62
0
  72
0
  71
0
 10
1592.72
 20
5039.59
 30
0.000000
  1
(2271)
  0
POINT
  5
7ECA
  8
DEFPOINTS
 62
     0
 10
2974.7399789033079
 20
6414.044508
 30
0.0
  0
POINT
  5
7ECB
  8
DEFPOINTS
 62
     0
 10
3074.7399789033079
 20
4143.044508
 30
0.0
  0
POINT
  5
7ECC
  8
DEFPOINTS
 62
     0
 10
2010.576454056848
 20
4143.0445080000009
 30
0.0
  0
ENDBLK
  5
7D36
  8
0
  0
ENDSEC
  0
SECTION
  2
ENTITIES
  0
LINE
  5
7A6B
  8
1
  6
CONTINUOUS
 10
3074.7399789033079
 20
4143.044508
 30
0.0
 11
5434.7399789033088
 21
4143.044508
 31
0.0
  0
LINE
  5
7A6C
  8
1
  6
CONTINUOUS
 10
3074.7399789033079
 20
4208.044507999999
 30
0.0
 11
5434.7399789033088
 21
4208.044507999999
 31
0.0
  0
LINE
  5
7A6D
  8
1
  6
CONTINUOUS
 10
3074.7399789033079
 20
4448.044508
 30
0.0
 11
5434.7399789033088
 21
4448.044508
 31
0.0
  0
LINE
  5
7A6E
  8
1
  6
CONTINUOUS
 10
3074.7399789033079
 20
4323.044508
 30
0.0
 11
5434.7399789033088
 21
4323.044508
 31
0.0
  0
ARC
  5
7A6F
  8
1
  6
CONTINUOUS
 10
3816.7399789033079
 20
5245.044508
 30
0.0
 40
890.20000000000005
 50
264.89999999999998
 51
0.0
  0
ARC
  5
7A70
  8
1
  6
CONTINUOUS
 10
3652.7399789033079
 20
5245.044508
 30
0.0
 40
1054.2
 50
0.0
 51
85.5
  0
LINE
  5
7A71
  8
1
  6
CONTINUOUS
 10
5434.7399789033088
 20
10310.05487676681
 30
0.0
 11
4294.739978903307
 21
10310.05487676681
 31
0.0
  0
LINE
  5
7A72
  8
1
  6
CONTINUOUS
 10
5434.7399789033088
 20
9130.0548767668188
 30
0.0
 11
3074.7399789033079
 21
9130.0548767668188
 31
0.0
  0
LINE
  5
7A73
  8
1
  6
CONTINUOUS
 10
4706.9399789033068
 20
10242.05487676681
 30
0.0
 11
2974.7399789033079
 21
10242.05487676681
 31
0.0
  0
LINE
  5
7A74
  8
1
  6
CONTINUOUS
 10
4706.9399789033068
 20
9392.0548767668188
 30
0.0
 11
2974.7399789033079
 21
9392.0548767668188
 31
0.0
  0
LINE
  5
7A75
  8
1
  6
CONTINUOUS
 10
5329.7399789033079
 20
9077.0548767668188
 30
0.0
 11
3356.7399789033079
 21
9077.0548767668188
 31
0.0
  0
LINE
  5
7A76
  8
1
  6
CONTINUOUS
 10
5329.7399789033079
 20
9317.0548767668188
 30
0.0
 11
3356.7399789033079
 21
9317.0548767668188
 31
0.0
  0
LINE
  5
7A77
  8
1
  6
CONTINUOUS
 10
5161.3399789033083
 20
4791.3445080000001
 30
0.0
 11
3854.3399789033078
 21
5414.044507999999
 31
0.0
  0
LINE
  5
7A78
  8
1
  6
CONTINUOUS
 10
5204.3399789033083
 20
4881.6445079999994
 30
0.0
 11
3897.3399789033078
 21
5504.3445080000001
 31
0.0
  0
LINE
  5
7A79
  8
1
  6
CONTINUOUS
 10
5082.7399789033079
 20
4566.1445079999994
 30
0.0
 11
3672.139978903308
 21
4892.1445080000003
 31
0.0
  0
LINE
  5
7A7A
  8
1
  6
CONTINUOUS
 10
5060.239978903307
 20
4468.7445079999989
 30
0.0
 11
3649.639978903308
 21
4794.7445079999989
 31
0.0
  0
CIRCLE
  5
7A7B
  8
1
  6
CONTINUOUS
 10
3734.7399789033079
 20
5163.044508
 30
0.0
 40
610.0
  0
ARC
  5
7A7C
  8
1
  6
CONTINUOUS
 10
3803.2399789033079
 20
5094.544508
 30
0.0
 40
739.10000000000002
 50
180.0
 51
264.89999999999998
  0
LINE
  5
7A7D
  8
1
  6
CONTINUOUS
 10
2974.7399789033079
 20
6361.044507999999
 30
0.0
 11
3734.7399789033079
 21
6296.044508
 31
0.0
  0
LINE
  5
7A7E
  8
1
  6
CONTINUOUS
 10
3014.7399789033079
 20
5211.044508
 30
0.0
 11
3014.7399789033079
 21
6357.6445079999994
 31
0.0
  0
LINE
  5
7A7F
  8
1
  6
CONTINUOUS
 10
2974.7399789033079
 20
5158.044508
 30
0.0
 11
2974.7399789033079
 21
6414.044508
 31
0.0
  0
LINE
  5
7A80
  8
1
  6
CONTINUOUS
 10
3074.7399789033079
 20
4208.044507999999
 30
0.0
 11
3074.7399789033079
 21
4143.044508
 31
0.0
  0
LINE
  5
7A81
  8
1
  6
CONTINUOUS
 10
3074.7399789033079
 20
4448.044508
 30
0.0
 11
3074.7399789033079
 21
4323.044508
 31
0.0
  0
ARC
  5
7A82
  8
1
  6
CONTINUOUS
 10
3666.2399789033079
 20
5094.544508
 30
0.0
 40
602.10000000000002
 50
168.80000000000001
 51
180.0
  0
LINE
  5
7A83
  8
1
  6
CONTINUOUS
 10
3075.5399789033081
 20
5211.044508
 30
0.0
 11
2974.7399789033079
 21
5211.044508
 31
0.0
  0
CIRCLE
  5
7A84
  8
1
  6
CONTINUOUS
 10
3734.7399789033079
 20
5163.044508
 30
0.0
 40
560.0
  0
ARC
  5
7A85
  8
1
  6
CONTINUOUS
 10
3734.7399789033079
 20
5163.044508
 30
0.0
 40
378.0
 50
64.5
 51
257.0
  0
CIRCLE
  5
7A86
  8
1
  6
CONTINUOUS
 10
3734.7399789033079
 20
5163.044508
 30
0.0
 40
278.0
  0
LINE
  5
7A87
  8
2
  6
CENTER
 10
8375.8124458954044
 20
5163.044508
 30
0.0
 11
6873.5048318954059
 21
5163.044508
 31
0.0
  0
LINE
  5
7A88
  8
2
  6
CENTER
 10
3734.7399789033079
 20
4143.044508
 30
0.0
 11
3734.7399789033079
 21
6381.0283250000002
 31
0.0
  0
LINE
  5
7A89
  8
1
  6
CONTINUOUS
 10
4344.7399789033079
 20
10345.05487676681
 30
0.0
 11
3124.7399789033079
 21
10345.05487676681
 31
0.0
  0
LINE
  5
7A8A
  8
1
  6
CONTINUOUS
 10
3174.7399789033079
 20
10310.05487676681
 30
0.0
 11
3074.7399789033079
 21
10310.05487676681
 31
0.0
  0
LINE
  5
7A8B
  8
1
  6
CONTINUOUS
 10
2974.7399789033079
 20
9342.0548767668206
 30
0.0
 11
2974.7399789033079
 21
10292.05487676681
 31
0.0
  0
LINE
  5
7A8C
  8
1
  6
CONTINUOUS
 10
3074.7399789033079
 20
9392.0548767668188
 30
0.0
 11
3074.7399789033079
 21
9130.0548767668188
 31
0.0
  0
LINE
  5
7A8D
  8
1
  6
CONTINUOUS
 10
3074.7399789033079
 20
10310.05487676681
 30
0.0
 11
3074.7399789033079
 21
10242.05487676681
 31
0.0
  0
LINE
  5
7A8E
  8
1
  6
CONTINUOUS
 10
3456.7399789033079
 20
9147.0548767668188
 30
0.0
 11
4012.739978903307
 21
9147.0548767668188
 31
0.0
  0
LINE
  5
7A8F
  8
1
  6
CONTINUOUS
 10
3456.7399789033079
 20
9247.0548767668188
 30
0.0
 11
4012.739978903307
 21
9247.0548767668188
 31
0.0
  0
LINE
  5
7A90
  8
1
  6
CONTINUOUS
 10
3456.7399789033079
 20
9147.0548767668188
 30
0.0
 11
3456.7399789033079
 21
9247.0548767668188
 31
0.0
  0
LINE
  5
7A91
  8
1
  6
CONTINUOUS
 10
3356.7399789033079
 20
9077.0548767668188
 30
0.0
 11
3356.7399789033079
 21
9317.0548767668188
 31
0.0
  0
LINE
  5
7A92
  8
1
  6
CONTINUOUS
 10
3707.2399789033079
 20
9392.0548767668188
 30
0.0
 11
3707.2399789033079
 21
9247.0548767668188
 31
0.0
  0
LINE
  5
7A93
  8
1
  6
CONTINUOUS
 10
4012.739978903307
 20
9147.0548767668188
 30
0.0
 11
4012.739978903307
 21
9247.0548767668188
 31
0.0
  0
LINE
  5
7A94
  8
1
  6
CONTINUOUS
 10
3762.2399789033079
 20
9392.0548767668188
 30
0.0
 11
3762.2399789033079
 21
9247.0548767668188
 31
0.0
  0
LINE
  5
7A95
  8
1
  6
CONTINUOUS
 10
3174.7399789033079
 20
10345.05487676681
 30
0.0
 11
3174.7399789033079
 21
10242.05487676681
 31
0.0
  0
LINE
  5
7A96
  8
1
  6
CONTINUOUS
 10
4294.739978903307
 20
10345.05487676681
 30
0.0
 11
4294.739978903307
 21
10242.05487676681
 31
0.0
  0
LINE
  5
7A97
  8
1
  6
CONTINUOUS
 10
5334.7399789033079
 20
4503.044508
 30
0.0
 11
4884.7399789033079
 21
4503.044508
 31
0.0
  0
ARC
  5
7A98
  8
1
  6
CONTINUOUS
 10
5109.7399789033079
 20
4683.044508
 30
0.0
 40
199.0
 50
320.10000000000002
 51
219.90000000000001
  0
LINE
  5
7A99
  8
1
  6
CONTINUOUS
 10
4947.7399789033079
 20
4545.544507999999
 30
0.0
 11
4957.0399789033081
 21
4555.4445079999987
 31
0.0
  0
LINE
  5
7A9A
  8
1
  6
CONTINUOUS
 10
5334.7399789033079
 20
4448.044508
 30
0.0
 11
4884.7399789033079
 21
4448.044508
 31
0.0
  0
LINE
  5
7A9B
  8
1
  6
CONTINUOUS
 10
4947.7399789033079
 20
4503.044508
 30
0.0
 11
4947.7399789033079
 21
4545.544507999999
 31
0.0
  0
LINE
  5
7A9C
  8
1
  6
CONTINUOUS
 10
4884.7399789033079
 20
4448.044508
 30
0.0
 11
4884.7399789033079
 21
4503.044508
 31
0.0
  0
CIRCLE
  5
7A9D
  8
1
  6
CONTINUOUS
 10
5109.7399789033079
 20
4683.044508
 30
0.0
 40
120.0
  0
ARC
  5
7A9E
  8
1
  6
CONTINUOUS
 10
5109.7399789033079
 20
4683.044508
 30
0.0
 40
220.0
 50
257.0
 51
64.5
  0
LINE
  5
7A9F
  8
2
  6
CENTER
 10
5109.7399789033079
 20
4563.044507999999
 30
0.0
 11
5109.7399789033079
 21
4803.044508
 31
0.0
  0
LINE
  5
7AA0
  8
1
  6
CONTINUOUS
 10
5434.7399789033088
 20
4208.044507999999
 30
0.0
 11
5434.7399789033088
 21
4143.044508
 31
0.0
  0
LINE
  5
7AA1
  8
1
  6
CONTINUOUS
 10
5271.7399789033079
 20
4503.044508
 30
0.0
 11
5271.7399789033079
 21
4545.544507999999
 31
0.0
  0
LINE
  5
7AA2
  8
1
  6
CONTINUOUS
 10
5271.7399789033079
 20
4545.544507999999
 30
0.0
 11
5262.4399789033077
 21
4555.4445079999987
 31
0.0
  0
LINE
  5
7AA3
  8
1
  6
CONTINUOUS
 10
5434.7399789033088
 20
4448.044508
 30
0.0
 11
5434.7399789033088
 21
4323.044508
 31
0.0
  0
LINE
  5
7AA4
  8
1
  6
CONTINUOUS
 10
5334.7399789033079
 20
4448.044508
 30
0.0
 11
5334.7399789033079
 21
4503.044508
 31
0.0
  0
LINE
  5
7AA5
  8
2
  6
CENTER
 10
5229.7399789033079
 20
4683.044508
 30
0.0
 11
4989.7399789033079
 21
4683.044508
 31
0.0
  0
LINE
  5
7AA6
  8
1
  6
CONTINUOUS
 10
5434.7399789033088
 20
10310.05487676681
 30
0.0
 11
5434.7399789033088
 21
9130.0548767668188
 31
0.0
  0
LINE
  5
7AA7
  8
1
  6
CONTINUOUS
 10
4706.9399789033068
 20
9392.0548767668188
 30
0.0
 11
4706.9399789033068
 21
10242.05487676681
 31
0.0
  0
LINE
  5
7AA8
  8
1
  6
CONTINUOUS
 10
5308.8399789033083
 20
9365.7548767668195
 30
0.0
 11
4910.6399789033076
 21
9365.7548767668195
 31
0.0
  0
LINE
  5
7AA9
  8
1
  6
CONTINUOUS
 10
5308.8399789033083
 20
9965.2548767668195
 30
0.0
 11
4910.6399789033076
 21
9965.2548767668195
 31
0.0
  0
LINE
  5
7AAA
  8
1
  6
CONTINUOUS
 10
4910.6399789033076
 20
9365.7548767668195
 30
0.0
 11
4910.6399789033076
 21
9965.2548767668195
 31
0.0
  0
LINE
  5
7AAB
  8
1
  6
CONTINUOUS
 10
4989.7399789033079
 20
9147.0548767668188
 30
0.0
 11
4989.7399789033079
 21
9247.0548767668188
 31
0.0
  0
LINE
  5
7AAC
  8
1
  6
CONTINUOUS
 10
5229.7399789033079
 20
9147.0548767668188
 30
0.0
 11
5229.7399789033079
 21
9247.0548767668188
 31
0.0
  0
LINE
  5
7AAD
  8
1
  6
CONTINUOUS
 10
5329.7399789033079
 20
9077.0548767668188
 30
0.0
 11
5329.7399789033079
 21
9317.0548767668188
 31
0.0
  0
LINE
  5
7AAE
  8
1
  6
CONTINUOUS
 10
4989.7399789033079
 20
9147.0548767668188
 30
0.0
 11
5229.7399789033079
 21
9147.0548767668188
 31
0.0
  0
LINE
  5
7AAF
  8
1
  6
CONTINUOUS
 10
5137.2399789033079
 20
9247.0548767668188
 30
0.0
 11
5137.2399789033079
 21
9365.7548767668195
 31
0.0
  0
LINE
  5
7AB0
  8
1
  6
CONTINUOUS
 10
5082.2399789033079
 20
9247.0548767668188
 30
0.0
 11
5082.2399789033079
 21
9365.7548767668195
 31
0.0
  0
LINE
  5
7AB1
  8
1
  6
CONTINUOUS
 10
4989.7399789033079
 20
9247.0548767668188
 30
0.0
 11
5229.7399789033079
 21
9247.0548767668188
 31
0.0
  0
LINE
  5
7AB2
  8
1
  6
CONTINUOUS
 10
5308.8399789033083
 20
9365.7548767668195
 30
0.0
 11
5308.8399789033083
 21
9965.2548767668195
 31
0.0
  0
LINE
  5
7AB3
  8
1
  6
CONTINUOUS
 10
8161.3524898954047
 20
6361.044507999999
 30
0.0
 11
7311.3524898954074
 21
5211.044508
 31
0.0
  0
LINE
  5
7AB4
  8
1
  6
CONTINUOUS
 10
7311.3524898954074
 20
6361.044507999999
 30
0.0
 11
8161.3524898954047
 21
5211.044508
 31
0.0
  0
LINE
  5
7AB5
  8
1
  6
CONTINUOUS
 10
7311.3524898954074
 20
5211.044508
 30
0.0
 11
8161.3524898954047
 21
5211.044508
 31
0.0
  0
LINE
  5
7AB6
  8
1
  6
CONTINUOUS
 10
7311.3524898954074
 20
6361.044507999999
 30
0.0
 11
8161.3524898954047
 21
6361.044507999999
 31
0.0
  0
LINE
  5
7AB7
  8
1
  6
CONTINUOUS
 10
8229.3524898954056
 20
4323.044508
 30
0.0
 11
7049.3524898954056
 21
4323.044508
 31
0.0
  0
LINE
  5
7AB8
  8
1
  6
CONTINUOUS
 10
8229.3524898954056
 20
4448.044508
 30
0.0
 11
7049.3524898954056
 21
4448.044508
 31
0.0
  0
LINE
  5
7AB9
  8
1
  6
CONTINUOUS
 10
8229.3524898954056
 20
4208.044507999999
 30
0.0
 11
7049.3524898954056
 21
4208.044507999999
 31
0.0
  0
LINE
  5
7ABA
  8
1
  6
CONTINUOUS
 10
8229.3524898954056
 20
4143.044508
 30
0.0
 11
7049.3524898954056
 21
4143.044508
 31
0.0
  0
LINE
  5
7ABB
  8
1
  6
CONTINUOUS
 10
7236.3524898954074
 20
4463.044508
 30
0.0
 11
7236.3524898954074
 21
5541.044508
 31
0.0
  0
LINE
  5
7ABC
  8
1
  6
CONTINUOUS
 10
6976.3524898954056
 20
4463.044508
 30
0.0
 11
6976.3524898954056
 21
5541.044508
 31
0.0
  0
LINE
  5
7ABD
  8
1
  6
CONTINUOUS
 10
7311.3524898954074
 20
4448.044508
 30
0.0
 11
7311.3524898954074
 21
6361.044507999999
 31
0.0
  0
LINE
  5
7ABE
  8
1
  6
CONTINUOUS
 10
6976.3524898954056
 20
4463.044508
 30
0.0
 11
7236.3524898954074
 21
4463.044508
 31
0.0
  0
LINE
  5
7ABF
  8
1
  6
CONTINUOUS
 10
7066.3524898954074
 20
4885.044508
 30
0.0
 11
7166.3524898954056
 21
4885.044508
 31
0.0
  0
LINE
  5
7AC0
  8
1
  6
CONTINUOUS
 10
7066.3524898954074
 20
4563.044507999999
 30
0.0
 11
7166.3524898954056
 21
4563.044507999999
 31
0.0
  0
LINE
  5
7AC1
  8
1
  6
CONTINUOUS
 10
7066.3524898954074
 20
4803.044508
 30
0.0
 11
7166.3524898954056
 21
4803.044508
 31
0.0
  0
LINE
  5
7AC2
  8
1
  6
CONTINUOUS
 10
7066.3524898954074
 20
5441.044508
 30
0.0
 11
7166.3524898954056
 21
5441.044508
 31
0.0
  0
LINE
  5
7AC3
  8
1
  6
CONTINUOUS
 10
7066.3524898954074
 20
4803.044508
 30
0.0
 11
7066.3524898954074
 21
4563.044507999999
 31
0.0
  0
LINE
  5
7AC4
  8
1
  6
CONTINUOUS
 10
7049.3524898954056
 20
4323.044508
 30
0.0
 11
7049.3524898954056
 21
4448.044508
 31
0.0
  0
LINE
  5
7AC5
  8
1
  6
CONTINUOUS
 10
7049.3524898954056
 20
4143.044508
 30
0.0
 11
7049.3524898954056
 21
4208.044507999999
 31
0.0
  0
LINE
  5
7AC6
  8
1
  6
CONTINUOUS
 10
7066.3524898954074
 20
5441.044508
 30
0.0
 11
7066.3524898954074
 21
4885.044508
 31
0.0
  0
LINE
  5
7AC7
  8
1
  6
CONTINUOUS
 10
7166.3524898954056
 20
4803.044508
 30
0.0
 11
7166.3524898954056
 21
4563.044507999999
 31
0.0
  0
LINE
  5
7AC8
  8
1
  6
CONTINUOUS
 10
7166.3524898954056
 20
5135.544508
 30
0.0
 11
7311.3524898954074
 21
5135.544508
 31
0.0
  0
LINE
  5
7AC9
  8
1
  6
CONTINUOUS
 10
7166.3524898954056
 20
5190.544508
 30
0.0
 11
7311.3524898954074
 21
5190.544508
 31
0.0
  0
LINE
  5
7ACA
  8
1
  6
CONTINUOUS
 10
7166.3524898954056
 20
4655.544508
 30
0.0
 11
7311.3524898954074
 21
4655.544508
 31
0.0
  0
LINE
  5
7ACB
  8
1
  6
CONTINUOUS
 10
7166.3524898954056
 20
4710.544508
 30
0.0
 11
7311.3524898954074
 21
4710.544508
 31
0.0
  0
LINE
  5
7ACC
  8
1
  6
CONTINUOUS
 10
7166.3524898954056
 20
5441.044508
 30
0.0
 11
7166.3524898954056
 21
4885.044508
 31
0.0
  0
LINE
  5
7ACD
  8
1
  6
CONTINUOUS
 10
6976.3524898954056
 20
5541.044508
 30
0.0
 11
7236.3524898954074
 21
5541.044508
 31
0.0
  0
LINE
  5
7ACE
  8
1
  6
CONTINUOUS
 10
8264.3524898954056
 20
4553.044508
 30
0.0
 11
8264.3524898954056
 21
5773.044508
 31
0.0
  0
LINE
  5
7ACF
  8
1
  6
CONTINUOUS
 10
8161.3524898954047
 20
4448.044508
 30
0.0
 11
8161.3524898954047
 21
6361.044507999999
 31
0.0
  0
LINE
  5
7AD0
  8
1
  6
CONTINUOUS
 10
8161.3524898954047
 20
4603.044507999999
 30
0.0
 11
8264.3524898954056
 21
4603.044507999999
 31
0.0
  0
LINE
  5
7AD1
  8
1
  6
CONTINUOUS
 10
8229.3524898954056
 20
4323.044508
 30
0.0
 11
8229.3524898954056
 21
4448.044508
 31
0.0
  0
LINE
  5
7AD2
  8
1
  6
CONTINUOUS
 10
8229.3524898954056
 20
4143.044508
 30
0.0
 11
8229.3524898954056
 21
4208.044507999999
 31
0.0
  0
LINE
  5
7AD3
  8
1
  6
CONTINUOUS
 10
8161.3524898954047
 20
5723.044508
 30
0.0
 11
8264.3524898954056
 21
5723.044508
 31
0.0
  0
DIMENSION
  5
7B00
  8
3
  6
CONTINUOUS
  2
*D1
 10
3734.7399789033079
 20
6548.1426499999989
 30
0.0
 11
3349.8823319033072
 21
6548.1426499999989
 31
0.0
 70
   128
 13
2974.7399789033079
 23
6414.044508
 33
0.0
 14
3734.7399789033079
 24
6296.044508
 34
0.0
1001
ACAD
1000
DSTYLE
1002
{
1070
   287
1070
     3
1070
   287
1070
     3
1070
    40
1040
45.0
1070
   143
1040
0.039
1070
   172
1070
     1
1070
   271
1070
     0
1070
   279
1070
     0
1070
   288
1070
     1
1002
}
  0
DIMENSION
  5
7B0C
  8
3
  6
CONTINUOUS
  2
*D2
 10
4703.7399789033079
 20
6548.1426499999989
 30
0.0
 11
4219.2399789033079
 21
6660.6426499999989
 31
0.0
 70
     0
 13
3734.7399789033079
 23
6296.044508
 33
0.0
 14
4703.7399789033079
 24
5163.044508
 34
0.0
1001
ACAD
1000
DSTYLE
1002
{
1070
   287
1070
     4
1070
   287
1070
     4
1070
    40
1040
45.0
1070
    75
1070
     1
1070
   143
1040
0.039
1070
   172
1070
     1
1070
   271
1070
     0
1070
   279
1070
     1
1070
   288
1070
     1
1002
}
  0
DIMENSION
  5
7B19
  8
3
  6
CONTINUOUS
  2
*D3
 10
2694.8306489033089
 20
5211.044508
 30
0.0
 11
2694.830648903308
 21
5805.4123010000003
 31
0.0
 70
   128
 13
2974.7399789033079
 23
6361.044507999999
 33
0.0
 14
2974.7399789033079
 24
5211.044508
 34
0.0
 50
90.0
1001
ACAD
1000
DSTYLE
1002
{
1070
   287
1070
     3
1070
   287
1070
     3
1070
    40
1040
45.0
1070
   143
1040
0.039
1070
   172
1070
     1
1070
   271
1070
     0
1070
   279
1070
     0
1070
   288
1070
     1
1002
}
  0
DIMENSION
  5
7B26
  8
3
  6
CONTINUOUS
  2
*D4
 10
2419.7233359033089
 20
5163.044508
 30
0.0
 11
2419.723335903308
 21
5812.1006809999999
 31
0.0
 70
   128
 13
2974.7399789033079
 23
6361.044507999999
 33
0.0
 14
3068.0492409033081
 24
5163.044508
 34
0.0
 50
90.0
1001
ACAD
1000
DSTYLE
1002
{
1070
   287
1070
     3
1070
   287
1070
     3
1070
    40
1040
45.0
1070
   143
1040
0.039
1070
   172
1070
     1
1070
   271
1070
     0
1070
   279
1070
     0
1070
   288
1070
     1
1002
}
  0
DIMENSION
  5
7B32
  8
3
  6
CONTINUOUS
  2
*D5
 10
2419.723335903308
 20
4323.044508
 30
0.0
 11
2307.2233359033071
 21
4743.0445080000009
 31
0.0
 70
     0
 13
3068.0492409033081
 23
5163.044508
 33
0.0
 14
3074.7399789033079
 24
4323.044508
 34
0.0
 50
90.0
1001
ACAD
1000
DSTYLE
1002
{
1070
   287
1070
     4
1070
   287
1070
     4
1070
    40
1040
45.0
1070
    75
1070
     1
1070
   143
1040
0.039
1070
   172
1070
     1
1070
   271
1070
     0
1070
   279
1070
     1
1070
   288
1070
     1
1002
}
  0
DIMENSION
  5
7B68
  8
3
  6
CONTINUOUS
  2
*D6
 10
5434.7399789033088
 20
8621.1284547668183
 30
0.0
 11
4218.331399903308
 21
8621.1284547668183
 31
0.0
 70
   128
 13
3074.7399789033079
 23
9130.0548767668188
 33
0.0
 14
5434.7399789033088
 24
9130.0548767668188
 34
0.0
1001
ACAD
1000
DSTYLE
1002
{
1070
   287
1070
     3
1070
   287
1070
     3
1070
    40
1040
45.0
1070
   143
1040
0.039
1070
   172
1070
     1
1070
   271
1070
     0
1070
   279
1070
     0
1070
   288
1070
     1
1002
}
  0
DIMENSION
  5
7B75
  8
3
  6
CONTINUOUS
  2
*D7
 10
5868.9752239033087
 20
9130.0548767668188
 30
0.0
 11
5868.9752239033087
 21
9736.7018827668217
 31
0.0
 70
   128
 13
5434.7399789033088
 23
10310.05487676681
 33
0.0
 14
5434.7399789033088
 24
9130.0548767668188
 34
0.0
 50
90.0
1001
ACAD
1000
DSTYLE
1002
{
1070
   287
1070
     3
1070
   287
1070
     3
1070
    40
1040
45.0
1070
   143
1040
0.039
1070
   172
1070
     1
1070
   271
1070
     0
1070
   279
1070
     0
1070
   288
1070
     1
1002
}
  0
LINE
  5
7B76
  8
2
  6
CENTER
 10
4818.4699579033077
 20
9817.0548767668188
 30
0.0
 11
2761.006193903308
 21
9817.0548767668188
 31
0.0
  0
LINE
  5
7B77
  8
2
  6
CENTER
 10
3734.7399789033079
 20
8984.327406766819
 30
0.0
 11
3734.7399789033079
 21
10444.06363876682
 31
0.0
  0
LINE
  5
7B78
  8
2
  6
CENTER
 10
7736.3524898954083
 20
6515.1124576776747
 30
0.0
 11
7736.3524898954056
 21
4143.044508
 31
0.0
  0
DIMENSION
  5
7B85
  8
3
  6
CONTINUOUS
  2
*D8
 10
8614.8574698954108
 20
4603.044507999999
 30
0.0
 11
8614.8574698954071
 21
5188.2261339999995
 31
0.0
 70
   128
 13
8264.3524898954056
 23
5723.044508
 33
0.0
 14
8264.3524898954056
 24
4603.044507999999
 34
0.0
 50
90.0
1001
ACAD
1000
DSTYLE
1002
{
1070
   287
1070
     3
1070
   287
1070
     3
1070
     3
1000
φ<>
1070
    40
1040
45.0
1070
   143
1040
0.039
1070
   172
1070
     1
1070
   271
1070
     0
1070
   279
1070
     0
1070
   288
1070
     1
1002
}
  0
DIMENSION
  5
7B92
  8
3
  6
CONTINUOUS
  2
*D9
 10
8161.3524898954047
 20
6532.5680860000011
 30
0.0
 11
7722.617586895406
 21
6532.5680860000011
 31
0.0
 70
   128
 13
7311.3524898954074
 23
6361.044507999999
 33
0.0
 14
8161.3524898954047
 24
6361.044507999999
 34
0.0
1001
ACAD
1000
DSTYLE
1002
{
1070
   287
1070
     3
1070
   287
1070
     3
1070
    40
1040
45.0
1070
   143
1040
0.039
1070
   172
1070
     1
1070
   271
1070
     0
1070
   279
1070
     0
1070
   288
1070
     1
1002
}
  0
DIMENSION
  5
7BAC
  8
3
  6
CONTINUOUS
  2
*D10
 10
7736.3524898954074
 20
6893.3379537623923
 30
0.0
 11
7358.2862578954064
 21
6893.3379537623923
 31
0.0
 70
   128
  1
MAX\P850
 13
6976.3524898954056
 23
5541.044508
 33
0.0
 14
7736.3524898954074
 24
6712.9635015520362
 34
0.0
1001
ACAD
1000
DSTYLE
1002
{
1070
   287
1070
     3
1070
   287
1070
     3
1070
    40
1040
45.0
1070
   143
1040
0.039
1070
   172
1070
     1
1070
   271
1070
     0
1070
   279
1070
     0
1070
   288
1070
     1
1002
}
  0
DIMENSION
  5
7BBA
  8
3
  6
CONTINUOUS
  2
*D11
 10
8264.3524898954056
 20
6893.3379537623923
 30
0.0
 11
7990.2895788954056
 21
6893.3379537623923
 31
0.0
 70
   128
 13
7736.3524898954074
 23
6712.9635015520362
 33
0.0
 14
8264.3524898954056
 24
5773.044508
 34
0.0
1001
ACAD
1000
DSTYLE
1002
{
1070
   287
1070
     4
1070
   287
1070
     4
1070
    40
1040
45.0
1070
    75
1070
     1
1070
   143
1040
0.039
1070
   172
1070
     1
1070
   271
1070
     0
1070
   279
1070
     1
1070
   288
1070
     1
1002
}
  0
LINE
  5
7C02
  8
2
  6
CENTER
 10
4825.0479379033086
 20
5163.044508
 30
0.0
 11
2906.5254069033081
 21
5163.044508
 31
0.0
  0
LINE
  5
7C03
  8
4
  6
CONTINUOUS
 10
9250.0
 20
2500.0
 30
0.0
 11
9250.0
 21
1500.0
 31
0.0
  0
LINE
  5
7C04
  8
4
  6
CONTINUOUS
 10
5750.0
 20
2500.0
 30
0.0
 11
5750.0
 21
1500.0
 31
0.0
  0
LINE
  5
7C05
  8
4
  6
CONTINUOUS
 10
3250.0
 20
2500.0
 30
0.0
 11
3250.0
 21
1500.0
 31
0.0
  0
LINE
  5
7C08
  8
4
  6
CONTINUOUS
 10
3250.0
 20
1500.0
 30
0.0
 11
9250.0
 21
1500.0
 31
0.0
  0
LINE
  5
7C09
  8
4
  6
CONTINUOUS
 10
3250.0
 20
2000.0
 30
0.0
 11
9250.0
 21
2000.0
 31
0.0
  0
TEXT
  5
7C0A
  8
4
  6
CONTINUOUS
 10
3442.5104040000001
 20
2157.7151289999988
 30
0.0
 40
250.0
  1
機器名称
  0
TEXT
  5
7C0B
  8
4
  6
CONTINUOUS
 10
3431.2905300000002
 20
1608.225782999999
 30
0.0
 40
250.0
  1
機器型番
  0
TEXT
  5
7C0C
  8
4
  6
CONTINUOUS
 10
5888.393728
 20
2112.8588439999999
 30
0.0
 40
211.11111099999991
  1
ミツヤリミットロードファン
  0
TEXT
  5
7C0D
  8
4
  6
CONTINUOUS
 10
5933.2724779999999
 20
1585.7979210000001
 30
0.0
 40
250.0
  1
LLE#7-4
  0
TEXT
  5
7C0F
  8
4
  6
CONTINUOUS
 10
3584.619361
 20
11917.14420699999
 30
0.0
 40
270.0
  1
床置防振ベット
  0
TEXT
  5
7C10
  8
4
  6
CONTINUOUS
 10
1580.837966999999
 20
12669.404881
 30
0.0
 40
300.0
  1
ベルト駆動式片吸込両持排煙ファン
  0
LINE
  5
7C11
  8
4
  6
CONTINUOUS
 10
1250.0
 20
12347.04377099999
 30
0.0
 11
9250.0
 21
12347.04377099999
 31
0.0
  0
LINE
  5
7C12
  8
4
  6
CONTINUOUS
 10
1250.0
 20
13347.043771000001
 30
0.0
 11
9250.0
 21
13347.043771000001
 31
0.0
  0
LINE
  5
7C13
  8
4
  6
CONTINUOUS
 10
3250.0
 20
2500.0
 30
0.0
 11
9250.0
 21
2500.0
 31
0.0
  0
LINE
  5
7C14
  8
4
  6
CONTINUOUS
 10
1250.0
 20
13347.043771000001
 30
0.0
 11
1250.0
 21
12347.04377099999
 31
0.0
  0
TEXT
  5
7C15
  8
4
  6
CONTINUOUS
 10
1405.3252
 20
11911.597388
 30
0.0
 40
270.0
  1
左回転左横向
  0
TEXT
  5
7C16
  8
4
  6
CONTINUOUS
 10
7344.8477969999994
 20
13530.305408
 30
0.0
 40
280.0
  1
No.
  0
TEXT
  5
7C17
  8
4
  6
CONTINUOUS
 10
6556.480313
 20
11917.14420699999
 30
0.0
 40
270.0
  1
縮尺：1/50
  0
LINE
  5
7C18
  8
4
  6
CONTINUOUS
 10
9250.0
 20
13347.043771000001
 30
0.0
 11
9250.0
 21
12347.04377099999
 31
0.0
  0
LINE
  5
7C1A
  8
4
  6
CONTINUOUS
 10
7203.0871120000002
 20
13406.317916
 30
0.0
 11
7203.0871120000002
 21
13933.261307999999
 31
0.0
  0
LINE
  5
7C1B
  8
4
  6
CONTINUOUS
 10
7203.0871120000002
 20
13933.261307999999
 30
0.0
 11
9250.0
 21
13933.261307999999
 31
0.0
  0
LINE
  5
7C1C
  8
4
  6
CONTINUOUS
 10
9250.0
 20
13933.261307999999
 30
0.0
 11
9250.0
 21
13406.317916
 31
0.0
  0
LINE
  5
7C1D
  8
4
  6
CONTINUOUS
 10
9250.0
 20
13406.317916
 30
0.0
 11
7203.0871120000002
 21
13406.317916
 31
0.0
  0
DIMENSION
  5
7C4F
  8
3
  2
*D12
 10
5434.7399789033088
 20
6820.6694818857941
 30
0.0
 11
4212.087261811429
 21
6820.6694818857941
 31
0.0
 70
   128
 13
2974.7399789033079
 23
6414.044508
 33
0.0
 14
5434.7399789033088
 24
4448.044508
 34
0.0
1001
ACAD
1000
DSTYLE
1002
{
1070
   287
1070
     3
1070
   287
1070
     3
1070
    40
1040
45.0
1070
   143
1040
0.039
1070
   172
1070
     1
1070
   271
1070
     0
1070
   279
1070
     0
1070
   288
1070
     1
1002
}
  0
DIMENSION
  5
7CDB
  8
3
  2
*D13
 10
3734.7399789033079
 20
3841.7130605381421
 30
0.0
 11
3404.7399789033079
 21
3954.2130605381421
 31
0.0
 70
     0
 13
3074.7399789033079
 23
4143.044508
 33
0.0
 14
3734.7399789033079
 24
4143.044508
 34
0.0
1001
ACAD
1000
DSTYLE
1002
{
1070
   287
1070
     3
1070
   287
1070
     3
1070
    40
1040
45.0
1070
   143
1040
0.039
1070
   172
1070
     1
1070
   271
1070
     0
1070
   279
1070
     0
1002
}
  0
DIMENSION
  5
7CE8
  8
3
  2
*D14
 10
5434.7399789033088
 20
3841.7130605381421
 30
0.0
 11
4584.7399789033079
 21
3954.2130605381421
 31
0.0
 70
     0
 13
3734.7399789033079
 23
4143.044508
 33
0.0
 14
5434.7399789033088
 24
4143.044508
 34
0.0
1001
ACAD
1000
DSTYLE
1002
{
1070
   287
1070
     3
1070
   287
1070
     3
1070
    40
1040
45.0
1070
   143
1040
0.039
1070
   172
1070
     1
1070
   271
1070
     0
1070
   279
1070
     0
1002
}
  0
DIMENSION
  5
7CF5
  8
3
  2
*D15
 10
7736.3524898954056
 20
3841.7130605381421
 30
0.0
 11
7392.8524898954047
 21
3954.2130605381421
 31
0.0
 70
     0
 13
7049.3524898954056
 23
4143.044508
 33
0.0
 14
7736.3524898954056
 24
4143.044508
 34
0.0
1001
ACAD
1000
DSTYLE
1002
{
1070
   287
1070
     3
1070
   287
1070
     3
1070
    40
1040
45.0
1070
   143
1040
0.039
1070
   172
1070
     1
1070
   271
1070
     0
1070
   279
1070
     0
1002
}
  0
DIMENSION
  5
7D04
  8
3
  2
*D16
 10
8229.3524898954056
 20
3841.7130605381421
 30
0.0
 11
7982.8524898954056
 21
3954.2130605381421
 31
0.0
 70
     0
 13
7736.3524898954056
 23
4143.044508
 33
0.0
 14
8229.3524898954056
 24
4143.044508
 34
0.0
1001
ACAD
1000
DSTYLE
1002
{
1070
   287
1070
     3
1070
   287
1070
     3
1070
    40
1040
45.0
1070
   143
1040
0.039
1070
   172
1070
     1
1070
   271
1070
     0
1070
   279
1070
     0
1002
}
  0
DIMENSION
  5
7D1B
  8
3
  2
*D18
 10
2416.5163153737089
 20
4143.044508
 30
0.0
 11
2304.0163153737071
 21
3808.7587937142862
 31
0.0
 70
     0
 13
3074.7399789033079
 23
4208.044507999999
 33
0.0
 14
3074.7399789033079
 24
4143.044508
 34
0.0
 50
90.0
1001
ACAD
1000
DSTYLE
1002
{
1070
   287
1070
     3
1070
   287
1070
     3
1070
    40
1040
45.0
1070
   143
1040
0.039
1070
   172
1070
     1
1070
   271
1070
     0
1070
   279
1070
     0
1070
     6
1000
DOT
1002
}
  0
DIMENSION
  5
7D2A
  8
3
  2
*D19
 10
2416.5163153737089
 20
4323.044508
 30
0.0
 11
2201.1591725165658
 21
4265.544508
 31
0.0
 70
     0
 13
3074.7399789033079
 23
4208.044507999999
 33
0.0
 14
3074.7399789033079
 24
4323.044508
 34
0.0
 50
90.0
1001
ACAD
1000
DSTYLE
1002
{
1070
   172
1070
     1
1070
    40
1040
45.0
1070
     3
1000
(<>)
1070
   271
1070
     0
1070
     6
1000
_DOT
1070
   143
1040
0.039
1002
}
  0
DIMENSION
  5
7D37
  8
3
  2
*D20
 10
2010.576454056848
 20
4143.0445080000009
 30
0.0
 11
1862.7193111997051
 21
5278.5445080000009
 31
0.0
 70
     0
 13
2974.7399789033079
 23
6414.044508
 33
0.0
 14
3074.7399789033079
 24
4143.044508
 34
0.0
 50
90.0
1001
ACAD
1000
DSTYLE
1002
{
1070
   287
1070
     3
1070
   287
1070
     3
1070
     3
1000
(<>)
1070
    40
1040
45.0
1070
   143
1040
0.039
1070
   172
1070
     1
1070
   271
1070
     0
1070
   279
1070
     0
1002
}
  0
ENDSEC
  0
EOF
