  0
SECTION
  2
HEADER
  9
$ACADVER
  1
AC1009
  9
$INSBASE
 10
0.0
 20
0.0
 30
0.0
  9
$EXTMIN
 10
1250.0
 20
1500.0
 30
0.0
  9
$EXTMAX
 10
9250.0
 20
13933.261307999999
 30
0.0
  9
$LIMMIN
 10
0.0
 20
0.0
  9
$LIMMAX
 10
297.0
 20
210.0
  9
$ORTHOMODE
 70
     0
  9
$REGENMODE
 70
     1
  9
$FILLMODE
 70
     0
  9
$QTEXTMODE
 70
     0
  9
$MIRRTEXT
 70
     1
  9
$DRAGMODE
 70
     2
  9
$LTSCALE
 40
100.0
  9
$OSMODE
 70
    37
  9
$ATTMODE
 70
     1
  9
$TEXTSIZE
 40
180.0
  9
$TRACEWID
 40
0.05
  9
$TEXTSTYLE
  7
STANDARD
  9
$CLAYER
  8
3
  9
$CELTYPE
  6
BYLAYER
  9
$CECOLOR
 62
   256
  9
$DIMSCALE
 40
45.0
  9
$DIMASZ
 40
2.0
  9
$DIMEXO
 40
0.5
  9
$DIMDLI
 40
10.0
  9
$DIMRND
 40
0.0
  9
$DIMDLE
 40
0.0
  9
$DIMEXE
 40
1.0
  9
$DIMTP
 40
1.0
  9
$DIMTM
 40
1.0
  9
$DIMTXT
 40
3.0
  9
$DIMCEN
 40
0.0
  9
$DIMTSZ
 40
0.0
  9
$DIMTOL
 70
     0
  9
$DIMLIM
 70
     0
  9
$DIMTIH
 70
     0
  9
$DIMTOH
 70
     0
  9
$DIMSE1
 70
     0
  9
$DIMSE2
 70
     0
  9
$DIMTAD
 70
     1
  9
$DIMZIN
 70
     8
  9
$DIMBLK
  1

  9
$DIMASO
 70
     1
  9
$DIMSHO
 70
     1
  9
$DIMPOST
  1

  9
$DIMAPOST
  1

  9
$DIMALT
 70
     0
  9
$DIMALTD
 70
     2
  9
$DIMALTF
 40
0.039
  9
$DIMLFAC
 40
1.0
  9
$DIMTOFL
 70
     1
  9
$DIMTVP
 40
0.0
  9
$DIMTIX
 70
     0
  9
$DIMSOXD
 70
     0
  9
$DIMSAH
 70
     1
  9
$DIMBLK1
  1
OPEN
  9
$DIMBLK2
  1
OPEN
  9
$DIMSTYLE
  2
IGA
  9
$DIMCLRD
 70
     0
  9
$DIMCLRE
 70
     0
  9
$DIMCLRT
 70
     0
  9
$DIMTFAC
 40
10.0
  9
$DIMGAP
 40
1.0
  9
$LUNITS
 70
     2
  9
$LUPREC
 70
     3
  9
$SKETCHINC
 40
0.1
  9
$FILLETRAD
 40
50.0
  9
$AUNITS
 70
     0
  9
$AUPREC
 70
     0
  9
$MENU
  1
acad
  9
$ELEVATION
 40
0.0
  9
$PELEVATION
 40
0.0
  9
$THICKNESS
 40
0.0
  9
$LIMCHECK
 70
     0
  9
$BLIPMODE
 70
     0
  9
$CHAMFERA
 40
0.5
  9
$CHAMFERB
 40
0.5
  9
$SKPOLY
 70
     0
  9
$TDCREATE
 40
2450751.363042824
  9
$TDUPDATE
 40
2454953.6878875461
  9
$TDINDWG
 40
0.0050903935
  9
$TDUSRTIMER
 40
0.0050903935
  9
$USRTIMER
 70
     1
  9
$ANGBASE
 50
0.0
  9
$ANGDIR
 70
     0
  9
$PDMODE
 70
     0
  9
$PDSIZE
 40
0.0
  9
$PLINEWID
 40
0.0
  9
$COORDS
 70
     1
  9
$SPLFRAME
 70
     0
  9
$SPLINETYPE
 70
     6
  9
$SPLINESEGS
 70
     8
  9
$ATTDIA
 70
     0
  9
$ATTREQ
 70
     1
  9
$HANDLING
 70
 10241
  9
$HANDSEED
  5
7F45
  9
$SURFTAB1
 70
     6
  9
$SURFTAB2
 70
     6
  9
$SURFTYPE
 70
     6
  9
$SURFU
 70
     6
  9
$SURFV
 70
     6
  9
$UCSNAME
  2

  9
$UCSORG
 10
0.0
 20
0.0
 30
0.0
  9
$UCSXDIR
 10
1.0
 20
0.0
 30
0.0
  9
$UCSYDIR
 10
0.0
 20
1.0
 30
0.0
  9
$PUCSNAME
  2

  9
$PUCSORG
 10
0.0
 20
0.0
 30
0.0
  9
$PUCSXDIR
 10
1.0
 20
0.0
 30
0.0
  9
$PUCSYDIR
 10
0.0
 20
1.0
 30
0.0
  9
$USERI1
 70
     0
  9
$USERI2
 70
     0
  9
$USERI3
 70
     0
  9
$USERI4
 70
     0
  9
$USERI5
 70
     0
  9
$USERR1
 40
0.0
  9
$USERR2
 40
0.0
  9
$USERR3
 40
0.0
  9
$USERR4
 40
0.0
  9
$USERR5
 40
0.0
  9
$WORLDVIEW
 70
     1
  9
$SHADEDGE
 70
     3
  9
$SHADEDIF
 70
    70
  9
$TILEMODE
 70
     1
  9
$MAXACTVP
 70
    16
  9
$PLIMCHECK
 70
     0
  9
$PEXTMIN
 10
1.0000000000000000E+020
 20
1.0000000000000000E+020
 30
1.0000000000000000E+020
  9
$PEXTMAX
 10
-1.0000000000000000E+020
 20
-1.0000000000000000E+020
 30
-1.0000000000000000E+020
  9
$PLIMMIN
 10
0.0
 20
0.0
  9
$PLIMMAX
 10
12.0
 20
9.0
  9
$UNITMODE
 70
     0
  9
$VISRETAIN
 70
     0
  9
$PLINEGEN
 70
     0
  9
$PSLTSCALE
 70
     1
  0
ENDSEC
  0
SECTION
  2
TABLES
  0
TABLE
  2
VPORT
 70
     2
  0
VPORT
  2
*ACTIVE
 70
     0
 10
0.0
 20
0.0
 11
1.0
 21
1.0
 12
24111.152530819429
 22
9559.875765179775
 13
0.0
 23
0.0
 14
10.0
 24
10.0
 15
10.0
 25
10.0
 16
0.0
 26
0.0
 36
1.0
 17
0.0
 27
0.0
 37
0.0
 40
19878.825161371398
 41
3.1666666666666661
 42
50.0
 43
0.0
 44
0.0
 50
0.0
 51
0.0
 71
     0
 72
   100
 73
     1
 74
     0
 75
     0
 76
     0
 77
     0
 78
     0
  0
ENDTAB
  0
TABLE
  2
LTYPE
 70
     2
  0
LTYPE
  2
CONTINUOUS
 70
     0
  3
Solid line
 72
    65
 73
     0
 40
0.0
  0
LTYPE
  2
CENTER
 70
     0
  3
____ _ ____ _ ____ _ ____ _ ____ _ ____ _ ____ 
 72
    65
 73
     4
 40
2.0
 49
1.25
 49
-0.25
 49
0.25
 49
-0.25
  0
ENDTAB
  0
TABLE
  2
LAYER
 70
     6
  0
LAYER
  2
0
 70
     0
 62
     7
  6
CONTINUOUS
  0
LAYER
  2
3
 70
     0
 62
     2
  6
CONTINUOUS
  0
LAYER
  2
2
 70
     0
 62
     3
  6
CENTER
  0
LAYER
  2
1
 70
     0
 62
     4
  6
CONTINUOUS
  0
LAYER
  2
4
 70
     0
 62
     7
  6
CONTINUOUS
  0
LAYER
  2
DEFPOINTS
 70
     0
 62
     7
  6
CONTINUOUS
  0
ENDTAB
  0
TABLE
  2
STYLE
 70
     1
  0
STYLE
  2
STANDARD
 70
     0
 40
0.0
 41
1.0
 50
0.0
 71
     0
 42
180.0
  3
simplex.shx
  4
extfont.shx
  0
ENDTAB
  0
TABLE
  2
VIEW
 70
     0
  0
ENDTAB
  0
TABLE
  2
UCS
 70
     0
  0
ENDTAB
  0
TABLE
  2
APPID
 70
     1
  0
APPID
  2
ACAD
 70
     0
  0
ENDTAB
  0
TABLE
  2
DIMSTYLE
 70
     1
  0
DIMSTYLE
  2
IGA
 70
     0
  3

  4

  5

  6
OPEN
  7
OPEN
 40
2.0
 41
2.0
 42
0.5
 43
10.0
 44
1.0
 45
0.0
 46
0.0
 47
1.0
 48
1.0
140
3.0
141
0.0
142
0.0
143
0.03937
144
1.0
145
0.0
146
10.0
147
1.0
 71
     0
 72
     0
 73
     0
 74
     0
 75
     0
 76
     0
 77
     1
 78
     8
170
     0
171
     2
172
     0
173
     1
174
     0
175
     0
176
     0
177
     0
178
     0
  0
ENDTAB
  0
ENDSEC
  0
SECTION
  2
BLOCKS
  0
BLOCK
  8
0
  2
$MODEL_SPACE
 70
     0
 10
0.0
 20
0.0
 30
0.0
  3
$MODEL_SPACE
  1

  0
ENDBLK
  5
1B
  8
0
  0
BLOCK
 67
     1
  8
0
  2
$PAPER_SPACE
 70
     0
 10
0.0
 20
0.0
 30
0.0
  3
$PAPER_SPACE
  1

  0
ENDBLK
  5
18
 67
     1
  8
0
  0
BLOCK
  8
0
  2
_OPEN
 70
     0
 10
0.0
 20
0.0
 30
0.0
  3
_OPEN
  1

  0
LINE
  5
7AFB
  8
0
  6
BYBLOCK
 62
     0
 10
-1.0
 20
0.166667
 30
0.0
 11
0.0
 21
0.0
 31
0.0
  0
LINE
  5
7AFC
  8
0
  6
BYBLOCK
 62
     0
 10
0.0
 20
0.0
 30
0.0
 11
-1.0
 21
-0.166667
 31
0.0
  0
LINE
  5
7AFD
  8
0
  6
BYBLOCK
 62
     0
 10
0.0
 20
0.0
 30
0.0
 11
-1.0
 21
0.0
 31
0.0
  0
ENDBLK
  5
7AFE
  8
0
  0
BLOCK
  8
0
  2
*D1
 70
     1
 10
0.0
 20
0.0
 30
0.0
  3
*D1
  1

  0
LINE
  5
7E89
  8
3
  6
CONTINUOUS
 62
     0
 10
2969.5893260040421
 20
4608.6889609999998
 30
0.0
 11
2969.5893260040421
 21
4223.3034299999999
 31
0.0
  0
LINE
  5
7E8A
  8
3
  6
CONTINUOUS
 62
     0
 10
3629.5893260040421
 20
4548.1575849999999
 30
0.0
 11
3629.5893260040421
 21
4223.3034299999999
 31
0.0
  0
LINE
  5
7E8B
  8
3
  6
CONTINUOUS
 62
     0
 10
3059.5893260040421
 20
4268.3034299999999
 30
0.0
 11
3539.5893260040421
 21
4268.3034299999999
 31
0.0
  0
INSERT
  5
7E8C
  8
3
  6
CONTINUOUS
 62
     0
  2
_OPEN
 10
2969.5893260040421
 20
4268.3034299999999
 30
0.0
 41
90.0
 42
90.0
 43
90.0
 50
180.0
  0
INSERT
  5
7E8D
  8
3
  6
CONTINUOUS
 62
     0
  2
_OPEN
 10
3629.5893260040421
 20
4268.3034299999999
 30
0.0
 41
90.0
 42
90.0
 43
90.0
  0
TEXT
  8
3
  40
135
  5
7F31
  62
0
  72
0
  71
0
 10
3051.02
 20
4141.85
 30
0.000000
  1
660
  0
POINT
  5
7E8F
  8
DEFPOINTS
  6
CONTINUOUS
 62
     0
 10
2969.5893260040421
 20
4631.1889609999998
 30
0.0
  0
POINT
  5
7E90
  8
DEFPOINTS
  6
CONTINUOUS
 62
     0
 10
3629.5893260040421
 20
4570.6575849999999
 30
0.0
  0
POINT
  5
7E91
  8
DEFPOINTS
  6
CONTINUOUS
 62
     0
 10
3629.5893260040421
 20
4268.3034299999999
 30
0.0
  0
ENDBLK
  5
7B0B
  8
0
  0
BLOCK
  8
0
  2
*D2
 70
     1
 10
0.0
 20
0.0
 30
0.0
  3
*D2
  1

  0
LINE
  5
7E92
  8
3
  6
CONTINUOUS
 62
     0
 10
5329.5893260040421
 20
4608.6889609999998
 30
0.0
 11
5329.5893260040421
 21
4223.3034299999999
 31
0.0
  0
LINE
  5
7E93
  8
3
  6
CONTINUOUS
 62
     0
 10
3719.5893260040421
 20
4268.3034299999999
 30
0.0
 11
5239.5893260040421
 21
4268.3034299999999
 31
0.0
  0
INSERT
  5
7E94
  8
3
  6
CONTINUOUS
 62
     0
  2
_OPEN
 10
3629.5893260040421
 20
4268.3034299999999
 30
0.0
 41
90.0
 42
90.0
 43
90.0
 50
180.0
  0
INSERT
  5
7E95
  8
3
  6
CONTINUOUS
 62
     0
  2
_OPEN
 10
5329.5893260040421
 20
4268.3034299999999
 30
0.0
 41
90.0
 42
90.0
 43
90.0
  0
TEXT
  8
3
  40
135
  5
7F32
  62
0
  72
0
  71
0
 10
4209.59
 20
4141.85
 30
0.000000
  1
1700
  0
POINT
  5
7E97
  8
DEFPOINTS
  6
CONTINUOUS
 62
     0
 10
3629.5893260040421
 20
4570.6575849999999
 30
0.0
  0
POINT
  5
7E98
  8
DEFPOINTS
  6
CONTINUOUS
 62
     0
 10
5329.5893260040421
 20
4631.1889609999998
 30
0.0
  0
POINT
  5
7E99
  8
DEFPOINTS
  6
CONTINUOUS
 62
     0
 10
5329.5893260040421
 20
4268.3034299999999
 30
0.0
  0
ENDBLK
  5
7B17
  8
0
  0
BLOCK
  8
0
  2
*D3
 70
     1
 10
0.0
 20
0.0
 30
0.0
  3
*D3
  1

  0
LINE
  5
7E9A
  8
3
  6
CONTINUOUS
 62
     0
 10
2847.0893260040411
 20
6022.1889609999998
 30
0.0
 11
2530.606085828168
 21
6022.1889609999998
 31
0.0
  0
LINE
  5
7E9B
  8
3
  6
CONTINUOUS
 62
     0
 10
2847.0893260040411
 20
4872.1889609999989
 30
0.0
 11
2530.6060858281671
 21
4872.1889609999989
 31
0.0
  0
LINE
  5
7E9C
  8
3
  6
CONTINUOUS
 62
     0
 10
2575.606085828168
 20
5932.1889609999998
 30
0.0
 11
2575.6060858281671
 21
4962.1889609999989
 31
0.0
  0
INSERT
  5
7E9D
  8
3
  6
CONTINUOUS
 62
     0
  2
_OPEN
 10
2575.606085828168
 20
6022.1889609999998
 30
0.0
 41
90.0
 42
90.0
 43
90.0
 50
90.0
  0
INSERT
  5
7E9E
  8
3
  6
CONTINUOUS
 62
     0
  2
_OPEN
 10
2575.6060858281671
 20
4872.1889609999989
 30
0.0
 41
90.0
 42
90.0
 43
90.0
 50
270.0
  0
TEXT
  8
3
  40
135
  5
7F33
  62
0
  72
0
  71
0
 10
2193.11
 20
5216.26
 30
0.000000
  1
1150
  0
POINT
  5
7EA0
  8
DEFPOINTS
  6
CONTINUOUS
 62
     0
 10
2869.5893260040421
 20
6022.1889609999998
 30
0.0
  0
POINT
  5
7EA1
  8
DEFPOINTS
  6
CONTINUOUS
 62
     0
 10
2869.5893260040421
 20
4872.1889609999989
 30
0.0
  0
POINT
  5
7EA2
  8
DEFPOINTS
  6
CONTINUOUS
 62
     0
 10
2575.6060858281671
 20
4872.1889609999989
 30
0.0
  0
ENDBLK
  5
7D57
  8
0
  0
BLOCK
  8
0
  2
*D4
 70
     1
 10
0.0
 20
0.0
 30
0.0
  3
*D4
  1

  0
LINE
  5
7EA3
  8
3
  6
CONTINUOUS
 62
     0
 10
3607.0893260040421
 20
6875.1889609999998
 30
0.0
 11
2013.0219540277469
 21
6875.1889609999998
 31
0.0
  0
LINE
  5
7EA4
  8
3
  6
CONTINUOUS
 62
     0
 10
2940.398587004041
 20
6070.1889609999998
 30
0.0
 11
2013.021954027746
 21
6070.1889610000007
 31
0.0
  0
LINE
  5
7EA5
  8
3
  6
CONTINUOUS
 62
     0
 10
2058.0219540277471
 20
6785.1889609999998
 30
0.0
 11
2058.0219540277471
 21
6160.1889609999998
 31
0.0
  0
INSERT
  5
7EA6
  8
3
  6
CONTINUOUS
 62
     0
  2
_OPEN
 10
2058.0219540277471
 20
6875.1889609999998
 30
0.0
 41
90.0
 42
90.0
 43
90.0
 50
90.0
  0
INSERT
  5
7EA7
  8
3
  6
CONTINUOUS
 62
     0
  2
_OPEN
 10
2058.0219540277471
 20
6070.1889609999998
 30
0.0
 41
90.0
 42
90.0
 43
90.0
 50
270.0
  0
TEXT
  8
3
  40
135
  5
7F34
  62
0
  72
0
  71
0
 10
1675.52
 20
6261.42
 30
0.000000
  1
805
  0
POINT
  5
7EA9
  8
DEFPOINTS
  6
CONTINUOUS
 62
     0
 10
3629.5893260040421
 20
6875.1889609999998
 30
0.0
  0
POINT
  5
7EAA
  8
DEFPOINTS
  6
CONTINUOUS
 62
     0
 10
2962.8985870040419
 20
6070.1889609999998
 30
0.0
  0
POINT
  5
7EAB
  8
DEFPOINTS
  6
CONTINUOUS
 62
     0
 10
2058.0219540277471
 20
6070.1889609999998
 30
0.0
  0
ENDBLK
  5
7D2A
  8
0
  0
BLOCK
  8
0
  2
*D5
 70
     1
 10
0.0
 20
0.0
 30
0.0
  3
*D5
  1

  0
LINE
  5
7EAC
  8
3
  6
CONTINUOUS
 62
     0
 10
2947.0893260040411
 20
4715.1889609999989
 30
0.0
 11
2013.021954027746
 21
4715.1889609999998
 31
0.0
  0
LINE
  5
7EAD
  8
3
  6
CONTINUOUS
 62
     0
 10
2058.0219540277458
 20
5980.1889609999989
 30
0.0
 11
2058.0219540277449
 21
4805.1889609999989
 31
0.0
  0
INSERT
  5
7EAE
  8
3
  6
CONTINUOUS
 62
     0
  2
_OPEN
 10
2058.0219540277458
 20
6070.1889609999998
 30
0.0
 41
90.0
 42
90.0
 43
90.0
 50
90.0
  0
INSERT
  5
7EAF
  8
3
  6
CONTINUOUS
 62
     0
  2
_OPEN
 10
2058.0219540277449
 20
4715.1889609999989
 30
0.0
 41
90.0
 42
90.0
 43
90.0
 50
270.0
  0
TEXT
  8
3
  40
135
  5
7F35
  62
0
  72
0
  71
0
 10
1675.52
 20
5153.74
 30
0.000000
  1
1355
  0
POINT
  5
7EB1
  8
DEFPOINTS
  6
CONTINUOUS
 62
     0
 10
2962.8985870040419
 20
6070.1889609999998
 30
0.0
  0
POINT
  5
7EB2
  8
DEFPOINTS
  6
CONTINUOUS
 62
     0
 10
2969.5893260040421
 20
4715.1889609999989
 30
0.0
  0
POINT
  5
7EB3
  8
DEFPOINTS
  6
CONTINUOUS
 62
     0
 10
2058.0219540277449
 20
4715.1889609999989
 30
0.0
  0
ENDBLK
  5
7D34
  8
0
  0
BLOCK
  8
0
  2
*D6
 70
     1
 10
0.0
 20
0.0
 30
0.0
  3
*D6
  1

  0
LINE
  5
7EB4
  8
3
  6
CONTINUOUS
 62
     0
 10
2947.0893260040411
 20
4715.1889609999989
 30
0.0
 11
2013.021954027746
 21
4715.1889609999998
 31
0.0
  0
LINE
  5
7EB5
  8
3
  6
CONTINUOUS
 62
     0
 10
2947.0893260040411
 20
4631.1889609999998
 30
0.0
 11
2013.021954027746
 21
4631.1889610000007
 31
0.0
  0
LINE
  5
7EB6
  8
3
  6
CONTINUOUS
 62
     0
 10
2058.0219540277458
 20
4805.1889609999989
 30
0.0
 11
2058.0219540277458
 21
4895.1889609999998
 31
0.0
  0
LINE
  5
7EB7
  8
3
  6
CONTINUOUS
 62
     0
 10
2058.0219540277458
 20
4541.1889609999989
 30
0.0
 11
2058.0219540277458
 21
4136.1889609999998
 31
0.0
  0
LINE
  5
7EB8
  8
3
  6
CONTINUOUS
 62
     0
 10
2058.0219540277458
 20
4715.1889609999989
 30
0.0
 11
2058.0219540277458
 21
4631.1889609999998
 31
0.0
  0
INSERT
  5
7EB9
  8
3
  6
CONTINUOUS
 62
     0
  2
_OPEN
 10
2058.0219540277458
 20
4715.1889609999989
 30
0.0
 41
90.0
 42
90.0
 43
90.0
 50
270.0
  0
INSERT
  5
7EBA
  8
3
  6
CONTINUOUS
 62
     0
  2
_OPEN
 10
2058.0219540277458
 20
4631.1889609999998
 30
0.0
 41
90.0
 42
90.0
 43
90.0
 50
90.0
  0
TEXT
  8
3
  40
135
  5
7F36
  62
0
  72
0
  71
0
 10
1675.52
 20
4054.74
 30
0.000000
  1
84
  0
POINT
  5
7EBC
  8
DEFPOINTS
  6
CONTINUOUS
 62
     0
 10
2969.5893260040421
 20
4715.1889609999989
 30
0.0
  0
POINT
  5
7EBD
  8
DEFPOINTS
  6
CONTINUOUS
 62
     0
 10
2969.5893260040421
 20
4631.1889609999998
 30
0.0
  0
POINT
  5
7EBE
  8
DEFPOINTS
  6
CONTINUOUS
 62
     0
 10
2058.0219540277458
 20
4631.1889609999998
 30
0.0
  0
ENDBLK
  5
7D41
  8
0
  0
BLOCK
  8
0
  2
*D7
 70
     1
 10
0.0
 20
0.0
 30
0.0
  3
*D7
  1

  0
LINE
  5
7EBF
  8
3
  6
CONTINUOUS
 62
     0
 10
3607.0893260040421
 20
6875.1889609999998
 30
0.0
 11
1757.9887230277459
 21
6875.1889609999998
 31
0.0
  0
LINE
  5
7EC0
  8
3
  6
CONTINUOUS
 62
     0
 10
2947.0893260040411
 20
4631.1889609999998
 30
0.0
 11
1757.9887230277459
 21
4631.1889610000007
 31
0.0
  0
LINE
  5
7EC1
  8
3
  6
CONTINUOUS
 62
     0
 10
1802.9887230277459
 20
6785.1889610000017
 30
0.0
 11
1802.9887230277459
 21
4721.1889610000007
 31
0.0
  0
INSERT
  5
7EC2
  8
3
  6
CONTINUOUS
 62
     0
  2
_OPEN
 10
1802.9887230277459
 20
6875.1889609999998
 30
0.0
 41
90.0
 42
90.0
 43
90.0
 50
90.0
  0
INSERT
  5
7EC3
  8
3
  6
CONTINUOUS
 62
     0
  2
_OPEN
 10
1802.9887230277459
 20
4631.1889610000007
 30
0.0
 41
90.0
 42
90.0
 43
90.0
 50
270.0
  0
TEXT
  8
3
  40
135
  5
7F37
  62
0
  72
0
  71
0
 10
1420.49
 20
5470.37
 30
0.000000
  1
2244
  0
POINT
  5
7EC5
  8
DEFPOINTS
  6
CONTINUOUS
 62
     0
 10
3629.5893260040421
 20
6875.1889609999998
 30
0.0
  0
POINT
  5
7EC6
  8
DEFPOINTS
  6
CONTINUOUS
 62
     0
 10
2969.5893260040421
 20
4631.1889609999998
 30
0.0
  0
POINT
  5
7EC7
  8
DEFPOINTS
  6
CONTINUOUS
 62
     0
 10
1802.9887230277459
 20
4631.1889610000007
 30
0.0
  0
ENDBLK
  5
7D1F
  8
0
  0
BLOCK
  8
0
  2
*D8
 70
     1
 10
0.0
 20
0.0
 30
0.0
  3
*D8
  1

  0
LINE
  5
7EC8
  8
3
  6
CONTINUOUS
 62
     0
 10
2869.5893260040421
 20
6097.6889609999998
 30
0.0
 11
2869.5893260040421
 21
7146.985090000001
 31
0.0
  0
LINE
  5
7EC9
  8
3
  6
CONTINUOUS
 62
     0
 10
3629.5893260040421
 20
6897.1078150000012
 30
0.0
 11
3629.5893260040421
 21
7146.985090000001
 31
0.0
  0
LINE
  5
7ECA
  8
3
  6
CONTINUOUS
 62
     0
 10
2959.5893260040421
 20
7101.985090000001
 30
0.0
 11
3539.5893260040421
 21
7101.985090000001
 31
0.0
  0
INSERT
  5
7ECB
  8
3
  6
CONTINUOUS
 62
     0
  2
_OPEN
 10
2869.5893260040421
 20
7101.985090000001
 30
0.0
 41
90.0
 42
90.0
 43
90.0
 50
180.0
  0
INSERT
  5
7ECC
  8
3
  6
CONTINUOUS
 62
     0
  2
_OPEN
 10
3629.5893260040421
 20
7101.985090000001
 30
0.0
 41
90.0
 42
90.0
 43
90.0
  0
TEXT
  8
3
  40
135
  5
7F38
  62
0
  72
0
  71
0
 10
2973.34
 20
6975.54
 30
0.000000
  1
760
  0
POINT
  5
7ECE
  8
DEFPOINTS
  6
CONTINUOUS
 62
     0
 10
2869.5893260040421
 20
6075.1889609999998
 30
0.0
  0
POINT
  5
7ECF
  8
DEFPOINTS
  6
CONTINUOUS
 62
     0
 10
3629.5893260040421
 20
6874.6078150000003
 30
0.0
  0
POINT
  5
7ED0
  8
DEFPOINTS
  6
CONTINUOUS
 62
     0
 10
3629.5893260040421
 20
7101.985090000001
 30
0.0
  0
ENDBLK
  5
7B81
  8
0
  0
BLOCK
  8
0
  2
*D9
 70
     1
 10
0.0
 20
0.0
 30
0.0
  3
*D9
  1

  0
LINE
  5
7ED1
  8
3
  6
CONTINUOUS
 62
     0
 10
4598.5893260040421
 20
6092.6889609999998
 30
0.0
 11
4598.5893260040421
 21
7146.985090000001
 31
0.0
  0
LINE
  5
7ED2
  8
3
  6
CONTINUOUS
 62
     0
 10
3719.5893260040421
 20
7101.985090000001
 30
0.0
 11
4508.5893260040421
 21
7101.985090000001
 31
0.0
  0
INSERT
  5
7ED3
  8
3
  6
CONTINUOUS
 62
     0
  2
_OPEN
 10
3629.5893260040421
 20
7101.985090000001
 30
0.0
 41
90.0
 42
90.0
 43
90.0
 50
180.0
  0
INSERT
  5
7ED4
  8
3
  6
CONTINUOUS
 62
     0
  2
_OPEN
 10
4598.5893260040421
 20
7101.985090000001
 30
0.0
 41
90.0
 42
90.0
 43
90.0
  0
TEXT
  8
3
  40
135
  5
7F39
  62
0
  72
0
  71
0
 10
3844.09
 20
6975.54
 30
0.000000
  1
969
  0
POINT
  5
7ED6
  8
DEFPOINTS
  6
CONTINUOUS
 62
     0
 10
3629.5893260040421
 20
6875.1889609999998
 30
0.0
  0
POINT
  5
7ED7
  8
DEFPOINTS
  6
CONTINUOUS
 62
     0
 10
4598.5893260040421
 20
6070.1889609999998
 30
0.0
  0
POINT
  5
7ED8
  8
DEFPOINTS
  6
CONTINUOUS
 62
     0
 10
4598.5893260040421
 20
7101.985090000001
 30
0.0
  0
ENDBLK
  5
7D90
  8
0
  0
BLOCK
  8
0
  2
*D10
 70
     1
 10
0.0
 20
0.0
 30
0.0
  3
*D10
  1

  0
LINE
  5
7ED9
  8
3
  6
CONTINUOUS
 62
     0
 10
2969.5893260040421
 20
8995.0741565610551
 30
0.0
 11
2969.5893260040421
 21
8504.0208495610568
 31
0.0
  0
LINE
  5
7EDA
  8
3
  6
CONTINUOUS
 62
     0
 10
5329.5893260040421
 20
8995.0741565610551
 30
0.0
 11
5329.5893260040421
 21
8504.0208495610568
 31
0.0
  0
LINE
  5
7EDB
  8
3
  6
CONTINUOUS
 62
     0
 10
3059.5893260040421
 20
8549.0208495610586
 30
0.0
 11
5239.5893260040421
 21
8549.0208495610586
 31
0.0
  0
INSERT
  5
7EDC
  8
3
  6
CONTINUOUS
 62
     0
  2
_OPEN
 10
2969.5893260040421
 20
8549.0208495610586
 30
0.0
 41
90.0
 42
90.0
 43
90.0
 50
180.0
  0
INSERT
  5
7EDD
  8
3
  6
CONTINUOUS
 62
     0
  2
_OPEN
 10
5329.5893260040421
 20
8549.0208495610586
 30
0.0
 41
90.0
 42
90.0
 43
90.0
  0
TEXT
  8
3
  40
135
  5
7F3A
  62
0
  72
0
  71
0
 10
3967.31
 20
8422.57
 30
0.000000
  1
2360
  0
POINT
  5
7EDF
  8
DEFPOINTS
  6
CONTINUOUS
 62
     0
 10
2969.5893260040421
 20
9017.5741565610551
 30
0.0
  0
POINT
  5
7EE0
  8
DEFPOINTS
  6
CONTINUOUS
 62
     0
 10
5329.5893260040421
 20
9017.5741565610551
 30
0.0
  0
POINT
  5
7EE1
  8
DEFPOINTS
  6
CONTINUOUS
 62
     0
 10
5329.5893260040421
 20
8549.0208495610586
 30
0.0
  0
ENDBLK
  5
7B9A
  8
0
  0
BLOCK
  8
0
  2
*D11
 70
     1
 10
0.0
 20
0.0
 30
0.0
  3
*D11
  1

  0
LINE
  5
7EE2
  8
3
  6
CONTINUOUS
 62
     0
 10
5352.0893260040421
 20
10197.57415656105
 30
0.0
 11
5768.0444720040432
 21
10197.57415656105
 31
0.0
  0
LINE
  5
7EE3
  8
3
  6
CONTINUOUS
 62
     0
 10
5352.0893260040421
 20
9017.5741565610551
 30
0.0
 11
5768.0444720040432
 21
9017.5741565610551
 31
0.0
  0
LINE
  5
7EE4
  8
3
  6
CONTINUOUS
 62
     0
 10
5723.0444720040432
 20
10107.57415656105
 30
0.0
 11
5723.0444720040432
 21
9107.5741565610551
 31
0.0
  0
INSERT
  5
7EE5
  8
3
  6
CONTINUOUS
 62
     0
  2
_OPEN
 10
5723.0444720040432
 20
10197.57415656105
 30
0.0
 41
90.0
 42
90.0
 43
90.0
 50
90.0
  0
INSERT
  5
7EE6
  8
3
  6
CONTINUOUS
 62
     0
  2
_OPEN
 10
5723.0444720040432
 20
9017.5741565610551
 30
0.0
 41
90.0
 42
90.0
 43
90.0
 50
270.0
  0
TEXT
  8
3
  40
135
  5
7F3B
  62
0
  72
0
  71
0
 10
5340.54
 20
9363.06
 30
0.000000
  1
1180
  0
POINT
  5
7EE8
  8
DEFPOINTS
  6
CONTINUOUS
 62
     0
 10
5329.5893260040421
 20
10197.57415656105
 30
0.0
  0
POINT
  5
7EE9
  8
DEFPOINTS
  6
CONTINUOUS
 62
     0
 10
5329.5893260040421
 20
9017.5741565610551
 30
0.0
  0
POINT
  5
7EEA
  8
DEFPOINTS
  6
CONTINUOUS
 62
     0
 10
5723.0444720040432
 20
9017.5741565610551
 30
0.0
  0
ENDBLK
  5
7BA7
  8
0
  0
BLOCK
  8
0
  2
*D12
 70
     1
 10
0.0
 20
0.0
 30
0.0
  3
*D12
  1

  0
LINE
  5
7EEB
  8
3
  6
CONTINUOUS
 62
     0
 10
7108.9832100040412
 20
4608.6889609999998
 30
0.0
 11
7108.9832100040412
 21
4253.5712922835937
 31
0.0
  0
LINE
  5
7EEC
  8
3
  6
CONTINUOUS
 62
     0
 10
7795.9832100040421
 20
4518.4446563886186
 30
0.0
 11
7795.9832100040421
 21
4253.5712922835937
 31
0.0
  0
LINE
  5
7EED
  8
3
  6
CONTINUOUS
 62
     0
 10
7198.9832100040412
 20
4298.5712922835928
 30
0.0
 11
7705.9832100040412
 21
4298.5712922835928
 31
0.0
  0
INSERT
  5
7EEE
  8
3
  6
CONTINUOUS
 62
     0
  2
_OPEN
 10
7108.9832100040412
 20
4298.5712922835928
 30
0.0
 41
90.0
 42
90.0
 43
90.0
 50
180.0
  0
INSERT
  5
7EEF
  8
3
  6
CONTINUOUS
 62
     0
  2
_OPEN
 10
7795.9832100040421
 20
4298.5712922835928
 30
0.0
 41
90.0
 42
90.0
 43
90.0
  0
TEXT
  8
3
  40
135
  5
7F3C
  62
0
  72
0
  71
0
 10
7217.41
 20
4172.12
 30
0.000000
  1
687
  0
POINT
  5
7EF1
  8
DEFPOINTS
  6
CONTINUOUS
 62
     0
 10
7108.9832100040412
 20
4631.1889609999998
 30
0.0
  0
POINT
  5
7EF2
  8
DEFPOINTS
  6
CONTINUOUS
 62
     0
 10
7795.9832100040421
 20
4540.9446563886204
 30
0.0
  0
POINT
  5
7EF3
  8
DEFPOINTS
  6
CONTINUOUS
 62
     0
 10
7795.9832100040421
 20
4298.5712922835928
 30
0.0
  0
ENDBLK
  5
7D77
  8
0
  0
BLOCK
  8
0
  2
*D13
 70
     1
 10
0.0
 20
0.0
 30
0.0
  3
*D13
  1

  0
LINE
  5
7EF4
  8
3
  6
CONTINUOUS
 62
     0
 10
8288.9832100040403
 20
4608.6889609999998
 30
0.0
 11
8288.9832100040403
 21
4253.5712922835937
 31
0.0
  0
LINE
  5
7EF5
  8
3
  6
CONTINUOUS
 62
     0
 10
7885.9832100040412
 20
4298.5712922835928
 30
0.0
 11
8198.9832100040403
 21
4298.5712922835928
 31
0.0
  0
TEXT
  8
3
  40
135
  5
7F3D
  62
0
  72
0
  71
0
 10
7769.83
 20
4171.27
 30
0.000000
  1
493
  0
INSERT
  5
7EF7
  8
3
  6
CONTINUOUS
 62
     0
  2
_OPEN
 10
7795.9832100040421
 20
4298.5712922835928
 30
0.0
 41
90.0
 42
90.0
 43
90.0
 50
180.0
  0
INSERT
  5
7EF8
  8
3
  6
CONTINUOUS
 62
     0
  2
_OPEN
 10
8288.9832100040403
 20
4298.5712922835928
 30
0.0
 41
90.0
 42
90.0
 43
90.0
  0
POINT
  5
7EF9
  8
DEFPOINTS
  6
CONTINUOUS
 62
     0
 10
7795.9832100040421
 20
4540.9446563886204
 30
0.0
  0
POINT
  5
7EFA
  8
DEFPOINTS
  6
CONTINUOUS
 62
     0
 10
8288.9832100040403
 20
4631.1889609999998
 30
0.0
  0
POINT
  5
7EFB
  8
DEFPOINTS
  6
CONTINUOUS
 62
     0
 10
8288.9832100040403
 20
4298.5712922835928
 30
0.0
  0
ENDBLK
  5
7D81
  8
0
  0
BLOCK
  8
0
  2
*D14
 70
     1
 10
0.0
 20
0.0
 30
0.0
  3
*D14
  1

  0
LINE
  5
7EFC
  8
3
  6
CONTINUOUS
 62
     0
 10
8346.4832100040403
 20
6630.1889609999998
 30
0.0
 11
8706.743164004045
 21
6630.1889609999998
 31
0.0
  0
LINE
  5
7EFD
  8
3
  6
CONTINUOUS
 62
     0
 10
8346.4832100040403
 20
5510.1889609999998
 30
0.0
 11
8706.743164004045
 21
5510.1889609999998
 31
0.0
  0
LINE
  5
7EFE
  8
3
  6
CONTINUOUS
 62
     0
 10
8661.743164004045
 20
6540.1889609999998
 30
0.0
 11
8661.743164004045
 21
5600.1889609999998
 31
0.0
  0
INSERT
  5
7EFF
  8
3
  6
CONTINUOUS
 62
     0
  2
_OPEN
 10
8661.743164004045
 20
6630.1889609999998
 30
0.0
 41
90.0
 42
90.0
 43
90.0
 50
90.0
  0
INSERT
  5
7F00
  8
3
  6
CONTINUOUS
 62
     0
  2
_OPEN
 10
8661.743164004045
 20
5510.1889609999998
 30
0.0
 41
90.0
 42
90.0
 43
90.0
 50
270.0
  0
TEXT
  8
3
  40
135
  5
7F3E
  62
0
  72
0
  71
0
 10
8279.24
 20
5864.13
 30
0.000000
  1
φ1120
  0
POINT
  5
7F02
  8
DEFPOINTS
  6
CONTINUOUS
 62
     0
 10
8323.9832100040403
 20
6630.1889609999998
 30
0.0
  0
POINT
  5
7F03
  8
DEFPOINTS
  6
CONTINUOUS
 62
     0
 10
8323.9832100040403
 20
5510.1889609999998
 30
0.0
  0
POINT
  5
7F04
  8
DEFPOINTS
  6
CONTINUOUS
 62
     0
 10
8661.743164004045
 20
5510.1889609999998
 30
0.0
  0
ENDBLK
  5
7CAC
  8
0
  0
BLOCK
  8
0
  2
*D15
 70
     1
 10
0.0
 20
0.0
 30
0.0
  3
*D15
  1

  0
LINE
  5
7F05
  8
3
  6
CONTINUOUS
 62
     0
 10
7370.9832100040412
 20
6900.8889609999987
 30
0.0
 11
7370.9832100040412
 21
7147.1721779999989
 31
0.0
  0
LINE
  5
7F06
  8
3
  6
CONTINUOUS
 62
     0
 10
8220.9832100040403
 20
6900.8889609999987
 30
0.0
 11
8220.9832100040403
 21
7147.1721779999989
 31
0.0
  0
LINE
  5
7F07
  8
3
  6
CONTINUOUS
 62
     0
 10
7460.9832100040412
 20
7102.1721779999998
 30
0.0
 11
8130.9832100040412
 21
7102.1721779999998
 31
0.0
  0
INSERT
  5
7F08
  8
3
  6
CONTINUOUS
 62
     0
  2
_OPEN
 10
7370.9832100040412
 20
7102.1721779999998
 30
0.0
 41
90.0
 42
90.0
 43
90.0
 50
180.0
  0
INSERT
  5
7F09
  8
3
  6
CONTINUOUS
 62
     0
  2
_OPEN
 10
8220.9832100040403
 20
7102.1721779999998
 30
0.0
 41
90.0
 42
90.0
 43
90.0
  0
TEXT
  8
3
  40
135
  5
7F3F
  62
0
  72
0
  71
0
 10
7471.65
 20
6975.72
 30
0.000000
  1
850
  0
POINT
  5
7F0B
  8
DEFPOINTS
  6
CONTINUOUS
 62
     0
 10
7370.9832100040412
 20
6878.3889609999997
 30
0.0
  0
POINT
  5
7F0C
  8
DEFPOINTS
  6
CONTINUOUS
 62
     0
 10
8220.9832100040403
 20
6878.3889609999997
 30
0.0
  0
POINT
  5
7F0D
  8
DEFPOINTS
  6
CONTINUOUS
 62
     0
 10
8220.9832100040403
 20
7102.1721779999998
 30
0.0
  0
ENDBLK
  5
7BF7
  8
0
  0
BLOCK
  8
0
  2
*D16
 70
     1
 10
0.0
 20
0.0
 30
0.0
  3
*D16
  1

  0
LINE
  5
7F0E
  8
3
  6
CONTINUOUS
 62
     0
 10
7035.9832100040403
 20
6470.6889609999998
 30
0.0
 11
7035.9832100040403
 21
7423.7541340000007
 31
0.0
  0
LINE
  5
7F0F
  8
3
  6
CONTINUOUS
 62
     0
 10
7795.9832100040421
 20
7311.9679839999999
 30
0.0
 11
7795.9832100040421
 21
7423.7541340000007
 31
0.0
  0
LINE
  5
7F10
  8
3
  6
CONTINUOUS
 62
     0
 10
7125.9832100040412
 20
7378.7541340000007
 30
0.0
 11
7705.9832100040412
 21
7378.7541340000007
 31
0.0
  0
INSERT
  5
7F11
  8
3
  6
CONTINUOUS
 62
     0
  2
_OPEN
 10
7035.9832100040403
 20
7378.7541340000007
 30
0.0
 41
90.0
 42
90.0
 43
90.0
 50
180.0
  0
INSERT
  5
7F12
  8
3
  6
CONTINUOUS
 62
     0
  2
_OPEN
 10
7795.9832100040421
 20
7378.7541340000007
 30
0.0
 41
90.0
 42
90.0
 43
90.0
  0
TEXT
  8
3
  40
135
  5
7F40
  62
0
  72
0
  71
0
 10
7198.13
 20
7364.80
 30
0.000000
  1
MAX
  0
TEXT
  8
3
  40
135
  5
7F41
  62
0
  72
0
  71
0
 10
7198.13
 20
7189.30
 30
0.000000
  1
850
  0
POINT
  5
7F14
  8
DEFPOINTS
  6
CONTINUOUS
 62
     0
 10
7035.9832100040403
 20
6448.1889609999989
 30
0.0
  0
POINT
  5
7F15
  8
DEFPOINTS
  6
CONTINUOUS
 62
     0
 10
7795.9832100040421
 20
7289.4679840000008
 30
0.0
  0
POINT
  5
7F16
  8
DEFPOINTS
  6
CONTINUOUS
 62
     0
 10
7795.9832100040421
 20
7378.7541340000007
 30
0.0
  0
ENDBLK
  5
7CA1
  8
0
  0
BLOCK
  8
0
  2
*D17
 70
     1
 10
0.0
 20
0.0
 30
0.0
  3
*D17
  1

  0
LINE
  5
7F17
  8
3
  6
CONTINUOUS
 62
     0
 10
8323.9832100040403
 20
6702.6889609999989
 30
0.0
 11
8323.9832100040403
 21
7423.7541340000007
 31
0.0
  0
LINE
  5
7F18
  8
3
  6
CONTINUOUS
 62
     0
 10
7885.9832100040412
 20
7378.7541340000007
 30
0.0
 11
8233.9832100040403
 21
7378.7541340000007
 31
0.0
  0
TEXT
  8
3
  40
135
  5
7F42
  62
0
  72
0
  71
0
 10
7763.44
 20
7252.30
 30
0.000000
  1
528
  0
INSERT
  5
7F1A
  8
3
  6
CONTINUOUS
 62
     0
  2
_OPEN
 10
7795.9832100040421
 20
7378.7541340000007
 30
0.0
 41
90.0
 42
90.0
 43
90.0
 50
180.0
  0
INSERT
  5
7F1B
  8
3
  6
CONTINUOUS
 62
     0
  2
_OPEN
 10
8323.9832100040403
 20
7378.7541340000007
 30
0.0
 41
90.0
 42
90.0
 43
90.0
  0
POINT
  5
7F1C
  8
DEFPOINTS
  6
CONTINUOUS
 62
     0
 10
7795.9832100040421
 20
7289.4679840000008
 30
0.0
  0
POINT
  5
7F1D
  8
DEFPOINTS
  6
CONTINUOUS
 62
     0
 10
8323.9832100040403
 20
6680.1889609999998
 30
0.0
  0
POINT
  5
7F1E
  8
DEFPOINTS
  6
CONTINUOUS
 62
     0
 10
8323.9832100040403
 20
7378.7541340000007
 30
0.0
  0
ENDBLK
  5
7C77
  8
0
  0
BLOCK
  8
0
  2
*D18
 70
     1
 10
0.0
 20
0.0
 30
0.0
  3
*D18
  1

  0
LINE
  5
7F1F
  8
3
  6
CONTINUOUS
 62
     0
 10
2847.0893260040411
 20
4872.1889609999989
 30
0.0
 11
2273.0785058281681
 21
4872.1889609999989
 31
0.0
  0
LINE
  5
7F20
  8
3
  6
CONTINUOUS
 62
     0
 10
2940.398587004041
 20
6070.1889609999998
 30
0.0
 11
2273.0785058281681
 21
6070.1889609999998
 31
0.0
  0
LINE
  5
7F21
  8
3
  6
CONTINUOUS
 62
     0
 10
2318.0785058281681
 20
4962.1889609999989
 30
0.0
 11
2318.0785058281681
 21
5980.1889609999989
 31
0.0
  0
INSERT
  5
7F22
  8
3
  6
CONTINUOUS
 62
     0
  2
_OPEN
 10
2318.0785058281681
 20
4872.1889609999989
 30
0.0
 41
90.0
 42
90.0
 43
90.0
 50
270.0
  0
INSERT
  5
7F23
  8
3
  6
CONTINUOUS
 62
     0
  2
_OPEN
 10
2318.0785058281681
 20
6070.1889609999998
 30
0.0
 41
90.0
 42
90.0
 43
90.0
 50
90.0
  0
TEXT
  8
3
  40
135
  5
7F43
  62
0
  72
0
  71
0
 10
1935.58
 20
5212.71
 30
0.000000
  1
1198
  0
POINT
  5
7F25
  8
DEFPOINTS
  6
CONTINUOUS
 62
     0
 10
2869.5893260040421
 20
4872.1889609999989
 30
0.0
  0
POINT
  5
7F26
  8
DEFPOINTS
  6
CONTINUOUS
 62
     0
 10
2962.8985870040419
 20
6070.1889609999998
 30
0.0
  0
POINT
  5
7F27
  8
DEFPOINTS
  6
CONTINUOUS
 62
     0
 10
2318.0785058281681
 20
6070.1889609999998
 30
0.0
  0
ENDBLK
  5
7D4C
  8
0
  0
BLOCK
  8
0
  2
*D19
 70
     1
 10
0.0
 20
0.0
 30
0.0
  3
*D19
  1

  0
LINE
  5
7F28
  8
3
 62
     0
 10
2869.5893260040421
 20
6097.6889609999998
 30
0.0
 11
2869.5893260040421
 21
7421.7474018432413
 31
0.0
  0
LINE
  5
7F29
  8
3
 62
     0
 10
5329.5893260040421
 20
4862.6889609999989
 30
0.0
 11
5329.5893260040421
 21
7421.7474018432413
 31
0.0
  0
LINE
  5
7F2A
  8
3
 62
     0
 10
2959.5893260040421
 20
7376.7474018432413
 30
0.0
 11
5239.5893260040421
 21
7376.7474018432413
 31
0.0
  0
INSERT
  5
7F2B
  8
3
 62
     0
  2
_OPEN
 10
2869.5893260040421
 20
7376.7474018432413
 30
0.0
 41
90.0
 42
90.0
 43
90.0
 50
180.0
  0
INSERT
  5
7F2C
  8
3
 62
     0
  2
_OPEN
 10
5329.5893260040421
 20
7376.7474018432413
 30
0.0
 41
90.0
 42
90.0
 43
90.0
  0
TEXT
  8
3
  40
135
  5
7F44
  62
0
  72
0
  71
0
 10
3856.24
 20
7250.30
 30
0.000000
  1
2460
  0
POINT
  5
7F2E
  8
DEFPOINTS
 62
     0
 10
2869.5893260040421
 20
6075.1889609999998
 30
0.0
  0
POINT
  5
7F2F
  8
DEFPOINTS
 62
     0
 10
5329.5893260040421
 20
4840.1889609999989
 30
0.0
  0
POINT
  5
7F30
  8
DEFPOINTS
 62
     0
 10
5329.5893260040421
 20
7376.7474018432413
 30
0.0
  0
ENDBLK
  5
7CE6
  8
0
  0
ENDSEC
  0
SECTION
  2
ENTITIES
  0
LINE
  5
7A6E
  8
1
  6
CONTINUOUS
 10
2969.5893260040421
 20
4696.1889609999989
 30
0.0
 11
5329.5893260040421
 21
4696.1889609999989
 31
0.0
  0
LINE
  5
7A6F
  8
1
  6
CONTINUOUS
 10
2969.5893260040421
 20
4631.1889609999998
 30
0.0
 11
5329.5893260040421
 21
4631.1889609999998
 31
0.0
  0
LINE
  5
7A70
  8
1
  6
CONTINUOUS
 10
2869.5893260040421
 20
4872.1889609999989
 30
0.0
 11
3629.5893260040421
 21
4937.1889609999998
 31
0.0
  0
ARC
  5
7A71
  8
1
  6
CONTINUOUS
 10
3698.0893260040421
 20
6138.6889609999989
 30
0.0
 40
739.10000000000002
 50
95.099999999999994
 51
180.0
  0
LINE
  5
7A72
  8
1
  6
CONTINUOUS
 10
2969.5893260040421
 20
4715.1889609999989
 30
0.0
 11
5329.5893260040421
 21
4715.1889609999989
 31
0.0
  0
LINE
  5
7A73
  8
1
  6
CONTINUOUS
 10
2969.5893260040421
 20
4840.1889609999989
 30
0.0
 11
5329.5893260040421
 21
4840.1889609999989
 31
0.0
  0
CIRCLE
  5
7A74
  8
1
  6
CONTINUOUS
 10
3629.5893260040421
 20
6070.1889609999998
 30
0.0
 40
560.0
  0
CIRCLE
  5
7A75
  8
1
  6
CONTINUOUS
 10
3629.5893260040421
 20
6070.1889609999998
 30
0.0
 40
610.0
  0
LINE
  5
7A76
  8
1
  6
CONTINUOUS
 10
2869.5893260040421
 20
6075.1889609999998
 30
0.0
 11
2869.5893260040421
 21
4819.1889609999998
 31
0.0
  0
LINE
  5
7A77
  8
1
  6
CONTINUOUS
 10
2909.5893260040411
 20
6022.1889609999998
 30
0.0
 11
2909.5893260040411
 21
4875.5889610000004
 31
0.0
  0
LINE
  5
7A78
  8
1
  6
CONTINUOUS
 10
2969.5893260040421
 20
4696.1889609999989
 30
0.0
 11
2969.5893260040421
 21
4631.1889609999998
 31
0.0
  0
LINE
  5
7A79
  8
1
  6
CONTINUOUS
 10
2969.5893260040421
 20
4840.1889609999989
 30
0.0
 11
2969.5893260040421
 21
4715.1889609999989
 31
0.0
  0
LINE
  5
7A7A
  8
1
  6
CONTINUOUS
 10
2970.3893260040418
 20
6022.1889609999998
 30
0.0
 11
2869.5893260040421
 21
6022.1889609999998
 31
0.0
  0
ARC
  5
7A7B
  8
1
  6
CONTINUOUS
 10
3561.0893260040421
 20
6138.6889609999989
 30
0.0
 40
602.10000000000002
 50
180.0
 51
191.1999999999999
  0
ARC
  5
7A7C
  8
1
  6
CONTINUOUS
 10
3547.5893260040421
 20
5988.1889609999998
 30
0.0
 40
1054.2
 50
274.5
 51
0.0
  0
ARC
  5
7A7D
  8
1
  6
CONTINUOUS
 10
3711.5893260040421
 20
5988.1889609999998
 30
0.0
 40
890.20000000000005
 50
0.0
 51
95.099999999999994
  0
LINE
  5
7A7E
  8
1
  6
CONTINUOUS
 10
5083.6893260040424
 20
5165.3889609999997
 30
0.0
 11
3812.789326004041
 21
6279.2889610000002
 31
0.0
  0
LINE
  5
7A7F
  8
1
  6
CONTINUOUS
 10
5149.5893260040421
 20
5240.5889610000004
 30
0.0
 11
3878.689326004042
 21
6354.488961
 31
0.0
  0
LINE
  5
7A80
  8
1
  6
CONTINUOUS
 10
4892.7893260040419
 20
4885.6889609999989
 30
0.0
 11
3437.4893260040421
 21
5744.6889609999998
 31
0.0
  0
LINE
  5
7A81
  8
1
  6
CONTINUOUS
 10
4943.5893260040421
 20
4971.8889609999997
 30
0.0
 11
3488.289326004041
 21
5830.7889610000002
 31
0.0
  0
LINE
  5
7A82
  8
2
  6
CENTER
 10
3629.5893260040421
 20
10395.044936561049
 30
0.0
 11
3629.5893260040421
 21
8880.8661085610565
 31
0.0
  0
ARC
  5
7A83
  8
1
  6
CONTINUOUS
 10
3629.5893260040421
 20
6070.1889609999998
 30
0.0
 40
378.0
 50
48.79999999999999
 51
239.5
  0
CIRCLE
  5
7A84
  8
1
  6
CONTINUOUS
 10
3629.5893260040421
 20
6070.1889609999998
 30
0.0
 40
278.0
  0
LINE
  5
7A85
  8
2
  6
CENTER
 10
8455.3923850040392
 20
6070.1889609999998
 30
0.0
 11
6933.8331590040407
 21
6070.1889609999998
 31
0.0
  0
LINE
  5
7A86
  8
2
  6
CENTER
 10
5124.5893260040411
 20
5075.1889609999998
 30
0.0
 11
4884.5893260040421
 21
5075.1889609999998
 31
0.0
  0
ARC
  5
7A87
  8
1
  6
CONTINUOUS
 10
5004.5893260040421
 20
5075.1889609999998
 30
0.0
 40
220.0
 50
239.5
 51
48.79999999999999
  0
CIRCLE
  5
7A88
  8
1
  6
CONTINUOUS
 10
5004.5893260040421
 20
5075.1889609999998
 30
0.0
 40
120.0
  0
LINE
  5
7A89
  8
1
  6
CONTINUOUS
 10
5229.5893260040421
 20
4840.1889609999989
 30
0.0
 11
4779.5893260040421
 21
4840.1889609999989
 31
0.0
  0
ARC
  5
7A8A
  8
1
  6
CONTINUOUS
 10
5004.5893260040421
 20
5075.1889609999998
 30
0.0
 40
199.0
 50
320.10000000000002
 51
219.90000000000001
  0
LINE
  5
7A8B
  8
1
  6
CONTINUOUS
 10
5229.5893260040421
 20
4895.1889609999998
 30
0.0
 11
4779.5893260040421
 21
4895.1889609999998
 31
0.0
  0
LINE
  5
7A8C
  8
2
  6
CENTER
 10
5004.5893260040421
 20
4955.1889609999998
 30
0.0
 11
5004.5893260040421
 21
5195.1889609999998
 31
0.0
  0
LINE
  5
7A8D
  8
1
  6
CONTINUOUS
 10
4779.5893260040421
 20
4840.1889609999989
 30
0.0
 11
4779.5893260040421
 21
4895.1889609999998
 31
0.0
  0
LINE
  5
7A8E
  8
1
  6
CONTINUOUS
 10
4842.5893260040421
 20
4937.6889609999998
 30
0.0
 11
4851.8893260040422
 21
4947.5889610000013
 31
0.0
  0
LINE
  5
7A8F
  8
1
  6
CONTINUOUS
 10
4842.5893260040421
 20
4895.1889609999998
 30
0.0
 11
4842.5893260040421
 21
4937.6889609999998
 31
0.0
  0
LINE
  5
7A90
  8
1
  6
CONTINUOUS
 10
5229.5893260040421
 20
4840.1889609999989
 30
0.0
 11
5229.5893260040421
 21
4895.1889609999998
 31
0.0
  0
LINE
  5
7A91
  8
1
  6
CONTINUOUS
 10
5166.5893260040421
 20
4937.6889609999998
 30
0.0
 11
5157.289326004041
 21
4947.5889610000013
 31
0.0
  0
LINE
  5
7A92
  8
1
  6
CONTINUOUS
 10
5166.5893260040421
 20
4895.1889609999998
 30
0.0
 11
5166.5893260040421
 21
4937.6889609999998
 31
0.0
  0
LINE
  5
7A93
  8
1
  6
CONTINUOUS
 10
5329.5893260040421
 20
4696.1889609999989
 30
0.0
 11
5329.5893260040421
 21
4631.1889609999998
 31
0.0
  0
LINE
  5
7A94
  8
1
  6
CONTINUOUS
 10
5329.5893260040421
 20
4840.1889609999989
 30
0.0
 11
5329.5893260040421
 21
4715.1889609999989
 31
0.0
  0
LINE
  5
7A95
  8
1
  6
CONTINUOUS
 10
4239.5893260040421
 20
10232.57415656105
 30
0.0
 11
3019.5893260040421
 21
10232.57415656105
 31
0.0
  0
LINE
  5
7A96
  8
1
  6
CONTINUOUS
 10
4601.789326004041
 20
9279.5741565610551
 30
0.0
 11
2869.5893260040421
 21
9279.5741565610551
 31
0.0
  0
LINE
  5
7A97
  8
1
  6
CONTINUOUS
 10
4601.789326004041
 20
10129.57415656105
 30
0.0
 11
2869.5893260040421
 21
10129.57415656105
 31
0.0
  0
LINE
  5
7A98
  8
1
  6
CONTINUOUS
 10
5329.5893260040421
 20
9017.5741565610551
 30
0.0
 11
2969.5893260040421
 21
9017.5741565610551
 31
0.0
  0
LINE
  5
7A99
  8
1
  6
CONTINUOUS
 10
2869.5893260040421
 20
9229.5741565610551
 30
0.0
 11
2869.5893260040421
 21
10179.57415656105
 31
0.0
  0
LINE
  5
7A9A
  8
1
  6
CONTINUOUS
 10
2969.5893260040421
 20
9279.5741565610551
 30
0.0
 11
2969.5893260040421
 21
9017.5741565610551
 31
0.0
  0
LINE
  5
7A9B
  8
1
  6
CONTINUOUS
 10
3069.5893260040421
 20
10232.57415656105
 30
0.0
 11
3069.5893260040421
 21
10129.57415656105
 31
0.0
  0
LINE
  5
7A9C
  8
1
  6
CONTINUOUS
 10
2969.5893260040421
 20
10197.57415656105
 30
0.0
 11
2969.5893260040421
 21
10129.57415656105
 31
0.0
  0
LINE
  5
7A9D
  8
1
  6
CONTINUOUS
 10
3069.5893260040421
 20
10197.57415656105
 30
0.0
 11
2969.5893260040421
 21
10197.57415656105
 31
0.0
  0
LINE
  5
7A9E
  8
1
  6
CONTINUOUS
 10
5224.5893260040421
 20
9204.5741565610551
 30
0.0
 11
3251.5893260040421
 21
9204.5741565610551
 31
0.0
  0
LINE
  5
7A9F
  8
1
  6
CONTINUOUS
 10
5224.5893260040421
 20
8964.5741565610533
 30
0.0
 11
3251.5893260040421
 21
8964.5741565610533
 31
0.0
  0
LINE
  5
7AA0
  8
1
  6
CONTINUOUS
 10
5329.5893260040421
 20
10197.57415656105
 30
0.0
 11
4189.5893260040421
 21
10197.57415656105
 31
0.0
  0
LINE
  5
7AA1
  8
1
  6
CONTINUOUS
 10
3351.5893260040421
 20
9134.5741565610551
 30
0.0
 11
3907.5893260040421
 21
9134.5741565610551
 31
0.0
  0
LINE
  5
7AA2
  8
1
  6
CONTINUOUS
 10
3351.5893260040421
 20
9034.5741565610533
 30
0.0
 11
3907.5893260040421
 21
9034.5741565610533
 31
0.0
  0
LINE
  5
7AA3
  8
1
  6
CONTINUOUS
 10
3251.5893260040421
 20
8964.5741565610533
 30
0.0
 11
3251.5893260040421
 21
9204.5741565610551
 31
0.0
  0
LINE
  5
7AA4
  8
1
  6
CONTINUOUS
 10
3351.5893260040421
 20
9034.5741565610533
 30
0.0
 11
3351.5893260040421
 21
9134.5741565610551
 31
0.0
  0
LINE
  5
7AA5
  8
1
  6
CONTINUOUS
 10
3657.0893260040421
 20
9279.5741565610551
 30
0.0
 11
3657.0893260040421
 21
9134.5741565610551
 31
0.0
  0
LINE
  5
7AA6
  8
1
  6
CONTINUOUS
 10
3602.0893260040421
 20
9279.5741565610551
 30
0.0
 11
3602.0893260040421
 21
9134.5741565610551
 31
0.0
  0
LINE
  5
7AA7
  8
1
  6
CONTINUOUS
 10
3907.5893260040421
 20
9034.5741565610533
 30
0.0
 11
3907.5893260040421
 21
9134.5741565610551
 31
0.0
  0
LINE
  5
7AA8
  8
1
  6
CONTINUOUS
 10
4189.5893260040421
 20
10232.57415656105
 30
0.0
 11
4189.5893260040421
 21
10129.57415656105
 31
0.0
  0
LINE
  5
7AA9
  8
1
  6
CONTINUOUS
 10
4601.789326004041
 20
9279.5741565610551
 30
0.0
 11
4601.789326004041
 21
10129.57415656105
 31
0.0
  0
LINE
  5
7AAA
  8
1
  6
CONTINUOUS
 10
5329.5893260040421
 20
10197.57415656105
 30
0.0
 11
5329.5893260040421
 21
9017.5741565610551
 31
0.0
  0
LINE
  5
7AAB
  8
1
  6
CONTINUOUS
 10
4884.5893260040421
 20
9034.5741565610533
 30
0.0
 11
5124.5893260040411
 21
9034.5741565610533
 31
0.0
  0
LINE
  5
7AAC
  8
1
  6
CONTINUOUS
 10
4884.5893260040421
 20
9134.5741565610551
 30
0.0
 11
5124.5893260040411
 21
9134.5741565610551
 31
0.0
  0
LINE
  5
7AAD
  8
1
  6
CONTINUOUS
 10
5203.6893260040424
 20
9852.7741565610559
 30
0.0
 11
4805.4893260040417
 21
9852.7741565610559
 31
0.0
  0
LINE
  5
7AAE
  8
1
  6
CONTINUOUS
 10
5203.6893260040424
 20
9253.2741565610559
 30
0.0
 11
4805.4893260040417
 21
9253.2741565610559
 31
0.0
  0
LINE
  5
7AAF
  8
1
  6
CONTINUOUS
 10
4884.5893260040421
 20
9034.5741565610533
 30
0.0
 11
4884.5893260040421
 21
9134.5741565610551
 31
0.0
  0
LINE
  5
7AB0
  8
1
  6
CONTINUOUS
 10
4805.4893260040417
 20
9253.2741565610559
 30
0.0
 11
4805.4893260040417
 21
9852.7741565610559
 31
0.0
  0
LINE
  5
7AB1
  8
1
  6
CONTINUOUS
 10
4977.0893260040421
 20
9134.5741565610551
 30
0.0
 11
4977.0893260040421
 21
9253.2741565610559
 31
0.0
  0
LINE
  5
7AB2
  8
1
  6
CONTINUOUS
 10
5224.5893260040421
 20
8964.5741565610533
 30
0.0
 11
5224.5893260040421
 21
9204.5741565610551
 31
0.0
  0
LINE
  5
7AB3
  8
1
  6
CONTINUOUS
 10
5124.5893260040411
 20
9034.5741565610533
 30
0.0
 11
5124.5893260040411
 21
9134.5741565610551
 31
0.0
  0
LINE
  5
7AB4
  8
1
  6
CONTINUOUS
 10
5032.0893260040421
 20
9134.5741565610551
 30
0.0
 11
5032.0893260040421
 21
9253.2741565610559
 31
0.0
  0
LINE
  5
7AB5
  8
1
  6
CONTINUOUS
 10
5203.6893260040424
 20
9253.2741565610559
 30
0.0
 11
5203.6893260040424
 21
9852.7741565610559
 31
0.0
  0
LINE
  5
7AB6
  8
1
  6
CONTINUOUS
 10
7370.9832100040412
 20
6022.1889609999998
 30
0.0
 11
8220.9832100040403
 21
6022.1889609999998
 31
0.0
  0
LINE
  5
7AB7
  8
1
  6
CONTINUOUS
 10
8288.9832100040403
 20
4840.1889609999989
 30
0.0
 11
7108.9832100040412
 21
4840.1889609999989
 31
0.0
  0
LINE
  5
7AB8
  8
1
  6
CONTINUOUS
 10
8288.9832100040403
 20
4715.1889609999989
 30
0.0
 11
7108.9832100040412
 21
4715.1889609999989
 31
0.0
  0
LINE
  5
7AB9
  8
1
  6
CONTINUOUS
 10
7370.9832100040412
 20
6878.3889609999997
 30
0.0
 11
8220.9832100040403
 21
6878.3889609999997
 31
0.0
  0
LINE
  5
7ABA
  8
1
  6
CONTINUOUS
 10
7370.9832100040412
 20
4872.1889609999989
 30
0.0
 11
8220.9832100040403
 21
4872.1889609999989
 31
0.0
  0
LINE
  5
7ABB
  8
1
  6
CONTINUOUS
 10
7370.9832100040412
 20
6022.1889609999998
 30
0.0
 11
8220.9832100040403
 21
4872.1889609999989
 31
0.0
  0
LINE
  5
7ABC
  8
1
  6
CONTINUOUS
 10
8220.9832100040403
 20
6022.1889609999998
 30
0.0
 11
7370.9832100040412
 21
4872.1889609999989
 31
0.0
  0
LINE
  5
7ABD
  8
1
  6
CONTINUOUS
 10
8288.9832100040403
 20
4631.1889609999998
 30
0.0
 11
7108.9832100040412
 21
4631.1889609999998
 31
0.0
  0
LINE
  5
7ABE
  8
1
  6
CONTINUOUS
 10
8288.9832100040403
 20
4696.1889609999989
 30
0.0
 11
7108.9832100040412
 21
4696.1889609999989
 31
0.0
  0
LINE
  5
7AC1
  8
1
  6
CONTINUOUS
 10
7370.9832100040412
 20
4840.1889609999989
 30
0.0
 11
7370.9832100040412
 21
6878.3889609999997
 31
0.0
  0
LINE
  5
7AC2
  8
1
  6
CONTINUOUS
 10
7035.9832100040403
 20
4855.1889609999989
 30
0.0
 11
7035.9832100040403
 21
6448.1889609999989
 31
0.0
  0
LINE
  5
7AC3
  8
1
  6
CONTINUOUS
 10
7295.9832100040421
 20
4855.1889609999989
 30
0.0
 11
7295.9832100040421
 21
6448.1889609999989
 31
0.0
  0
LINE
  5
7AC4
  8
1
  6
CONTINUOUS
 10
7125.9832100040412
 20
6348.1889609999998
 30
0.0
 11
7125.9832100040412
 21
5792.1889609999998
 31
0.0
  0
LINE
  5
7AC5
  8
1
  6
CONTINUOUS
 10
7225.9832100040412
 20
6348.1889609999998
 30
0.0
 11
7225.9832100040412
 21
5792.1889609999998
 31
0.0
  0
LINE
  5
7AC6
  8
1
  6
CONTINUOUS
 10
7225.9832100040412
 20
5102.6889609999998
 30
0.0
 11
7370.9832100040412
 21
5102.6889609999998
 31
0.0
  0
LINE
  5
7AC7
  8
1
  6
CONTINUOUS
 10
7225.9832100040412
 20
5047.6889609999998
 30
0.0
 11
7370.9832100040412
 21
5047.6889609999998
 31
0.0
  0
LINE
  5
7AC8
  8
1
  6
CONTINUOUS
 10
7125.9832100040412
 20
5195.1889609999998
 30
0.0
 11
7125.9832100040412
 21
4955.1889609999998
 31
0.0
  0
LINE
  5
7AC9
  8
1
  6
CONTINUOUS
 10
7225.9832100040412
 20
5195.1889609999998
 30
0.0
 11
7225.9832100040412
 21
4955.1889609999998
 31
0.0
  0
LINE
  5
7ACA
  8
1
  6
CONTINUOUS
 10
7108.9832100040412
 20
4715.1889609999989
 30
0.0
 11
7108.9832100040412
 21
4840.1889609999989
 31
0.0
  0
LINE
  5
7ACB
  8
1
  6
CONTINUOUS
 10
7125.9832100040412
 20
4955.1889609999998
 30
0.0
 11
7225.9832100040412
 21
4955.1889609999998
 31
0.0
  0
LINE
  5
7ACC
  8
1
  6
CONTINUOUS
 10
7035.9832100040403
 20
4855.1889609999989
 30
0.0
 11
7295.9832100040421
 21
4855.1889609999989
 31
0.0
  0
LINE
  5
7ACD
  8
1
  6
CONTINUOUS
 10
7108.9832100040412
 20
4631.1889609999998
 30
0.0
 11
7108.9832100040412
 21
4696.1889609999989
 31
0.0
  0
LINE
  5
7ACE
  8
1
  6
CONTINUOUS
 10
7125.9832100040412
 20
5195.1889609999998
 30
0.0
 11
7225.9832100040412
 21
5195.1889609999998
 31
0.0
  0
LINE
  5
7ACF
  8
1
  6
CONTINUOUS
 10
7125.9832100040412
 20
5792.1889609999998
 30
0.0
 11
7225.9832100040412
 21
5792.1889609999998
 31
0.0
  0
LINE
  5
7AD0
  8
1
  6
CONTINUOUS
 10
7225.9832100040412
 20
6097.6889609999998
 30
0.0
 11
7370.9832100040412
 21
6097.6889609999998
 31
0.0
  0
LINE
  5
7AD1
  8
1
  6
CONTINUOUS
 10
7225.9832100040412
 20
6042.6889609999989
 30
0.0
 11
7370.9832100040412
 21
6042.6889609999989
 31
0.0
  0
LINE
  5
7AD2
  8
1
  6
CONTINUOUS
 10
7035.9832100040403
 20
6448.1889609999989
 30
0.0
 11
7295.9832100040421
 21
6448.1889609999989
 31
0.0
  0
LINE
  5
7AD3
  8
1
  6
CONTINUOUS
 10
7125.9832100040412
 20
6348.1889609999998
 30
0.0
 11
7225.9832100040412
 21
6348.1889609999998
 31
0.0
  0
LINE
  5
7AD4
  8
1
  6
CONTINUOUS
 10
8220.9832100040403
 20
4840.1889609999989
 30
0.0
 11
8220.9832100040403
 21
6878.3889609999997
 31
0.0
  0
LINE
  5
7AD5
  8
1
  6
CONTINUOUS
 10
8323.9832100040403
 20
5460.1889609999998
 30
0.0
 11
8323.9832100040403
 21
6680.1889609999998
 31
0.0
  0
LINE
  5
7AD6
  8
1
  6
CONTINUOUS
 10
8288.9832100040403
 20
4715.1889609999989
 30
0.0
 11
8288.9832100040403
 21
4840.1889609999989
 31
0.0
  0
LINE
  5
7AD7
  8
1
  6
CONTINUOUS
 10
8288.9832100040403
 20
4631.1889609999998
 30
0.0
 11
8288.9832100040403
 21
4696.1889609999989
 31
0.0
  0
LINE
  5
7AD8
  8
1
  6
CONTINUOUS
 10
8220.9832100040403
 20
5510.1889609999998
 30
0.0
 11
8323.9832100040403
 21
5510.1889609999998
 31
0.0
  0
LINE
  5
7AD9
  8
1
  6
CONTINUOUS
 10
8220.9832100040403
 20
6630.1889609999998
 30
0.0
 11
8323.9832100040403
 21
6630.1889609999998
 31
0.0
  0
LINE
  5
7ADA
  8
4
  6
CONTINUOUS
 10
9250.0
 20
2500.0
 30
0.0
 11
9250.0
 21
1500.0
 31
0.0
  0
LINE
  5
7ADB
  8
4
  6
CONTINUOUS
 10
5750.0
 20
2500.0
 30
0.0
 11
5750.0
 21
1500.0
 31
0.0
  0
LINE
  5
7ADC
  8
4
  6
CONTINUOUS
 10
3250.0
 20
2500.0
 30
0.0
 11
3250.0
 21
1500.0
 31
0.0
  0
LINE
  5
7ADF
  8
4
  6
CONTINUOUS
 10
3250.0
 20
1500.0
 30
0.0
 11
9250.0
 21
1500.0
 31
0.0
  0
LINE
  5
7AE0
  8
4
  6
CONTINUOUS
 10
3250.0
 20
2000.0
 30
0.0
 11
9250.0
 21
2000.0
 31
0.0
  0
TEXT
  5
7AE1
  8
4
  6
CONTINUOUS
 10
3442.5104040000001
 20
2157.7151289999988
 30
0.0
 40
250.0
  1
機器名称
  0
TEXT
  5
7AE2
  8
4
  6
CONTINUOUS
 10
3431.2905300000002
 20
1608.225782999999
 30
0.0
 40
250.0
  1
機器型番
  0
TEXT
  5
7AE3
  8
4
  6
CONTINUOUS
 10
5888.393728
 20
2112.8588439999999
 30
0.0
 40
211.11111099999991
  1
ミツヤリミットロードファン
  0
TEXT
  5
7AE4
  8
4
  6
CONTINUOUS
 10
5933.2724779999999
 20
1585.7979210000001
 30
0.0
 40
250.0
  1
LLE#7-4
  0
TEXT
  5
7AE6
  8
4
  6
CONTINUOUS
 10
3847.6260590000002
 20
11917.14420699999
 30
0.0
 40
270.0
  1
床置防振ベット
  0
TEXT
  5
7AE7
  8
4
  6
CONTINUOUS
 10
1580.837966999999
 20
12669.404881
 30
0.0
 40
300.0
  1
ベルト駆動式片吸込両持排煙ファン
  0
LINE
  5
7AE8
  8
4
  6
CONTINUOUS
 10
1250.0
 20
12347.04377099999
 30
0.0
 11
9250.0
 21
12347.04377099999
 31
0.0
  0
LINE
  5
7AE9
  8
4
  6
CONTINUOUS
 10
1250.0
 20
13347.043771000001
 30
0.0
 11
9250.0
 21
13347.043771000001
 31
0.0
  0
LINE
  5
7AEA
  8
4
  6
CONTINUOUS
 10
3250.0
 20
2500.0
 30
0.0
 11
9250.0
 21
2500.0
 31
0.0
  0
LINE
  5
7AEB
  8
4
  6
CONTINUOUS
 10
1250.0
 20
13347.043771000001
 30
0.0
 11
1250.0
 21
12347.04377099999
 31
0.0
  0
TEXT
  5
7AEC
  8
4
  6
CONTINUOUS
 10
1668.3318979999999
 20
11911.597388
 30
0.0
 40
270.0
  1
右回転左横向
  0
TEXT
  5
7AED
  8
4
  6
CONTINUOUS
 10
7344.8477969999994
 20
13530.305408
 30
0.0
 40
280.0
  1
No.
  0
TEXT
  5
7AEE
  8
4
  6
CONTINUOUS
 10
6556.480313
 20
11917.14420699999
 30
0.0
 40
270.0
  1
縮尺：1/50
  0
LINE
  5
7AEF
  8
4
  6
CONTINUOUS
 10
9250.0
 20
13347.043771000001
 30
0.0
 11
9250.0
 21
12347.04377099999
 31
0.0
  0
LINE
  5
7AF1
  8
4
  6
CONTINUOUS
 10
7203.0871120000002
 20
13406.317916
 30
0.0
 11
7203.0871120000002
 21
13933.261307999999
 31
0.0
  0
LINE
  5
7AF2
  8
4
  6
CONTINUOUS
 10
7203.0871120000002
 20
13933.261307999999
 30
0.0
 11
9250.0
 21
13933.261307999999
 31
0.0
  0
LINE
  5
7AF3
  8
4
  6
CONTINUOUS
 10
9250.0
 20
13933.261307999999
 30
0.0
 11
9250.0
 21
13406.317916
 31
0.0
  0
LINE
  5
7AF4
  8
4
  6
CONTINUOUS
 10
9250.0
 20
13406.317916
 30
0.0
 11
7203.0871120000002
 21
13406.317916
 31
0.0
  0
DIMENSION
  5
7B0C
  8
3
  6
CONTINUOUS
  2
*D1
 10
3629.5893260040421
 20
4268.3034299999999
 30
0.0
 11
3321.017897004042
 21
4268.3034299999999
 31
0.0
 70
   128
 13
2969.5893260040421
 23
4631.1889609999998
 33
0.0
 14
3629.5893260040421
 24
4570.6575849999999
 34
0.0
1001
ACAD
1000
DSTYLE
1002
{
1070
   287
1070
     3
1070
   287
1070
     3
1070
    40
1040
45.0
1070
   143
1040
0.039
1070
   172
1070
     1
1070
   271
1070
     0
1070
   279
1070
     0
1070
   288
1070
     1
1002
}
  0
DIMENSION
  5
7B18
  8
3
  6
CONTINUOUS
  2
*D2
 10
5329.5893260040421
 20
4268.3034299999999
 30
0.0
 11
4479.5893260040421
 21
4380.8034299999999
 31
0.0
 70
     0
 13
3629.5893260040421
 23
4570.6575849999999
 33
0.0
 14
5329.5893260040421
 24
4631.1889609999998
 34
0.0
1001
ACAD
1000
DSTYLE
1002
{
1070
   287
1070
     4
1070
   287
1070
     4
1070
    40
1040
45.0
1070
    75
1070
     1
1070
   143
1040
0.039
1070
   172
1070
     1
1070
   271
1070
     0
1070
   279
1070
     1
1070
   288
1070
     1
1002
}
  0
DIMENSION
  5
7B25
  8
3
  6
CONTINUOUS
  2
*D3
 10
2575.6060858281671
 20
4872.1889609999989
 30
0.0
 11
2575.6060858281671
 21
5455.2072229999994
 31
0.0
 70
   128
 13
2869.5893260040421
 23
6022.1889609999998
 33
0.0
 14
2869.5893260040421
 24
4872.1889609999989
 34
0.0
 50
90.0
1001
ACAD
1000
DSTYLE
1002
{
1070
   287
1070
     3
1070
   287
1070
     3
1070
    40
1040
45.0
1070
   143
1040
0.039
1070
   172
1070
     1
1070
   271
1070
     0
1070
   279
1070
     0
1070
   288
1070
     1
1002
}
  0
DIMENSION
  5
7B32
  8
3
  6
CONTINUOUS
  2
*D4
 10
2058.0219540277471
 20
6070.1889609999998
 30
0.0
 11
2058.0219540277449
 21
6500.3677700000007
 31
0.0
 70
   128
 13
3629.5893260040421
 23
6875.1889609999998
 33
0.0
 14
2962.8985870040419
 24
6070.1889609999998
 34
0.0
 50
90.0
1001
ACAD
1000
DSTYLE
1002
{
1070
   287
1070
     3
1070
   287
1070
     3
1070
    40
1040
45.0
1070
   143
1040
0.039
1070
   172
1070
     1
1070
   271
1070
     0
1070
   279
1070
     0
1070
   288
1070
     1
1002
}
  0
DIMENSION
  5
7B3E
  8
3
  6
CONTINUOUS
  2
*D5
 10
2058.0219540277449
 20
4715.1889609999989
 30
0.0
 11
1945.5219540277451
 21
5392.6889610000007
 31
0.0
 70
     0
 13
2962.8985870040419
 23
6070.1889609999998
 33
0.0
 14
2969.5893260040421
 24
4715.1889609999989
 34
0.0
 50
90.0
1001
ACAD
1000
DSTYLE
1002
{
1070
   287
1070
     4
1070
   287
1070
     4
1070
    40
1040
45.0
1070
    75
1070
     1
1070
   143
1040
0.039
1070
   172
1070
     1
1070
   271
1070
     0
1070
   279
1070
     1
1070
   288
1070
     1
1002
}
  0
DIMENSION
  5
7B4E
  8
3
  6
CONTINUOUS
  2
*D6
 10
2058.0219540277458
 20
4631.1889609999998
 30
0.0
 11
2058.0219540277449
 21
4293.6889609999998
 31
0.0
 70
   128
 13
2969.5893260040421
 23
4715.1889609999989
 33
0.0
 14
2969.5893260040421
 24
4631.1889609999998
 34
0.0
 50
90.0
1001
ACAD
1000
DSTYLE
1002
{
1070
   287
1070
     3
1070
   287
1070
     3
1070
    40
1040
45.0
1070
   143
1040
0.039
1070
   172
1070
     1
1070
   271
1070
     0
1070
   279
1070
     0
1070
   288
1070
     1
1002
}
  0
DIMENSION
  5
7B75
  8
3
  6
CONTINUOUS
  2
*D7
 10
1802.9887230277459
 20
4631.1889610000007
 30
0.0
 11
1802.988723027745
 21
5709.3153140000013
 31
0.0
 70
   128
 13
3629.5893260040421
 23
6875.1889609999998
 33
0.0
 14
2969.5893260040421
 24
4631.1889609999998
 34
0.0
 50
90.0
1001
ACAD
1000
DSTYLE
1002
{
1070
   287
1070
     3
1070
   287
1070
     3
1070
    40
1040
45.0
1070
   143
1040
0.039
1070
   172
1070
     1
1070
   271
1070
     0
1070
   279
1070
     0
1070
   288
1070
     1
1002
}
  0
DIMENSION
  5
7B82
  8
3
  6
CONTINUOUS
  2
*D8
 10
3629.5893260040421
 20
7101.985090000001
 30
0.0
 11
3243.3381430040408
 21
7101.985090000001
 31
0.0
 70
   128
 13
2869.5893260040421
 23
6075.1889609999998
 33
0.0
 14
3629.5893260040421
 24
6874.6078150000003
 34
0.0
1001
ACAD
1000
DSTYLE
1002
{
1070
   287
1070
     3
1070
   287
1070
     3
1070
    40
1040
45.0
1070
   143
1040
0.039
1070
   172
1070
     1
1070
   271
1070
     0
1070
   279
1070
     0
1070
   288
1070
     1
1002
}
  0
DIMENSION
  5
7B8E
  8
3
  6
CONTINUOUS
  2
*D9
 10
4598.5893260040421
 20
7101.985090000001
 30
0.0
 11
4114.0893260040421
 21
7214.485090000001
 31
0.0
 70
     0
 13
3629.5893260040421
 23
6875.1889609999998
 33
0.0
 14
4598.5893260040421
 24
6070.1889609999998
 34
0.0
1001
ACAD
1000
DSTYLE
1002
{
1070
   287
1070
     4
1070
   287
1070
     4
1070
    40
1040
45.0
1070
    75
1070
     1
1070
   143
1040
0.039
1070
   172
1070
     1
1070
   271
1070
     0
1070
   279
1070
     1
1070
   288
1070
     1
1002
}
  0
DIMENSION
  5
7B9B
  8
3
  6
CONTINUOUS
  2
*D10
 10
5329.5893260040421
 20
8549.0208495610586
 30
0.0
 11
4237.3140260040418
 21
8549.0208495610586
 31
0.0
 70
   128
 13
2969.5893260040421
 23
9017.5741565610551
 33
0.0
 14
5329.5893260040421
 24
9017.5741565610551
 34
0.0
1001
ACAD
1000
DSTYLE
1002
{
1070
   287
1070
     3
1070
   287
1070
     3
1070
    40
1040
45.0
1070
   143
1040
0.039
1070
   172
1070
     1
1070
   271
1070
     0
1070
   279
1070
     0
1070
   288
1070
     1
1002
}
  0
DIMENSION
  5
7BA8
  8
3
  6
CONTINUOUS
  2
*D11
 10
5723.0444720040432
 20
9017.5741565610551
 30
0.0
 11
5723.0444720040423
 21
9602.0134585610558
 31
0.0
 70
   128
 13
5329.5893260040421
 23
10197.57415656105
 33
0.0
 14
5329.5893260040421
 24
9017.5741565610551
 34
0.0
 50
90.0
1001
ACAD
1000
DSTYLE
1002
{
1070
   287
1070
     3
1070
   287
1070
     3
1070
    40
1040
45.0
1070
   143
1040
0.039
1070
   172
1070
     1
1070
   271
1070
     0
1070
   279
1070
     0
1070
   288
1070
     1
1002
}
  0
LINE
  5
7BA9
  8
2
  6
CENTER
 10
2764.9603020040408
 20
9704.5741565610551
 30
0.0
 11
4742.1472440040407
 21
9704.5741565610551
 31
0.0
  0
LINE
  5
7BAA
  8
2
  6
CENTER
 10
3629.5893260040421
 20
6955.659353
 30
0.0
 11
3629.5893260040421
 21
4570.6575849999999
 31
0.0
  0
LINE
  5
7BAB
  8
2
  6
CENTER
 10
7795.9832100040421
 20
7118.9451390000004
 30
0.0
 11
7795.9832100040421
 21
4540.9446563886204
 31
0.0
  0
LINE
  5
7BAC
  8
2
  6
CENTER
 10
4742.7952910040422
 20
6070.1889609999998
 30
0.0
 11
2828.4441550040419
 21
6070.1889609999998
 31
0.0
  0
DIMENSION
  5
7BBA
  8
3
  6
CONTINUOUS
  2
*D12
 10
7795.9832100040421
 20
4298.5712922835928
 30
0.0
 11
7487.4117814326119
 21
4298.5712922835928
 31
0.0
 70
   128
 13
7108.9832100040412
 23
4631.1889609999998
 33
0.0
 14
7795.9832100040421
 24
4540.9446563886204
 34
0.0
1001
ACAD
1000
DSTYLE
1002
{
1070
   287
1070
     3
1070
   287
1070
     3
1070
    40
1040
45.0
1070
   143
1040
0.039
1070
   172
1070
     1
1070
   271
1070
     0
1070
   279
1070
     0
1070
   288
1070
     1
1002
}
  0
DIMENSION
  5
7BC8
  8
3
  6
CONTINUOUS
  2
*D13
 10
8288.9832100040403
 20
4298.5712922835928
 30
0.0
 11
8039.8259920040427
 21
4297.7246222835938
 31
0.0
 70
   128
 13
7795.9832100040421
 23
4540.9446563886204
 33
0.0
 14
8288.9832100040403
 24
4631.1889609999998
 34
0.0
1001
ACAD
1000
DSTYLE
1002
{
1070
   287
1070
     4
1070
   287
1070
     4
1070
    40
1040
45.0
1070
    75
1070
     1
1070
   143
1040
0.039
1070
   172
1070
     1
1070
   271
1070
     0
1070
   279
1070
     1
1070
   288
1070
     1
1002
}
  0
DIMENSION
  5
7BEB
  8
3
  6
CONTINUOUS
  2
*D14
 10
8661.743164004045
 20
5510.1889609999998
 30
0.0
 11
8661.7431640040431
 21
6103.0796319999999
 31
0.0
 70
   128
 13
8323.9832100040403
 23
6630.1889609999998
 33
0.0
 14
8323.9832100040403
 24
5510.1889609999998
 34
0.0
 50
90.0
1001
ACAD
1000
DSTYLE
1002
{
1070
   287
1070
     3
1070
   287
1070
     3
1070
     3
1000
φ<>
1070
    40
1040
45.0
1070
   143
1040
0.039
1070
   172
1070
     1
1070
   271
1070
     0
1070
   279
1070
     0
1070
   288
1070
     1
1002
}
  0
DIMENSION
  5
7BF8
  8
3
  6
CONTINUOUS
  2
*D15
 10
8220.9832100040403
 20
7102.1721779999998
 30
0.0
 11
7741.6465490040418
 21
7102.1721779999998
 31
0.0
 70
   128
 13
7370.9832100040412
 23
6878.3889609999997
 33
0.0
 14
8220.9832100040403
 24
6878.3889609999997
 34
0.0
1001
ACAD
1000
DSTYLE
1002
{
1070
   287
1070
     3
1070
   287
1070
     3
1070
    40
1040
45.0
1070
   143
1040
0.039
1070
   172
1070
     1
1070
   271
1070
     0
1070
   279
1070
     0
1070
   288
1070
     1
1002
}
  0
DIMENSION
  5
7C05
  8
3
  6
CONTINUOUS
  2
*D16
 10
7795.9832100040421
 20
7378.7541340000007
 30
0.0
 11
7468.1260671468972
 21
7378.7541340000007
 31
0.0
 70
   128
  1
MAX\P850
 13
7035.9832100040403
 23
6448.1889609999989
 33
0.0
 14
7795.9832100040421
 24
7289.4679840000008
 34
0.0
1001
ACAD
1000
DSTYLE
1002
{
1070
   287
1070
     3
1070
   287
1070
     3
1070
    40
1040
45.0
1070
   143
1040
0.039
1070
   172
1070
     1
1070
   271
1070
     0
1070
   279
1070
     0
1070
   288
1070
     1
1002
}
  0
DIMENSION
  5
7C13
  8
3
  6
CONTINUOUS
  2
*D17
 10
8323.9832100040403
 20
7378.7541340000007
 30
0.0
 11
8033.4364750040431
 21
7378.7541340000007
 31
0.0
 70
   128
 13
7795.9832100040421
 23
7289.4679840000008
 33
0.0
 14
8323.9832100040403
 24
6680.1889609999998
 34
0.0
1001
ACAD
1000
DSTYLE
1002
{
1070
   287
1070
     4
1070
   287
1070
     4
1070
    40
1040
45.0
1070
    75
1070
     1
1070
   143
1040
0.039
1070
   172
1070
     1
1070
   271
1070
     0
1070
   279
1070
     1
1070
   288
1070
     1
1002
}
  0
DIMENSION
  5
7C68
  8
3
  6
CONTINUOUS
  2
*D18
 10
2318.0785058281681
 20
6070.1889609999998
 30
0.0
 11
2318.0785058281681
 21
5451.6574629999996
 31
0.0
 70
   128
 13
2869.5893260040421
 23
4872.1889609999989
 33
0.0
 14
2962.8985870040419
 24
6070.1889609999998
 34
0.0
 50
90.0
1001
ACAD
1000
DSTYLE
1002
{
1070
   287
1070
     3
1070
   287
1070
     3
1070
    40
1040
45.0
1070
   143
1040
0.039
1070
   172
1070
     1
1070
   271
1070
     0
1070
   279
1070
     0
1070
   288
1070
     1
1002
}
  0
DIMENSION
  5
7CE7
  8
3
  2
*D19
 10
5329.5893260040421
 20
7376.7474018432413
 30
0.0
 11
4126.244589829701
 21
7376.7474018432413
 31
0.0
 70
   128
 13
2869.5893260040421
 23
6075.1889609999998
 33
0.0
 14
5329.5893260040421
 24
4840.1889609999989
 34
0.0
1001
ACAD
1000
DSTYLE
1002
{
1070
   287
1070
     3
1070
   287
1070
     3
1070
    40
1040
45.0
1070
   143
1040
0.039
1070
   172
1070
     1
1070
   271
1070
     0
1070
   279
1070
     0
1070
   288
1070
     1
1002
}
  0
ENDSEC
  0
EOF
