  0
SECTION
  2
HEADER
  9
$ACADVER
  1
AC1009
  9
$INSBASE
 10
0.0
 20
0.0
 30
0.0
  9
$EXTMIN
 10
1250.0
 20
1500.0
 30
0.0
  9
$EXTMAX
 10
9250.0
 20
13933.261307999999
 30
0.0
  9
$LIMMIN
 10
0.0
 20
0.0
  9
$LIMMAX
 10
297.0
 20
210.0
  9
$ORTHOMODE
 70
     0
  9
$REGENMODE
 70
     1
  9
$FILLMODE
 70
     0
  9
$QTEXTMODE
 70
     0
  9
$MIRRTEXT
 70
     1
  9
$DRAGMODE
 70
     2
  9
$LTSCALE
 40
100.0
  9
$OSMODE
 70
    37
  9
$ATTMODE
 70
     1
  9
$TEXTSIZE
 40
180.0
  9
$TRACEWID
 40
0.05
  9
$TEXTSTYLE
  7
STANDARD
  9
$CLAYER
  8
3
  9
$CELTYPE
  6
BYLAYER
  9
$CECOLOR
 62
   256
  9
$DIMSCALE
 40
45.0
  9
$DIMASZ
 40
2.0
  9
$DIMEXO
 40
0.5
  9
$DIMDLI
 40
10.0
  9
$DIMRND
 40
0.0
  9
$DIMDLE
 40
0.0
  9
$DIMEXE
 40
1.0
  9
$DIMTP
 40
1.0
  9
$DIMTM
 40
1.0
  9
$DIMTXT
 40
3.0
  9
$DIMCEN
 40
0.0
  9
$DIMTSZ
 40
0.0
  9
$DIMTOL
 70
     0
  9
$DIMLIM
 70
     0
  9
$DIMTIH
 70
     0
  9
$DIMTOH
 70
     0
  9
$DIMSE1
 70
     0
  9
$DIMSE2
 70
     0
  9
$DIMTAD
 70
     1
  9
$DIMZIN
 70
     8
  9
$DIMBLK
  1

  9
$DIMASO
 70
     1
  9
$DIMSHO
 70
     1
  9
$DIMPOST
  1

  9
$DIMAPOST
  1

  9
$DIMALT
 70
     0
  9
$DIMALTD
 70
     2
  9
$DIMALTF
 40
0.039
  9
$DIMLFAC
 40
1.0
  9
$DIMTOFL
 70
     1
  9
$DIMTVP
 40
0.0
  9
$DIMTIX
 70
     0
  9
$DIMSOXD
 70
     0
  9
$DIMSAH
 70
     1
  9
$DIMBLK1
  1
OPEN
  9
$DIMBLK2
  1
OPEN
  9
$DIMSTYLE
  2
IGA
  9
$DIMCLRD
 70
     0
  9
$DIMCLRE
 70
     0
  9
$DIMCLRT
 70
     0
  9
$DIMTFAC
 40
10.0
  9
$DIMGAP
 40
1.0
  9
$LUNITS
 70
     2
  9
$LUPREC
 70
     3
  9
$SKETCHINC
 40
0.1
  9
$FILLETRAD
 40
50.0
  9
$AUNITS
 70
     0
  9
$AUPREC
 70
     0
  9
$MENU
  1
acad
  9
$ELEVATION
 40
0.0
  9
$PELEVATION
 40
0.0
  9
$THICKNESS
 40
0.0
  9
$LIMCHECK
 70
     0
  9
$BLIPMODE
 70
     0
  9
$CHAMFERA
 40
0.5
  9
$CHAMFERB
 40
0.5
  9
$SKPOLY
 70
     0
  9
$TDCREATE
 40
2450751.3779114578
  9
$TDUPDATE
 40
2454953.687732928
  9
$TDINDWG
 40
0.0036318287
  9
$TDUSRTIMER
 40
0.0036318287
  9
$USRTIMER
 70
     1
  9
$ANGBASE
 50
0.0
  9
$ANGDIR
 70
     0
  9
$PDMODE
 70
     0
  9
$PDSIZE
 40
0.0
  9
$PLINEWID
 40
0.0
  9
$COORDS
 70
     1
  9
$SPLFRAME
 70
     0
  9
$SPLINETYPE
 70
     6
  9
$SPLINESEGS
 70
     8
  9
$ATTDIA
 70
     0
  9
$ATTREQ
 70
     1
  9
$HANDLING
 70
 10241
  9
$HANDSEED
  5
7EB3
  9
$SURFTAB1
 70
     6
  9
$SURFTAB2
 70
     6
  9
$SURFTYPE
 70
     6
  9
$SURFU
 70
     6
  9
$SURFV
 70
     6
  9
$UCSNAME
  2

  9
$UCSORG
 10
0.0
 20
0.0
 30
0.0
  9
$UCSXDIR
 10
1.0
 20
0.0
 30
0.0
  9
$UCSYDIR
 10
0.0
 20
1.0
 30
0.0
  9
$PUCSNAME
  2

  9
$PUCSORG
 10
0.0
 20
0.0
 30
0.0
  9
$PUCSXDIR
 10
1.0
 20
0.0
 30
0.0
  9
$PUCSYDIR
 10
0.0
 20
1.0
 30
0.0
  9
$USERI1
 70
     0
  9
$USERI2
 70
     0
  9
$USERI3
 70
     0
  9
$USERI4
 70
     0
  9
$USERI5
 70
     0
  9
$USERR1
 40
0.0
  9
$USERR2
 40
0.0
  9
$USERR3
 40
0.0
  9
$USERR4
 40
0.0
  9
$USERR5
 40
0.0
  9
$WORLDVIEW
 70
     1
  9
$SHADEDGE
 70
     3
  9
$SHADEDIF
 70
    70
  9
$TILEMODE
 70
     1
  9
$MAXACTVP
 70
    16
  9
$PLIMCHECK
 70
     0
  9
$PEXTMIN
 10
1.0000000000000000E+020
 20
1.0000000000000000E+020
 30
1.0000000000000000E+020
  9
$PEXTMAX
 10
-1.0000000000000000E+020
 20
-1.0000000000000000E+020
 30
-1.0000000000000000E+020
  9
$PLIMMIN
 10
0.0
 20
0.0
  9
$PLIMMAX
 10
12.0
 20
9.0
  9
$UNITMODE
 70
     0
  9
$VISRETAIN
 70
     0
  9
$PLINEGEN
 70
     0
  9
$PSLTSCALE
 70
     1
  0
ENDSEC
  0
SECTION
  2
TABLES
  0
TABLE
  2
VPORT
 70
     2
  0
VPORT
  2
*ACTIVE
 70
     0
 10
0.0
 20
0.0
 11
1.0
 21
1.0
 12
19597.976352099689
 22
6860.4116603247749
 13
0.0
 23
0.0
 14
10.0
 24
10.0
 15
10.0
 25
10.0
 16
0.0
 26
0.0
 36
1.0
 17
0.0
 27
0.0
 37
0.0
 40
16117.779930701339
 41
3.1666666666666661
 42
50.0
 43
0.0
 44
0.0
 50
0.0
 51
0.0
 71
     0
 72
   100
 73
     1
 74
     0
 75
     0
 76
     0
 77
     0
 78
     0
  0
ENDTAB
  0
TABLE
  2
LTYPE
 70
     2
  0
LTYPE
  2
CONTINUOUS
 70
     0
  3
Solid line
 72
    65
 73
     0
 40
0.0
  0
LTYPE
  2
CENTER
 70
     0
  3
____ _ ____ _ ____ _ ____ _ ____ _ ____ _ ____ 
 72
    65
 73
     4
 40
2.0
 49
1.25
 49
-0.25
 49
0.25
 49
-0.25
  0
ENDTAB
  0
TABLE
  2
LAYER
 70
     6
  0
LAYER
  2
0
 70
     0
 62
     7
  6
CONTINUOUS
  0
LAYER
  2
3
 70
     0
 62
     2
  6
CONTINUOUS
  0
LAYER
  2
2
 70
     0
 62
     3
  6
CENTER
  0
LAYER
  2
1
 70
     0
 62
     4
  6
CONTINUOUS
  0
LAYER
  2
4
 70
     0
 62
     7
  6
CONTINUOUS
  0
LAYER
  2
DEFPOINTS
 70
     0
 62
     7
  6
CONTINUOUS
  0
ENDTAB
  0
TABLE
  2
STYLE
 70
     1
  0
STYLE
  2
STANDARD
 70
     0
 40
0.0
 41
1.0
 50
0.0
 71
     0
 42
180.0
  3
simplex.shx
  4
extfont.shx
  0
ENDTAB
  0
TABLE
  2
VIEW
 70
     0
  0
ENDTAB
  0
TABLE
  2
UCS
 70
     0
  0
ENDTAB
  0
TABLE
  2
APPID
 70
     1
  0
APPID
  2
ACAD
 70
     0
  0
ENDTAB
  0
TABLE
  2
DIMSTYLE
 70
     1
  0
DIMSTYLE
  2
IGA
 70
     0
  3

  4

  5

  6
OPEN
  7
OPEN
 40
2.0
 41
2.0
 42
0.5
 43
10.0
 44
1.0
 45
0.0
 46
0.0
 47
1.0
 48
1.0
140
3.0
141
0.0
142
0.0
143
0.03937
144
1.0
145
0.0
146
10.0
147
1.0
 71
     0
 72
     0
 73
     0
 74
     0
 75
     0
 76
     0
 77
     1
 78
     8
170
     0
171
     2
172
     0
173
     1
174
     0
175
     0
176
     0
177
     0
178
     0
  0
ENDTAB
  0
ENDSEC
  0
SECTION
  2
BLOCKS
  0
BLOCK
  8
0
  2
$MODEL_SPACE
 70
     0
 10
0.0
 20
0.0
 30
0.0
  3
$MODEL_SPACE
  1

  0
ENDBLK
  5
1B
  8
0
  0
BLOCK
 67
     1
  8
0
  2
$PAPER_SPACE
 70
     0
 10
0.0
 20
0.0
 30
0.0
  3
$PAPER_SPACE
  1

  0
ENDBLK
  5
18
 67
     1
  8
0
  0
BLOCK
  8
0
  2
_OPEN
 70
     0
 10
0.0
 20
0.0
 30
0.0
  3
_OPEN
  1

  0
LINE
  5
7AE0
  8
0
  6
BYBLOCK
 62
     0
 10
-1.0
 20
0.166667
 30
0.0
 11
0.0
 21
0.0
 31
0.0
  0
LINE
  5
7AE1
  8
0
  6
BYBLOCK
 62
     0
 10
0.0
 20
0.0
 30
0.0
 11
-1.0
 21
-0.166667
 31
0.0
  0
LINE
  5
7AE2
  8
0
  6
BYBLOCK
 62
     0
 10
0.0
 20
0.0
 30
0.0
 11
-1.0
 21
0.0
 31
0.0
  0
ENDBLK
  5
7AE3
  8
0
  0
BLOCK
  8
0
  2
*D1
 70
     1
 10
0.0
 20
0.0
 30
0.0
  3
*D1
  1

  0
LINE
  5
7DF7
  8
3
  6
CONTINUOUS
 62
     0
 10
1953.063435
 20
4199.9504720000004
 30
0.0
 11
1953.063435
 21
3839.8976779999998
 31
0.0
  0
LINE
  5
7DF8
  8
3
  6
CONTINUOUS
 62
     0
 10
3653.0634349999991
 20
4101.6007950000003
 30
0.0
 11
3653.0634349999991
 21
3839.8976779999998
 31
0.0
  0
LINE
  5
7DF9
  8
3
  6
CONTINUOUS
 62
     0
 10
2043.063435
 20
3884.8976779999998
 30
0.0
 11
3563.063435
 21
3884.8976779999998
 31
0.0
  0
INSERT
  5
7DFA
  8
3
  6
CONTINUOUS
 62
     0
  2
_OPEN
 10
1953.063435
 20
3884.8976779999998
 30
0.0
 41
90.0
 42
90.0
 43
90.0
 50
180.0
  0
INSERT
  5
7DFB
  8
3
  6
CONTINUOUS
 62
     0
  2
_OPEN
 10
3653.0634349999991
 20
3884.8976779999998
 30
0.0
 41
90.0
 42
90.0
 43
90.0
  0
TEXT
  8
3
  40
135
  5
7E9F
  62
0
  72
0
  71
0
 10
2590.07
 20
3758.45
 30
0.000000
  1
1700
  0
POINT
  5
7DFD
  8
DEFPOINTS
  6
CONTINUOUS
 62
     0
 10
1953.063435
 20
4222.4504720000004
 30
0.0
  0
POINT
  5
7DFE
  8
DEFPOINTS
  6
CONTINUOUS
 62
     0
 10
3653.0634349999991
 20
4124.1007950000003
 30
0.0
  0
POINT
  5
7DFF
  8
DEFPOINTS
  6
CONTINUOUS
 62
     0
 10
3653.0634349999991
 20
3884.8976779999998
 30
0.0
  0
ENDBLK
  5
7AF0
  8
0
  0
BLOCK
  8
0
  2
*D2
 70
     1
 10
0.0
 20
0.0
 30
0.0
  3
*D2
  1

  0
LINE
  5
7E00
  8
3
  6
CONTINUOUS
 62
     0
 10
4313.063435
 20
4199.9504720000004
 30
0.0
 11
4313.063435
 21
3839.8976779999998
 31
0.0
  0
LINE
  5
7E01
  8
3
  6
CONTINUOUS
 62
     0
 10
3743.0634349999991
 20
3884.8976779999998
 30
0.0
 11
4223.063435
 21
3884.8976779999998
 31
0.0
  0
INSERT
  5
7E02
  8
3
  6
CONTINUOUS
 62
     0
  2
_OPEN
 10
3653.0634349999991
 20
3884.8976779999998
 30
0.0
 41
90.0
 42
90.0
 43
90.0
 50
180.0
  0
INSERT
  5
7E03
  8
3
  6
CONTINUOUS
 62
     0
  2
_OPEN
 10
4313.063435
 20
3884.8976779999998
 30
0.0
 41
90.0
 42
90.0
 43
90.0
  0
TEXT
  8
3
  40
135
  5
7EA0
  62
0
  72
0
  71
0
 10
3713.06
 20
3758.45
 30
0.000000
  1
660
  0
POINT
  5
7E05
  8
DEFPOINTS
  6
CONTINUOUS
 62
     0
 10
3653.0634349999991
 20
4124.1007950000003
 30
0.0
  0
POINT
  5
7E06
  8
DEFPOINTS
  6
CONTINUOUS
 62
     0
 10
4313.063435
 20
4222.4504720000004
 30
0.0
  0
POINT
  5
7E07
  8
DEFPOINTS
  6
CONTINUOUS
 62
     0
 10
4313.063435
 20
3884.8976779999998
 30
0.0
  0
ENDBLK
  5
7AFC
  8
0
  0
BLOCK
  8
0
  2
*D3
 70
     1
 10
0.0
 20
0.0
 30
0.0
  3
*D3
  1

  0
LINE
  5
7E08
  8
3
  6
CONTINUOUS
 62
     0
 10
4435.563435
 20
5613.4504720000004
 30
0.0
 11
4853.4429209999998
 21
5613.4504720000004
 31
0.0
  0
LINE
  5
7E09
  8
3
  6
CONTINUOUS
 62
     0
 10
4435.563435
 20
4463.4504719999986
 30
0.0
 11
4853.4429209999998
 21
4463.4504719999986
 31
0.0
  0
LINE
  5
7E0A
  8
3
  6
CONTINUOUS
 62
     0
 10
4808.4429210000008
 20
5523.4504720000004
 30
0.0
 11
4808.4429210000008
 21
4553.4504719999986
 31
0.0
  0
INSERT
  5
7E0B
  8
3
  6
CONTINUOUS
 62
     0
  2
_OPEN
 10
4808.4429210000008
 20
5613.4504720000004
 30
0.0
 41
90.0
 42
90.0
 43
90.0
 50
90.0
  0
INSERT
  5
7E0C
  8
3
  6
CONTINUOUS
 62
     0
  2
_OPEN
 10
4808.4429210000008
 20
4463.4504719999986
 30
0.0
 41
90.0
 42
90.0
 43
90.0
 50
270.0
  0
TEXT
  8
3
  40
135
  5
7EA1
  62
0
  72
0
  71
0
 10
4425.94
 20
4803.53
 30
0.000000
  1
1150
  0
POINT
  5
7E0E
  8
DEFPOINTS
  6
CONTINUOUS
 62
     0
 10
4413.063435
 20
5613.4504720000004
 30
0.0
  0
POINT
  5
7E0F
  8
DEFPOINTS
  6
CONTINUOUS
 62
     0
 10
4413.063435
 20
4463.4504719999986
 30
0.0
  0
POINT
  5
7E10
  8
DEFPOINTS
  6
CONTINUOUS
 62
     0
 10
4808.4429210000008
 20
4463.4504719999986
 30
0.0
  0
ENDBLK
  5
7B09
  8
0
  0
BLOCK
  8
0
  2
*D4
 70
     1
 10
0.0
 20
0.0
 30
0.0
  3
*D4
  1

  0
LINE
  5
7E11
  8
3
  6
CONTINUOUS
 62
     0
 10
3675.563435
 20
6466.4504720000004
 30
0.0
 11
5465.3851300000006
 21
6466.4504720000004
 31
0.0
  0
LINE
  5
7E12
  8
3
  6
CONTINUOUS
 62
     0
 10
4342.2541739999997
 20
5661.4504720000004
 30
0.0
 11
5465.3851300000006
 21
5661.4504720000004
 31
0.0
  0
LINE
  5
7E13
  8
3
  6
CONTINUOUS
 62
     0
 10
5420.3851300000024
 20
6376.4504720000004
 30
0.0
 11
5420.3851299999997
 21
5751.4504720000004
 31
0.0
  0
INSERT
  5
7E14
  8
3
  6
CONTINUOUS
 62
     0
  2
_OPEN
 10
5420.3851300000024
 20
6466.4504720000004
 30
0.0
 41
90.0
 42
90.0
 43
90.0
 50
90.0
  0
INSERT
  5
7E15
  8
3
  6
CONTINUOUS
 62
     0
  2
_OPEN
 10
5420.3851299999997
 20
5661.4504720000004
 30
0.0
 41
90.0
 42
90.0
 43
90.0
 50
270.0
  0
TEXT
  8
3
  40
135
  5
7EA2
  62
0
  72
0
  71
0
 10
5037.89
 20
5841.53
 30
0.000000
  1
805
  0
POINT
  5
7E17
  8
DEFPOINTS
  6
CONTINUOUS
 62
     0
 10
3653.0634349999991
 20
6466.4504720000004
 30
0.0
  0
POINT
  5
7E18
  8
DEFPOINTS
  6
CONTINUOUS
 62
     0
 10
4319.7541739999997
 20
5661.4504720000004
 30
0.0
  0
POINT
  5
7E19
  8
DEFPOINTS
  6
CONTINUOUS
 62
     0
 10
5420.3851299999997
 20
5661.4504720000004
 30
0.0
  0
ENDBLK
  5
7CFE
  8
0
  0
BLOCK
  8
0
  2
*D5
 70
     1
 10
0.0
 20
0.0
 30
0.0
  3
*D5
  1

  0
LINE
  5
7E1A
  8
3
  6
CONTINUOUS
 62
     0
 10
4335.563435
 20
4306.4504719999986
 30
0.0
 11
5465.3851299999997
 21
4306.4504719999986
 31
0.0
  0
LINE
  5
7E1B
  8
3
  6
CONTINUOUS
 62
     0
 10
5420.3851299999988
 20
5571.4504719999986
 30
0.0
 11
5420.3851299999988
 21
4396.4504719999986
 31
0.0
  0
INSERT
  5
7E1C
  8
3
  6
CONTINUOUS
 62
     0
  2
_OPEN
 10
5420.3851299999988
 20
5661.4504720000004
 30
0.0
 41
90.0
 42
90.0
 43
90.0
 50
90.0
  0
INSERT
  5
7E1D
  8
3
  6
CONTINUOUS
 62
     0
  2
_OPEN
 10
5420.3851299999988
 20
4306.4504719999986
 30
0.0
 41
90.0
 42
90.0
 43
90.0
 50
270.0
  0
TEXT
  8
3
  40
135
  5
7EA3
  62
0
  72
0
  71
0
 10
5037.89
 20
4745.00
 30
0.000000
  1
1355
  0
POINT
  5
7E1F
  8
DEFPOINTS
  6
CONTINUOUS
 62
     0
 10
4319.7541739999997
 20
5661.4504720000004
 30
0.0
  0
POINT
  5
7E20
  8
DEFPOINTS
  6
CONTINUOUS
 62
     0
 10
4313.063435
 20
4306.4504719999986
 30
0.0
  0
POINT
  5
7E21
  8
DEFPOINTS
  6
CONTINUOUS
 62
     0
 10
5420.3851299999988
 20
4306.4504719999986
 30
0.0
  0
ENDBLK
  5
7C60
  8
0
  0
BLOCK
  8
0
  2
*D6
 70
     1
 10
0.0
 20
0.0
 30
0.0
  3
*D6
  1

  0
LINE
  5
7E22
  8
3
  6
CONTINUOUS
 62
     0
 10
4335.563435
 20
4306.4504719999986
 30
0.0
 11
5465.3851300000006
 21
4306.4504719999986
 31
0.0
  0
LINE
  5
7E23
  8
3
  6
CONTINUOUS
 62
     0
 10
4335.563435
 20
4222.4504720000004
 30
0.0
 11
5465.3851300000006
 21
4222.4504720000004
 31
0.0
  0
LINE
  5
7E24
  8
3
  6
CONTINUOUS
 62
     0
 10
5420.3851299999997
 20
4396.4504719999986
 30
0.0
 11
5420.3851299999997
 21
4486.4504720000004
 31
0.0
  0
LINE
  5
7E25
  8
3
  6
CONTINUOUS
 62
     0
 10
5420.3851299999997
 20
4132.4504719999986
 30
0.0
 11
5420.3851299999997
 21
3727.4504719999991
 31
0.0
  0
LINE
  5
7E26
  8
3
  6
CONTINUOUS
 62
     0
 10
5420.3851299999997
 20
4306.4504719999986
 30
0.0
 11
5420.3851299999997
 21
4222.4504720000004
 31
0.0
  0
INSERT
  5
7E27
  8
3
  6
CONTINUOUS
 62
     0
  2
_OPEN
 10
5420.3851299999997
 20
4306.4504719999986
 30
0.0
 41
90.0
 42
90.0
 43
90.0
 50
270.0
  0
INSERT
  5
7E28
  8
3
  6
CONTINUOUS
 62
     0
  2
_OPEN
 10
5420.3851299999997
 20
4222.4504720000004
 30
0.0
 41
90.0
 42
90.0
 43
90.0
 50
90.0
  0
TEXT
  8
3
  40
135
  5
7EA4
  62
0
  72
0
  71
0
 10
5037.89
 20
3646.00
 30
0.000000
  1
84
  0
POINT
  5
7E2A
  8
DEFPOINTS
  6
CONTINUOUS
 62
     0
 10
4313.063435
 20
4306.4504719999986
 30
0.0
  0
POINT
  5
7E2B
  8
DEFPOINTS
  6
CONTINUOUS
 62
     0
 10
4313.063435
 20
4222.4504720000004
 30
0.0
  0
POINT
  5
7E2C
  8
DEFPOINTS
  6
CONTINUOUS
 62
     0
 10
5420.3851299999997
 20
4222.4504720000004
 30
0.0
  0
ENDBLK
  5
7CD7
  8
0
  0
BLOCK
  8
0
  2
*D7
 70
     1
 10
0.0
 20
0.0
 30
0.0
  3
*D7
  1

  0
LINE
  5
7E2D
  8
3
  6
CONTINUOUS
 62
     0
 10
3675.563435
 20
6466.4504720000004
 30
0.0
 11
5796.4809910000013
 21
6466.4504720000004
 31
0.0
  0
LINE
  5
7E2E
  8
3
  6
CONTINUOUS
 62
     0
 10
4335.563435
 20
4222.4504720000004
 30
0.0
 11
5796.4809910000013
 21
4222.4504720000004
 31
0.0
  0
LINE
  5
7E2F
  8
3
  6
CONTINUOUS
 62
     0
 10
5751.4809910000013
 20
6376.4504720000004
 30
0.0
 11
5751.4809910000013
 21
4312.4504720000004
 31
0.0
  0
INSERT
  5
7E30
  8
3
  6
CONTINUOUS
 62
     0
  2
_OPEN
 10
5751.4809910000013
 20
6466.4504720000004
 30
0.0
 41
90.0
 42
90.0
 43
90.0
 50
90.0
  0
INSERT
  5
7E31
  8
3
  6
CONTINUOUS
 62
     0
  2
_OPEN
 10
5751.4809910000013
 20
4222.4504720000004
 30
0.0
 41
90.0
 42
90.0
 43
90.0
 50
270.0
  0
TEXT
  8
3
  40
135
  5
7EA5
  62
0
  72
0
  71
0
 10
5368.98
 20
5230.31
 30
0.000000
  1
2244
  0
POINT
  5
7E33
  8
DEFPOINTS
  6
CONTINUOUS
 62
     0
 10
3653.0634349999991
 20
6466.4504720000004
 30
0.0
  0
POINT
  5
7E34
  8
DEFPOINTS
  6
CONTINUOUS
 62
     0
 10
4313.063435
 20
4222.4504720000004
 30
0.0
  0
POINT
  5
7E35
  8
DEFPOINTS
  6
CONTINUOUS
 62
     0
 10
5751.4809910000013
 20
4222.4504720000004
 30
0.0
  0
ENDBLK
  5
7CF3
  8
0
  0
BLOCK
  8
0
  2
*D8
 70
     1
 10
0.0
 20
0.0
 30
0.0
  3
*D8
  1

  0
LINE
  5
7E36
  8
3
  6
CONTINUOUS
 62
     0
 10
2684.063435
 20
5683.9504719999986
 30
0.0
 11
2684.063435
 21
6671.8421809999991
 31
0.0
  0
LINE
  5
7E37
  8
3
  6
CONTINUOUS
 62
     0
 10
3653.0634349999991
 20
6488.369326
 30
0.0
 11
3653.0634349999991
 21
6671.8421809999991
 31
0.0
  0
LINE
  5
7E38
  8
3
  6
CONTINUOUS
 62
     0
 10
2774.063435
 20
6626.842181
 30
0.0
 11
3563.063435
 21
6626.842181
 31
0.0
  0
INSERT
  5
7E39
  8
3
  6
CONTINUOUS
 62
     0
  2
_OPEN
 10
2684.063435
 20
6626.842181
 30
0.0
 41
90.0
 42
90.0
 43
90.0
 50
180.0
  0
INSERT
  5
7E3A
  8
3
  6
CONTINUOUS
 62
     0
  2
_OPEN
 10
3653.0634349999991
 20
6626.842181
 30
0.0
 41
90.0
 42
90.0
 43
90.0
  0
TEXT
  8
3
  40
135
  5
7EA6
  62
0
  72
0
  71
0
 10
2924.35
 20
6500.39
 30
0.000000
  1
969
  0
POINT
  5
7E3C
  8
DEFPOINTS
  6
CONTINUOUS
 62
     0
 10
2684.063435
 20
5661.4504720000004
 30
0.0
  0
POINT
  5
7E3D
  8
DEFPOINTS
  6
CONTINUOUS
 62
     0
 10
3653.0634349999991
 20
6465.869326
 30
0.0
  0
POINT
  5
7E3E
  8
DEFPOINTS
  6
CONTINUOUS
 62
     0
 10
3653.0634349999991
 20
6626.842181
 30
0.0
  0
ENDBLK
  5
7CE3
  8
0
  0
BLOCK
  8
0
  2
*D9
 70
     1
 10
0.0
 20
0.0
 30
0.0
  3
*D9
  1

  0
LINE
  5
7E3F
  8
3
  6
CONTINUOUS
 62
     0
 10
4413.063435
 20
5688.9504720000004
 30
0.0
 11
4413.063435
 21
6671.8421809999991
 31
0.0
  0
LINE
  5
7E40
  8
3
  6
CONTINUOUS
 62
     0
 10
3743.0634349999991
 20
6626.842181
 30
0.0
 11
4323.063435
 21
6626.842181
 31
0.0
  0
INSERT
  5
7E41
  8
3
  6
CONTINUOUS
 62
     0
  2
_OPEN
 10
3653.0634349999991
 20
6626.842181
 30
0.0
 41
90.0
 42
90.0
 43
90.0
 50
180.0
  0
INSERT
  5
7E42
  8
3
  6
CONTINUOUS
 62
     0
  2
_OPEN
 10
4413.063435
 20
6626.842181
 30
0.0
 41
90.0
 42
90.0
 43
90.0
  0
TEXT
  8
3
  40
135
  5
7EA7
  62
0
  72
0
  71
0
 10
3763.06
 20
6500.39
 30
0.000000
  1
760
  0
POINT
  5
7E44
  8
DEFPOINTS
  6
CONTINUOUS
 62
     0
 10
3653.0634349999991
 20
6465.869326
 30
0.0
  0
POINT
  5
7E45
  8
DEFPOINTS
  6
CONTINUOUS
 62
     0
 10
4413.063435
 20
5666.4504720000004
 30
0.0
  0
POINT
  5
7E46
  8
DEFPOINTS
  6
CONTINUOUS
 62
     0
 10
4413.063435
 20
6626.842181
 30
0.0
  0
ENDBLK
  5
7B7F
  8
0
  0
BLOCK
  8
0
  2
*D10
 70
     1
 10
0.0
 20
0.0
 30
0.0
  3
*D10
  1

  0
LINE
  5
7E47
  8
3
  6
CONTINUOUS
 62
     0
 10
1953.063435
 20
8950.6528750000016
 30
0.0
 11
1953.063435
 21
8378.1958780000004
 31
0.0
  0
LINE
  5
7E48
  8
3
  6
CONTINUOUS
 62
     0
 10
4313.063435
 20
8950.6528750000016
 30
0.0
 11
4313.063435
 21
8378.1958780000004
 31
0.0
  0
LINE
  5
7E49
  8
3
  6
CONTINUOUS
 62
     0
 10
2043.063435
 20
8423.1958779999986
 30
0.0
 11
4223.063435
 21
8423.1958779999986
 31
0.0
  0
INSERT
  5
7E4A
  8
3
  6
CONTINUOUS
 62
     0
  2
_OPEN
 10
1953.063435
 20
8423.1958779999986
 30
0.0
 41
90.0
 42
90.0
 43
90.0
 50
180.0
  0
INSERT
  5
7E4B
  8
3
  6
CONTINUOUS
 62
     0
  2
_OPEN
 10
4313.063435
 20
8423.1958779999986
 30
0.0
 41
90.0
 42
90.0
 43
90.0
  0
TEXT
  8
3
  40
135
  5
7EA8
  62
0
  72
0
  71
0
 10
2911.62
 20
8296.75
 30
0.000000
  1
2360
  0
POINT
  5
7E4D
  8
DEFPOINTS
  6
CONTINUOUS
 62
     0
 10
1953.063435
 20
8973.1528749999998
 30
0.0
  0
POINT
  5
7E4E
  8
DEFPOINTS
  6
CONTINUOUS
 62
     0
 10
4313.063435
 20
8973.1528749999998
 30
0.0
  0
POINT
  5
7E4F
  8
DEFPOINTS
  6
CONTINUOUS
 62
     0
 10
4313.063435
 20
8423.1958779999986
 30
0.0
  0
ENDBLK
  5
7B8D
  8
0
  0
BLOCK
  8
0
  2
*D11
 70
     1
 10
0.0
 20
0.0
 30
0.0
  3
*D11
  1

  0
LINE
  5
7E50
  8
3
  6
CONTINUOUS
 62
     0
 10
4335.563435
 20
10153.152874999991
 30
0.0
 11
4907.5643790000004
 21
10153.152874999991
 31
0.0
  0
LINE
  5
7E51
  8
3
  6
CONTINUOUS
 62
     0
 10
4335.563435
 20
8973.1528749999998
 30
0.0
 11
4907.5643790000004
 21
8973.1528749999998
 31
0.0
  0
LINE
  5
7E52
  8
3
  6
CONTINUOUS
 62
     0
 10
4862.5643790000013
 20
10063.152875
 30
0.0
 11
4862.5643790000013
 21
9063.1528749999998
 31
0.0
  0
INSERT
  5
7E53
  8
3
  6
CONTINUOUS
 62
     0
  2
_OPEN
 10
4862.5643790000013
 20
10153.152874999991
 30
0.0
 41
90.0
 42
90.0
 43
90.0
 50
90.0
  0
INSERT
  5
7E54
  8
3
  6
CONTINUOUS
 62
     0
  2
_OPEN
 10
4862.5643790000013
 20
8973.1528749999998
 30
0.0
 41
90.0
 42
90.0
 43
90.0
 50
270.0
  0
TEXT
  8
3
  40
135
  5
7EA9
  62
0
  72
0
  71
0
 10
4480.06
 20
9341.83
 30
0.000000
  1
1180
  0
POINT
  5
7E56
  8
DEFPOINTS
  6
CONTINUOUS
 62
     0
 10
4313.063435
 20
10153.152874999991
 30
0.0
  0
POINT
  5
7E57
  8
DEFPOINTS
  6
CONTINUOUS
 62
     0
 10
4313.063435
 20
8973.1528749999998
 30
0.0
  0
POINT
  5
7E58
  8
DEFPOINTS
  6
CONTINUOUS
 62
     0
 10
4862.5643790000013
 20
8973.1528749999998
 30
0.0
  0
ENDBLK
  5
7B9A
  8
0
  0
BLOCK
  8
0
  2
*D12
 70
     1
 10
0.0
 20
0.0
 30
0.0
  3
*D12
  1

  0
LINE
  5
7E59
  8
3
  6
CONTINUOUS
 62
     0
 10
6834.6842299999998
 20
4199.9504720000004
 30
0.0
 11
6834.6842299999998
 21
3823.9517340000002
 31
0.0
  0
LINE
  5
7E5A
  8
3
  6
CONTINUOUS
 62
     0
 10
7521.6842299999989
 20
4037.3236320000001
 30
0.0
 11
7521.6842299999989
 21
3823.9517340000002
 31
0.0
  0
LINE
  5
7E5B
  8
3
  6
CONTINUOUS
 62
     0
 10
6924.6842299999998
 20
3868.9517340000002
 30
0.0
 11
7431.6842300000008
 21
3868.9517340000002
 31
0.0
  0
INSERT
  5
7E5C
  8
3
  6
CONTINUOUS
 62
     0
  2
_OPEN
 10
6834.6842299999998
 20
3868.9517340000002
 30
0.0
 41
90.0
 42
90.0
 43
90.0
 50
180.0
  0
INSERT
  5
7E5D
  8
3
  6
CONTINUOUS
 62
     0
  2
_OPEN
 10
7521.6842299999989
 20
3868.9517340000002
 30
0.0
 41
90.0
 42
90.0
 43
90.0
  0
TEXT
  8
3
  40
135
  5
7EAA
  62
0
  72
0
  71
0
 10
6943.11
 20
3742.50
 30
0.000000
  1
687
  0
POINT
  5
7E5F
  8
DEFPOINTS
  6
CONTINUOUS
 62
     0
 10
6834.6842299999998
 20
4222.4504720000004
 30
0.0
  0
POINT
  5
7E60
  8
DEFPOINTS
  6
CONTINUOUS
 62
     0
 10
7521.6842299999989
 20
4059.8236320000001
 30
0.0
  0
POINT
  5
7E61
  8
DEFPOINTS
  6
CONTINUOUS
 62
     0
 10
7521.6842299999989
 20
3868.9517340000002
 30
0.0
  0
ENDBLK
  5
7BAA
  8
0
  0
BLOCK
  8
0
  2
*D13
 70
     1
 10
0.0
 20
0.0
 30
0.0
  3
*D13
  1

  0
LINE
  5
7E62
  8
3
  6
CONTINUOUS
 62
     0
 10
8014.6842299999998
 20
4199.9504720000004
 30
0.0
 11
8014.6842299999998
 21
3823.9517340000002
 31
0.0
  0
LINE
  5
7E63
  8
3
  6
CONTINUOUS
 62
     0
 10
7611.6842299999998
 20
3868.9517340000002
 30
0.0
 11
7924.6842299999998
 21
3868.9517340000002
 31
0.0
  0
TEXT
  8
3
  40
135
  5
7EAB
  62
0
  72
0
  71
0
 10
7491.26
 20
3741.18
 30
0.000000
  1
493
  0
INSERT
  5
7E65
  8
3
  6
CONTINUOUS
 62
     0
  2
_OPEN
 10
7521.6842299999989
 20
3868.9517340000002
 30
0.0
 41
90.0
 42
90.0
 43
90.0
 50
180.0
  0
INSERT
  5
7E66
  8
3
  6
CONTINUOUS
 62
     0
  2
_OPEN
 10
8014.6842299999998
 20
3868.9517340000002
 30
0.0
 41
90.0
 42
90.0
 43
90.0
  0
POINT
  5
7E67
  8
DEFPOINTS
  6
CONTINUOUS
 62
     0
 10
7521.6842299999989
 20
4059.8236320000001
 30
0.0
  0
POINT
  5
7E68
  8
DEFPOINTS
  6
CONTINUOUS
 62
     0
 10
8014.6842299999998
 20
4222.4504720000004
 30
0.0
  0
POINT
  5
7E69
  8
DEFPOINTS
  6
CONTINUOUS
 62
     0
 10
8014.6842299999998
 20
3868.9517340000002
 30
0.0
  0
ENDBLK
  5
7BCF
  8
0
  0
BLOCK
  8
0
  2
*D14
 70
     1
 10
0.0
 20
0.0
 30
0.0
  3
*D14
  1

  0
LINE
  5
7E6A
  8
3
  6
CONTINUOUS
 62
     0
 10
7096.6842299999998
 20
6492.1504720000003
 30
0.0
 11
7096.6842299999998
 21
6782.25846
 31
0.0
  0
LINE
  5
7E6B
  8
3
  6
CONTINUOUS
 62
     0
 10
7946.6842299999989
 20
6492.1504720000003
 30
0.0
 11
7946.6842299999989
 21
6782.25846
 31
0.0
  0
LINE
  5
7E6C
  8
3
  6
CONTINUOUS
 62
     0
 10
7186.6842299999998
 20
6737.2584599999991
 30
0.0
 11
7856.6842299999998
 21
6737.2584599999991
 31
0.0
  0
INSERT
  5
7E6D
  8
3
  6
CONTINUOUS
 62
     0
  2
_OPEN
 10
7096.6842299999998
 20
6737.2584599999991
 30
0.0
 41
90.0
 42
90.0
 43
90.0
 50
180.0
  0
INSERT
  5
7E6E
  8
3
  6
CONTINUOUS
 62
     0
  2
_OPEN
 10
7946.6842299999989
 20
6737.2584599999991
 30
0.0
 41
90.0
 42
90.0
 43
90.0
  0
TEXT
  8
3
  40
135
  5
7EAC
  62
0
  72
0
  71
0
 10
7199.41
 20
6610.81
 30
0.000000
  1
850
  0
POINT
  5
7E70
  8
DEFPOINTS
  6
CONTINUOUS
 62
     0
 10
7096.6842299999998
 20
6469.6504720000012
 30
0.0
  0
POINT
  5
7E71
  8
DEFPOINTS
  6
CONTINUOUS
 62
     0
 10
7946.6842299999989
 20
6469.6504720000012
 30
0.0
  0
POINT
  5
7E72
  8
DEFPOINTS
  6
CONTINUOUS
 62
     0
 10
7946.6842299999989
 20
6737.2584599999991
 30
0.0
  0
ENDBLK
  5
7BDB
  8
0
  0
BLOCK
  8
0
  2
*D15
 70
     1
 10
0.0
 20
0.0
 30
0.0
  3
*D15
  1

  0
LINE
  5
7E73
  8
3
  6
CONTINUOUS
 62
     0
 10
6761.6842299999998
 20
6061.9504719999986
 30
0.0
 11
6761.6842299999998
 21
7081.172106
 31
0.0
  0
LINE
  5
7E74
  8
3
  6
CONTINUOUS
 62
     0
 10
7521.6842299999989
 20
6984.143008
 30
0.0
 11
7521.6842299999989
 21
7081.172106
 31
0.0
  0
LINE
  5
7E75
  8
3
  6
CONTINUOUS
 62
     0
 10
6851.6842299999998
 20
7036.1721060000009
 30
0.0
 11
7431.6842300000008
 21
7036.1721060000009
 31
0.0
  0
INSERT
  5
7E76
  8
3
  6
CONTINUOUS
 62
     0
  2
_OPEN
 10
6761.6842299999998
 20
7036.1721060000009
 30
0.0
 41
90.0
 42
90.0
 43
90.0
 50
180.0
  0
INSERT
  5
7E77
  8
3
  6
CONTINUOUS
 62
     0
  2
_OPEN
 10
7521.6842299999989
 20
7036.1721060000009
 30
0.0
 41
90.0
 42
90.0
 43
90.0
  0
TEXT
  8
3
  40
135
  5
7EAD
  62
0
  72
0
  71
0
 10
6866.92
 20
7022.22
 30
0.000000
  1
MAX
  0
TEXT
  8
3
  40
135
  5
7EAE
  62
0
  72
0
  71
0
 10
6866.92
 20
6846.72
 30
0.000000
  1
850
  0
POINT
  5
7E79
  8
DEFPOINTS
  6
CONTINUOUS
 62
     0
 10
6761.6842299999998
 20
6039.4504719999986
 30
0.0
  0
POINT
  5
7E7A
  8
DEFPOINTS
  6
CONTINUOUS
 62
     0
 10
7521.6842299999989
 20
6961.643008
 30
0.0
  0
POINT
  5
7E7B
  8
DEFPOINTS
  6
CONTINUOUS
 62
     0
 10
7521.6842299999989
 20
7036.1721060000009
 30
0.0
  0
ENDBLK
  5
7CB2
  8
0
  0
BLOCK
  8
0
  2
*D16
 70
     1
 10
0.0
 20
0.0
 30
0.0
  3
*D16
  1

  0
LINE
  5
7E7C
  8
3
  6
CONTINUOUS
 62
     0
 10
8049.6842299999998
 20
6293.9504719999986
 30
0.0
 11
8049.6842299999998
 21
7081.172106
 31
0.0
  0
LINE
  5
7E7D
  8
3
  6
CONTINUOUS
 62
     0
 10
7611.6842299999998
 20
7036.1721060000009
 30
0.0
 11
7959.6842299999998
 21
7036.1721060000009
 31
0.0
  0
TEXT
  8
3
  40
135
  5
7EAF
  62
0
  72
0
  71
0
 10
7498.23
 20
6910.14
 30
0.000000
  1
528
  0
INSERT
  5
7E7F
  8
3
  6
CONTINUOUS
 62
     0
  2
_OPEN
 10
7521.6842299999989
 20
7036.1721060000009
 30
0.0
 41
90.0
 42
90.0
 43
90.0
 50
180.0
  0
INSERT
  5
7E80
  8
3
  6
CONTINUOUS
 62
     0
  2
_OPEN
 10
8049.6842299999998
 20
7036.1721060000009
 30
0.0
 41
90.0
 42
90.0
 43
90.0
  0
POINT
  5
7E81
  8
DEFPOINTS
  6
CONTINUOUS
 62
     0
 10
7521.6842299999989
 20
6961.643008
 30
0.0
  0
POINT
  5
7E82
  8
DEFPOINTS
  6
CONTINUOUS
 62
     0
 10
8049.6842299999998
 20
6271.4504719999986
 30
0.0
  0
POINT
  5
7E83
  8
DEFPOINTS
  6
CONTINUOUS
 62
     0
 10
8049.6842299999998
 20
7036.1721060000009
 30
0.0
  0
ENDBLK
  5
7C87
  8
0
  0
BLOCK
  8
0
  2
*D17
 70
     1
 10
0.0
 20
0.0
 30
0.0
  3
*D17
  1

  0
LINE
  5
7E84
  8
3
  6
CONTINUOUS
 62
     0
 10
8072.1842300000008
 20
6221.4504719999986
 30
0.0
 11
8440.3253870000026
 21
6221.4504719999986
 31
0.0
  0
LINE
  5
7E85
  8
3
  6
CONTINUOUS
 62
     0
 10
8072.1842300000008
 20
5101.4504719999986
 30
0.0
 11
8440.3253870000026
 21
5101.4504719999986
 31
0.0
  0
LINE
  5
7E86
  8
3
  6
CONTINUOUS
 62
     0
 10
8395.3253870000026
 20
6131.4504720000004
 30
0.0
 11
8395.3253870000026
 21
5191.4504719999986
 31
0.0
  0
INSERT
  5
7E87
  8
3
  6
CONTINUOUS
 62
     0
  2
_OPEN
 10
8395.3253870000026
 20
6221.4504719999986
 30
0.0
 41
90.0
 42
90.0
 43
90.0
 50
90.0
  0
INSERT
  5
7E88
  8
3
  6
CONTINUOUS
 62
     0
  2
_OPEN
 10
8395.3253870000026
 20
5101.4504719999986
 30
0.0
 41
90.0
 42
90.0
 43
90.0
 50
270.0
  0
TEXT
  8
3
  40
135
  5
7EB0
  62
0
  72
0
  71
0
 10
8012.83
 20
5458.63
 30
0.000000
  1
φ1120
  0
POINT
  5
7E8A
  8
DEFPOINTS
  6
CONTINUOUS
 62
     0
 10
8049.6842299999998
 20
6221.4504719999986
 30
0.0
  0
POINT
  5
7E8B
  8
DEFPOINTS
  6
CONTINUOUS
 62
     0
 10
8049.6842299999998
 20
5101.4504719999986
 30
0.0
  0
POINT
  5
7E8C
  8
DEFPOINTS
  6
CONTINUOUS
 62
     0
 10
8395.3253870000026
 20
5101.4504719999986
 30
0.0
  0
ENDBLK
  5
7CBD
  8
0
  0
BLOCK
  8
0
  2
*D18
 70
     1
 10
0.0
 20
0.0
 30
0.0
  3
*D18
  1

  0
LINE
  5
7E8D
  8
3
  6
CONTINUOUS
 62
     0
 10
4342.2541739999997
 20
5661.4504720000004
 30
0.0
 11
5175.8385580000004
 21
5661.4504720000004
 31
0.0
  0
LINE
  5
7E8E
  8
3
  6
CONTINUOUS
 62
     0
 10
4435.563435
 20
4463.4504719999986
 30
0.0
 11
5175.8385580000004
 21
4463.4504719999986
 31
0.0
  0
LINE
  5
7E8F
  8
3
  6
CONTINUOUS
 62
     0
 10
5130.8385580000004
 20
5571.4504719999986
 30
0.0
 11
5130.8385580000004
 21
4553.4504719999986
 31
0.0
  0
INSERT
  5
7E90
  8
3
  6
CONTINUOUS
 62
     0
  2
_OPEN
 10
5130.8385580000004
 20
5661.4504720000004
 30
0.0
 41
90.0
 42
90.0
 43
90.0
 50
90.0
  0
INSERT
  5
7E91
  8
3
  6
CONTINUOUS
 62
     0
  2
_OPEN
 10
5130.8385580000004
 20
4463.4504719999986
 30
0.0
 41
90.0
 42
90.0
 43
90.0
 50
270.0
  0
TEXT
  8
3
  40
135
  5
7EB1
  62
0
  72
0
  71
0
 10
4748.34
 20
4770.26
 30
0.000000
  1
1198
  0
POINT
  5
7E93
  8
DEFPOINTS
  6
CONTINUOUS
 62
     0
 10
4319.7541739999997
 20
5661.4504720000004
 30
0.0
  0
POINT
  5
7E94
  8
DEFPOINTS
  6
CONTINUOUS
 62
     0
 10
4413.063435
 20
4463.4504719999986
 30
0.0
  0
POINT
  5
7E95
  8
DEFPOINTS
  6
CONTINUOUS
 62
     0
 10
5130.8385580000004
 20
4463.4504719999986
 30
0.0
  0
ENDBLK
  5
7C77
  8
0
  0
BLOCK
  8
0
  2
*D19
 70
     1
 10
0.0
 20
0.0
 30
0.0
  3
*D19
  1

  0
LINE
  5
7E96
  8
3
 62
     0
 10
4413.063435
 20
5688.9504720000004
 30
0.0
 11
4413.063435
 21
6943.556162034376
 31
0.0
  0
LINE
  5
7E97
  8
3
 62
     0
 10
1953.0634349999989
 20
4453.9504719999986
 30
0.0
 11
1953.063435
 21
6943.556162034376
 31
0.0
  0
LINE
  5
7E98
  8
3
 62
     0
 10
4323.063435
 20
6898.556162034376
 30
0.0
 11
2043.063435
 21
6898.556162034376
 31
0.0
  0
INSERT
  5
7E99
  8
3
 62
     0
  2
_OPEN
 10
4413.063435
 20
6898.556162034376
 30
0.0
 41
90.0
 42
90.0
 43
90.0
  0
INSERT
  5
7E9A
  8
3
 62
     0
  2
_OPEN
 10
1953.063435
 20
6898.556162034376
 30
0.0
 41
90.0
 42
90.0
 43
90.0
 50
180.0
  0
TEXT
  8
3
  40
135
  5
7EB2
  62
0
  72
0
  71
0
 10
2905.66
 20
6772.11
 30
0.000000
  1
2460
  0
POINT
  5
7E9C
  8
DEFPOINTS
 62
     0
 10
4413.063435
 20
5666.4504720000004
 30
0.0
  0
POINT
  5
7E9D
  8
DEFPOINTS
 62
     0
 10
1953.0634349999989
 20
4431.4504719999986
 30
0.0
  0
POINT
  5
7E9E
  8
DEFPOINTS
 62
     0
 10
1953.063435
 20
6898.556162034376
 30
0.0
  0
ENDBLK
  5
7CC9
  8
0
  0
ENDSEC
  0
SECTION
  2
ENTITIES
  0
LINE
  5
7A70
  8
1
  6
CONTINUOUS
 10
7096.6842299999998
 20
5613.4504720000004
 30
0.0
 11
7946.6842299999989
 21
5613.4504720000004
 31
0.0
  0
LINE
  5
7A71
  8
1
  6
CONTINUOUS
 10
8014.6842299999998
 20
4431.4504719999986
 30
0.0
 11
6834.6842299999998
 21
4431.4504719999986
 31
0.0
  0
LINE
  5
7A72
  8
1
  6
CONTINUOUS
 10
8014.6842299999998
 20
4306.4504719999986
 30
0.0
 11
6834.6842299999998
 21
4306.4504719999986
 31
0.0
  0
LINE
  5
7A73
  8
1
  6
CONTINUOUS
 10
7096.6842299999998
 20
6469.6504720000012
 30
0.0
 11
7946.6842299999989
 21
6469.6504720000012
 31
0.0
  0
LINE
  5
7A74
  8
1
  6
CONTINUOUS
 10
7096.6842299999998
 20
4463.4504719999986
 30
0.0
 11
7946.6842299999989
 21
4463.4504719999986
 31
0.0
  0
LINE
  5
7A75
  8
1
  6
CONTINUOUS
 10
7096.6842299999998
 20
5613.4504720000004
 30
0.0
 11
7946.6842299999989
 21
4463.4504719999986
 31
0.0
  0
LINE
  5
7A76
  8
1
  6
CONTINUOUS
 10
7946.6842299999989
 20
5613.4504720000004
 30
0.0
 11
7096.6842299999998
 21
4463.4504719999986
 31
0.0
  0
LINE
  5
7A77
  8
1
  6
CONTINUOUS
 10
8014.6842299999998
 20
4222.4504720000004
 30
0.0
 11
6834.6842299999998
 21
4222.4504720000004
 31
0.0
  0
LINE
  5
7A78
  8
1
  6
CONTINUOUS
 10
8014.6842299999998
 20
4287.4504719999986
 30
0.0
 11
6834.6842299999998
 21
4287.4504719999986
 31
0.0
  0
CIRCLE
  5
7A79
  8
1
  6
CONTINUOUS
 10
3653.0634349999991
 20
5661.4504720000004
 30
0.0
 40
278.0
  0
CIRCLE
  5
7A7A
  8
1
  6
CONTINUOUS
 10
3653.0634349999991
 20
5661.4504720000004
 30
0.0
 40
610.0
  0
CIRCLE
  5
7A7B
  8
1
  6
CONTINUOUS
 10
3653.0634349999991
 20
5661.4504720000004
 30
0.0
 40
560.0
  0
LINE
  5
7A7C
  8
1
  6
CONTINUOUS
 10
4313.063435
 20
4431.4504719999986
 30
0.0
 11
1953.063435
 21
4431.4504719999986
 31
0.0
  0
LINE
  5
7A7D
  8
1
  6
CONTINUOUS
 10
4313.063435
 20
4306.4504719999986
 30
0.0
 11
1953.063435
 21
4306.4504719999986
 31
0.0
  0
ARC
  5
7A7E
  8
1
  6
CONTINUOUS
 10
3584.563435
 20
5729.9504719999986
 30
0.0
 40
739.10000000000002
 50
0.0
 51
84.900000000000006
  0
LINE
  5
7A7F
  8
1
  6
CONTINUOUS
 10
4413.063435
 20
4463.4504719999986
 30
0.0
 11
3653.0634349999991
 21
4528.4504719999986
 31
0.0
  0
ARC
  5
7A80
  8
1
  6
CONTINUOUS
 10
3653.0634349999991
 20
5661.4504720000004
 30
0.0
 40
378.0
 50
300.49999999999989
 51
131.1999999999999
  0
LINE
  5
7A81
  8
2
  6
CENTER
 10
2617.363355
 20
5661.4504720000004
 30
0.0
 11
4531.4685719999998
 21
5661.4504720000004
 31
0.0
  0
LINE
  5
7A82
  8
1
  6
CONTINUOUS
 10
4313.063435
 20
4222.4504720000004
 30
0.0
 11
1953.063435
 21
4222.4504720000004
 31
0.0
  0
LINE
  5
7A83
  8
1
  6
CONTINUOUS
 10
4313.063435
 20
4287.4504719999986
 30
0.0
 11
1953.063435
 21
4287.4504719999986
 31
0.0
  0
LINE
  5
7A84
  8
1
  6
CONTINUOUS
 10
2339.0634349999991
 20
4563.1504720000003
 30
0.0
 11
3794.3634350000002
 21
5422.0504719999999
 31
0.0
  0
LINE
  5
7A85
  8
1
  6
CONTINUOUS
 10
2389.8634350000002
 20
4476.9504719999986
 30
0.0
 11
3845.163434999999
 21
5335.9504720000004
 31
0.0
  0
LINE
  5
7A86
  8
1
  6
CONTINUOUS
 10
2133.0634349999991
 20
4831.8504720000001
 30
0.0
 11
3403.9634350000001
 21
5945.7504719999997
 31
0.0
  0
LINE
  5
7A87
  8
1
  6
CONTINUOUS
 10
2198.9634350000001
 20
4756.6504720000003
 30
0.0
 11
3469.8634350000002
 21
5870.5504719999999
 31
0.0
  0
ARC
  5
7A88
  8
1
  6
CONTINUOUS
 10
3571.063435
 20
5579.4504720000004
 30
0.0
 40
890.20000000000005
 50
84.900000000000006
 51
180.0
  0
ARC
  5
7A89
  8
1
  6
CONTINUOUS
 10
3735.063435
 20
5579.4504720000004
 30
0.0
 40
1054.2
 50
180.0
 51
265.5
  0
ARC
  5
7A8A
  8
1
  6
CONTINUOUS
 10
2278.0634349999991
 20
4666.4504720000004
 30
0.0
 40
220.0
 50
131.1999999999999
 51
300.49999999999989
  0
LINE
  5
7A8B
  8
1
  6
CONTINUOUS
 10
1953.063435
 20
4431.4504719999986
 30
0.0
 11
1953.063435
 21
4306.4504719999986
 31
0.0
  0
LINE
  5
7A8C
  8
1
  6
CONTINUOUS
 10
1953.063435
 20
4287.4504719999986
 30
0.0
 11
1953.063435
 21
4222.4504720000004
 31
0.0
  0
ARC
  5
7A8D
  8
1
  6
CONTINUOUS
 10
2278.0634349999991
 20
4666.4504720000004
 30
0.0
 40
199.0
 50
320.10000000000002
 51
219.90000000000001
  0
CIRCLE
  5
7A8E
  8
1
  6
CONTINUOUS
 10
2278.0634349999991
 20
4666.4504720000004
 30
0.0
 40
120.0
  0
LINE
  5
7A8F
  8
2
  6
CENTER
 10
2278.0634349999991
 20
4546.4504719999986
 30
0.0
 11
2278.0634349999991
 21
4786.4504720000004
 31
0.0
  0
LINE
  5
7A90
  8
1
  6
CONTINUOUS
 10
2053.0634349999991
 20
4486.4504720000004
 30
0.0
 11
2503.063435
 21
4486.4504720000004
 31
0.0
  0
LINE
  5
7A91
  8
1
  6
CONTINUOUS
 10
2053.0634349999991
 20
4431.4504719999986
 30
0.0
 11
2503.063435
 21
4431.4504719999986
 31
0.0
  0
LINE
  5
7A92
  8
1
  6
CONTINUOUS
 10
2116.063435
 20
4486.4504720000004
 30
0.0
 11
2116.063435
 21
4528.9504720000004
 31
0.0
  0
LINE
  5
7A93
  8
1
  6
CONTINUOUS
 10
2116.063435
 20
4528.9504720000004
 30
0.0
 11
2125.3634350000002
 21
4538.8504720000001
 31
0.0
  0
LINE
  5
7A94
  8
1
  6
CONTINUOUS
 10
2053.0634349999991
 20
4431.4504719999986
 30
0.0
 11
2053.0634349999991
 21
4486.4504720000004
 31
0.0
  0
LINE
  5
7A95
  8
1
  6
CONTINUOUS
 10
2440.063435
 20
4486.4504720000004
 30
0.0
 11
2440.063435
 21
4528.9504720000004
 31
0.0
  0
LINE
  5
7A96
  8
1
  6
CONTINUOUS
 10
2440.063435
 20
4528.9504720000004
 30
0.0
 11
2430.7634349999998
 21
4538.8504720000001
 31
0.0
  0
LINE
  5
7A97
  8
1
  6
CONTINUOUS
 10
2503.063435
 20
4431.4504719999986
 30
0.0
 11
2503.063435
 21
4486.4504720000004
 31
0.0
  0
LINE
  5
7A98
  8
2
  6
CENTER
 10
2158.063435
 20
4666.4504720000004
 30
0.0
 11
2398.063435
 21
4666.4504720000004
 31
0.0
  0
LINE
  5
7A99
  8
2
  6
CENTER
 10
3653.0634349999991
 20
10299.02602399999
 30
0.0
 11
3653.0634349999991
 21
8765.3893160000007
 31
0.0
  0
LINE
  5
7A9E
  8
1
  6
CONTINUOUS
 10
4373.063435
 20
5613.4504720000004
 30
0.0
 11
4373.063435
 21
4466.8504719999992
 31
0.0
  0
LINE
  5
7A9F
  8
1
  6
CONTINUOUS
 10
4413.063435
 20
5666.4504720000004
 30
0.0
 11
4413.063435
 21
4410.4504719999986
 31
0.0
  0
LINE
  5
7AA0
  8
1
  6
CONTINUOUS
 10
4313.063435
 20
4431.4504719999986
 30
0.0
 11
4313.063435
 21
4306.4504719999986
 31
0.0
  0
LINE
  5
7AA1
  8
1
  6
CONTINUOUS
 10
4313.063435
 20
4287.4504719999986
 30
0.0
 11
4313.063435
 21
4222.4504720000004
 31
0.0
  0
ARC
  5
7AA2
  8
1
  6
CONTINUOUS
 10
3721.563435
 20
5729.9504719999986
 30
0.0
 40
602.10000000000002
 50
348.7999999999999
 51
0.0
  0
LINE
  5
7AA3
  8
1
  6
CONTINUOUS
 10
4312.2634349999998
 20
5613.4504720000004
 30
0.0
 11
4413.063435
 21
5613.4504720000004
 31
0.0
  0
LINE
  5
7AA4
  8
1
  6
CONTINUOUS
 10
7096.6842299999998
 20
4431.4504719999986
 30
0.0
 11
7096.6842299999998
 21
6469.6504720000012
 31
0.0
  0
LINE
  5
7AA5
  8
1
  6
CONTINUOUS
 10
6761.6842299999998
 20
4446.4504719999986
 30
0.0
 11
6761.6842299999998
 21
6039.4504719999986
 31
0.0
  0
LINE
  5
7AA6
  8
1
  6
CONTINUOUS
 10
7021.6842299999989
 20
4446.4504719999986
 30
0.0
 11
7021.6842299999989
 21
6039.4504719999986
 31
0.0
  0
LINE
  5
7AA7
  8
1
  6
CONTINUOUS
 10
6851.6842299999998
 20
5939.4504719999986
 30
0.0
 11
6851.6842299999998
 21
5383.4504719999986
 31
0.0
  0
LINE
  5
7AA8
  8
1
  6
CONTINUOUS
 10
6951.6842299999989
 20
5939.4504719999986
 30
0.0
 11
6951.6842299999989
 21
5383.4504719999986
 31
0.0
  0
LINE
  5
7AA9
  8
1
  6
CONTINUOUS
 10
6951.6842299999989
 20
4693.9504720000004
 30
0.0
 11
7096.6842299999998
 21
4693.9504720000004
 31
0.0
  0
LINE
  5
7AAA
  8
1
  6
CONTINUOUS
 10
6951.6842299999989
 20
4638.9504720000004
 30
0.0
 11
7096.6842299999998
 21
4638.9504720000004
 31
0.0
  0
LINE
  5
7AAB
  8
1
  6
CONTINUOUS
 10
6851.6842299999998
 20
4786.4504720000004
 30
0.0
 11
6851.6842299999998
 21
4546.4504719999986
 31
0.0
  0
LINE
  5
7AAC
  8
1
  6
CONTINUOUS
 10
6951.6842299999989
 20
4786.4504720000004
 30
0.0
 11
6951.6842299999989
 21
4546.4504719999986
 31
0.0
  0
LINE
  5
7AAD
  8
1
  6
CONTINUOUS
 10
6834.6842299999998
 20
4306.4504719999986
 30
0.0
 11
6834.6842299999998
 21
4431.4504719999986
 31
0.0
  0
LINE
  5
7AAE
  8
1
  6
CONTINUOUS
 10
6851.6842299999998
 20
4546.4504719999986
 30
0.0
 11
6951.6842299999989
 21
4546.4504719999986
 31
0.0
  0
LINE
  5
7AAF
  8
1
  6
CONTINUOUS
 10
6761.6842299999998
 20
4446.4504719999986
 30
0.0
 11
7021.6842299999989
 21
4446.4504719999986
 31
0.0
  0
LINE
  5
7AB0
  8
1
  6
CONTINUOUS
 10
6834.6842299999998
 20
4222.4504720000004
 30
0.0
 11
6834.6842299999998
 21
4287.4504719999986
 31
0.0
  0
LINE
  5
7AB1
  8
1
  6
CONTINUOUS
 10
6851.6842299999998
 20
4786.4504720000004
 30
0.0
 11
6951.6842299999989
 21
4786.4504720000004
 31
0.0
  0
LINE
  5
7AB2
  8
1
  6
CONTINUOUS
 10
6851.6842299999998
 20
5383.4504719999986
 30
0.0
 11
6951.6842299999989
 21
5383.4504719999986
 31
0.0
  0
LINE
  5
7AB3
  8
1
  6
CONTINUOUS
 10
6951.6842299999989
 20
5688.9504720000004
 30
0.0
 11
7096.6842299999998
 21
5688.9504720000004
 31
0.0
  0
LINE
  5
7AB4
  8
1
  6
CONTINUOUS
 10
6951.6842299999989
 20
5633.9504719999986
 30
0.0
 11
7096.6842299999998
 21
5633.9504719999986
 31
0.0
  0
LINE
  5
7AB5
  8
1
  6
CONTINUOUS
 10
6761.6842299999998
 20
6039.4504719999986
 30
0.0
 11
7021.6842299999989
 21
6039.4504719999986
 31
0.0
  0
LINE
  5
7AB6
  8
1
  6
CONTINUOUS
 10
6851.6842299999998
 20
5939.4504719999986
 30
0.0
 11
6951.6842299999989
 21
5939.4504719999986
 31
0.0
  0
LINE
  5
7AB7
  8
1
  6
CONTINUOUS
 10
1953.063435
 20
8973.1528749999998
 30
0.0
 11
4313.063435
 21
8973.1528749999998
 31
0.0
  0
LINE
  5
7AB8
  8
1
  6
CONTINUOUS
 10
2680.8634350000002
 20
10085.152875
 30
0.0
 11
4413.063435
 21
10085.152875
 31
0.0
  0
LINE
  5
7AB9
  8
1
  6
CONTINUOUS
 10
2680.8634350000002
 20
9235.1528749999998
 30
0.0
 11
4413.063435
 21
9235.1528749999998
 31
0.0
  0
LINE
  5
7ABA
  8
1
  6
CONTINUOUS
 10
2058.063435
 20
8920.1528749999998
 30
0.0
 11
4031.063435
 21
8920.1528749999998
 31
0.0
  0
LINE
  5
7ABB
  8
1
  6
CONTINUOUS
 10
3043.063435
 20
10188.152875
 30
0.0
 11
4263.063435
 21
10188.152875
 31
0.0
  0
LINE
  5
7ABC
  8
1
  6
CONTINUOUS
 10
2058.063435
 20
9160.1528749999998
 30
0.0
 11
4031.063435
 21
9160.1528749999998
 31
0.0
  0
LINE
  5
7ABD
  8
1
  6
CONTINUOUS
 10
3931.063435
 20
8990.1528749999998
 30
0.0
 11
3375.0634349999991
 21
8990.1528749999998
 31
0.0
  0
LINE
  5
7ABE
  8
1
  6
CONTINUOUS
 10
3931.063435
 20
9090.1528749999998
 30
0.0
 11
3375.0634349999991
 21
9090.1528749999998
 31
0.0
  0
LINE
  5
7ABF
  8
1
  6
CONTINUOUS
 10
1953.063435
 20
10153.152874999991
 30
0.0
 11
3093.063435
 21
10153.152874999991
 31
0.0
  0
LINE
  5
7AC0
  8
1
  6
CONTINUOUS
 10
1953.063435
 20
10153.152874999991
 30
0.0
 11
1953.063435
 21
8973.1528749999998
 31
0.0
  0
LINE
  5
7AC1
  8
1
  6
CONTINUOUS
 10
2398.063435
 20
8990.1528749999998
 30
0.0
 11
2398.063435
 21
9090.1528749999998
 31
0.0
  0
LINE
  5
7AC2
  8
1
  6
CONTINUOUS
 10
2158.063435
 20
8990.1528749999998
 30
0.0
 11
2158.063435
 21
9090.1528749999998
 31
0.0
  0
LINE
  5
7AC3
  8
1
  6
CONTINUOUS
 10
2058.063435
 20
8920.1528749999998
 30
0.0
 11
2058.063435
 21
9160.1528749999998
 31
0.0
  0
LINE
  5
7AC4
  8
1
  6
CONTINUOUS
 10
2398.063435
 20
8990.1528749999998
 30
0.0
 11
2158.063435
 21
8990.1528749999998
 31
0.0
  0
LINE
  5
7AC5
  8
1
  6
CONTINUOUS
 10
2078.9634349999992
 20
9208.8528750000005
 30
0.0
 11
2477.1634349999999
 21
9208.8528750000005
 31
0.0
  0
LINE
  5
7AC6
  8
1
  6
CONTINUOUS
 10
2078.9634349999992
 20
9808.3528750000023
 30
0.0
 11
2477.1634349999999
 21
9808.3528750000023
 31
0.0
  0
LINE
  5
7AC7
  8
1
  6
CONTINUOUS
 10
2398.063435
 20
9090.1528749999998
 30
0.0
 11
2158.063435
 21
9090.1528749999998
 31
0.0
  0
LINE
  5
7AC8
  8
1
  6
CONTINUOUS
 10
2078.9634349999992
 20
9208.8528750000005
 30
0.0
 11
2078.9634349999992
 21
9808.3528750000023
 31
0.0
  0
LINE
  5
7AC9
  8
1
  6
CONTINUOUS
 10
2250.563435
 20
9090.1528749999998
 30
0.0
 11
2250.563435
 21
9208.8528750000005
 31
0.0
  0
LINE
  5
7ACA
  8
1
  6
CONTINUOUS
 10
2305.563435
 20
9090.1528749999998
 30
0.0
 11
2305.563435
 21
9208.8528750000005
 31
0.0
  0
LINE
  5
7ACB
  8
1
  6
CONTINUOUS
 10
2477.1634349999999
 20
9208.8528750000005
 30
0.0
 11
2477.1634349999999
 21
9808.3528750000023
 31
0.0
  0
LINE
  5
7ACC
  8
1
  6
CONTINUOUS
 10
2680.8634350000002
 20
9235.1528749999998
 30
0.0
 11
2680.8634350000002
 21
10085.152875
 31
0.0
  0
LINE
  5
7ACD
  8
1
  6
CONTINUOUS
 10
3375.0634349999991
 20
8990.1528749999998
 30
0.0
 11
3375.0634349999991
 21
9090.1528749999998
 31
0.0
  0
LINE
  5
7ACE
  8
1
  6
CONTINUOUS
 10
3680.5634349999991
 20
9235.1528749999998
 30
0.0
 11
3680.5634349999991
 21
9090.1528749999998
 31
0.0
  0
LINE
  5
7ACF
  8
1
  6
CONTINUOUS
 10
3625.563435
 20
9235.1528749999998
 30
0.0
 11
3625.563435
 21
9090.1528749999998
 31
0.0
  0
LINE
  5
7AD0
  8
1
  6
CONTINUOUS
 10
3093.063435
 20
10188.152875
 30
0.0
 11
3093.063435
 21
10085.152875
 31
0.0
  0
LINE
  5
7AD1
  8
1
  6
CONTINUOUS
 10
4413.063435
 20
9185.1528749999998
 30
0.0
 11
4413.063435
 21
10135.152874999991
 31
0.0
  0
LINE
  5
7AD2
  8
1
  6
CONTINUOUS
 10
4313.063435
 20
9235.1528749999998
 30
0.0
 11
4313.063435
 21
8973.1528749999998
 31
0.0
  0
LINE
  5
7AD3
  8
1
  6
CONTINUOUS
 10
3931.063435
 20
8990.1528749999998
 30
0.0
 11
3931.063435
 21
9090.1528749999998
 31
0.0
  0
LINE
  5
7AD4
  8
1
  6
CONTINUOUS
 10
4031.063435
 20
8920.1528749999998
 30
0.0
 11
4031.063435
 21
9160.1528749999998
 31
0.0
  0
LINE
  5
7AD5
  8
1
  6
CONTINUOUS
 10
4213.063435
 20
10153.152874999991
 30
0.0
 11
4313.063435
 21
10153.152874999991
 31
0.0
  0
LINE
  5
7AD6
  8
1
  6
CONTINUOUS
 10
4313.063435
 20
10153.152874999991
 30
0.0
 11
4313.063435
 21
10085.152875
 31
0.0
  0
LINE
  5
7AD7
  8
1
  6
CONTINUOUS
 10
4213.063435
 20
10188.152875
 30
0.0
 11
4213.063435
 21
10085.152875
 31
0.0
  0
LINE
  5
7AD8
  8
1
  6
CONTINUOUS
 10
7946.6842299999989
 20
4431.4504719999986
 30
0.0
 11
7946.6842299999989
 21
6469.6504720000012
 31
0.0
  0
LINE
  5
7AD9
  8
1
  6
CONTINUOUS
 10
8049.6842299999998
 20
5051.4504719999986
 30
0.0
 11
8049.6842299999998
 21
6271.4504719999986
 31
0.0
  0
LINE
  5
7ADA
  8
1
  6
CONTINUOUS
 10
8014.6842299999998
 20
4306.4504719999986
 30
0.0
 11
8014.6842299999998
 21
4431.4504719999986
 31
0.0
  0
LINE
  5
7ADB
  8
1
  6
CONTINUOUS
 10
8014.6842299999998
 20
4222.4504720000004
 30
0.0
 11
8014.6842299999998
 21
4287.4504719999986
 31
0.0
  0
LINE
  5
7ADC
  8
1
  6
CONTINUOUS
 10
7946.6842299999989
 20
5101.4504719999986
 30
0.0
 11
8049.6842299999998
 21
5101.4504719999986
 31
0.0
  0
LINE
  5
7ADD
  8
1
  6
CONTINUOUS
 10
7946.6842299999989
 20
6221.4504719999986
 30
0.0
 11
8049.6842299999998
 21
6221.4504719999986
 31
0.0
  0
DIMENSION
  5
7AF1
  8
3
  6
CONTINUOUS
  2
*D1
 10
3653.0634349999991
 20
3884.8976779999998
 30
0.0
 11
2860.0713169999999
 21
3884.8976779999998
 31
0.0
 70
   128
 13
1953.063435
 23
4222.4504720000004
 33
0.0
 14
3653.0634349999991
 24
4124.1007950000003
 34
0.0
1001
ACAD
1000
DSTYLE
1002
{
1070
   287
1070
     3
1070
   287
1070
     3
1070
    40
1040
45.0
1070
   143
1040
0.039
1070
   172
1070
     1
1070
   271
1070
     0
1070
   279
1070
     0
1070
   288
1070
     1
1002
}
  0
DIMENSION
  5
7AFD
  8
3
  6
CONTINUOUS
  2
*D2
 10
4313.063435
 20
3884.8976779999998
 30
0.0
 11
3983.063435
 21
3997.3976779999998
 31
0.0
 70
     0
 13
3653.0634349999991
 23
4124.1007950000003
 33
0.0
 14
4313.063435
 24
4222.4504720000004
 34
0.0
1001
ACAD
1000
DSTYLE
1002
{
1070
   287
1070
     4
1070
   287
1070
     4
1070
    40
1040
45.0
1070
    75
1070
     1
1070
   143
1040
0.039
1070
   172
1070
     1
1070
   271
1070
     0
1070
   279
1070
     1
1070
   288
1070
     1
1002
}
  0
DIMENSION
  5
7B0A
  8
3
  6
CONTINUOUS
  2
*D3
 10
4808.4429210000008
 20
4463.4504719999986
 30
0.0
 11
4808.4429209999998
 21
5042.4817490000014
 31
0.0
 70
   128
 13
4413.063435
 23
5613.4504720000004
 33
0.0
 14
4413.063435
 24
4463.4504719999986
 34
0.0
 50
90.0
1001
ACAD
1000
DSTYLE
1002
{
1070
   287
1070
     3
1070
   287
1070
     3
1070
    40
1040
45.0
1070
   143
1040
0.039
1070
   172
1070
     1
1070
   271
1070
     0
1070
   279
1070
     0
1070
   288
1070
     1
1002
}
  0
DIMENSION
  5
7B24
  8
3
  6
CONTINUOUS
  2
*D4
 10
5420.3851299999997
 20
5661.4504720000004
 30
0.0
 11
5420.3851299999988
 21
6080.4847009999994
 31
0.0
 70
   128
 13
3653.0634349999991
 23
6466.4504720000004
 33
0.0
 14
4319.7541739999997
 24
5661.4504720000004
 34
0.0
 50
90.0
1001
ACAD
1000
DSTYLE
1002
{
1070
   287
1070
     3
1070
   287
1070
     3
1070
    40
1040
45.0
1070
   143
1040
0.039
1070
   172
1070
     1
1070
   271
1070
     0
1070
   279
1070
     0
1070
   288
1070
     1
1002
}
  0
DIMENSION
  5
7B30
  8
3
  6
CONTINUOUS
  2
*D5
 10
5420.3851299999988
 20
4306.4504719999986
 30
0.0
 11
5307.8851299999978
 21
4983.9504720000004
 31
0.0
 70
     0
 13
4319.7541739999997
 23
5661.4504720000004
 33
0.0
 14
4313.063435
 24
4306.4504719999986
 34
0.0
 50
90.0
1001
ACAD
1000
DSTYLE
1002
{
1070
   287
1070
     4
1070
   287
1070
     4
1070
    40
1040
45.0
1070
    75
1070
     1
1070
   143
1040
0.039
1070
   172
1070
     1
1070
   271
1070
     0
1070
   279
1070
     1
1070
   288
1070
     1
1002
}
  0
DIMENSION
  5
7B40
  8
3
  6
CONTINUOUS
  2
*D6
 10
5420.3851299999997
 20
4222.4504720000004
 30
0.0
 11
5420.3851299999988
 21
3884.9504719999991
 31
0.0
 70
   128
 13
4313.063435
 23
4306.4504719999986
 33
0.0
 14
4313.063435
 24
4222.4504720000004
 34
0.0
 50
90.0
1001
ACAD
1000
DSTYLE
1002
{
1070
   287
1070
     3
1070
   287
1070
     3
1070
    40
1040
45.0
1070
   143
1040
0.039
1070
   172
1070
     1
1070
   271
1070
     0
1070
   279
1070
     0
1070
   288
1070
     1
1002
}
  0
DIMENSION
  5
7B67
  8
3
  6
CONTINUOUS
  2
*D7
 10
5751.4809910000013
 20
4222.4504720000004
 30
0.0
 11
5751.4809910000004
 21
5469.2581099999998
 31
0.0
 70
   128
 13
3653.0634349999991
 23
6466.4504720000004
 33
0.0
 14
4313.063435
 24
4222.4504720000004
 34
0.0
 50
90.0
1001
ACAD
1000
DSTYLE
1002
{
1070
   287
1070
     3
1070
   287
1070
     3
1070
    40
1040
45.0
1070
   143
1040
0.039
1070
   172
1070
     1
1070
   271
1070
     0
1070
   279
1070
     0
1070
   288
1070
     1
1002
}
  0
DIMENSION
  5
7B74
  8
3
  6
CONTINUOUS
  2
*D8
 10
3653.0634349999991
 20
6626.842181
 30
0.0
 11
3194.35079
 21
6626.842181
 31
0.0
 70
   128
 13
2684.063435
 23
5661.4504720000004
 33
0.0
 14
3653.0634349999991
 24
6465.869326
 34
0.0
1001
ACAD
1000
DSTYLE
1002
{
1070
   287
1070
     3
1070
   287
1070
     3
1070
    40
1040
45.0
1070
   143
1040
0.039
1070
   172
1070
     1
1070
   271
1070
     0
1070
   279
1070
     0
1070
   288
1070
     1
1002
}
  0
DIMENSION
  5
7B80
  8
3
  6
CONTINUOUS
  2
*D9
 10
4413.063435
 20
6626.842181
 30
0.0
 11
4033.063435
 21
6739.3421810000009
 31
0.0
 70
     0
 13
3653.0634349999991
 23
6465.869326
 33
0.0
 14
4413.063435
 24
5666.4504720000004
 34
0.0
1001
ACAD
1000
DSTYLE
1002
{
1070
   287
1070
     4
1070
   287
1070
     4
1070
    40
1040
45.0
1070
    75
1070
     1
1070
   143
1040
0.039
1070
   172
1070
     1
1070
   271
1070
     0
1070
   279
1070
     1
1070
   288
1070
     1
1002
}
  0
LINE
  5
7B81
  8
2
  6
CENTER
 10
6632.6536589999996
 20
5661.4504720000004
 30
0.0
 11
8136.6125750000001
 21
5661.4504720000004
 31
0.0
  0
DIMENSION
  5
7B8E
  8
3
  6
CONTINUOUS
  2
*D10
 10
4313.063435
 20
8423.1958779999986
 30
0.0
 11
3181.6163419999998
 21
8423.1958779999986
 31
0.0
 70
   128
 13
1953.063435
 23
8973.1528749999998
 33
0.0
 14
4313.063435
 24
8973.1528749999998
 34
0.0
1001
ACAD
1000
DSTYLE
1002
{
1070
   287
1070
     3
1070
   287
1070
     3
1070
    40
1040
45.0
1070
   143
1040
0.039
1070
   172
1070
     1
1070
   271
1070
     0
1070
   279
1070
     0
1070
   288
1070
     1
1002
}
  0
DIMENSION
  5
7B9B
  8
3
  6
CONTINUOUS
  2
*D11
 10
4862.5643790000013
 20
8973.1528749999998
 30
0.0
 11
4862.5643790000004
 21
9580.7799180000002
 31
0.0
 70
   128
 13
4313.063435
 23
10153.152874999991
 33
0.0
 14
4313.063435
 24
8973.1528749999998
 34
0.0
 50
90.0
1001
ACAD
1000
DSTYLE
1002
{
1070
   287
1070
     3
1070
   287
1070
     3
1070
    40
1040
45.0
1070
   143
1040
0.039
1070
   172
1070
     1
1070
   271
1070
     0
1070
   279
1070
     0
1070
   288
1070
     1
1002
}
  0
LINE
  5
7B9C
  8
2
  6
CENTER
 10
2591.7222459999998
 20
9660.1528750000016
 30
0.0
 11
4620.6097609999988
 21
9660.1528750000016
 31
0.0
  0
LINE
  5
7B9D
  8
2
  6
CENTER
 10
3653.0634349999991
 20
6533.9680520000002
 30
0.0
 11
3653.0634349999991
 21
4124.1007950000003
 31
0.0
  0
LINE
  5
7B9E
  8
2
  6
CENTER
 10
7521.6842299999989
 20
6757.6639120000009
 30
0.0
 11
7521.6842299999989
 21
4059.8236320000001
 31
0.0
  0
DIMENSION
  5
7BAB
  8
3
  6
CONTINUOUS
  2
*D12
 10
7521.6842299999989
 20
3868.9517340000002
 30
0.0
 11
7213.1128010000002
 21
3868.9517340000002
 31
0.0
 70
   128
 13
6834.6842299999998
 23
4222.4504720000004
 33
0.0
 14
7521.6842299999989
 24
4059.8236320000001
 34
0.0
1001
ACAD
1000
DSTYLE
1002
{
1070
   287
1070
     3
1070
   287
1070
     3
1070
    40
1040
45.0
1070
   143
1040
0.039
1070
   172
1070
     1
1070
   271
1070
     0
1070
   279
1070
     0
1070
   288
1070
     1
1002
}
  0
DIMENSION
  5
7BB9
  8
3
  6
CONTINUOUS
  2
*D13
 10
8014.6842299999998
 20
3868.9517340000002
 30
0.0
 11
7761.2642779999996
 21
3867.6314099999991
 31
0.0
 70
   128
 13
7521.6842299999989
 23
4059.8236320000001
 33
0.0
 14
8014.6842299999998
 24
4222.4504720000004
 34
0.0
1001
ACAD
1000
DSTYLE
1002
{
1070
   287
1070
     4
1070
   287
1070
     4
1070
    40
1040
45.0
1070
    75
1070
     1
1070
   143
1040
0.039
1070
   172
1070
     1
1070
   271
1070
     0
1070
   279
1070
     1
1070
   288
1070
     1
1002
}
  0
DIMENSION
  5
7BDC
  8
3
  6
CONTINUOUS
  2
*D14
 10
7946.6842299999989
 20
6737.2584599999991
 30
0.0
 11
7469.4102579999999
 21
6737.2584599999991
 31
0.0
 70
   128
 13
7096.6842299999998
 23
6469.6504720000012
 33
0.0
 14
7946.6842299999989
 24
6469.6504720000012
 34
0.0
1001
ACAD
1000
DSTYLE
1002
{
1070
   287
1070
     3
1070
   287
1070
     3
1070
    40
1040
45.0
1070
   143
1040
0.039
1070
   172
1070
     1
1070
   271
1070
     0
1070
   279
1070
     0
1070
   288
1070
     1
1002
}
  0
DIMENSION
  5
7BE9
  8
3
  6
CONTINUOUS
  2
*D15
 10
7521.6842299999989
 20
7036.1721060000009
 30
0.0
 11
7136.9226030000009
 21
7036.1721060000009
 31
0.0
 70
   128
  1
MAX\P850
 13
6761.6842299999998
 23
6039.4504719999986
 33
0.0
 14
7521.6842299999989
 24
6961.643008
 34
0.0
1001
ACAD
1000
DSTYLE
1002
{
1070
   287
1070
     3
1070
   287
1070
     3
1070
    40
1040
45.0
1070
   143
1040
0.039
1070
   172
1070
     1
1070
   271
1070
     0
1070
   279
1070
     0
1070
   288
1070
     1
1002
}
  0
DIMENSION
  5
7BF7
  8
3
  6
CONTINUOUS
  2
*D16
 10
8049.6842299999998
 20
7036.1721060000009
 30
0.0
 11
7768.2283239999997
 21
7036.5903739999994
 31
0.0
 70
   128
 13
7521.6842299999989
 23
6961.643008
 33
0.0
 14
8049.6842299999998
 24
6271.4504719999986
 34
0.0
1001
ACAD
1000
DSTYLE
1002
{
1070
   287
1070
     4
1070
   287
1070
     4
1070
    40
1040
45.0
1070
    75
1070
     1
1070
   143
1040
0.039
1070
   172
1070
     1
1070
   271
1070
     0
1070
   279
1070
     1
1070
   288
1070
     1
1002
}
  0
DIMENSION
  5
7C1A
  8
3
  6
CONTINUOUS
  2
*D17
 10
8395.3253870000026
 20
5101.4504719999986
 30
0.0
 11
8395.3253870000008
 21
5697.5761830000001
 31
0.0
 70
   128
 13
8049.6842299999998
 23
6221.4504719999986
 33
0.0
 14
8049.6842299999998
 24
5101.4504719999986
 34
0.0
 50
90.0
1001
ACAD
1000
DSTYLE
1002
{
1070
   287
1070
     3
1070
   287
1070
     3
1070
     3
1000
φ<>
1070
    40
1040
45.0
1070
   143
1040
0.039
1070
   172
1070
     1
1070
   271
1070
     0
1070
   279
1070
     0
1070
   288
1070
     1
1002
}
  0
LINE
  5
7C1B
  8
4
  6
CONTINUOUS
 10
9250.0
 20
2500.0
 30
0.0
 11
9250.0
 21
1500.0
 31
0.0
  0
LINE
  5
7C1C
  8
4
  6
CONTINUOUS
 10
5750.0
 20
2500.0
 30
0.0
 11
5750.0
 21
1500.0
 31
0.0
  0
LINE
  5
7C1D
  8
4
  6
CONTINUOUS
 10
3250.0
 20
2500.0
 30
0.0
 11
3250.0
 21
1500.0
 31
0.0
  0
LINE
  5
7C20
  8
4
  6
CONTINUOUS
 10
3250.0
 20
1500.0
 30
0.0
 11
9250.0
 21
1500.0
 31
0.0
  0
LINE
  5
7C21
  8
4
  6
CONTINUOUS
 10
3250.0
 20
2000.0
 30
0.0
 11
9250.0
 21
2000.0
 31
0.0
  0
TEXT
  5
7C22
  8
4
  6
CONTINUOUS
 10
3442.5104040000001
 20
2157.7151289999988
 30
0.0
 40
250.0
  1
機器名称
  0
TEXT
  5
7C23
  8
4
  6
CONTINUOUS
 10
3431.2905300000002
 20
1608.225782999999
 30
0.0
 40
250.0
  1
機器型番
  0
TEXT
  5
7C24
  8
4
  6
CONTINUOUS
 10
5888.393728
 20
2112.8588439999999
 30
0.0
 40
211.11111099999991
  1
ミツヤリミットロードファン
  0
TEXT
  5
7C25
  8
4
  6
CONTINUOUS
 10
5933.2724779999999
 20
1585.7979210000001
 30
0.0
 40
250.0
  1
LLE#7-4
  0
TEXT
  5
7C27
  8
4
  6
CONTINUOUS
 10
3622.1917629999998
 20
11917.14420699999
 30
0.0
 40
270.0
  1
床置防振ベット
  0
TEXT
  5
7C28
  8
4
  6
CONTINUOUS
 10
1580.837966999999
 20
12669.404881
 30
0.0
 40
300.0
  1
ベルト駆動式片吸込両持排煙ファン
  0
LINE
  5
7C29
  8
4
  6
CONTINUOUS
 10
1250.0
 20
12347.04377099999
 30
0.0
 11
9250.0
 21
12347.04377099999
 31
0.0
  0
LINE
  5
7C2A
  8
4
  6
CONTINUOUS
 10
1250.0
 20
13347.043771000001
 30
0.0
 11
9250.0
 21
13347.043771000001
 31
0.0
  0
LINE
  5
7C2B
  8
4
  6
CONTINUOUS
 10
3250.0
 20
2500.0
 30
0.0
 11
9250.0
 21
2500.0
 31
0.0
  0
LINE
  5
7C2C
  8
4
  6
CONTINUOUS
 10
1250.0
 20
13347.043771000001
 30
0.0
 11
1250.0
 21
12347.04377099999
 31
0.0
  0
TEXT
  5
7C2D
  8
4
  6
CONTINUOUS
 10
1442.897602
 20
11911.597388
 30
0.0
 40
270.0
  1
左回転右横向
  0
TEXT
  5
7C2E
  8
4
  6
CONTINUOUS
 10
7344.8477969999994
 20
13530.305408
 30
0.0
 40
280.0
  1
No.
  0
TEXT
  5
7C2F
  8
4
  6
CONTINUOUS
 10
6556.480313
 20
11917.14420699999
 30
0.0
 40
270.0
  1
縮尺：1/50
  0
LINE
  5
7C30
  8
4
  6
CONTINUOUS
 10
9250.0
 20
13347.043771000001
 30
0.0
 11
9250.0
 21
12347.04377099999
 31
0.0
  0
LINE
  5
7C32
  8
4
  6
CONTINUOUS
 10
7203.0871120000002
 20
13406.317916
 30
0.0
 11
7203.0871120000002
 21
13933.261307999999
 31
0.0
  0
LINE
  5
7C33
  8
4
  6
CONTINUOUS
 10
7203.0871120000002
 20
13933.261307999999
 30
0.0
 11
9250.0
 21
13933.261307999999
 31
0.0
  0
LINE
  5
7C34
  8
4
  6
CONTINUOUS
 10
9250.0
 20
13933.261307999999
 30
0.0
 11
9250.0
 21
13406.317916
 31
0.0
  0
LINE
  5
7C35
  8
4
  6
CONTINUOUS
 10
9250.0
 20
13406.317916
 30
0.0
 11
7203.0871120000002
 21
13406.317916
 31
0.0
  0
DIMENSION
  5
7C78
  8
3
  6
CONTINUOUS
  2
*D18
 10
5130.8385580000004
 20
4463.4504719999986
 30
0.0
 11
5130.8385579999986
 21
5009.2069310000006
 31
0.0
 70
   128
 13
4319.7541739999997
 23
5661.4504720000004
 33
0.0
 14
4413.063435
 24
4463.4504719999986
 34
0.0
 50
90.0
1001
ACAD
1000
DSTYLE
1002
{
1070
   287
1070
     3
1070
   287
1070
     3
1070
    40
1040
45.0
1070
   143
1040
0.039
1070
   172
1070
     1
1070
   271
1070
     0
1070
   279
1070
     0
1070
   288
1070
     1
1002
}
  0
DIMENSION
  5
7CCA
  8
3
  2
*D19
 10
1953.063435
 20
6898.556162034376
 30
0.0
 11
3175.6612965516251
 21
6898.556162034376
 31
0.0
 70
   128
 13
4413.063435
 23
5666.4504720000004
 33
0.0
 14
1953.0634349999989
 24
4431.4504719999986
 34
0.0
1001
ACAD
1000
DSTYLE
1002
{
1070
   287
1070
     3
1070
   287
1070
     3
1070
    40
1040
45.0
1070
   143
1040
0.039
1070
   172
1070
     1
1070
   271
1070
     0
1070
   279
1070
     0
1070
   288
1070
     1
1002
}
  0
ENDSEC
  0
EOF
