  0
SECTION
  2
HEADER
  9
$ACADVER
  1
AC1009
  9
$INSBASE
 10
0.0
 20
0.0
 30
0.0
  9
$EXTMIN
 10
1250.0
 20
1500.0
 30
0.0
  9
$EXTMAX
 10
9250.0
 20
13933.261307999999
 30
0.0
  9
$LIMMIN
 10
0.0
 20
0.0
  9
$LIMMAX
 10
297.0
 20
210.0
  9
$ORTHOMODE
 70
     0
  9
$REGENMODE
 70
     1
  9
$FILLMODE
 70
     0
  9
$QTEXTMODE
 70
     0
  9
$MIRRTEXT
 70
     1
  9
$DRAGMODE
 70
     2
  9
$LTSCALE
 40
100.0
  9
$OSMODE
 70
    37
  9
$ATTMODE
 70
     1
  9
$TEXTSIZE
 40
180.0
  9
$TRACEWID
 40
0.05
  9
$TEXTSTYLE
  7
STANDARD
  9
$CLAYER
  8
3
  9
$CELTYPE
  6
BYLAYER
  9
$CECOLOR
 62
   256
  9
$DIMSCALE
 40
45.0
  9
$DIMASZ
 40
2.0
  9
$DIMEXO
 40
0.5
  9
$DIMDLI
 40
10.0
  9
$DIMRND
 40
0.0
  9
$DIMDLE
 40
0.0
  9
$DIMEXE
 40
1.0
  9
$DIMTP
 40
1.0
  9
$DIMTM
 40
1.0
  9
$DIMTXT
 40
3.0
  9
$DIMCEN
 40
0.0
  9
$DIMTSZ
 40
0.0
  9
$DIMTOL
 70
     0
  9
$DIMLIM
 70
     0
  9
$DIMTIH
 70
     0
  9
$DIMTOH
 70
     0
  9
$DIMSE1
 70
     0
  9
$DIMSE2
 70
     0
  9
$DIMTAD
 70
     1
  9
$DIMZIN
 70
     8
  9
$DIMBLK
  1

  9
$DIMASO
 70
     1
  9
$DIMSHO
 70
     1
  9
$DIMPOST
  1

  9
$DIMAPOST
  1

  9
$DIMALT
 70
     0
  9
$DIMALTD
 70
     2
  9
$DIMALTF
 40
0.039
  9
$DIMLFAC
 40
1.0
  9
$DIMTOFL
 70
     1
  9
$DIMTVP
 40
0.0
  9
$DIMTIX
 70
     0
  9
$DIMSOXD
 70
     0
  9
$DIMSAH
 70
     1
  9
$DIMBLK1
  1
OPEN
  9
$DIMBLK2
  1
OPEN
  9
$DIMSTYLE
  2
IGA
  9
$DIMCLRD
 70
     0
  9
$DIMCLRE
 70
     0
  9
$DIMCLRT
 70
     0
  9
$DIMTFAC
 40
10.0
  9
$DIMGAP
 40
1.0
  9
$LUNITS
 70
     2
  9
$LUPREC
 70
     3
  9
$SKETCHINC
 40
0.1
  9
$FILLETRAD
 40
50.0
  9
$AUNITS
 70
     0
  9
$AUPREC
 70
     0
  9
$MENU
  1
acad
  9
$ELEVATION
 40
0.0
  9
$PELEVATION
 40
0.0
  9
$THICKNESS
 40
0.0
  9
$LIMCHECK
 70
     0
  9
$BLIPMODE
 70
     0
  9
$CHAMFERA
 40
0.5
  9
$CHAMFERB
 40
0.5
  9
$SKPOLY
 70
     0
  9
$TDCREATE
 40
2450751.3343633101
  9
$TDUPDATE
 40
2454953.6876828242
  9
$TDINDWG
 40
0.0034108565
  9
$TDUSRTIMER
 40
0.0034108565
  9
$USRTIMER
 70
     1
  9
$ANGBASE
 50
0.0
  9
$ANGDIR
 70
     0
  9
$PDMODE
 70
     0
  9
$PDSIZE
 40
0.0
  9
$PLINEWID
 40
0.0
  9
$COORDS
 70
     1
  9
$SPLFRAME
 70
     0
  9
$SPLINETYPE
 70
     6
  9
$SPLINESEGS
 70
     8
  9
$ATTDIA
 70
     0
  9
$ATTREQ
 70
     1
  9
$HANDLING
 70
 10241
  9
$HANDSEED
  5
7E4E
  9
$SURFTAB1
 70
     6
  9
$SURFTAB2
 70
     6
  9
$SURFTYPE
 70
     6
  9
$SURFU
 70
     6
  9
$SURFV
 70
     6
  9
$UCSNAME
  2

  9
$UCSORG
 10
0.0
 20
0.0
 30
0.0
  9
$UCSXDIR
 10
1.0
 20
0.0
 30
0.0
  9
$UCSYDIR
 10
0.0
 20
1.0
 30
0.0
  9
$PUCSNAME
  2

  9
$PUCSORG
 10
0.0
 20
0.0
 30
0.0
  9
$PUCSXDIR
 10
1.0
 20
0.0
 30
0.0
  9
$PUCSYDIR
 10
0.0
 20
1.0
 30
0.0
  9
$USERI1
 70
     0
  9
$USERI2
 70
     0
  9
$USERI3
 70
     0
  9
$USERI4
 70
     0
  9
$USERI5
 70
     0
  9
$USERR1
 40
0.0
  9
$USERR2
 40
0.0
  9
$USERR3
 40
0.0
  9
$USERR4
 40
0.0
  9
$USERR5
 40
0.0
  9
$WORLDVIEW
 70
     1
  9
$SHADEDGE
 70
     3
  9
$SHADEDIF
 70
    70
  9
$TILEMODE
 70
     1
  9
$MAXACTVP
 70
    16
  9
$PLIMCHECK
 70
     0
  9
$PEXTMIN
 10
1.0000000000000000E+020
 20
1.0000000000000000E+020
 30
1.0000000000000000E+020
  9
$PEXTMAX
 10
-1.0000000000000000E+020
 20
-1.0000000000000000E+020
 30
-1.0000000000000000E+020
  9
$PLIMMIN
 10
0.0
 20
0.0
  9
$PLIMMAX
 10
12.0
 20
9.0
  9
$UNITMODE
 70
     0
  9
$VISRETAIN
 70
     0
  9
$PLINEGEN
 70
     0
  9
$PSLTSCALE
 70
     1
  0
ENDSEC
  0
SECTION
  2
TABLES
  0
TABLE
  2
VPORT
 70
     2
  0
VPORT
  2
*ACTIVE
 70
     0
 10
0.0
 20
0.0
 11
1.0
 21
1.0
 12
24823.773817520148
 22
8028.8943624784588
 13
0.0
 23
0.0
 14
10.0
 24
10.0
 15
10.0
 25
10.0
 16
0.0
 26
0.0
 36
1.0
 17
0.0
 27
0.0
 37
0.0
 40
19134.085373175039
 41
3.1666666666666661
 42
50.0
 43
0.0
 44
0.0
 50
0.0
 51
0.0
 71
     0
 72
   100
 73
     1
 74
     0
 75
     0
 76
     0
 77
     0
 78
     0
  0
ENDTAB
  0
TABLE
  2
LTYPE
 70
     2
  0
LTYPE
  2
CONTINUOUS
 70
     0
  3
Solid line
 72
    65
 73
     0
 40
0.0
  0
LTYPE
  2
CENTER
 70
     0
  3
____ _ ____ _ ____ _ ____ _ ____ _ ____ _ ____ 
 72
    65
 73
     4
 40
2.0
 49
1.25
 49
-0.25
 49
0.25
 49
-0.25
  0
ENDTAB
  0
TABLE
  2
LAYER
 70
     6
  0
LAYER
  2
0
 70
     0
 62
     7
  6
CONTINUOUS
  0
LAYER
  2
3
 70
     0
 62
     2
  6
CONTINUOUS
  0
LAYER
  2
2
 70
     0
 62
     3
  6
CENTER
  0
LAYER
  2
1
 70
     0
 62
     4
  6
CONTINUOUS
  0
LAYER
  2
4
 70
     0
 62
     7
  6
CONTINUOUS
  0
LAYER
  2
DEFPOINTS
 70
     0
 62
     7
  6
CONTINUOUS
  0
ENDTAB
  0
TABLE
  2
STYLE
 70
     1
  0
STYLE
  2
STANDARD
 70
     0
 40
0.0
 41
1.0
 50
0.0
 71
     0
 42
180.0
  3
simplex.shx
  4
extfont.shx
  0
ENDTAB
  0
TABLE
  2
VIEW
 70
     0
  0
ENDTAB
  0
TABLE
  2
UCS
 70
     0
  0
ENDTAB
  0
TABLE
  2
APPID
 70
     1
  0
APPID
  2
ACAD
 70
     0
  0
ENDTAB
  0
TABLE
  2
DIMSTYLE
 70
     1
  0
DIMSTYLE
  2
IGA
 70
     0
  3

  4

  5

  6
OPEN
  7
OPEN
 40
2.0
 41
2.0
 42
0.5
 43
10.0
 44
1.0
 45
0.0
 46
0.0
 47
1.0
 48
1.0
140
3.0
141
0.0
142
0.0
143
0.03937
144
1.0
145
0.0
146
10.0
147
1.0
 71
     0
 72
     0
 73
     0
 74
     0
 75
     0
 76
     0
 77
     1
 78
     8
170
     0
171
     2
172
     0
173
     1
174
     0
175
     0
176
     0
177
     0
178
     0
  0
ENDTAB
  0
ENDSEC
  0
SECTION
  2
BLOCKS
  0
BLOCK
  8
0
  2
$MODEL_SPACE
 70
     0
 10
0.0
 20
0.0
 30
0.0
  3
$MODEL_SPACE
  1

  0
ENDBLK
  5
1B
  8
0
  0
BLOCK
 67
     1
  8
0
  2
$PAPER_SPACE
 70
     0
 10
0.0
 20
0.0
 30
0.0
  3
$PAPER_SPACE
  1

  0
ENDBLK
  5
18
 67
     1
  8
0
  0
BLOCK
  8
0
  2
_OPEN
 70
     0
 10
0.0
 20
0.0
 30
0.0
  3
_OPEN
  1

  0
LINE
  5
7ADE
  8
0
  6
BYBLOCK
 62
     0
 10
-1.0
 20
0.166667
 30
0.0
 11
0.0
 21
0.0
 31
0.0
  0
LINE
  5
7ADF
  8
0
  6
BYBLOCK
 62
     0
 10
0.0
 20
0.0
 30
0.0
 11
-1.0
 21
-0.166667
 31
0.0
  0
LINE
  5
7AE0
  8
0
  6
BYBLOCK
 62
     0
 10
0.0
 20
0.0
 30
0.0
 11
-1.0
 21
0.0
 31
0.0
  0
ENDBLK
  5
7AE1
  8
0
  0
BLOCK
  8
0
  2
*D1
 70
     1
 10
0.0
 20
0.0
 30
0.0
  3
*D1
  1

  0
LINE
  5
7D9A
  8
3
  6
CONTINUOUS
 62
     0
 10
2279.4060819999991
 20
4140.6908860000003
 30
0.0
 11
2279.4060819999991
 21
3793.4909309999998
 31
0.0
  0
LINE
  5
7D9B
  8
3
  6
CONTINUOUS
 62
     0
 10
2939.4060819999991
 20
4042.7281869999988
 30
0.0
 11
2939.4060819999991
 21
3793.4909309999998
 31
0.0
  0
LINE
  5
7D9C
  8
3
  6
CONTINUOUS
 62
     0
 10
2189.406082
 20
3838.4909309999998
 30
0.0
 11
2099.406082
 21
3838.4909309999998
 31
0.0
  0
LINE
  5
7D9D
  8
3
  6
CONTINUOUS
 62
     0
 10
3029.4060819999991
 20
3838.4909309999998
 30
0.0
 11
3119.406082
 21
3838.4909309999998
 31
0.0
  0
LINE
  5
7D9E
  8
3
  6
CONTINUOUS
 62
     0
 10
2279.4060819999991
 20
3838.4909309999998
 30
0.0
 11
2939.4060819999991
 21
3838.4909309999998
 31
0.0
  0
INSERT
  5
7D9F
  8
3
  6
CONTINUOUS
 62
     0
  2
_OPEN
 10
2279.4060819999991
 20
3838.4909309999998
 30
0.0
 41
90.0
 42
90.0
 43
90.0
  0
INSERT
  5
7DA0
  8
3
  6
CONTINUOUS
 62
     0
  2
_OPEN
 10
2939.4060819999991
 20
3838.4909309999998
 30
0.0
 41
90.0
 42
90.0
 43
90.0
 50
180.0
  0
TEXT
  8
3
  40
135
  5
7E3B
  62
0
  72
0
  71
0
 10
2360.83
 20
3712.04
 30
0.000000
  1
660
  0
POINT
  5
7DA2
  8
DEFPOINTS
  6
CONTINUOUS
 62
     0
 10
2279.4060819999991
 20
4163.1908860000003
 30
0.0
  0
POINT
  5
7DA3
  8
DEFPOINTS
  6
CONTINUOUS
 62
     0
 10
2939.4060819999991
 20
4065.2281869999988
 30
0.0
  0
POINT
  5
7DA4
  8
DEFPOINTS
  6
CONTINUOUS
 62
     0
 10
2939.4060819999991
 20
3838.4909309999998
 30
0.0
  0
ENDBLK
  5
7AEE
  8
0
  0
BLOCK
  8
0
  2
*D2
 70
     1
 10
0.0
 20
0.0
 30
0.0
  3
*D2
  1

  0
LINE
  5
7DA5
  8
3
  6
CONTINUOUS
 62
     0
 10
4639.4060820000004
 20
4140.6908860000003
 30
0.0
 11
4639.4060820000004
 21
3793.4909309999998
 31
0.0
  0
LINE
  5
7DA6
  8
3
  6
CONTINUOUS
 62
     0
 10
3029.4060819999991
 20
3838.4909309999998
 30
0.0
 11
4549.4060820000004
 21
3838.4909309999998
 31
0.0
  0
INSERT
  5
7DA7
  8
3
  6
CONTINUOUS
 62
     0
  2
_OPEN
 10
2939.4060819999991
 20
3838.4909309999998
 30
0.0
 41
90.0
 42
90.0
 43
90.0
 50
180.0
  0
INSERT
  5
7DA8
  8
3
  6
CONTINUOUS
 62
     0
  2
_OPEN
 10
4639.4060820000004
 20
3838.4909309999998
 30
0.0
 41
90.0
 42
90.0
 43
90.0
  0
TEXT
  8
3
  40
135
  5
7E3C
  62
0
  72
0
  71
0
 10
3519.41
 20
3712.04
 30
0.000000
  1
1700
  0
POINT
  5
7DAA
  8
DEFPOINTS
  6
CONTINUOUS
 62
     0
 10
2939.4060819999991
 20
4065.2281869999988
 30
0.0
  0
POINT
  5
7DAB
  8
DEFPOINTS
  6
CONTINUOUS
 62
     0
 10
4639.4060820000004
 20
4163.1908860000003
 30
0.0
  0
POINT
  5
7DAC
  8
DEFPOINTS
  6
CONTINUOUS
 62
     0
 10
4639.4060820000004
 20
3838.4909309999998
 30
0.0
  0
ENDBLK
  5
7AFA
  8
0
  0
BLOCK
  8
0
  2
*D3
 70
     1
 10
0.0
 20
0.0
 30
0.0
  3
*D3
  1

  0
LINE
  5
7DAD
  8
3
  6
CONTINUOUS
 62
     0
 10
4212.9060820000004
 20
6017.1908860000003
 30
0.0
 11
5122.605050000001
 21
6017.1908860000003
 31
0.0
  0
LINE
  5
7DAE
  8
3
  6
CONTINUOUS
 62
     0
 10
4094.906082
 20
5257.1908860000003
 30
0.0
 11
5122.605050000001
 21
5257.1908860000003
 31
0.0
  0
LINE
  5
7DAF
  8
3
  6
CONTINUOUS
 62
     0
 10
5077.605050000001
 20
5927.1908860000003
 30
0.0
 11
5077.605050000001
 21
5347.1908860000003
 31
0.0
  0
INSERT
  5
7DB0
  8
3
  6
CONTINUOUS
 62
     0
  2
_OPEN
 10
5077.605050000001
 20
6017.1908860000003
 30
0.0
 41
90.0
 42
90.0
 43
90.0
 50
90.0
  0
INSERT
  5
7DB1
  8
3
  6
CONTINUOUS
 62
     0
  2
_OPEN
 10
5077.605050000001
 20
5257.1908860000003
 30
0.0
 41
90.0
 42
90.0
 43
90.0
 50
270.0
  0
TEXT
  8
3
  40
135
  5
7E3D
  62
0
  72
0
  71
0
 10
4695.11
 20
5401.17
 30
0.000000
  1
760
  0
POINT
  5
7DB3
  8
DEFPOINTS
  6
CONTINUOUS
 62
     0
 10
4190.4060820000004
 20
6017.1908860000003
 30
0.0
  0
POINT
  5
7DB4
  8
DEFPOINTS
  6
CONTINUOUS
 62
     0
 10
4072.4060819999991
 20
5257.1908860000003
 30
0.0
  0
POINT
  5
7DB5
  8
DEFPOINTS
  6
CONTINUOUS
 62
     0
 10
5077.605050000001
 20
5257.1908860000003
 30
0.0
  0
ENDBLK
  5
7B07
  8
0
  0
BLOCK
  8
0
  2
*D4
 70
     1
 10
0.0
 20
0.0
 30
0.0
  3
*D4
  1

  0
LINE
  5
7DB6
  8
3
  6
CONTINUOUS
 62
     0
 10
4661.9060820000004
 20
4247.1908860000012
 30
0.0
 11
5122.6050500000001
 21
4247.1908860000012
 31
0.0
  0
LINE
  5
7DB7
  8
3
  6
CONTINUOUS
 62
     0
 10
5077.6050500000001
 20
5167.1908860000003
 30
0.0
 11
5077.6050500000001
 21
4337.1908860000012
 31
0.0
  0
INSERT
  5
7DB8
  8
3
  6
CONTINUOUS
 62
     0
  2
_OPEN
 10
5077.6050500000001
 20
5257.1908860000003
 30
0.0
 41
90.0
 42
90.0
 43
90.0
 50
90.0
  0
INSERT
  5
7DB9
  8
3
  6
CONTINUOUS
 62
     0
  2
_OPEN
 10
5077.6050500000001
 20
4247.1908860000012
 30
0.0
 41
90.0
 42
90.0
 43
90.0
 50
270.0
  0
TEXT
  8
3
  40
135
  5
7E3E
  62
0
  72
0
  71
0
 10
4695.11
 20
4513.24
 30
0.000000
  1
1010
  0
POINT
  5
7DBB
  8
DEFPOINTS
  6
CONTINUOUS
 62
     0
 10
4072.4060819999991
 20
5257.1908860000003
 30
0.0
  0
POINT
  5
7DBC
  8
DEFPOINTS
  6
CONTINUOUS
 62
     0
 10
4639.4060820000004
 20
4247.1908860000012
 30
0.0
  0
POINT
  5
7DBD
  8
DEFPOINTS
  6
CONTINUOUS
 62
     0
 10
5077.6050500000001
 20
4247.1908860000012
 30
0.0
  0
ENDBLK
  5
7B13
  8
0
  0
BLOCK
  8
0
  2
*D5
 70
     1
 10
0.0
 20
0.0
 30
0.0
  3
*D5
  1

  0
LINE
  5
7DBE
  8
3
  6
CONTINUOUS
 62
     0
 10
4661.9060820000004
 20
4247.1908860000012
 30
0.0
 11
5122.605050000001
 21
4247.1908860000012
 31
0.0
  0
LINE
  5
7DBF
  8
3
  6
CONTINUOUS
 62
     0
 10
4661.9060820000004
 20
4163.1908860000003
 30
0.0
 11
5122.605050000001
 21
4163.1908860000003
 31
0.0
  0
LINE
  5
7DC0
  8
3
  6
CONTINUOUS
 62
     0
 10
5077.605050000001
 20
4337.1908860000012
 30
0.0
 11
5077.605050000001
 21
4427.1908860000003
 31
0.0
  0
LINE
  5
7DC1
  8
3
  6
CONTINUOUS
 62
     0
 10
5077.605050000001
 20
4073.1908859999999
 30
0.0
 11
5077.605050000001
 21
3668.1908859999999
 31
0.0
  0
LINE
  5
7DC2
  8
3
  6
CONTINUOUS
 62
     0
 10
5077.605050000001
 20
4247.1908860000012
 30
0.0
 11
5077.605050000001
 21
4163.1908860000003
 31
0.0
  0
INSERT
  5
7DC3
  8
3
  6
CONTINUOUS
 62
     0
  2
_OPEN
 10
5077.605050000001
 20
4247.1908860000012
 30
0.0
 41
90.0
 42
90.0
 43
90.0
 50
270.0
  0
INSERT
  5
7DC4
  8
3
  6
CONTINUOUS
 62
     0
  2
_OPEN
 10
5077.605050000001
 20
4163.1908860000003
 30
0.0
 41
90.0
 42
90.0
 43
90.0
 50
90.0
  0
TEXT
  8
3
  40
135
  5
7E3F
  62
0
  72
0
  71
0
 10
4695.11
 20
3586.74
 30
0.000000
  1
84
  0
POINT
  5
7DC6
  8
DEFPOINTS
  6
CONTINUOUS
 62
     0
 10
4639.4060820000004
 20
4247.1908860000012
 30
0.0
  0
POINT
  5
7DC7
  8
DEFPOINTS
  6
CONTINUOUS
 62
     0
 10
4639.4060820000004
 20
4163.1908860000003
 30
0.0
  0
POINT
  5
7DC8
  8
DEFPOINTS
  6
CONTINUOUS
 62
     0
 10
5077.605050000001
 20
4163.1908860000003
 30
0.0
  0
ENDBLK
  5
7CAA
  8
0
  0
BLOCK
  8
0
  2
*D6
 70
     1
 10
0.0
 20
0.0
 30
0.0
  3
*D6
  1

  0
LINE
  5
7DC9
  8
3
  6
CONTINUOUS
 62
     0
 10
4159.9060820000004
 20
6017.1908860000003
 30
0.0
 11
5451.723989000001
 21
6017.1908860000003
 31
0.0
  0
LINE
  5
7DCA
  8
3
  6
CONTINUOUS
 62
     0
 10
4661.9060820000004
 20
4163.1908860000003
 30
0.0
 11
5451.723989000001
 21
4163.1908860000003
 31
0.0
  0
LINE
  5
7DCB
  8
3
  6
CONTINUOUS
 62
     0
 10
5406.723989000001
 20
5927.1908860000003
 30
0.0
 11
5406.723989000001
 21
4253.1908860000003
 31
0.0
  0
INSERT
  5
7DCC
  8
3
  6
CONTINUOUS
 62
     0
  2
_OPEN
 10
5406.723989000001
 20
6017.1908860000003
 30
0.0
 41
90.0
 42
90.0
 43
90.0
 50
90.0
  0
INSERT
  5
7DCD
  8
3
  6
CONTINUOUS
 62
     0
  2
_OPEN
 10
5406.723989000001
 20
4163.1908860000003
 30
0.0
 41
90.0
 42
90.0
 43
90.0
 50
270.0
  0
TEXT
  8
3
  40
135
  5
7E40
  62
0
  72
0
  71
0
 10
5024.22
 20
4789.67
 30
0.000000
  1
1854
  0
POINT
  5
7DCF
  8
DEFPOINTS
  6
CONTINUOUS
 62
     0
 10
4137.4060820000004
 20
6017.1908860000003
 30
0.0
  0
POINT
  5
7DD0
  8
DEFPOINTS
  6
CONTINUOUS
 62
     0
 10
4639.4060820000004
 20
4163.1908860000003
 30
0.0
  0
POINT
  5
7DD1
  8
DEFPOINTS
  6
CONTINUOUS
 62
     0
 10
5406.723989000001
 20
4163.1908860000003
 30
0.0
  0
ENDBLK
  5
7B4A
  8
0
  0
BLOCK
  8
0
  2
*D7
 70
     1
 10
0.0
 20
0.0
 30
0.0
  3
*D7
  1

  0
LINE
  5
7DD2
  8
3
  6
CONTINUOUS
 62
     0
 10
2987.406082
 20
6039.6908860000003
 30
0.0
 11
2987.406082
 21
6297.923839
 31
0.0
  0
LINE
  5
7DD3
  8
3
  6
CONTINUOUS
 62
     0
 10
4137.4060820000004
 20
6039.6908860000003
 30
0.0
 11
4137.4060820000004
 21
6297.923839
 31
0.0
  0
LINE
  5
7DD4
  8
3
  6
CONTINUOUS
 62
     0
 10
3077.4060819999991
 20
6252.923839000001
 30
0.0
 11
4047.4060820000009
 21
6252.923839000001
 31
0.0
  0
INSERT
  5
7DD5
  8
3
  6
CONTINUOUS
 62
     0
  2
_OPEN
 10
2987.406082
 20
6252.923839000001
 30
0.0
 41
90.0
 42
90.0
 43
90.0
 50
180.0
  0
INSERT
  5
7DD6
  8
3
  6
CONTINUOUS
 62
     0
  2
_OPEN
 10
4137.4060820000004
 20
6252.923839000001
 30
0.0
 41
90.0
 42
90.0
 43
90.0
  0
TEXT
  8
3
  40
135
  5
7E41
  62
0
  72
0
  71
0
 10
3260.75
 20
6126.47
 30
0.000000
  1
1150
  0
POINT
  5
7DD8
  8
DEFPOINTS
  6
CONTINUOUS
 62
     0
 10
2987.406082
 20
6017.1908860000003
 30
0.0
  0
POINT
  5
7DD9
  8
DEFPOINTS
  6
CONTINUOUS
 62
     0
 10
4137.4060820000004
 20
6017.1908860000003
 30
0.0
  0
POINT
  5
7DDA
  8
DEFPOINTS
  6
CONTINUOUS
 62
     0
 10
4137.4060820000004
 20
6252.923839000001
 30
0.0
  0
ENDBLK
  5
7B57
  8
0
  0
BLOCK
  8
0
  2
*D8
 70
     1
 10
0.0
 20
0.0
 30
0.0
  3
*D8
  1

  0
LINE
  5
7DDB
  8
3
  6
CONTINUOUS
 62
     0
 10
4137.4060820000004
 20
6039.6908860000003
 30
0.0
 11
4137.4060820000004
 21
6535.2877740000013
 31
0.0
  0
LINE
  5
7DDC
  8
3
  6
CONTINUOUS
 62
     0
 10
2939.4060819999991
 20
5946.381625
 30
0.0
 11
2939.4060819999991
 21
6535.2877740000013
 31
0.0
  0
LINE
  5
7DDD
  8
3
  6
CONTINUOUS
 62
     0
 10
4047.4060820000009
 20
6490.2877740000013
 30
0.0
 11
3029.4060819999991
 21
6490.2877740000013
 31
0.0
  0
INSERT
  5
7DDE
  8
3
  6
CONTINUOUS
 62
     0
  2
_OPEN
 10
4137.4060820000004
 20
6490.2877740000013
 30
0.0
 41
90.0
 42
90.0
 43
90.0
  0
INSERT
  5
7DDF
  8
3
  6
CONTINUOUS
 62
     0
  2
_OPEN
 10
2939.4060819999991
 20
6490.2877740000013
 30
0.0
 41
90.0
 42
90.0
 43
90.0
 50
180.0
  0
TEXT
  8
3
  40
135
  5
7E42
  62
0
  72
0
  71
0
 10
3227.83
 20
6363.84
 30
0.000000
  1
1198
  0
POINT
  5
7DE1
  8
DEFPOINTS
  6
CONTINUOUS
 62
     0
 10
4137.4060820000004
 20
6017.1908860000003
 30
0.0
  0
POINT
  5
7DE2
  8
DEFPOINTS
  6
CONTINUOUS
 62
     0
 10
2939.4060819999991
 20
5923.8816249999991
 30
0.0
  0
POINT
  5
7DE3
  8
DEFPOINTS
  6
CONTINUOUS
 62
     0
 10
2939.4060819999991
 20
6490.2877740000013
 30
0.0
  0
ENDBLK
  5
7B64
  8
0
  0
BLOCK
  8
0
  2
*D9
 70
     1
 10
0.0
 20
0.0
 30
0.0
  3
*D9
  1

  0
LINE
  5
7DE4
  8
3
  6
CONTINUOUS
 62
     0
 10
2134.4060819999991
 20
5279.6908860000003
 30
0.0
 11
2134.4060819999991
 21
6535.2877740000013
 31
0.0
  0
LINE
  5
7DE5
  8
3
  6
CONTINUOUS
 62
     0
 10
2849.406082
 20
6490.2877740000013
 30
0.0
 11
2224.406082
 21
6490.2877740000013
 31
0.0
  0
INSERT
  5
7DE6
  8
3
  6
CONTINUOUS
 62
     0
  2
_OPEN
 10
2939.4060819999991
 20
6490.2877740000013
 30
0.0
 41
90.0
 42
90.0
 43
90.0
  0
INSERT
  5
7DE7
  8
3
  6
CONTINUOUS
 62
     0
  2
_OPEN
 10
2134.4060819999991
 20
6490.2877740000013
 30
0.0
 41
90.0
 42
90.0
 43
90.0
 50
180.0
  0
TEXT
  8
3
  40
135
  5
7E43
  62
0
  72
0
  71
0
 10
2266.91
 20
6363.84
 30
0.000000
  1
805
  0
POINT
  5
7DE9
  8
DEFPOINTS
  6
CONTINUOUS
 62
     0
 10
2939.4060819999991
 20
5923.8816249999991
 30
0.0
  0
POINT
  5
7DEA
  8
DEFPOINTS
  6
CONTINUOUS
 62
     0
 10
2134.4060819999991
 20
5257.1908860000003
 30
0.0
  0
POINT
  5
7DEB
  8
DEFPOINTS
  6
CONTINUOUS
 62
     0
 10
2134.4060819999991
 20
6490.2877740000013
 30
0.0
  0
ENDBLK
  5
7C65
  8
0
  0
BLOCK
  8
0
  2
*D10
 70
     1
 10
0.0
 20
0.0
 30
0.0
  3
*D10
  1

  0
LINE
  5
7DEC
  8
3
  6
CONTINUOUS
 62
     0
 10
2279.4060819999991
 20
8891.3932889999996
 30
0.0
 11
2279.4060819999991
 21
8440.7891219999983
 31
0.0
  0
LINE
  5
7DED
  8
3
  6
CONTINUOUS
 62
     0
 10
4639.4060820000004
 20
8891.3932889999996
 30
0.0
 11
4639.4060820000004
 21
8440.7891219999983
 31
0.0
  0
LINE
  5
7DEE
  8
3
  6
CONTINUOUS
 62
     0
 10
2369.406082
 20
8485.7891219999983
 30
0.0
 11
4549.4060820000004
 21
8485.7891219999983
 31
0.0
  0
INSERT
  5
7DEF
  8
3
  6
CONTINUOUS
 62
     0
  2
_OPEN
 10
2279.4060819999991
 20
8485.7891219999983
 30
0.0
 41
90.0
 42
90.0
 43
90.0
 50
180.0
  0
INSERT
  5
7DF0
  8
3
  6
CONTINUOUS
 62
     0
  2
_OPEN
 10
4639.4060820000004
 20
8485.7891219999983
 30
0.0
 41
90.0
 42
90.0
 43
90.0
  0
TEXT
  8
3
  40
135
  5
7E44
  62
0
  72
0
  71
0
 10
3148.85
 20
8359.34
 30
0.000000
  1
2360
  0
POINT
  5
7DF2
  8
DEFPOINTS
  6
CONTINUOUS
 62
     0
 10
2279.4060819999991
 20
8913.8932889999978
 30
0.0
  0
POINT
  5
7DF3
  8
DEFPOINTS
  6
CONTINUOUS
 62
     0
 10
4639.4060820000004
 20
8913.8932889999978
 30
0.0
  0
POINT
  5
7DF4
  8
DEFPOINTS
  6
CONTINUOUS
 62
     0
 10
4639.4060820000004
 20
8485.7891219999983
 30
0.0
  0
ENDBLK
  5
7B7D
  8
0
  0
BLOCK
  8
0
  2
*D11
 70
     1
 10
0.0
 20
0.0
 30
0.0
  3
*D11
  1

  0
LINE
  5
7DF5
  8
3
  6
CONTINUOUS
 62
     0
 10
4661.9060820000004
 20
10093.893288999991
 30
0.0
 11
5083.1107530000008
 21
10093.893288999991
 31
0.0
  0
LINE
  5
7DF6
  8
3
  6
CONTINUOUS
 62
     0
 10
4661.9060820000004
 20
8913.8932889999978
 30
0.0
 11
5083.1107530000008
 21
8913.8932889999978
 31
0.0
  0
LINE
  5
7DF7
  8
3
  6
CONTINUOUS
 62
     0
 10
5038.1107530000008
 20
10003.893289
 30
0.0
 11
5038.1107530000008
 21
9003.8932889999996
 31
0.0
  0
INSERT
  5
7DF8
  8
3
  6
CONTINUOUS
 62
     0
  2
_OPEN
 10
5038.1107530000008
 20
10093.893288999991
 30
0.0
 41
90.0
 42
90.0
 43
90.0
 50
90.0
  0
INSERT
  5
7DF9
  8
3
  6
CONTINUOUS
 62
     0
  2
_OPEN
 10
5038.1107530000008
 20
8913.8932889999978
 30
0.0
 41
90.0
 42
90.0
 43
90.0
 50
270.0
  0
TEXT
  8
3
  40
135
  5
7E45
  62
0
  72
0
  71
0
 10
4655.61
 20
9246.93
 30
0.000000
  1
1180
  0
POINT
  5
7DFB
  8
DEFPOINTS
  6
CONTINUOUS
 62
     0
 10
4639.4060820000004
 20
10093.893288999991
 30
0.0
  0
POINT
  5
7DFC
  8
DEFPOINTS
  6
CONTINUOUS
 62
     0
 10
4639.4060820000004
 20
8913.8932889999978
 30
0.0
  0
POINT
  5
7DFD
  8
DEFPOINTS
  6
CONTINUOUS
 62
     0
 10
5038.1107530000008
 20
8913.8932889999978
 30
0.0
  0
ENDBLK
  5
7B8A
  8
0
  0
BLOCK
  8
0
  2
*D12
 70
     1
 10
0.0
 20
0.0
 30
0.0
  3
*D12
  1

  0
LINE
  5
7DFE
  8
3
  6
CONTINUOUS
 62
     0
 10
6950.1093220000002
 20
6039.6908860000003
 30
0.0
 11
6950.1093220000002
 21
6277.560876999999
 31
0.0
  0
LINE
  5
7DFF
  8
3
  6
CONTINUOUS
 62
     0
 10
7800.1093220000002
 20
6039.6908860000003
 30
0.0
 11
7800.1093220000002
 21
6277.560876999999
 31
0.0
  0
LINE
  5
7E00
  8
3
  6
CONTINUOUS
 62
     0
 10
7040.1093220000012
 20
6232.5608769999999
 30
0.0
 11
7710.1093220000002
 21
6232.5608769999999
 31
0.0
  0
INSERT
  5
7E01
  8
3
  6
CONTINUOUS
 62
     0
  2
_OPEN
 10
6950.1093220000002
 20
6232.5608769999999
 30
0.0
 41
90.0
 42
90.0
 43
90.0
 50
180.0
  0
INSERT
  5
7E02
  8
3
  6
CONTINUOUS
 62
     0
  2
_OPEN
 10
7800.1093220000002
 20
6232.5608769999999
 30
0.0
 41
90.0
 42
90.0
 43
90.0
  0
TEXT
  8
3
  40
135
  5
7E46
  62
0
  72
0
  71
0
 10
7050.87
 20
6106.11
 30
0.000000
  1
850
  0
POINT
  5
7E04
  8
DEFPOINTS
  6
CONTINUOUS
 62
     0
 10
6950.1093220000002
 20
6017.1908860000003
 30
0.0
  0
POINT
  5
7E05
  8
DEFPOINTS
  6
CONTINUOUS
 62
     0
 10
7800.1093220000002
 20
6017.1908860000003
 30
0.0
  0
POINT
  5
7E06
  8
DEFPOINTS
  6
CONTINUOUS
 62
     0
 10
7800.1093220000002
 20
6232.5608769999999
 30
0.0
  0
ENDBLK
  5
7B9B
  8
0
  0
BLOCK
  8
0
  2
*D13
 70
     1
 10
0.0
 20
0.0
 30
0.0
  3
*D13
  1

  0
LINE
  5
7E07
  8
3
  6
CONTINUOUS
 62
     0
 10
6635.1093220000012
 20
5657.6908860000012
 30
0.0
 11
6635.1093220000012
 21
6578.6459789433693
 31
0.0
  0
LINE
  5
7E08
  8
3
  6
CONTINUOUS
 62
     0
 10
7375.1093220000002
 20
6452.0064939999993
 30
0.0
 11
7375.1093220000002
 21
6578.6459789433693
 31
0.0
  0
LINE
  5
7E09
  8
3
  6
CONTINUOUS
 62
     0
 10
6725.1093220000002
 20
6533.6459789433684
 30
0.0
 11
7285.1093220000012
 21
6533.6459789433684
 31
0.0
  0
INSERT
  5
7E0A
  8
3
  6
CONTINUOUS
 62
     0
  2
_OPEN
 10
6635.1093220000012
 20
6533.6459789433684
 30
0.0
 41
90.0
 42
90.0
 43
90.0
 50
180.0
  0
INSERT
  5
7E0B
  8
3
  6
CONTINUOUS
 62
     0
  2
_OPEN
 10
7375.1093220000002
 20
6533.6459789433684
 30
0.0
 41
90.0
 42
90.0
 43
90.0
  0
TEXT
  8
3
  40
135
  5
7E47
  62
0
  72
0
  71
0
 10
6692.97
 20
6519.70
 30
0.000000
  1
MAX
  0
TEXT
  8
3
  40
135
  5
7E48
  62
0
  72
0
  71
0
 10
6692.97
 20
6344.20
 30
0.000000
  1
850
  0
POINT
  5
7E0D
  8
DEFPOINTS
  6
CONTINUOUS
 62
     0
 10
6635.1093220000012
 20
5635.1908860000003
 30
0.0
  0
POINT
  5
7E0E
  8
DEFPOINTS
  6
CONTINUOUS
 62
     0
 10
7375.1093220000002
 20
6429.5064940000002
 30
0.0
  0
POINT
  5
7E0F
  8
DEFPOINTS
  6
CONTINUOUS
 62
     0
 10
7375.1093220000002
 20
6533.6459789433684
 30
0.0
  0
ENDBLK
  5
7C9D
  8
0
  0
BLOCK
  8
0
  2
*D14
 70
     1
 10
0.0
 20
0.0
 30
0.0
  3
*D14
  1

  0
LINE
  5
7E10
  8
3
  6
CONTINUOUS
 62
     0
 10
7903.1093220000002
 20
5889.6908860000003
 30
0.0
 11
7903.1093220000002
 21
6578.6459789433693
 31
0.0
  0
LINE
  5
7E11
  8
3
  6
CONTINUOUS
 62
     0
 10
7465.1093220000002
 20
6533.6459789433684
 30
0.0
 11
7813.1093220000012
 21
6533.6459789433684
 31
0.0
  0
TEXT
  8
3
  40
135
  5
7E49
  62
0
  72
0
  71
0
 10
7360.24
 20
6407.20
 30
0.000000
  1
528
  0
INSERT
  5
7E13
  8
3
  6
CONTINUOUS
 62
     0
  2
_OPEN
 10
7375.1093220000002
 20
6533.6459789433684
 30
0.0
 41
90.0
 42
90.0
 43
90.0
 50
180.0
  0
INSERT
  5
7E14
  8
3
  6
CONTINUOUS
 62
     0
  2
_OPEN
 10
7903.1093220000002
 20
6533.6459789433684
 30
0.0
 41
90.0
 42
90.0
 43
90.0
  0
POINT
  5
7E15
  8
DEFPOINTS
  6
CONTINUOUS
 62
     0
 10
7375.1093220000002
 20
6429.5064940000002
 30
0.0
  0
POINT
  5
7E16
  8
DEFPOINTS
  6
CONTINUOUS
 62
     0
 10
7903.1093220000002
 20
5867.1908860000003
 30
0.0
  0
POINT
  5
7E17
  8
DEFPOINTS
  6
CONTINUOUS
 62
     0
 10
7903.1093220000002
 20
6533.6459789433684
 30
0.0
  0
ENDBLK
  5
7C92
  8
0
  0
BLOCK
  8
0
  2
*D15
 70
     1
 10
0.0
 20
0.0
 30
0.0
  3
*D15
  1

  0
LINE
  5
7E18
  8
3
  6
CONTINUOUS
 62
     0
 10
7925.6093220000012
 20
5817.1908860000003
 30
0.0
 11
8320.3170370000025
 21
5817.1908860000003
 31
0.0
  0
LINE
  5
7E19
  8
3
  6
CONTINUOUS
 62
     0
 10
7925.6093220000012
 20
4697.1908860000003
 30
0.0
 11
8320.3170370000025
 21
4697.1908860000003
 31
0.0
  0
LINE
  5
7E1A
  8
3
  6
CONTINUOUS
 62
     0
 10
8275.3170370000025
 20
5727.1908860000003
 30
0.0
 11
8275.3170370000025
 21
4787.1908860000003
 31
0.0
  0
INSERT
  5
7E1B
  8
3
  6
CONTINUOUS
 62
     0
  2
_OPEN
 10
8275.3170370000025
 20
5817.1908860000003
 30
0.0
 41
90.0
 42
90.0
 43
90.0
 50
90.0
  0
INSERT
  5
7E1C
  8
3
  6
CONTINUOUS
 62
     0
  2
_OPEN
 10
8275.3170370000025
 20
4697.1908860000003
 30
0.0
 41
90.0
 42
90.0
 43
90.0
 50
270.0
  0
TEXT
  8
3
  40
135
  5
7E4A
  62
0
  72
0
  71
0
 10
7892.82
 20
4994.82
 30
0.000000
  1
φ1120
  0
POINT
  5
7E1E
  8
DEFPOINTS
  6
CONTINUOUS
 62
     0
 10
7903.1093220000002
 20
5817.1908860000003
 30
0.0
  0
POINT
  5
7E1F
  8
DEFPOINTS
  6
CONTINUOUS
 62
     0
 10
7903.1093220000002
 20
4697.1908860000003
 30
0.0
  0
POINT
  5
7E20
  8
DEFPOINTS
  6
CONTINUOUS
 62
     0
 10
8275.3170370000025
 20
4697.1908860000003
 30
0.0
  0
ENDBLK
  5
7C88
  8
0
  0
BLOCK
  8
0
  2
*D16
 70
     1
 10
0.0
 20
0.0
 30
0.0
  3
*D16
  1

  0
LINE
  5
7E21
  8
3
  6
CONTINUOUS
 62
     0
 10
6688.1093219999993
 20
4140.6908860000003
 30
0.0
 11
6688.1093219999993
 21
3780.3575139999998
 31
0.0
  0
LINE
  5
7E22
  8
3
  6
CONTINUOUS
 62
     0
 10
7375.1093220000002
 20
4053.3719460000002
 30
0.0
 11
7375.1093220000002
 21
3780.3575139999998
 31
0.0
  0
LINE
  5
7E23
  8
3
  6
CONTINUOUS
 62
     0
 10
6778.1093220000002
 20
3825.3575139999998
 30
0.0
 11
7285.1093220000012
 21
3825.3575139999998
 31
0.0
  0
INSERT
  5
7E24
  8
3
  6
CONTINUOUS
 62
     0
  2
_OPEN
 10
6688.1093219999993
 20
3825.3575139999998
 30
0.0
 41
90.0
 42
90.0
 43
90.0
 50
180.0
  0
INSERT
  5
7E25
  8
3
  6
CONTINUOUS
 62
     0
  2
_OPEN
 10
7375.1093220000002
 20
3825.3575139999998
 30
0.0
 41
90.0
 42
90.0
 43
90.0
  0
TEXT
  8
3
  40
135
  5
7E4B
  62
0
  72
0
  71
0
 10
6796.54
 20
3698.91
 30
0.000000
  1
687
  0
POINT
  5
7E27
  8
DEFPOINTS
  6
CONTINUOUS
 62
     0
 10
6688.1093219999993
 20
4163.1908860000003
 30
0.0
  0
POINT
  5
7E28
  8
DEFPOINTS
  6
CONTINUOUS
 62
     0
 10
7375.1093220000002
 20
4075.8719460000002
 30
0.0
  0
POINT
  5
7E29
  8
DEFPOINTS
  6
CONTINUOUS
 62
     0
 10
7375.1093220000002
 20
3825.3575139999998
 30
0.0
  0
ENDBLK
  5
7BE6
  8
0
  0
BLOCK
  8
0
  2
*D17
 70
     1
 10
0.0
 20
0.0
 30
0.0
  3
*D17
  1

  0
LINE
  5
7E2A
  8
3
  6
CONTINUOUS
 62
     0
 10
7868.1093220000012
 20
4140.6908860000003
 30
0.0
 11
7868.1093220000012
 21
3780.3575139999998
 31
0.0
  0
LINE
  5
7E2B
  8
3
  6
CONTINUOUS
 62
     0
 10
7465.1093220000002
 20
3825.3575139999998
 30
0.0
 11
7778.1093220000002
 21
3825.3575139999998
 31
0.0
  0
TEXT
  8
3
  40
135
  5
7E4C
  62
0
  72
0
  71
0
 10
7340.50
 20
3698.25
 30
0.000000
  1
493
  0
INSERT
  5
7E2D
  8
3
  6
CONTINUOUS
 62
     0
  2
_OPEN
 10
7375.1093220000002
 20
3825.3575139999998
 30
0.0
 41
90.0
 42
90.0
 43
90.0
 50
180.0
  0
INSERT
  5
7E2E
  8
3
  6
CONTINUOUS
 62
     0
  2
_OPEN
 10
7868.1093220000012
 20
3825.3575139999998
 30
0.0
 41
90.0
 42
90.0
 43
90.0
  0
POINT
  5
7E2F
  8
DEFPOINTS
  6
CONTINUOUS
 62
     0
 10
7375.1093220000002
 20
4075.8719460000002
 30
0.0
  0
POINT
  5
7E30
  8
DEFPOINTS
  6
CONTINUOUS
 62
     0
 10
7868.1093220000012
 20
4163.1908860000003
 30
0.0
  0
POINT
  5
7E31
  8
DEFPOINTS
  6
CONTINUOUS
 62
     0
 10
7868.1093220000012
 20
3825.3575139999998
 30
0.0
  0
ENDBLK
  5
7C0B
  8
0
  0
BLOCK
  8
0
  2
*D18
 70
     1
 10
0.0
 20
0.0
 30
0.0
  3
*D18
  1

  0
LINE
  5
7E32
  8
3
 62
     0
 10
2134.4060819999991
 20
5302.1908860000003
 30
0.0
 11
2134.4060819999991
 21
6842.2984640940604
 31
0.0
  0
LINE
  5
7E33
  8
3
 62
     0
 10
4639.4060820000004
 20
4394.6908860000003
 30
0.0
 11
4639.4060820000004
 21
6842.2984640940604
 31
0.0
  0
LINE
  5
7E34
  8
3
 62
     0
 10
2224.406082
 20
6797.2984640940595
 30
0.0
 11
4549.4060820000004
 21
6797.2984640940595
 31
0.0
  0
INSERT
  5
7E35
  8
3
 62
     0
  2
_OPEN
 10
2134.4060819999991
 20
6797.2984640940595
 30
0.0
 41
90.0
 42
90.0
 43
90.0
 50
180.0
  0
INSERT
  5
7E36
  8
3
 62
     0
  2
_OPEN
 10
4639.4060820000004
 20
6797.2984640940595
 30
0.0
 41
90.0
 42
90.0
 43
90.0
  0
TEXT
  8
3
  40
135
  5
7E4D
  62
0
  72
0
  71
0
 10
3223.08
 20
6670.85
 30
0.000000
  1
2505
  0
POINT
  5
7E38
  8
DEFPOINTS
 62
     0
 10
2134.4060819999991
 20
5279.6908860000003
 30
0.0
  0
POINT
  5
7E39
  8
DEFPOINTS
 62
     0
 10
4639.4060820000004
 20
4372.1908860000012
 30
0.0
  0
POINT
  5
7E3A
  8
DEFPOINTS
 62
     0
 10
4639.4060820000004
 20
6797.2984640940595
 30
0.0
  0
ENDBLK
  5
7C71
  8
0
  0
ENDSEC
  0
SECTION
  2
ENTITIES
  0
LINE
  5
7A6F
  8
1
  6
CONTINUOUS
 10
2279.4060819999991
 20
4228.1908860000003
 30
0.0
 11
4639.4060820000004
 21
4228.1908860000003
 31
0.0
  0
LINE
  5
7A70
  8
1
  6
CONTINUOUS
 10
2279.4060819999991
 20
4163.1908860000003
 30
0.0
 11
4639.4060820000004
 21
4163.1908860000003
 31
0.0
  0
LINE
  5
7A71
  8
1
  6
CONTINUOUS
 10
4194.4060820000004
 20
8930.8932889999996
 30
0.0
 11
4434.4060820000004
 21
8930.8932889999996
 31
0.0
  0
LINE
  5
7A72
  8
1
  6
CONTINUOUS
 10
4194.4060820000004
 20
9030.8932889999996
 30
0.0
 11
4434.4060820000004
 21
9030.8932889999996
 31
0.0
  0
LINE
  5
7A73
  8
1
  6
CONTINUOUS
 10
4534.4060820000004
 20
9100.8932889999996
 30
0.0
 11
2561.4060819999991
 21
9100.8932889999996
 31
0.0
  0
LINE
  5
7A74
  8
1
  6
CONTINUOUS
 10
4534.4060820000004
 20
8860.8932889999996
 30
0.0
 11
2561.4060819999991
 21
8860.8932889999996
 31
0.0
  0
LINE
  5
7A75
  8
1
  6
CONTINUOUS
 10
4639.4060820000004
 20
8913.8932889999978
 30
0.0
 11
2279.4060819999991
 21
8913.8932889999978
 31
0.0
  0
LINE
  5
7A76
  8
1
  6
CONTINUOUS
 10
4639.4060820000004
 20
10093.893288999991
 30
0.0
 11
3499.406082
 21
10093.893288999991
 31
0.0
  0
LINE
  5
7A77
  8
2
  6
CENTER
 10
4434.4060820000004
 20
4607.1908860000003
 30
0.0
 11
4194.4060820000004
 21
4607.1908860000003
 31
0.0
  0
CIRCLE
  5
7A78
  8
1
  6
CONTINUOUS
 10
4314.4060820000004
 20
4607.1908860000003
 30
0.0
 40
120.0
  0
LINE
  5
7A79
  8
1
  6
CONTINUOUS
 10
4539.4060820000013
 20
4372.1908860000012
 30
0.0
 11
4089.4060819999991
 21
4372.1908860000012
 31
0.0
  0
ARC
  5
7A7A
  8
1
  6
CONTINUOUS
 10
3021.406082
 20
5339.1908860000003
 30
0.0
 40
1054.2
 50
270.0
 51
355.5
  0
LINE
  5
7A7B
  8
1
  6
CONTINUOUS
 10
2279.4060819999991
 20
4247.1908860000012
 30
0.0
 11
4639.4060820000004
 21
4247.1908860000012
 31
0.0
  0
LINE
  5
7A7C
  8
1
  6
CONTINUOUS
 10
2279.4060819999991
 20
4372.1908860000012
 30
0.0
 11
4639.4060820000004
 21
4372.1908860000012
 31
0.0
  0
ARC
  5
7A7D
  8
1
  6
CONTINUOUS
 10
4314.4060820000004
 20
4607.1908860000003
 30
0.0
 40
199.0
 50
320.10000000000002
 51
219.90000000000001
  0
LINE
  5
7A7E
  8
1
  6
CONTINUOUS
 10
4513.5060819999999
 20
9749.0932890000004
 30
0.0
 11
4137.4060820000004
 21
9749.0932890000004
 31
0.0
  0
LINE
  5
7A7F
  8
1
  6
CONTINUOUS
 10
4513.5060819999999
 20
9149.5932890000004
 30
0.0
 11
4115.3060820000001
 21
9149.5932890000004
 31
0.0
  0
LINE
  5
7A80
  8
1
  6
CONTINUOUS
 10
4539.4060820000013
 20
4427.1908860000003
 30
0.0
 11
4089.4060819999991
 21
4427.1908860000003
 31
0.0
  0
LINE
  5
7A81
  8
1
  6
CONTINUOUS
 10
4376.7060819999997
 20
4709.7908859999989
 30
0.0
 11
3083.7060820000002
 21
5494.7908859999998
 31
0.0
  0
LINE
  5
7A82
  8
1
  6
CONTINUOUS
 10
4428.6060820000002
 20
4795.2908859999998
 30
0.0
 11
3135.6060819999998
 21
5580.2908859999998
 31
0.0
  0
LINE
  5
7A83
  8
1
  6
CONTINUOUS
 10
4274.7060819999988
 20
4493.9908859999987
 30
0.0
 11
2847.3060820000001
 21
4994.8908860000001
 31
0.0
  0
LINE
  5
7A84
  8
1
  6
CONTINUOUS
 10
4241.506081999999
 20
4399.590886
 30
0.0
 11
2814.2060820000002
 21
4900.4908859999996
 31
0.0
  0
LINE
  5
7A85
  8
2
  6
CENTER
 10
2022.9152699999991
 20
5257.1908860000003
 30
0.0
 11
4119.8641289999987
 21
5257.1908860000003
 31
0.0
  0
ARC
  5
7A86
  8
1
  6
CONTINUOUS
 10
2939.4060819999991
 20
5257.1908860000003
 30
0.0
 40
378.0
 50
58.700000000000003
 51
250.69999999999999
  0
LINE
  5
7A87
  8
1
  6
CONTINUOUS
 10
2934.406082
 20
6017.1908860000003
 30
0.0
 11
4190.4060820000004
 21
6017.1908860000003
 31
0.0
  0
LINE
  5
7A88
  8
1
  6
CONTINUOUS
 10
2987.406082
 20
5977.1908860000003
 30
0.0
 11
4134.006081999999
 21
5977.1908860000003
 31
0.0
  0
CIRCLE
  5
7A89
  8
1
  6
CONTINUOUS
 10
2939.4060819999991
 20
5257.1908860000003
 30
0.0
 40
560.0
  0
CIRCLE
  5
7A8A
  8
1
  6
CONTINUOUS
 10
2939.4060819999991
 20
5257.1908860000003
 30
0.0
 40
610.0
  0
CIRCLE
  5
7A8B
  8
1
  6
CONTINUOUS
 10
2939.4060819999991
 20
5257.1908860000003
 30
0.0
 40
278.0
  0
LINE
  5
7A8C
  8
2
  6
CENTER
 10
2939.4060819999991
 20
4065.2281869999988
 30
0.0
 11
2939.4060819999991
 21
6131.9355679999999
 31
0.0
  0
ARC
  5
7A8D
  8
1
  6
CONTINUOUS
 10
2870.906082
 20
5188.6908860000003
 30
0.0
 40
739.10000000000002
 50
90.0
 51
174.90000000000001
  0
ARC
  5
7A8E
  8
1
  6
CONTINUOUS
 10
3021.406082
 20
5175.1908860000012
 30
0.0
 40
890.20000000000005
 50
174.90000000000001
 51
270.0
  0
LINE
  5
7A8F
  8
1
  6
CONTINUOUS
 10
2279.4060819999991
 20
4228.1908860000003
 30
0.0
 11
2279.4060819999991
 21
4163.1908860000003
 31
0.0
  0
LINE
  5
7A90
  8
1
  6
CONTINUOUS
 10
2279.4060819999991
 20
4372.1908860000012
 30
0.0
 11
2279.4060819999991
 21
4247.1908860000012
 31
0.0
  0
LINE
  5
7A91
  8
1
  6
CONTINUOUS
 10
2987.406082
 20
5916.3908860000001
 30
0.0
 11
2987.406082
 21
6017.1908860000003
 31
0.0
  0
ARC
  5
7A92
  8
1
  6
CONTINUOUS
 10
2870.906082
 20
5325.6908860000003
 30
0.0
 40
602.10000000000002
 50
78.799999999999983
 51
90.0
  0
LINE
  5
7A93
  8
1
  6
CONTINUOUS
 10
4137.4060820000004
 20
6017.1908860000003
 30
0.0
 11
4072.4060819999991
 21
5257.1908860000003
 31
0.0
  0
LINE
  5
7A94
  8
1
  6
CONTINUOUS
 10
4089.4060819999991
 20
4372.1908860000012
 30
0.0
 11
4089.4060819999991
 21
4427.1908860000003
 31
0.0
  0
LINE
  5
7A95
  8
1
  6
CONTINUOUS
 10
4152.4060820000004
 20
4469.6908860000003
 30
0.0
 11
4161.7060819999997
 21
4479.590885999999
 31
0.0
  0
LINE
  5
7A96
  8
1
  6
CONTINUOUS
 10
4152.4060820000004
 20
4427.1908860000003
 30
0.0
 11
4152.4060820000004
 21
4469.6908860000003
 31
0.0
  0
LINE
  5
7A97
  8
1
  6
CONTINUOUS
 10
2661.406082
 20
9030.8932889999996
 30
0.0
 11
3217.406082
 21
9030.8932889999996
 31
0.0
  0
LINE
  5
7A98
  8
1
  6
CONTINUOUS
 10
2661.406082
 20
8930.8932889999996
 30
0.0
 11
3217.406082
 21
8930.8932889999996
 31
0.0
  0
LINE
  5
7A99
  8
1
  6
CONTINUOUS
 10
3549.406082
 20
10128.893289
 30
0.0
 11
2329.4060819999991
 21
10128.893289
 31
0.0
  0
LINE
  5
7A9A
  8
1
  6
CONTINUOUS
 10
4137.4060820000004
 20
9175.8932889999996
 30
0.0
 11
2131.2060820000002
 21
9175.8932889999996
 31
0.0
  0
LINE
  5
7A9B
  8
1
  6
CONTINUOUS
 10
4137.4060820000004
 20
10025.893289
 30
0.0
 11
2131.2060820000002
 21
10025.893289
 31
0.0
  0
LINE
  5
7A9C
  8
1
  6
CONTINUOUS
 10
4137.4060820000004
 20
10025.893289
 30
0.0
 11
2987.406082
 21
9175.8932889999996
 31
0.0
  0
LINE
  5
7A9D
  8
1
  6
CONTINUOUS
 10
4137.4060820000004
 20
9175.8932889999996
 30
0.0
 11
2987.406082
 21
10025.893289
 31
0.0
  0
LINE
  5
7A9E
  8
1
  6
CONTINUOUS
 10
2131.2060820000002
 20
9175.8932889999996
 30
0.0
 11
2131.2060820000002
 21
10025.893289
 31
0.0
  0
LINE
  5
7A9F
  8
1
  6
CONTINUOUS
 10
2987.406082
 20
9175.8932889999996
 30
0.0
 11
2987.406082
 21
10025.893289
 31
0.0
  0
LINE
  5
7AA0
  8
1
  6
CONTINUOUS
 10
2279.4060819999991
 20
9175.8932889999996
 30
0.0
 11
2279.4060819999991
 21
8913.8932889999978
 31
0.0
  0
LINE
  5
7AA1
  8
1
  6
CONTINUOUS
 10
2561.4060819999991
 20
8860.8932889999996
 30
0.0
 11
2561.4060819999991
 21
9100.8932889999996
 31
0.0
  0
LINE
  5
7AA2
  8
1
  6
CONTINUOUS
 10
2661.406082
 20
8930.8932889999996
 30
0.0
 11
2661.406082
 21
9030.8932889999996
 31
0.0
  0
LINE
  5
7AA3
  8
1
  6
CONTINUOUS
 10
2966.9060819999991
 20
9175.8932889999996
 30
0.0
 11
2966.9060819999991
 21
9030.8932889999996
 31
0.0
  0
LINE
  5
7AA4
  8
1
  6
CONTINUOUS
 10
2911.906082
 20
9175.8932889999996
 30
0.0
 11
2911.906082
 21
9030.8932889999996
 31
0.0
  0
LINE
  5
7AA5
  8
1
  6
CONTINUOUS
 10
2379.406082
 20
10128.893289
 30
0.0
 11
2379.406082
 21
10025.893289
 31
0.0
  0
LINE
  5
7AA6
  8
1
  6
CONTINUOUS
 10
2279.4060819999991
 20
10093.893288999991
 30
0.0
 11
2279.4060819999991
 21
10025.893289
 31
0.0
  0
LINE
  5
7AA7
  8
1
  6
CONTINUOUS
 10
2379.406082
 20
10093.893288999991
 30
0.0
 11
2279.4060819999991
 21
10093.893288999991
 31
0.0
  0
LINE
  5
7AA8
  8
1
  6
CONTINUOUS
 10
4137.4060820000004
 20
9175.8932889999996
 30
0.0
 11
4137.4060820000004
 21
10025.893289
 31
0.0
  0
LINE
  5
7AA9
  8
1
  6
CONTINUOUS
 10
3217.406082
 20
8930.8932889999996
 30
0.0
 11
3217.406082
 21
9030.8932889999996
 31
0.0
  0
LINE
  5
7AAA
  8
1
  6
CONTINUOUS
 10
4194.4060820000004
 20
8930.8932889999996
 30
0.0
 11
4194.4060820000004
 21
9030.8932889999996
 31
0.0
  0
LINE
  5
7AAB
  8
1
  6
CONTINUOUS
 10
4115.3060820000001
 20
9149.5932890000004
 30
0.0
 11
4115.3060820000001
 21
9175.8932889999996
 31
0.0
  0
LINE
  5
7AAC
  8
1
  6
CONTINUOUS
 10
3499.406082
 20
10128.893289
 30
0.0
 11
3499.406082
 21
10025.893289
 31
0.0
  0
LINE
  5
7AAD
  8
2
  6
CENTER
 10
4314.4060820000004
 20
4487.1908860000003
 30
0.0
 11
4314.4060820000004
 21
4727.1908860000003
 31
0.0
  0
ARC
  5
7AAE
  8
1
  6
CONTINUOUS
 10
4314.4060820000004
 20
4607.1908860000003
 30
0.0
 40
220.0
 50
250.69999999999999
 51
58.700000000000003
  0
LINE
  5
7AAF
  8
1
  6
CONTINUOUS
 10
4539.4060820000013
 20
4372.1908860000012
 30
0.0
 11
4539.4060820000013
 21
4427.1908860000003
 31
0.0
  0
LINE
  5
7AB0
  8
1
  6
CONTINUOUS
 10
4476.4060820000004
 20
4469.6908860000003
 30
0.0
 11
4467.1060819999993
 21
4479.590885999999
 31
0.0
  0
LINE
  5
7AB1
  8
1
  6
CONTINUOUS
 10
4476.4060820000004
 20
4427.1908860000003
 30
0.0
 11
4476.4060820000004
 21
4469.6908860000003
 31
0.0
  0
LINE
  5
7AB2
  8
1
  6
CONTINUOUS
 10
4639.4060820000004
 20
4228.1908860000003
 30
0.0
 11
4639.4060820000004
 21
4163.1908860000003
 31
0.0
  0
LINE
  5
7AB3
  8
1
  6
CONTINUOUS
 10
4639.4060820000004
 20
4372.1908860000012
 30
0.0
 11
4639.4060820000004
 21
4247.1908860000012
 31
0.0
  0
LINE
  5
7AB4
  8
1
  6
CONTINUOUS
 10
4639.4060820000004
 20
10093.893288999991
 30
0.0
 11
4639.4060820000004
 21
8913.8932889999978
 31
0.0
  0
LINE
  5
7AB5
  8
1
  6
CONTINUOUS
 10
4534.4060820000004
 20
8860.8932889999996
 30
0.0
 11
4534.4060820000004
 21
9100.8932889999996
 31
0.0
  0
LINE
  5
7AB6
  8
1
  6
CONTINUOUS
 10
4434.4060820000004
 20
8930.8932889999996
 30
0.0
 11
4434.4060820000004
 21
9030.8932889999996
 31
0.0
  0
LINE
  5
7AB7
  8
1
  6
CONTINUOUS
 10
4286.9060820000004
 20
9030.8932889999996
 30
0.0
 11
4286.9060820000004
 21
9149.5932890000004
 31
0.0
  0
LINE
  5
7AB8
  8
1
  6
CONTINUOUS
 10
4341.9060820000004
 20
9030.8932889999996
 30
0.0
 11
4341.9060820000004
 21
9149.5932890000004
 31
0.0
  0
LINE
  5
7AB9
  8
1
  6
CONTINUOUS
 10
4513.5060819999999
 20
9149.5932890000004
 30
0.0
 11
4513.5060819999999
 21
9749.0932890000004
 31
0.0
  0
LINE
  5
7ABA
  8
1
  6
CONTINUOUS
 10
7868.1093220000012
 20
4372.1908860000012
 30
0.0
 11
6688.1093219999993
 21
4372.1908860000012
 31
0.0
  0
LINE
  5
7ABB
  8
1
  6
CONTINUOUS
 10
7868.1093220000012
 20
4247.1908860000012
 30
0.0
 11
6688.1093219999993
 21
4247.1908860000012
 31
0.0
  0
LINE
  5
7ABC
  8
1
  6
CONTINUOUS
 10
6635.1093220000012
 20
5635.1908860000003
 30
0.0
 11
6875.1093220000002
 21
5635.1908860000003
 31
0.0
  0
LINE
  5
7ABD
  8
1
  6
CONTINUOUS
 10
6635.1093220000012
 20
4387.1908860000003
 30
0.0
 11
6875.1093220000002
 21
4387.1908860000003
 31
0.0
  0
LINE
  5
7ABE
  8
1
  6
CONTINUOUS
 10
6805.1093219999993
 20
4634.6908860000003
 30
0.0
 11
6950.1093220000002
 21
4634.6908860000003
 31
0.0
  0
LINE
  5
7ABF
  8
1
  6
CONTINUOUS
 10
6805.1093219999993
 20
4579.6908860000003
 30
0.0
 11
6950.1093220000002
 21
4579.6908860000003
 31
0.0
  0
LINE
  5
7AC0
  8
1
  6
CONTINUOUS
 10
6805.1093219999993
 20
5284.6908860000003
 30
0.0
 11
6950.1093220000002
 21
5284.6908860000003
 31
0.0
  0
LINE
  5
7AC1
  8
1
  6
CONTINUOUS
 10
6805.1093219999993
 20
5229.6908860000003
 30
0.0
 11
6950.1093220000002
 21
5229.6908860000003
 31
0.0
  0
LINE
  5
7AC2
  8
1
  6
CONTINUOUS
 10
7868.1093220000012
 20
4163.1908860000003
 30
0.0
 11
6688.1093219999993
 21
4163.1908860000003
 31
0.0
  0
LINE
  5
7AC3
  8
1
  6
CONTINUOUS
 10
7868.1093220000012
 20
4228.1908860000003
 30
0.0
 11
6688.1093219999993
 21
4228.1908860000003
 31
0.0
  0
LINE
  5
7AC5
  8
1
  6
CONTINUOUS
 10
6635.1093220000012
 20
4387.1908860000003
 30
0.0
 11
6635.1093220000012
 21
5635.1908860000003
 31
0.0
  0
LINE
  5
7AC6
  8
1
  6
CONTINUOUS
 10
6705.1093220000002
 20
5535.1908860000003
 30
0.0
 11
6705.1093220000002
 21
4979.1908860000012
 31
0.0
  0
LINE
  5
7AC7
  8
1
  6
CONTINUOUS
 10
6805.1093219999993
 20
5535.1908860000003
 30
0.0
 11
6805.1093219999993
 21
4979.1908860000012
 31
0.0
  0
LINE
  5
7AC8
  8
1
  6
CONTINUOUS
 10
6705.1093220000002
 20
4727.1908860000003
 30
0.0
 11
6705.1093220000002
 21
4487.1908860000003
 31
0.0
  0
LINE
  5
7AC9
  8
1
  6
CONTINUOUS
 10
6805.1093219999993
 20
4727.1908860000003
 30
0.0
 11
6805.1093219999993
 21
4487.1908860000003
 31
0.0
  0
LINE
  5
7ACC
  8
1
  6
CONTINUOUS
 10
6688.1093219999993
 20
4247.1908860000012
 30
0.0
 11
6688.1093219999993
 21
4372.1908860000012
 31
0.0
  0
LINE
  5
7ACD
  8
1
  6
CONTINUOUS
 10
6705.1093220000002
 20
4487.1908860000003
 30
0.0
 11
6805.1093219999993
 21
4487.1908860000003
 31
0.0
  0
LINE
  5
7ACE
  8
1
  6
CONTINUOUS
 10
6688.1093219999993
 20
4163.1908860000003
 30
0.0
 11
6688.1093219999993
 21
4228.1908860000003
 31
0.0
  0
LINE
  5
7ACF
  8
1
  6
CONTINUOUS
 10
6705.1093220000002
 20
4727.1908860000003
 30
0.0
 11
6805.1093219999993
 21
4727.1908860000003
 31
0.0
  0
LINE
  5
7AD0
  8
1
  6
CONTINUOUS
 10
6705.1093220000002
 20
4979.1908860000012
 30
0.0
 11
6805.1093219999993
 21
4979.1908860000012
 31
0.0
  0
LINE
  5
7AD1
  8
1
  6
CONTINUOUS
 10
6705.1093220000002
 20
5535.1908860000003
 30
0.0
 11
6805.1093219999993
 21
5535.1908860000003
 31
0.0
  0
LINE
  5
7AD2
  8
1
  6
CONTINUOUS
 10
6950.1093220000002
 20
4372.1908860000012
 30
0.0
 11
6950.1093220000002
 21
6017.1908860000003
 31
0.0
  0
LINE
  5
7AD3
  8
1
  6
CONTINUOUS
 10
7800.1093220000002
 20
4372.1908860000012
 30
0.0
 11
7800.1093220000002
 21
6017.1908860000003
 31
0.0
  0
LINE
  5
7AD4
  8
1
  6
CONTINUOUS
 10
7903.1093220000002
 20
4647.1908860000003
 30
0.0
 11
7903.1093220000002
 21
5867.1908860000003
 31
0.0
  0
LINE
  5
7AD5
  8
1
  6
CONTINUOUS
 10
6875.1093220000002
 20
4387.1908860000003
 30
0.0
 11
6875.1093220000002
 21
5635.1908860000003
 31
0.0
  0
LINE
  5
7AD6
  8
1
  6
CONTINUOUS
 10
7868.1093220000012
 20
4247.1908860000012
 30
0.0
 11
7868.1093220000012
 21
4372.1908860000012
 31
0.0
  0
LINE
  5
7AD7
  8
1
  6
CONTINUOUS
 10
7868.1093220000012
 20
4163.1908860000003
 30
0.0
 11
7868.1093220000012
 21
4228.1908860000003
 31
0.0
  0
LINE
  5
7AD8
  8
1
  6
CONTINUOUS
 10
7800.1093220000002
 20
4697.1908860000003
 30
0.0
 11
7903.1093220000002
 21
4697.1908860000003
 31
0.0
  0
LINE
  5
7AD9
  8
1
  6
CONTINUOUS
 10
7850.1093220000002
 20
6017.1908860000003
 30
0.0
 11
6900.1093220000002
 21
6017.1908860000003
 31
0.0
  0
LINE
  5
7ADA
  8
1
  6
CONTINUOUS
 10
7800.1093220000002
 20
5977.1908860000003
 30
0.0
 11
6950.1093220000002
 21
5977.1908860000003
 31
0.0
  0
LINE
  5
7ADB
  8
1
  6
CONTINUOUS
 10
7800.1093220000002
 20
5817.1908860000003
 30
0.0
 11
7903.1093220000002
 21
5817.1908860000003
 31
0.0
  0
DIMENSION
  5
7AEF
  8
3
  6
CONTINUOUS
  2
*D1
 10
2939.4060819999991
 20
3838.4909309999998
 30
0.0
 11
2630.8346539999998
 21
3838.4909309999998
 31
0.0
 70
   128
 13
2279.4060819999991
 23
4163.1908860000003
 33
0.0
 14
2939.4060819999991
 24
4065.2281869999988
 34
0.0
1001
ACAD
1000
DSTYLE
1002
{
1070
   287
1070
     3
1070
   287
1070
     3
1070
    40
1040
45.0
1070
   143
1040
0.039
1070
   172
1070
     1
1070
   271
1070
     0
1070
   279
1070
     0
1070
   288
1070
     1
1002
}
  0
DIMENSION
  5
7AFB
  8
3
  6
CONTINUOUS
  2
*D2
 10
4639.4060820000004
 20
3838.4909309999998
 30
0.0
 11
3789.4060820000009
 21
3950.9909309999998
 31
0.0
 70
     0
 13
2939.4060819999991
 23
4065.2281869999988
 33
0.0
 14
4639.4060820000004
 24
4163.1908860000003
 34
0.0
1001
ACAD
1000
DSTYLE
1002
{
1070
   287
1070
     4
1070
   287
1070
     4
1070
    40
1040
45.0
1070
    75
1070
     1
1070
   143
1040
0.039
1070
   172
1070
     1
1070
   271
1070
     0
1070
   279
1070
     1
1070
   288
1070
     1
1002
}
  0
DIMENSION
  5
7B08
  8
3
  6
CONTINUOUS
  2
*D3
 10
5077.605050000001
 20
5257.1908860000003
 30
0.0
 11
5077.6050500000001
 21
5640.1152419999999
 31
0.0
 70
   128
 13
4190.4060820000004
 23
6017.1908860000003
 33
0.0
 14
4072.4060819999991
 24
5257.1908860000003
 34
0.0
 50
90.0
1001
ACAD
1000
DSTYLE
1002
{
1070
   287
1070
     3
1070
   287
1070
     3
1070
    40
1040
45.0
1070
   143
1040
0.039
1070
   172
1070
     1
1070
   271
1070
     0
1070
   279
1070
     0
1070
   288
1070
     1
1002
}
  0
DIMENSION
  5
7B14
  8
3
  6
CONTINUOUS
  2
*D4
 10
5077.6050500000001
 20
4247.1908860000012
 30
0.0
 11
4965.1050500000001
 21
4752.1908860000012
 31
0.0
 70
     0
 13
4072.4060819999991
 23
5257.1908860000003
 33
0.0
 14
4639.4060820000004
 24
4247.1908860000012
 34
0.0
 50
90.0
1001
ACAD
1000
DSTYLE
1002
{
1070
   287
1070
     4
1070
   287
1070
     4
1070
    40
1040
45.0
1070
    75
1070
     1
1070
   143
1040
0.039
1070
   172
1070
     1
1070
   271
1070
     0
1070
   279
1070
     1
1070
   288
1070
     1
1002
}
  0
DIMENSION
  5
7B24
  8
3
  6
CONTINUOUS
  2
*D5
 10
5077.605050000001
 20
4163.1908860000003
 30
0.0
 11
5077.6050500000001
 21
3825.6908860000008
 31
0.0
 70
   128
 13
4639.4060820000004
 23
4247.1908860000012
 33
0.0
 14
4639.4060820000004
 24
4163.1908860000003
 34
0.0
 50
90.0
1001
ACAD
1000
DSTYLE
1002
{
1070
   287
1070
     3
1070
   287
1070
     3
1070
    40
1040
45.0
1070
   143
1040
0.039
1070
   172
1070
     1
1070
   271
1070
     0
1070
   279
1070
     0
1070
   288
1070
     1
1002
}
  0
DIMENSION
  5
7B4B
  8
3
  6
CONTINUOUS
  2
*D6
 10
5406.723989000001
 20
4163.1908860000003
 30
0.0
 11
5406.7239890000001
 21
5028.6150210000014
 31
0.0
 70
   128
 13
4137.4060820000004
 23
6017.1908860000003
 33
0.0
 14
4639.4060820000004
 24
4163.1908860000003
 34
0.0
 50
90.0
1001
ACAD
1000
DSTYLE
1002
{
1070
   287
1070
     3
1070
   287
1070
     3
1070
    40
1040
45.0
1070
   143
1040
0.039
1070
   172
1070
     1
1070
   271
1070
     0
1070
   279
1070
     0
1070
   288
1070
     1
1002
}
  0
DIMENSION
  5
7B58
  8
3
  6
CONTINUOUS
  2
*D7
 10
4137.4060820000004
 20
6252.923839000001
 30
0.0
 11
3530.745903
 21
6252.923839000001
 31
0.0
 70
   128
 13
2987.406082
 23
6017.1908860000003
 33
0.0
 14
4137.4060820000004
 24
6017.1908860000003
 34
0.0
1001
ACAD
1000
DSTYLE
1002
{
1070
   287
1070
     3
1070
   287
1070
     3
1070
    40
1040
45.0
1070
   143
1040
0.039
1070
   172
1070
     1
1070
   271
1070
     0
1070
   279
1070
     0
1070
   288
1070
     1
1002
}
  0
DIMENSION
  5
7B65
  8
3
  6
CONTINUOUS
  2
*D8
 10
2939.4060819999991
 20
6490.2877740000013
 30
0.0
 11
3497.8340520000002
 21
6490.2877740000013
 31
0.0
 70
   128
 13
4137.4060820000004
 23
6017.1908860000003
 33
0.0
 14
2939.4060819999991
 24
5923.8816249999991
 34
0.0
1001
ACAD
1000
DSTYLE
1002
{
1070
   287
1070
     3
1070
   287
1070
     3
1070
    40
1040
45.0
1070
   143
1040
0.039
1070
   172
1070
     1
1070
   271
1070
     0
1070
   279
1070
     0
1070
   288
1070
     1
1002
}
  0
DIMENSION
  5
7B71
  8
3
  6
CONTINUOUS
  2
*D9
 10
2134.4060819999991
 20
6490.2877740000013
 30
0.0
 11
2536.906082
 21
6602.7877740000013
 31
0.0
 70
     0
 13
2939.4060819999991
 23
5923.8816249999991
 33
0.0
 14
2134.4060819999991
 24
5257.1908860000003
 34
0.0
1001
ACAD
1000
DSTYLE
1002
{
1070
   287
1070
     4
1070
   287
1070
     4
1070
    40
1040
45.0
1070
    75
1070
     1
1070
   143
1040
0.039
1070
   172
1070
     1
1070
   271
1070
     0
1070
   279
1070
     1
1070
   288
1070
     1
1002
}
  0
DIMENSION
  5
7B7E
  8
3
  6
CONTINUOUS
  2
*D10
 10
4639.4060820000004
 20
8485.7891219999983
 30
0.0
 11
3418.8454590000001
 21
8485.7891219999983
 31
0.0
 70
   128
 13
2279.4060819999991
 23
8913.8932889999978
 33
0.0
 14
4639.4060820000004
 24
8913.8932889999978
 34
0.0
1001
ACAD
1000
DSTYLE
1002
{
1070
   287
1070
     3
1070
   287
1070
     3
1070
    40
1040
45.0
1070
   143
1040
0.039
1070
   172
1070
     1
1070
   271
1070
     0
1070
   279
1070
     0
1070
   288
1070
     1
1002
}
  0
DIMENSION
  5
7B8B
  8
3
  6
CONTINUOUS
  2
*D11
 10
5038.1107530000008
 20
8913.8932889999978
 30
0.0
 11
5038.1107529999999
 21
9485.8845629999996
 31
0.0
 70
   128
 13
4639.4060820000004
 23
10093.893288999991
 33
0.0
 14
4639.4060820000004
 24
8913.8932889999978
 34
0.0
 50
90.0
1001
ACAD
1000
DSTYLE
1002
{
1070
   287
1070
     3
1070
   287
1070
     3
1070
    40
1040
45.0
1070
   143
1040
0.039
1070
   172
1070
     1
1070
   271
1070
     0
1070
   279
1070
     0
1070
   288
1070
     1
1002
}
  0
LINE
  5
7B8C
  8
2
  6
CENTER
 10
2032.4703679999991
 20
9600.8932889999996
 30
0.0
 11
4333.7961849999992
 21
9600.8932889999996
 31
0.0
  0
LINE
  5
7B8D
  8
2
  6
CENTER
 10
2939.4060819999991
 20
8779.7139279999992
 30
0.0
 11
2939.4060819999991
 21
10251.529395
 31
0.0
  0
LINE
  5
7B8E
  8
2
  6
CENTER
 10
2939.4060819999991
 20
8569.3052680000001
 30
0.0
 11
2939.4060819999991
 21
8727.1117550000017
 31
0.0
  0
LINE
  5
7B8F
  8
2
  6
CENTER
 10
7375.1093220000002
 20
6256.3070479999997
 30
0.0
 11
7375.1093220000002
 21
4075.8719460000002
 31
0.0
  0
DIMENSION
  5
7B9C
  8
3
  6
CONTINUOUS
  2
*D12
 10
7800.1093220000002
 20
6232.5608769999999
 30
0.0
 11
7320.8720680000006
 21
6232.5608769999999
 31
0.0
 70
   128
 13
6950.1093220000002
 23
6017.1908860000003
 33
0.0
 14
7800.1093220000002
 24
6017.1908860000003
 34
0.0
1001
ACAD
1000
DSTYLE
1002
{
1070
   287
1070
     3
1070
   287
1070
     3
1070
    40
1040
45.0
1070
   143
1040
0.039
1070
   172
1070
     1
1070
   271
1070
     0
1070
   279
1070
     0
1070
   288
1070
     1
1002
}
  0
DIMENSION
  5
7BA9
  8
3
  6
CONTINUOUS
  2
*D13
 10
7375.1093220000002
 20
6533.6459789433684
 30
0.0
 11
6962.9664648571434
 21
6533.6459789433684
 31
0.0
 70
   128
  1
MAX\P850
 13
6635.1093220000012
 23
5635.1908860000003
 33
0.0
 14
7375.1093220000002
 24
6429.5064940000002
 34
0.0
1001
ACAD
1000
DSTYLE
1002
{
1070
   287
1070
     3
1070
   287
1070
     3
1070
    40
1040
45.0
1070
   143
1040
0.039
1070
   172
1070
     1
1070
   271
1070
     0
1070
   279
1070
     0
1070
   288
1070
     1
1002
}
  0
DIMENSION
  5
7BB7
  8
3
  6
CONTINUOUS
  2
*D14
 10
7903.1093220000002
 20
6533.6459789433684
 30
0.0
 11
7630.2438860000011
 21
6533.6459789433684
 31
0.0
 70
   128
 13
7375.1093220000002
 23
6429.5064940000002
 33
0.0
 14
7903.1093220000002
 24
5867.1908860000003
 34
0.0
1001
ACAD
1000
DSTYLE
1002
{
1070
   287
1070
     4
1070
   287
1070
     4
1070
    40
1040
45.0
1070
    75
1070
     1
1070
   143
1040
0.039
1070
   172
1070
     1
1070
   271
1070
     0
1070
   279
1070
     1
1070
   288
1070
     1
1002
}
  0
DIMENSION
  5
7BDA
  8
3
  6
CONTINUOUS
  2
*D15
 10
8275.3170370000025
 20
4697.1908860000003
 30
0.0
 11
8275.3170370000007
 21
5233.7738740000004
 31
0.0
 70
   128
 13
7903.1093220000002
 23
5817.1908860000003
 33
0.0
 14
7903.1093220000002
 24
4697.1908860000003
 34
0.0
 50
90.0
1001
ACAD
1000
DSTYLE
1002
{
1070
   287
1070
     3
1070
   287
1070
     3
1070
     3
1000
φ<>
1070
    40
1040
45.0
1070
   143
1040
0.039
1070
   172
1070
     1
1070
   271
1070
     0
1070
   279
1070
     0
1070
   288
1070
     1
1002
}
  0
DIMENSION
  5
7BE7
  8
3
  6
CONTINUOUS
  2
*D16
 10
7375.1093220000002
 20
3825.3575139999998
 30
0.0
 11
7066.5378929999997
 21
3825.3575139999998
 31
0.0
 70
   128
 13
6688.1093219999993
 23
4163.1908860000003
 33
0.0
 14
7375.1093220000002
 24
4075.8719460000002
 34
0.0
1001
ACAD
1000
DSTYLE
1002
{
1070
   287
1070
     3
1070
   287
1070
     3
1070
    40
1040
45.0
1070
   143
1040
0.039
1070
   172
1070
     1
1070
   271
1070
     0
1070
   279
1070
     0
1070
   288
1070
     1
1002
}
  0
DIMENSION
  5
7BF5
  8
3
  6
CONTINUOUS
  2
*D17
 10
7868.1093220000012
 20
3825.3575139999998
 30
0.0
 11
7610.4967649999999
 21
3824.7033889999998
 31
0.0
 70
   128
 13
7375.1093220000002
 23
4075.8719460000002
 33
0.0
 14
7868.1093220000012
 24
4163.1908860000003
 34
0.0
1001
ACAD
1000
DSTYLE
1002
{
1070
   287
1070
     4
1070
   287
1070
     4
1070
    40
1040
45.0
1070
    75
1070
     1
1070
   143
1040
0.039
1070
   172
1070
     1
1070
   271
1070
     0
1070
   279
1070
     1
1070
   288
1070
     1
1002
}
  0
LINE
  5
7C0C
  8
2
  6
CENTER
 10
6542.1796509999986
 20
5257.1908860000003
 30
0.0
 11
7999.4997569999987
 21
5257.1908860000003
 31
0.0
  0
LINE
  5
7C0D
  8
4
  6
CONTINUOUS
 10
9250.0
 20
2500.0
 30
0.0
 11
9250.0
 21
1500.0
 31
0.0
  0
LINE
  5
7C0E
  8
4
  6
CONTINUOUS
 10
5750.0
 20
2500.0
 30
0.0
 11
5750.0
 21
1500.0
 31
0.0
  0
LINE
  5
7C0F
  8
4
  6
CONTINUOUS
 10
3250.0
 20
2500.0
 30
0.0
 11
3250.0
 21
1500.0
 31
0.0
  0
LINE
  5
7C12
  8
4
  6
CONTINUOUS
 10
3250.0
 20
1500.0
 30
0.0
 11
9250.0
 21
1500.0
 31
0.0
  0
LINE
  5
7C13
  8
4
  6
CONTINUOUS
 10
3250.0
 20
2000.0
 30
0.0
 11
9250.0
 21
2000.0
 31
0.0
  0
TEXT
  5
7C14
  8
4
  6
CONTINUOUS
 10
3442.5104040000001
 20
2157.7151289999988
 30
0.0
 40
250.0
  1
機器名称
  0
TEXT
  5
7C15
  8
4
  6
CONTINUOUS
 10
3431.2905300000002
 20
1608.225782999999
 30
0.0
 40
250.0
  1
機器型番
  0
TEXT
  5
7C16
  8
4
  6
CONTINUOUS
 10
5888.393728
 20
2112.8588439999999
 30
0.0
 40
211.11111099999991
  1
ミツヤリミットロードファン
  0
TEXT
  5
7C17
  8
4
  6
CONTINUOUS
 10
5933.2724779999999
 20
1585.7979210000001
 30
0.0
 40
250.0
  1
LLE#7-4
  0
TEXT
  5
7C19
  8
4
  6
CONTINUOUS
 10
3997.915508
 20
11917.14420699999
 30
0.0
 40
270.0
  1
床置防振ベット
  0
TEXT
  5
7C1A
  8
4
  6
CONTINUOUS
 10
1580.837966999999
 20
12669.404881
 30
0.0
 40
300.0
  1
ベルト駆動式片吸込両持排煙ファン
  0
LINE
  5
7C1B
  8
4
  6
CONTINUOUS
 10
1250.0
 20
12347.04377099999
 30
0.0
 11
9250.0
 21
12347.04377099999
 31
0.0
  0
LINE
  5
7C1C
  8
4
  6
CONTINUOUS
 10
1250.0
 20
13347.043771000001
 30
0.0
 11
9250.0
 21
13347.043771000001
 31
0.0
  0
LINE
  5
7C1D
  8
4
  6
CONTINUOUS
 10
3250.0
 20
2500.0
 30
0.0
 11
9250.0
 21
2500.0
 31
0.0
  0
LINE
  5
7C1E
  8
4
  6
CONTINUOUS
 10
1250.0
 20
13347.043771000001
 30
0.0
 11
1250.0
 21
12347.04377099999
 31
0.0
  0
TEXT
  5
7C1F
  8
4
  6
CONTINUOUS
 10
1818.6213469999991
 20
11911.597388
 30
0.0
 40
270.0
  1
左回転上向
  0
TEXT
  5
7C20
  8
4
  6
CONTINUOUS
 10
7344.8477969999994
 20
13530.305408
 30
0.0
 40
280.0
  1
No.
  0
TEXT
  5
7C21
  8
4
  6
CONTINUOUS
 10
6556.480313
 20
11917.14420699999
 30
0.0
 40
270.0
  1
縮尺：1/50
  0
LINE
  5
7C22
  8
4
  6
CONTINUOUS
 10
9250.0
 20
13347.043771000001
 30
0.0
 11
9250.0
 21
12347.04377099999
 31
0.0
  0
LINE
  5
7C24
  8
4
  6
CONTINUOUS
 10
7203.0871120000002
 20
13406.317916
 30
0.0
 11
7203.0871120000002
 21
13933.261307999999
 31
0.0
  0
LINE
  5
7C25
  8
4
  6
CONTINUOUS
 10
7203.0871120000002
 20
13933.261307999999
 30
0.0
 11
9250.0
 21
13933.261307999999
 31
0.0
  0
LINE
  5
7C26
  8
4
  6
CONTINUOUS
 10
9250.0
 20
13933.261307999999
 30
0.0
 11
9250.0
 21
13406.317916
 31
0.0
  0
LINE
  5
7C27
  8
4
  6
CONTINUOUS
 10
9250.0
 20
13406.317916
 30
0.0
 11
7203.0871120000002
 21
13406.317916
 31
0.0
  0
DIMENSION
  5
7C72
  8
3
  2
*D18
 10
4639.4060820000004
 20
6797.2984640940595
 30
0.0
 11
3493.0799512643489
 21
6797.2984640940595
 31
0.0
 70
   128
 13
2134.4060819999991
 23
5279.6908860000003
 33
0.0
 14
4639.4060820000004
 24
4372.1908860000012
 34
0.0
1001
ACAD
1000
DSTYLE
1002
{
1070
   287
1070
     3
1070
   287
1070
     3
1070
    40
1040
45.0
1070
   143
1040
0.039
1070
   172
1070
     1
1070
   271
1070
     0
1070
   279
1070
     0
1070
   288
1070
     1
1002
}
  0
ENDSEC
  0
EOF
