  0
SECTION
  2
HEADER
  9
$ACADVER
  1
AC1009
  9
$INSBASE
 10
0.0
 20
0.0
 30
0.0
  9
$EXTMIN
 10
1250.0
 20
1500.0
 30
0.0
  9
$EXTMAX
 10
9250.0
 20
13933.261307999999
 30
0.0
  9
$LIMMIN
 10
0.0
 20
0.0
  9
$LIMMAX
 10
297.0
 20
210.0
  9
$ORTHOMODE
 70
     0
  9
$REGENMODE
 70
     1
  9
$FILLMODE
 70
     0
  9
$QTEXTMODE
 70
     0
  9
$MIRRTEXT
 70
     1
  9
$DRAGMODE
 70
     2
  9
$LTSCALE
 40
100.0
  9
$OSMODE
 70
    37
  9
$ATTMODE
 70
     1
  9
$TEXTSIZE
 40
180.0
  9
$TRACEWID
 40
0.05
  9
$TEXTSTYLE
  7
STANDARD
  9
$CLAYER
  8
3
  9
$CELTYPE
  6
BYLAYER
  9
$CECOLOR
 62
   256
  9
$DIMSCALE
 40
45.0
  9
$DIMASZ
 40
2.0
  9
$DIMEXO
 40
0.5
  9
$DIMDLI
 40
10.0
  9
$DIMRND
 40
0.0
  9
$DIMDLE
 40
0.0
  9
$DIMEXE
 40
1.0
  9
$DIMTP
 40
1.0
  9
$DIMTM
 40
1.0
  9
$DIMTXT
 40
3.0
  9
$DIMCEN
 40
0.0
  9
$DIMTSZ
 40
0.0
  9
$DIMTOL
 70
     0
  9
$DIMLIM
 70
     0
  9
$DIMTIH
 70
     0
  9
$DIMTOH
 70
     0
  9
$DIMSE1
 70
     0
  9
$DIMSE2
 70
     0
  9
$DIMTAD
 70
     1
  9
$DIMZIN
 70
     8
  9
$DIMBLK
  1

  9
$DIMASO
 70
     1
  9
$DIMSHO
 70
     1
  9
$DIMPOST
  1

  9
$DIMAPOST
  1

  9
$DIMALT
 70
     0
  9
$DIMALTD
 70
     2
  9
$DIMALTF
 40
0.039
  9
$DIMLFAC
 40
1.0
  9
$DIMTOFL
 70
     1
  9
$DIMTVP
 40
0.0
  9
$DIMTIX
 70
     0
  9
$DIMSOXD
 70
     0
  9
$DIMSAH
 70
     1
  9
$DIMBLK1
  1
OPEN
  9
$DIMBLK2
  1
OPEN
  9
$DIMSTYLE
  2
IGA
  9
$DIMCLRD
 70
     0
  9
$DIMCLRE
 70
     0
  9
$DIMCLRT
 70
     0
  9
$DIMTFAC
 40
10.0
  9
$DIMGAP
 40
1.0
  9
$LUNITS
 70
     2
  9
$LUPREC
 70
     3
  9
$SKETCHINC
 40
0.1
  9
$FILLETRAD
 40
50.0
  9
$AUNITS
 70
     0
  9
$AUPREC
 70
     0
  9
$MENU
  1
acad
  9
$ELEVATION
 40
0.0
  9
$PELEVATION
 40
0.0
  9
$THICKNESS
 40
0.0
  9
$LIMCHECK
 70
     0
  9
$BLIPMODE
 70
     0
  9
$CHAMFERA
 40
0.5
  9
$CHAMFERB
 40
0.5
  9
$SKPOLY
 70
     0
  9
$TDCREATE
 40
2450750.6328807869
  9
$TDUPDATE
 40
2454953.6875262149
  9
$TDINDWG
 40
0.0028709722
  9
$TDUSRTIMER
 40
0.0028709722
  9
$USRTIMER
 70
     1
  9
$ANGBASE
 50
0.0
  9
$ANGDIR
 70
     0
  9
$PDMODE
 70
     0
  9
$PDSIZE
 40
0.0
  9
$PLINEWID
 40
0.0
  9
$COORDS
 70
     1
  9
$SPLFRAME
 70
     0
  9
$SPLINETYPE
 70
     6
  9
$SPLINESEGS
 70
     8
  9
$ATTDIA
 70
     0
  9
$ATTREQ
 70
     1
  9
$HANDLING
 70
 10241
  9
$HANDSEED
  5
7DDD
  9
$SURFTAB1
 70
     6
  9
$SURFTAB2
 70
     6
  9
$SURFTYPE
 70
     6
  9
$SURFU
 70
     6
  9
$SURFV
 70
     6
  9
$UCSNAME
  2

  9
$UCSORG
 10
0.0
 20
0.0
 30
0.0
  9
$UCSXDIR
 10
1.0
 20
0.0
 30
0.0
  9
$UCSYDIR
 10
0.0
 20
1.0
 30
0.0
  9
$PUCSNAME
  2

  9
$PUCSORG
 10
0.0
 20
0.0
 30
0.0
  9
$PUCSXDIR
 10
1.0
 20
0.0
 30
0.0
  9
$PUCSYDIR
 10
0.0
 20
1.0
 30
0.0
  9
$USERI1
 70
     0
  9
$USERI2
 70
     0
  9
$USERI3
 70
     0
  9
$USERI4
 70
     0
  9
$USERI5
 70
     0
  9
$USERR1
 40
0.0
  9
$USERR2
 40
0.0
  9
$USERR3
 40
0.0
  9
$USERR4
 40
0.0
  9
$USERR5
 40
0.0
  9
$WORLDVIEW
 70
     1
  9
$SHADEDGE
 70
     3
  9
$SHADEDIF
 70
    70
  9
$TILEMODE
 70
     1
  9
$MAXACTVP
 70
    16
  9
$PLIMCHECK
 70
     0
  9
$PEXTMIN
 10
1.0000000000000000E+020
 20
1.0000000000000000E+020
 30
1.0000000000000000E+020
  9
$PEXTMAX
 10
-1.0000000000000000E+020
 20
-1.0000000000000000E+020
 30
-1.0000000000000000E+020
  9
$PLIMMIN
 10
0.0
 20
0.0
  9
$PLIMMAX
 10
12.0
 20
9.0
  9
$UNITMODE
 70
     0
  9
$VISRETAIN
 70
     0
  9
$PLINEGEN
 70
     0
  9
$PSLTSCALE
 70
     1
  0
ENDSEC
  0
SECTION
  2
TABLES
  0
TABLE
  2
VPORT
 70
     2
  0
VPORT
  2
*ACTIVE
 70
     0
 10
0.0
 20
0.0
 11
1.0
 21
1.0
 12
20421.80965165919
 22
8129.1627329118774
 13
0.0
 23
0.0
 14
10.0
 24
10.0
 15
10.0
 25
10.0
 16
0.0
 26
0.0
 36
1.0
 17
0.0
 27
0.0
 37
0.0
 40
14458.59659251325
 41
3.1666666666666661
 42
50.0
 43
0.0
 44
0.0
 50
0.0
 51
0.0
 71
     0
 72
   100
 73
     1
 74
     0
 75
     0
 76
     0
 77
     0
 78
     0
  0
ENDTAB
  0
TABLE
  2
LTYPE
 70
     2
  0
LTYPE
  2
CONTINUOUS
 70
     0
  3
Solid line
 72
    65
 73
     0
 40
0.0
  0
LTYPE
  2
CENTER
 70
     0
  3
____ _ ____ _ ____ _ ____ _ ____ _ ____ _ ____ 
 72
    65
 73
     4
 40
2.0
 49
1.25
 49
-0.25
 49
0.25
 49
-0.25
  0
ENDTAB
  0
TABLE
  2
LAYER
 70
     6
  0
LAYER
  2
0
 70
     0
 62
     7
  6
CONTINUOUS
  0
LAYER
  2
3
 70
     0
 62
     2
  6
CONTINUOUS
  0
LAYER
  2
2
 70
     0
 62
     3
  6
CENTER
  0
LAYER
  2
1
 70
     0
 62
     4
  6
CONTINUOUS
  0
LAYER
  2
4
 70
     0
 62
     7
  6
CONTINUOUS
  0
LAYER
  2
DEFPOINTS
 70
     0
 62
     7
  6
CONTINUOUS
  0
ENDTAB
  0
TABLE
  2
STYLE
 70
     1
  0
STYLE
  2
STANDARD
 70
     0
 40
0.0
 41
1.0
 50
0.0
 71
     0
 42
180.0
  3
simplex.shx
  4
extfont.shx
  0
ENDTAB
  0
TABLE
  2
VIEW
 70
     0
  0
ENDTAB
  0
TABLE
  2
UCS
 70
     0
  0
ENDTAB
  0
TABLE
  2
APPID
 70
     1
  0
APPID
  2
ACAD
 70
     0
  0
ENDTAB
  0
TABLE
  2
DIMSTYLE
 70
     1
  0
DIMSTYLE
  2
IGA
 70
     0
  3

  4

  5

  6
OPEN
  7
OPEN
 40
2.0
 41
2.0
 42
0.5
 43
10.0
 44
1.0
 45
0.0
 46
0.0
 47
1.0
 48
1.0
140
3.0
141
0.0
142
0.0
143
0.03937
144
1.0
145
0.0
146
10.0
147
1.0
 71
     0
 72
     0
 73
     0
 74
     0
 75
     0
 76
     0
 77
     1
 78
     8
170
     0
171
     2
172
     0
173
     1
174
     0
175
     0
176
     0
177
     0
178
     0
  0
ENDTAB
  0
ENDSEC
  0
SECTION
  2
BLOCKS
  0
BLOCK
  8
0
  2
$MODEL_SPACE
 70
     0
 10
0.0
 20
0.0
 30
0.0
  3
$MODEL_SPACE
  1

  0
ENDBLK
  5
1B
  8
0
  0
BLOCK
 67
     1
  8
0
  2
$PAPER_SPACE
 70
     0
 10
0.0
 20
0.0
 30
0.0
  3
$PAPER_SPACE
  1

  0
ENDBLK
  5
18
 67
     1
  8
0
  0
BLOCK
  8
0
  2
_OPEN
 70
     0
 10
0.0
 20
0.0
 30
0.0
  3
_OPEN
  1

  0
LINE
  5
7AC8
  8
0
  6
BYBLOCK
 62
     0
 10
-1.0
 20
0.166667
 30
0.0
 11
0.0
 21
0.0
 31
0.0
  0
LINE
  5
7AC9
  8
0
  6
BYBLOCK
 62
     0
 10
0.0
 20
0.0
 30
0.0
 11
-1.0
 21
-0.166667
 31
0.0
  0
LINE
  5
7ACA
  8
0
  6
BYBLOCK
 62
     0
 10
0.0
 20
0.0
 30
0.0
 11
-1.0
 21
0.0
 31
0.0
  0
ENDBLK
  5
7ACB
  8
0
  0
BLOCK
  8
0
  2
*D1
 70
     1
 10
0.0
 20
0.0
 30
0.0
  3
*D1
  1

  0
LINE
  5
7D37
  8
3
  6
CONTINUOUS
 62
     0
 10
2500.3406930000001
 20
4836.9652050000004
 30
0.0
 11
2500.3406930000001
 21
4382.0535929999996
 31
0.0
  0
LINE
  5
7D38
  8
3
  6
CONTINUOUS
 62
     0
 10
4200.3406930000001
 20
4505.8409270000002
 30
0.0
 11
4200.3406930000001
 21
4382.0535929999996
 31
0.0
  0
LINE
  5
7D39
  8
3
  6
CONTINUOUS
 62
     0
 10
2590.3406930000001
 20
4427.0535929999987
 30
0.0
 11
4110.3406930000001
 21
4427.0535929999987
 31
0.0
  0
INSERT
  5
7D3A
  8
3
  6
CONTINUOUS
 62
     0
  2
_OPEN
 10
2500.3406930000001
 20
4427.0535929999987
 30
0.0
 41
90.0
 42
90.0
 43
90.0
 50
180.0
  0
INSERT
  5
7D3B
  8
3
  6
CONTINUOUS
 62
     0
  2
_OPEN
 10
4200.3406930000001
 20
4427.0535929999987
 30
0.0
 41
90.0
 42
90.0
 43
90.0
  0
TEXT
  8
3
  40
135
  5
7DCB
  62
0
  72
0
  71
0
 10
3061.10
 20
4300.60
 30
0.000000
  1
1700
  0
POINT
  5
7D3D
  8
DEFPOINTS
  6
CONTINUOUS
 62
     0
 10
2500.3406930000001
 20
4859.4652049999986
 30
0.0
  0
POINT
  5
7D3E
  8
DEFPOINTS
  6
CONTINUOUS
 62
     0
 10
4200.3406930000001
 20
4528.3409270000002
 30
0.0
  0
POINT
  5
7D3F
  8
DEFPOINTS
  6
CONTINUOUS
 62
     0
 10
4200.3406930000001
 20
4427.0535929999987
 30
0.0
  0
ENDBLK
  5
7AD8
  8
0
  0
BLOCK
  8
0
  2
*D2
 70
     1
 10
0.0
 20
0.0
 30
0.0
  3
*D2
  1

  0
LINE
  5
7D40
  8
3
  6
CONTINUOUS
 62
     0
 10
4860.340693000001
 20
4836.9652050000004
 30
0.0
 11
4860.340693000001
 21
4382.0535929999996
 31
0.0
  0
LINE
  5
7D41
  8
3
  6
CONTINUOUS
 62
     0
 10
4290.3406930000001
 20
4427.0535929999987
 30
0.0
 11
4770.3406930000001
 21
4427.0535929999987
 31
0.0
  0
INSERT
  5
7D42
  8
3
  6
CONTINUOUS
 62
     0
  2
_OPEN
 10
4200.3406930000001
 20
4427.0535929999987
 30
0.0
 41
90.0
 42
90.0
 43
90.0
 50
180.0
  0
INSERT
  5
7D43
  8
3
  6
CONTINUOUS
 62
     0
  2
_OPEN
 10
4860.340693000001
 20
4427.0535929999987
 30
0.0
 41
90.0
 42
90.0
 43
90.0
  0
TEXT
  8
3
  40
135
  5
7DCC
  62
0
  72
0
  71
0
 10
4260.34
 20
4300.60
 30
0.000000
  1
660
  0
POINT
  5
7D45
  8
DEFPOINTS
  6
CONTINUOUS
 62
     0
 10
4200.3406930000001
 20
4528.3409270000002
 30
0.0
  0
POINT
  5
7D46
  8
DEFPOINTS
  6
CONTINUOUS
 62
     0
 10
4860.340693000001
 20
4859.4652049999986
 30
0.0
  0
POINT
  5
7D47
  8
DEFPOINTS
  6
CONTINUOUS
 62
     0
 10
4860.340693000001
 20
4427.0535929999987
 30
0.0
  0
ENDBLK
  5
7AE4
  8
0
  0
BLOCK
  8
0
  2
*D3
 70
     1
 10
0.0
 20
0.0
 30
0.0
  3
*D3
  1

  0
LINE
  5
7D48
  8
3
  6
CONTINUOUS
 62
     0
 10
4227.8406930000001
 20
6629.4652049999986
 30
0.0
 11
5480.6423630000018
 21
6629.4652049999986
 31
0.0
  0
LINE
  5
7D49
  8
3
  6
CONTINUOUS
 62
     0
 10
5027.2595469999987
 20
5869.4652050000004
 30
0.0
 11
5480.6423630000008
 21
5869.4652050000004
 31
0.0
  0
LINE
  5
7D4A
  8
3
  6
CONTINUOUS
 62
     0
 10
5435.6423630000018
 20
6539.4652049999986
 30
0.0
 11
5435.6423630000008
 21
5959.4652049999986
 31
0.0
  0
INSERT
  5
7D4B
  8
3
  6
CONTINUOUS
 62
     0
  2
_OPEN
 10
5435.6423630000018
 20
6629.4652049999986
 30
0.0
 41
90.0
 42
90.0
 43
90.0
 50
90.0
  0
INSERT
  5
7D4C
  8
3
  6
CONTINUOUS
 62
     0
  2
_OPEN
 10
5435.6423630000008
 20
5869.4652050000004
 30
0.0
 41
90.0
 42
90.0
 43
90.0
 50
270.0
  0
TEXT
  8
3
  40
135
  5
7DCD
  62
0
  72
0
  71
0
 10
5053.14
 20
6002.61
 30
0.000000
  1
760
  0
POINT
  5
7D4E
  8
DEFPOINTS
  6
CONTINUOUS
 62
     0
 10
4205.3406930000001
 20
6629.4652049999986
 30
0.0
  0
POINT
  5
7D4F
  8
DEFPOINTS
  6
CONTINUOUS
 62
     0
 10
5004.7595469999987
 20
5869.4652050000004
 30
0.0
  0
POINT
  5
7D50
  8
DEFPOINTS
  6
CONTINUOUS
 62
     0
 10
5435.6423630000008
 20
5869.4652050000004
 30
0.0
  0
ENDBLK
  5
7AF1
  8
0
  0
BLOCK
  8
0
  2
*D4
 70
     1
 10
0.0
 20
0.0
 30
0.0
  3
*D4
  1

  0
LINE
  5
7D51
  8
3
  6
CONTINUOUS
 62
     0
 10
4882.8406930000001
 20
4859.4652049999986
 30
0.0
 11
5480.6423629999999
 21
4859.4652049999986
 31
0.0
  0
LINE
  5
7D52
  8
3
  6
CONTINUOUS
 62
     0
 10
5435.6423629999999
 20
5779.4652050000004
 30
0.0
 11
5435.6423629999999
 21
4949.4652050000004
 31
0.0
  0
INSERT
  5
7D53
  8
3
  6
CONTINUOUS
 62
     0
  2
_OPEN
 10
5435.6423629999999
 20
5869.4652050000004
 30
0.0
 41
90.0
 42
90.0
 43
90.0
 50
90.0
  0
INSERT
  5
7D54
  8
3
  6
CONTINUOUS
 62
     0
  2
_OPEN
 10
5435.6423629999999
 20
4859.4652049999986
 30
0.0
 41
90.0
 42
90.0
 43
90.0
 50
270.0
  0
TEXT
  8
3
  40
135
  5
7DCE
  62
0
  72
0
  71
0
 10
5053.14
 20
5125.52
 30
0.000000
  1
1010
  0
POINT
  5
7D56
  8
DEFPOINTS
  6
CONTINUOUS
 62
     0
 10
5004.7595469999987
 20
5869.4652050000004
 30
0.0
  0
POINT
  5
7D57
  8
DEFPOINTS
  6
CONTINUOUS
 62
     0
 10
4860.340693000001
 20
4859.4652049999986
 30
0.0
  0
POINT
  5
7D58
  8
DEFPOINTS
  6
CONTINUOUS
 62
     0
 10
5435.6423629999999
 20
4859.4652049999986
 30
0.0
  0
ENDBLK
  5
7AFD
  8
0
  0
BLOCK
  8
0
  2
*D5
 70
     1
 10
0.0
 20
0.0
 30
0.0
  3
*D5
  1

  0
LINE
  5
7D59
  8
3
  6
CONTINUOUS
 62
     0
 10
3002.3406930000001
 20
6651.9652049999986
 30
0.0
 11
3002.3406930000001
 21
6934.0255610000004
 31
0.0
  0
LINE
  5
7D5A
  8
3
  6
CONTINUOUS
 62
     0
 10
4152.3406930000001
 20
6651.9652049999986
 30
0.0
 11
4152.3406930000001
 21
6934.0255610000004
 31
0.0
  0
LINE
  5
7D5B
  8
3
  6
CONTINUOUS
 62
     0
 10
3092.3406930000001
 20
6889.0255610000013
 30
0.0
 11
4062.3406930000001
 21
6889.0255610000013
 31
0.0
  0
INSERT
  5
7D5C
  8
3
  6
CONTINUOUS
 62
     0
  2
_OPEN
 10
3002.3406930000001
 20
6889.0255610000013
 30
0.0
 41
90.0
 42
90.0
 43
90.0
 50
180.0
  0
INSERT
  5
7D5D
  8
3
  6
CONTINUOUS
 62
     0
  2
_OPEN
 10
4152.3406930000001
 20
6889.0255610000013
 30
0.0
 41
90.0
 42
90.0
 43
90.0
  0
TEXT
  8
3
  40
135
  5
7DCF
  62
0
  72
0
  71
0
 10
3293.16
 20
6762.58
 30
0.000000
  1
1150
  0
POINT
  5
7D5F
  8
DEFPOINTS
  6
CONTINUOUS
 62
     0
 10
3002.3406930000001
 20
6629.4652049999986
 30
0.0
  0
POINT
  5
7D60
  8
DEFPOINTS
  6
CONTINUOUS
 62
     0
 10
4152.3406930000001
 20
6629.4652049999986
 30
0.0
  0
POINT
  5
7D61
  8
DEFPOINTS
  6
CONTINUOUS
 62
     0
 10
4152.3406930000001
 20
6889.0255610000013
 30
0.0
  0
ENDBLK
  5
7B0A
  8
0
  0
BLOCK
  8
0
  2
*D6
 70
     1
 10
0.0
 20
0.0
 30
0.0
  3
*D6
  1

  0
LINE
  5
7D62
  8
3
  6
CONTINUOUS
 62
     0
 10
3002.3406930000001
 20
6651.9652049999986
 30
0.0
 11
3002.3406930000001
 21
7198.6035499999998
 31
0.0
  0
LINE
  5
7D63
  8
3
  6
CONTINUOUS
 62
     0
 10
4200.3406930000001
 20
6558.6559440000001
 30
0.0
 11
4200.3406930000001
 21
7198.6035499999998
 31
0.0
  0
LINE
  5
7D64
  8
3
  6
CONTINUOUS
 62
     0
 10
3092.3406930000001
 20
7153.6035499999989
 30
0.0
 11
4110.3406930000001
 21
7153.6035499999989
 31
0.0
  0
INSERT
  5
7D65
  8
3
  6
CONTINUOUS
 62
     0
  2
_OPEN
 10
3002.3406930000001
 20
7153.6035499999989
 30
0.0
 41
90.0
 42
90.0
 43
90.0
 50
180.0
  0
INSERT
  5
7D66
  8
3
  6
CONTINUOUS
 62
     0
  2
_OPEN
 10
4200.3406930000001
 20
7153.6035499999989
 30
0.0
 41
90.0
 42
90.0
 43
90.0
  0
TEXT
  8
3
  40
135
  5
7DD0
  62
0
  72
0
  71
0
 10
3333.17
 20
7027.15
 30
0.000000
  1
1198
  0
POINT
  5
7D68
  8
DEFPOINTS
  6
CONTINUOUS
 62
     0
 10
3002.3406930000001
 20
6629.4652049999986
 30
0.0
  0
POINT
  5
7D69
  8
DEFPOINTS
  6
CONTINUOUS
 62
     0
 10
4200.3406930000001
 20
6536.1559440000001
 30
0.0
  0
POINT
  5
7D6A
  8
DEFPOINTS
  6
CONTINUOUS
 62
     0
 10
4200.3406930000001
 20
7153.6035499999989
 30
0.0
  0
ENDBLK
  5
7B17
  8
0
  0
BLOCK
  8
0
  2
*D7
 70
     1
 10
0.0
 20
0.0
 30
0.0
  3
*D7
  1

  0
LINE
  5
7D6B
  8
3
  6
CONTINUOUS
 62
     0
 10
5005.3406930000001
 20
5891.9652049999986
 30
0.0
 11
5005.3406930000001
 21
7198.6035499999998
 31
0.0
  0
LINE
  5
7D6C
  8
3
  6
CONTINUOUS
 62
     0
 10
4290.3406930000001
 20
7153.6035499999989
 30
0.0
 11
4915.3406930000001
 21
7153.6035499999989
 31
0.0
  0
INSERT
  5
7D6D
  8
3
  6
CONTINUOUS
 62
     0
  2
_OPEN
 10
4200.3406930000001
 20
7153.6035499999989
 30
0.0
 41
90.0
 42
90.0
 43
90.0
 50
180.0
  0
INSERT
  5
7D6E
  8
3
  6
CONTINUOUS
 62
     0
  2
_OPEN
 10
5005.3406930000001
 20
7153.6035499999989
 30
0.0
 41
90.0
 42
90.0
 43
90.0
  0
TEXT
  8
3
  40
135
  5
7DD1
  62
0
  72
0
  71
0
 10
4332.84
 20
7027.15
 30
0.000000
  1
805
  0
POINT
  5
7D70
  8
DEFPOINTS
  6
CONTINUOUS
 62
     0
 10
4200.3406930000001
 20
6536.1559440000001
 30
0.0
  0
POINT
  5
7D71
  8
DEFPOINTS
  6
CONTINUOUS
 62
     0
 10
5005.3406930000001
 20
5869.4652050000004
 30
0.0
  0
POINT
  5
7D72
  8
DEFPOINTS
  6
CONTINUOUS
 62
     0
 10
5005.3406930000001
 20
7153.6035499999989
 30
0.0
  0
ENDBLK
  5
7C3A
  8
0
  0
BLOCK
  8
0
  2
*D8
 70
     1
 10
0.0
 20
0.0
 30
0.0
  3
*D8
  1

  0
LINE
  5
7D73
  8
3
  6
CONTINUOUS
 62
     0
 10
4227.8406930000001
 20
6629.4652049999986
 30
0.0
 11
5802.4830019388191
 21
6629.4652049999986
 31
0.0
  0
LINE
  5
7D74
  8
3
  6
CONTINUOUS
 62
     0
 10
4882.8406930000001
 20
4859.4652049999986
 30
0.0
 11
5802.4830019388182
 21
4859.4652049999986
 31
0.0
  0
LINE
  5
7D75
  8
3
  6
CONTINUOUS
 62
     0
 10
5757.4830019388191
 20
6539.4652049999986
 30
0.0
 11
5757.4830019388182
 21
4949.4652050000004
 31
0.0
  0
INSERT
  5
7D76
  8
3
  6
CONTINUOUS
 62
     0
  2
_OPEN
 10
5757.4830019388191
 20
6629.4652049999986
 30
0.0
 41
90.0
 42
90.0
 43
90.0
 50
90.0
  0
INSERT
  5
7D77
  8
3
  6
CONTINUOUS
 62
     0
  2
_OPEN
 10
5757.4830019388182
 20
4859.4652049999986
 30
0.0
 41
90.0
 42
90.0
 43
90.0
 50
270.0
  0
TEXT
  8
3
  40
135
  5
7DD2
  62
0
  72
0
  71
0
 10
5374.98
 20
5515.81
 30
0.000000
  1
1770
  0
POINT
  5
7D79
  8
DEFPOINTS
  6
CONTINUOUS
 62
     0
 10
4205.3406930000001
 20
6629.4652049999986
 30
0.0
  0
POINT
  5
7D7A
  8
DEFPOINTS
  6
CONTINUOUS
 62
     0
 10
4860.340693000001
 20
4859.4652049999986
 30
0.0
  0
POINT
  5
7D7B
  8
DEFPOINTS
  6
CONTINUOUS
 62
     0
 10
5757.4830019388182
 20
4859.4652049999986
 30
0.0
  0
ENDBLK
  5
7C52
  8
0
  0
BLOCK
  8
0
  2
*D9
 70
     1
 10
0.0
 20
0.0
 30
0.0
  3
*D9
  1

  0
LINE
  5
7D7C
  8
3
  6
CONTINUOUS
 62
     0
 10
2500.3406930000001
 20
9035.2597700000006
 30
0.0
 11
2500.3406930000001
 21
8556.3719060000003
 31
0.0
  0
LINE
  5
7D7D
  8
3
  6
CONTINUOUS
 62
     0
 10
4860.340693000001
 20
9035.2597700000006
 30
0.0
 11
4860.340693000001
 21
8556.3719060000003
 31
0.0
  0
LINE
  5
7D7E
  8
3
  6
CONTINUOUS
 62
     0
 10
2590.3406930000001
 20
8601.3719060000003
 30
0.0
 11
4770.3406930000001
 21
8601.3719060000003
 31
0.0
  0
INSERT
  5
7D7F
  8
3
  6
CONTINUOUS
 62
     0
  2
_OPEN
 10
2500.3406930000001
 20
8601.3719060000003
 30
0.0
 41
90.0
 42
90.0
 43
90.0
 50
180.0
  0
INSERT
  5
7D80
  8
3
  6
CONTINUOUS
 62
     0
  2
_OPEN
 10
4860.340693000001
 20
8601.3719060000003
 30
0.0
 41
90.0
 42
90.0
 43
90.0
  0
TEXT
  8
3
  40
135
  5
7DD3
  62
0
  72
0
  71
0
 10
3477.21
 20
8474.92
 30
0.000000
  1
2360
  0
POINT
  5
7D82
  8
DEFPOINTS
  6
CONTINUOUS
 62
     0
 10
2500.3406930000001
 20
9057.7597700000024
 30
0.0
  0
POINT
  5
7D83
  8
DEFPOINTS
  6
CONTINUOUS
 62
     0
 10
4860.340693000001
 20
9057.7597700000024
 30
0.0
  0
POINT
  5
7D84
  8
DEFPOINTS
  6
CONTINUOUS
 62
     0
 10
4860.340693000001
 20
8601.3719060000003
 30
0.0
  0
ENDBLK
  5
7B3E
  8
0
  0
BLOCK
  8
0
  2
*D10
 70
     1
 10
0.0
 20
0.0
 30
0.0
  3
*D10
  1

  0
LINE
  5
7D85
  8
3
  6
CONTINUOUS
 62
     0
 10
4882.8406930000001
 20
10237.759770000001
 30
0.0
 11
5368.6135999999997
 21
10237.759770000001
 31
0.0
  0
LINE
  5
7D86
  8
3
  6
CONTINUOUS
 62
     0
 10
4882.8406930000001
 20
9057.7597700000024
 30
0.0
 11
5368.6135999999997
 21
9057.7597700000024
 31
0.0
  0
LINE
  5
7D87
  8
3
  6
CONTINUOUS
 62
     0
 10
5323.6136000000006
 20
10147.75976999999
 30
0.0
 11
5323.6136000000006
 21
9147.7597700000006
 31
0.0
  0
INSERT
  5
7D88
  8
3
  6
CONTINUOUS
 62
     0
  2
_OPEN
 10
5323.6136000000006
 20
10237.759770000001
 30
0.0
 41
90.0
 42
90.0
 43
90.0
 50
90.0
  0
INSERT
  5
7D89
  8
3
  6
CONTINUOUS
 62
     0
  2
_OPEN
 10
5323.6136000000006
 20
9057.7597700000024
 30
0.0
 41
90.0
 42
90.0
 43
90.0
 50
270.0
  0
TEXT
  8
3
  40
135
  5
7DD4
  62
0
  72
0
  71
0
 10
4941.11
 20
9393.57
 30
0.000000
  1
1180
  0
POINT
  5
7D8B
  8
DEFPOINTS
  6
CONTINUOUS
 62
     0
 10
4860.340693000001
 20
10237.759770000001
 30
0.0
  0
POINT
  5
7D8C
  8
DEFPOINTS
  6
CONTINUOUS
 62
     0
 10
4860.340693000001
 20
9057.7597700000024
 30
0.0
  0
POINT
  5
7D8D
  8
DEFPOINTS
  6
CONTINUOUS
 62
     0
 10
5323.6136000000006
 20
9057.7597700000024
 30
0.0
  0
ENDBLK
  5
7B4B
  8
0
  0
BLOCK
  8
0
  2
*D11
 70
     1
 10
0.0
 20
0.0
 30
0.0
  3
*D11
  1

  0
LINE
  5
7D8E
  8
3
  6
CONTINUOUS
 62
     0
 10
7102.9192129999992
 20
6651.9652049999986
 30
0.0
 11
7102.9192129999992
 21
6838.104656999999
 31
0.0
  0
LINE
  5
7D8F
  8
3
  6
CONTINUOUS
 62
     0
 10
7952.9192130000001
 20
6651.9652049999986
 30
0.0
 11
7952.9192130000001
 21
6838.104656999999
 31
0.0
  0
LINE
  5
7D90
  8
3
  6
CONTINUOUS
 62
     0
 10
7192.9192129999992
 20
6793.104656999999
 30
0.0
 11
7862.9192129999992
 21
6793.104656999999
 31
0.0
  0
INSERT
  5
7D91
  8
3
  6
CONTINUOUS
 62
     0
  2
_OPEN
 10
7102.9192129999992
 20
6793.104656999999
 30
0.0
 41
90.0
 42
90.0
 43
90.0
 50
180.0
  0
INSERT
  5
7D92
  8
3
  6
CONTINUOUS
 62
     0
  2
_OPEN
 10
7952.9192130000001
 20
6793.104656999999
 30
0.0
 41
90.0
 42
90.0
 43
90.0
  0
TEXT
  8
3
  40
135
  5
7DD5
  62
0
  72
0
  71
0
 10
7212.56
 20
6666.65
 30
0.000000
  1
850
  0
POINT
  5
7D94
  8
DEFPOINTS
  6
CONTINUOUS
 62
     0
 10
7102.9192129999992
 20
6629.4652049999986
 30
0.0
  0
POINT
  5
7D95
  8
DEFPOINTS
  6
CONTINUOUS
 62
     0
 10
7952.9192130000001
 20
6629.4652049999986
 30
0.0
  0
POINT
  5
7D96
  8
DEFPOINTS
  6
CONTINUOUS
 62
     0
 10
7952.9192130000001
 20
6793.104656999999
 30
0.0
  0
ENDBLK
  5
7B5B
  8
0
  0
BLOCK
  8
0
  2
*D12
 70
     1
 10
0.0
 20
0.0
 30
0.0
  3
*D12
  1

  0
LINE
  5
7D97
  8
3
  6
CONTINUOUS
 62
     0
 10
8078.4192130000001
 20
6429.4652049999986
 30
0.0
 11
8503.8098830000017
 21
6429.4652049999986
 31
0.0
  0
LINE
  5
7D98
  8
3
  6
CONTINUOUS
 62
     0
 10
8078.4192130000001
 20
5309.4652049999986
 30
0.0
 11
8503.8098830000017
 21
5309.4652049999986
 31
0.0
  0
LINE
  5
7D99
  8
3
  6
CONTINUOUS
 62
     0
 10
8458.8098830000017
 20
6339.4652049999986
 30
0.0
 11
8458.8098830000017
 21
5399.4652050000004
 31
0.0
  0
INSERT
  5
7D9A
  8
3
  6
CONTINUOUS
 62
     0
  2
_OPEN
 10
8458.8098830000017
 20
6429.4652049999986
 30
0.0
 41
90.0
 42
90.0
 43
90.0
 50
90.0
  0
INSERT
  5
7D9B
  8
3
  6
CONTINUOUS
 62
     0
  2
_OPEN
 10
8458.8098830000017
 20
5309.4652049999986
 30
0.0
 41
90.0
 42
90.0
 43
90.0
 50
270.0
  0
TEXT
  8
3
  40
135
  5
7DD6
  62
0
  72
0
  71
0
 10
8076.31
 20
5666.89
 30
0.000000
  1
φ1120
  0
POINT
  5
7D9D
  8
DEFPOINTS
  6
CONTINUOUS
 62
     0
 10
8055.919213000001
 20
6429.4652049999986
 30
0.0
  0
POINT
  5
7D9E
  8
DEFPOINTS
  6
CONTINUOUS
 62
     0
 10
8055.919213000001
 20
5309.4652049999986
 30
0.0
  0
POINT
  5
7D9F
  8
DEFPOINTS
  6
CONTINUOUS
 62
     0
 10
8458.8098830000017
 20
5309.4652049999986
 30
0.0
  0
ENDBLK
  5
7C2F
  8
0
  0
BLOCK
  8
0
  2
*D13
 70
     1
 10
0.0
 20
0.0
 30
0.0
  3
*D13
  1

  0
LINE
  5
7DA0
  8
3
  6
CONTINUOUS
 62
     0
 10
6840.9192129999992
 20
4836.9652050000004
 30
0.0
 11
6840.9192129999992
 21
4493.9614899999988
 31
0.0
  0
LINE
  5
7DA1
  8
3
  6
CONTINUOUS
 62
     0
 10
7527.9192130000001
 20
4659.5477000000001
 30
0.0
 11
7527.9192130000001
 21
4493.9614899999988
 31
0.0
  0
LINE
  5
7DA2
  8
3
  6
CONTINUOUS
 62
     0
 10
6930.9192130000001
 20
4538.9614899999997
 30
0.0
 11
7437.9192129999992
 21
4538.9614899999997
 31
0.0
  0
INSERT
  5
7DA3
  8
3
  6
CONTINUOUS
 62
     0
  2
_OPEN
 10
6840.9192129999992
 20
4538.9614899999997
 30
0.0
 41
90.0
 42
90.0
 43
90.0
 50
180.0
  0
INSERT
  5
7DA4
  8
3
  6
CONTINUOUS
 62
     0
  2
_OPEN
 10
7527.9192130000001
 20
4538.9614899999997
 30
0.0
 41
90.0
 42
90.0
 43
90.0
  0
TEXT
  8
3
  40
135
  5
7DD7
  62
0
  72
0
  71
0
 10
6949.35
 20
4412.51
 30
0.000000
  1
687
  0
POINT
  5
7DA6
  8
DEFPOINTS
  6
CONTINUOUS
 62
     0
 10
6840.9192129999992
 20
4859.4652049999986
 30
0.0
  0
POINT
  5
7DA7
  8
DEFPOINTS
  6
CONTINUOUS
 62
     0
 10
7527.9192130000001
 20
4682.0477000000001
 30
0.0
  0
POINT
  5
7DA8
  8
DEFPOINTS
  6
CONTINUOUS
 62
     0
 10
7527.9192130000001
 20
4538.9614899999997
 30
0.0
  0
ENDBLK
  5
7B75
  8
0
  0
BLOCK
  8
0
  2
*D14
 70
     1
 10
0.0
 20
0.0
 30
0.0
  3
*D14
  1

  0
LINE
  5
7DA9
  8
3
  6
CONTINUOUS
 62
     0
 10
8020.9192129999992
 20
4836.9652050000004
 30
0.0
 11
8020.9192129999992
 21
4493.9614899999988
 31
0.0
  0
LINE
  5
7DAA
  8
3
  6
CONTINUOUS
 62
     0
 10
7617.9192129999992
 20
4538.9614899999997
 30
0.0
 11
7930.9192130000001
 21
4538.9614899999997
 31
0.0
  0
TEXT
  8
3
  40
135
  5
7DD8
  62
0
  72
0
  71
0
 10
7508.64
 20
4412.51
 30
0.000000
  1
493
  0
INSERT
  5
7DAC
  8
3
  6
CONTINUOUS
 62
     0
  2
_OPEN
 10
7527.9192130000001
 20
4538.9614899999997
 30
0.0
 41
90.0
 42
90.0
 43
90.0
 50
180.0
  0
INSERT
  5
7DAD
  8
3
  6
CONTINUOUS
 62
     0
  2
_OPEN
 10
8020.9192129999992
 20
4538.9614899999997
 30
0.0
 41
90.0
 42
90.0
 43
90.0
  0
POINT
  5
7DAE
  8
DEFPOINTS
  6
CONTINUOUS
 62
     0
 10
7527.9192130000001
 20
4682.0477000000001
 30
0.0
  0
POINT
  5
7DAF
  8
DEFPOINTS
  6
CONTINUOUS
 62
     0
 10
8020.9192129999992
 20
4859.4652049999986
 30
0.0
  0
POINT
  5
7DB0
  8
DEFPOINTS
  6
CONTINUOUS
 62
     0
 10
8020.9192129999992
 20
4538.9614899999997
 30
0.0
  0
ENDBLK
  5
7B9A
  8
0
  0
BLOCK
  8
0
  2
*D15
 70
     1
 10
0.0
 20
0.0
 30
0.0
  3
*D15
  1

  0
LINE
  5
7DB1
  8
3
  6
CONTINUOUS
 62
     0
 10
6767.9192129999983
 20
6269.9652050000004
 30
0.0
 11
6767.9192129999983
 21
7117.8741830000008
 31
0.0
  0
LINE
  5
7DB2
  8
3
  6
CONTINUOUS
 62
     0
 10
7527.9192130000001
 20
7021.8777049999999
 30
0.0
 11
7527.9192130000001
 21
7117.8741830000008
 31
0.0
  0
LINE
  5
7DB3
  8
3
  6
CONTINUOUS
 62
     0
 10
6857.9192129999992
 20
7072.8741829999999
 30
0.0
 11
7437.9192129999992
 21
7072.8741829999999
 31
0.0
  0
INSERT
  5
7DB4
  8
3
  6
CONTINUOUS
 62
     0
  2
_OPEN
 10
6767.9192129999983
 20
7072.8741829999999
 30
0.0
 41
90.0
 42
90.0
 43
90.0
 50
180.0
  0
INSERT
  5
7DB5
  8
3
  6
CONTINUOUS
 62
     0
  2
_OPEN
 10
7527.9192130000001
 20
7072.8741829999999
 30
0.0
 41
90.0
 42
90.0
 43
90.0
  0
TEXT
  8
3
  40
135
  5
7DD9
  62
0
  72
0
  71
0
 10
6876.47
 20
7058.92
 30
0.000000
  1
MAX
  0
TEXT
  8
3
  40
135
  5
7DDA
  62
0
  72
0
  71
0
 10
6876.47
 20
6883.42
 30
0.000000
  1
850
  0
POINT
  5
7DB7
  8
DEFPOINTS
  6
CONTINUOUS
 62
     0
 10
6767.9192129999983
 20
6247.4652050000004
 30
0.0
  0
POINT
  5
7DB8
  8
DEFPOINTS
  6
CONTINUOUS
 62
     0
 10
7527.9192130000001
 20
6999.3777049999999
 30
0.0
  0
POINT
  5
7DB9
  8
DEFPOINTS
  6
CONTINUOUS
 62
     0
 10
7527.9192130000001
 20
7072.8741829999999
 30
0.0
  0
ENDBLK
  5
7C24
  8
0
  0
BLOCK
  8
0
  2
*D16
 70
     1
 10
0.0
 20
0.0
 30
0.0
  3
*D16
  1

  0
LINE
  5
7DBA
  8
3
  6
CONTINUOUS
 62
     0
 10
8055.919213000001
 20
6501.9652049999986
 30
0.0
 11
8055.919213000001
 21
7117.8741830000008
 31
0.0
  0
LINE
  5
7DBB
  8
3
  6
CONTINUOUS
 62
     0
 10
7617.9192129999992
 20
7072.8741829999999
 30
0.0
 11
7965.9192129999992
 21
7072.8741829999999
 31
0.0
  0
TEXT
  8
3
  40
135
  5
7DDB
  62
0
  72
0
  71
0
 10
7524.64
 20
6947.22
 30
0.000000
  1
528
  0
INSERT
  5
7DBD
  8
3
  6
CONTINUOUS
 62
     0
  2
_OPEN
 10
7527.9192130000001
 20
7072.8741829999999
 30
0.0
 41
90.0
 42
90.0
 43
90.0
 50
180.0
  0
INSERT
  5
7DBE
  8
3
  6
CONTINUOUS
 62
     0
  2
_OPEN
 10
8055.919213000001
 20
7072.8741829999999
 30
0.0
 41
90.0
 42
90.0
 43
90.0
  0
POINT
  5
7DBF
  8
DEFPOINTS
  6
CONTINUOUS
 62
     0
 10
7527.9192130000001
 20
6999.3777049999999
 30
0.0
  0
POINT
  5
7DC0
  8
DEFPOINTS
  6
CONTINUOUS
 62
     0
 10
8055.919213000001
 20
6479.4652050000004
 30
0.0
  0
POINT
  5
7DC1
  8
DEFPOINTS
  6
CONTINUOUS
 62
     0
 10
8055.919213000001
 20
7072.8741829999999
 30
0.0
  0
ENDBLK
  5
7C05
  8
0
  0
BLOCK
  8
0
  2
*D17
 70
     1
 10
0.0
 20
0.0
 30
0.0
  3
*D17
  1

  0
LINE
  5
7DC2
  8
3
 62
     0
 10
2500.3406930000001
 20
5006.9652050000004
 30
0.0
 11
2500.3406930000001
 21
7462.5741492641864
 31
0.0
  0
LINE
  5
7DC3
  8
3
 62
     0
 10
5005.3406930000001
 20
5914.4652049999986
 30
0.0
 11
5005.3406930000001
 21
7462.5741492641864
 31
0.0
  0
LINE
  5
7DC4
  8
3
 62
     0
 10
2590.3406930000001
 20
7417.5741492641864
 30
0.0
 11
4915.3406930000001
 21
7417.5741492641864
 31
0.0
  0
INSERT
  5
7DC5
  8
3
 62
     0
  2
_OPEN
 10
2500.3406930000001
 20
7417.5741492641864
 30
0.0
 41
90.0
 42
90.0
 43
90.0
 50
180.0
  0
INSERT
  5
7DC6
  8
3
 62
     0
  2
_OPEN
 10
5005.3406930000001
 20
7417.5741492641864
 30
0.0
 41
90.0
 42
90.0
 43
90.0
  0
TEXT
  8
3
  40
135
  5
7DDC
  62
0
  72
0
  71
0
 10
3583.12
 20
7291.12
 30
0.000000
  1
2505
  0
POINT
  5
7DC8
  8
DEFPOINTS
 62
     0
 10
2500.3406930000001
 20
4984.4652049999986
 30
0.0
  0
POINT
  5
7DC9
  8
DEFPOINTS
 62
     0
 10
5005.3406930000001
 20
5891.9652049999986
 30
0.0
  0
POINT
  5
7DCA
  8
DEFPOINTS
 62
     0
 10
5005.3406930000001
 20
7417.5741492641864
 30
0.0
  0
ENDBLK
  5
7C46
  8
0
  0
ENDSEC
  0
SECTION
  2
ENTITIES
  0
LINE
  5
7A64
  8
1
  6
CONTINUOUS
 10
6957.9192130000001
 20
5841.9652050000004
 30
0.0
 11
7102.9192129999992
 21
5841.9652050000004
 31
0.0
  0
LINE
  5
7A65
  8
1
  6
CONTINUOUS
 10
6957.9192130000001
 20
5896.9652049999986
 30
0.0
 11
7102.9192129999992
 21
5896.9652049999986
 31
0.0
  0
LINE
  5
7A66
  8
1
  6
CONTINUOUS
 10
6957.9192130000001
 20
5191.9652049999986
 30
0.0
 11
7102.9192129999992
 21
5191.9652049999986
 31
0.0
  0
LINE
  5
7A67
  8
1
  6
CONTINUOUS
 10
6957.9192130000001
 20
5246.9652049999986
 30
0.0
 11
7102.9192129999992
 21
5246.9652049999986
 31
0.0
  0
LINE
  5
7A68
  8
1
  6
CONTINUOUS
 10
6767.9192129999983
 20
4999.4652049999986
 30
0.0
 11
7027.9192130000001
 21
4999.4652049999986
 31
0.0
  0
LINE
  5
7A69
  8
1
  6
CONTINUOUS
 10
6767.9192129999983
 20
6247.4652050000004
 30
0.0
 11
7027.9192130000001
 21
6247.4652050000004
 31
0.0
  0
LINE
  5
7A6A
  8
1
  6
CONTINUOUS
 10
8020.9192129999992
 20
4859.4652049999986
 30
0.0
 11
6840.9192129999992
 21
4859.4652049999986
 31
0.0
  0
LINE
  5
7A6B
  8
1
  6
CONTINUOUS
 10
8020.9192129999992
 20
4984.4652049999986
 30
0.0
 11
6840.9192129999992
 21
4984.4652049999986
 31
0.0
  0
LINE
  5
7A6C
  8
1
  6
CONTINUOUS
 10
4205.3406930000001
 20
6629.4652049999986
 30
0.0
 11
2949.3406930000001
 21
6629.4652049999986
 31
0.0
  0
ARC
  5
7A6D
  8
1
  6
CONTINUOUS
 10
4118.3406930000001
 20
5951.4652049999986
 30
0.0
 40
1054.2
 50
184.49999999999989
 51
270.0
  0
LINE
  5
7A6E
  8
1
  6
CONTINUOUS
 10
4860.340693000001
 20
4859.4652049999986
 30
0.0
 11
2500.3406930000001
 21
4859.4652049999986
 31
0.0
  0
LINE
  5
7A6F
  8
1
  6
CONTINUOUS
 10
4152.3406930000001
 20
6589.4652049999986
 30
0.0
 11
3005.7406930000002
 21
6589.4652049999986
 31
0.0
  0
LINE
  5
7A70
  8
1
  6
CONTINUOUS
 10
4860.340693000001
 20
4984.4652049999986
 30
0.0
 11
2500.3406930000001
 21
4984.4652049999986
 31
0.0
  0
CIRCLE
  5
7A71
  8
1
  6
CONTINUOUS
 10
4200.3406930000001
 20
5869.4652050000004
 30
0.0
 40
560.0
  0
CIRCLE
  5
7A72
  8
1
  6
CONTINUOUS
 10
4200.3406930000001
 20
5869.4652050000004
 30
0.0
 40
610.0
  0
LINE
  5
7A73
  8
1
  6
CONTINUOUS
 10
2763.0406929999999
 20
5322.0652049999999
 30
0.0
 11
4056.040692999999
 21
6107.0652049999999
 31
0.0
  0
LINE
  5
7A74
  8
1
  6
CONTINUOUS
 10
2711.1406929999989
 20
5407.5652049999999
 30
0.0
 11
4004.1406929999998
 21
6192.5652050000008
 31
0.0
  0
LINE
  5
7A75
  8
1
  6
CONTINUOUS
 10
2865.0406929999999
 20
5106.2652049999988
 30
0.0
 11
4292.4406929999986
 21
5607.1652050000002
 31
0.0
  0
LINE
  5
7A76
  8
1
  6
CONTINUOUS
 10
2898.2406930000002
 20
5011.8652050000001
 30
0.0
 11
4325.540692999999
 21
5512.7652049999997
 31
0.0
  0
LINE
  5
7A77
  8
1
  6
CONTINUOUS
 10
2500.3406930000001
 20
4984.4652049999986
 30
0.0
 11
2500.3406930000001
 21
4859.4652049999986
 31
0.0
  0
LINE
  5
7A78
  8
1
  6
CONTINUOUS
 10
3002.3406930000001
 20
6629.4652049999986
 30
0.0
 11
3067.3406930000001
 21
5869.4652050000004
 31
0.0
  0
ARC
  5
7A79
  8
1
  6
CONTINUOUS
 10
2825.3406930000001
 20
5219.4652049999986
 30
0.0
 40
220.0
 50
121.3
 51
289.30000000000001
  0
ARC
  5
7A7A
  8
1
  6
CONTINUOUS
 10
2825.3406930000001
 20
5219.4652049999986
 30
0.0
 40
199.0
 50
320.10000000000002
 51
219.90000000000001
  0
LINE
  5
7A7B
  8
2
  6
CENTER
 10
2705.3406930000001
 20
5219.4652049999986
 30
0.0
 11
2945.3406930000001
 21
5219.4652049999986
 31
0.0
  0
CIRCLE
  5
7A7C
  8
1
  6
CONTINUOUS
 10
2825.3406930000001
 20
5219.4652049999986
 30
0.0
 40
120.0
  0
LINE
  5
7A7D
  8
1
  6
CONTINUOUS
 10
2600.3406930000001
 20
4984.4652049999986
 30
0.0
 11
3050.3406930000001
 21
4984.4652049999986
 31
0.0
  0
LINE
  5
7A7E
  8
1
  6
CONTINUOUS
 10
2600.3406930000001
 20
5039.4652049999986
 30
0.0
 11
3050.3406930000001
 21
5039.4652049999986
 31
0.0
  0
LINE
  5
7A7F
  8
1
  6
CONTINUOUS
 10
2600.3406930000001
 20
4984.4652049999986
 30
0.0
 11
2600.3406930000001
 21
5039.4652049999986
 31
0.0
  0
LINE
  5
7A80
  8
1
  6
CONTINUOUS
 10
2663.3406930000001
 20
5081.9652049999986
 30
0.0
 11
2672.6406929999989
 21
5091.8652050000001
 31
0.0
  0
LINE
  5
7A81
  8
1
  6
CONTINUOUS
 10
2663.3406930000001
 20
5039.4652049999986
 30
0.0
 11
2663.3406930000001
 21
5081.9652049999986
 31
0.0
  0
LINE
  5
7A82
  8
2
  6
CENTER
 10
2825.3406930000001
 20
5099.4652050000004
 30
0.0
 11
2825.3406930000001
 21
5339.4652049999986
 31
0.0
  0
LINE
  5
7A83
  8
1
  6
CONTINUOUS
 10
3050.3406930000001
 20
4984.4652049999986
 30
0.0
 11
3050.3406930000001
 21
5039.4652049999986
 31
0.0
  0
LINE
  5
7A84
  8
1
  6
CONTINUOUS
 10
2987.3406930000001
 20
5081.9652049999986
 30
0.0
 11
2978.0406929999999
 21
5091.8652050000001
 31
0.0
  0
LINE
  5
7A85
  8
1
  6
CONTINUOUS
 10
2987.3406930000001
 20
5039.4652049999986
 30
0.0
 11
2987.3406930000001
 21
5081.9652049999986
 31
0.0
  0
ARC
  5
7A86
  8
1
  6
CONTINUOUS
 10
4118.3406930000001
 20
5787.4652050000004
 30
0.0
 40
890.20000000000005
 50
270.0
 51
5.0999999999999988
  0
ARC
  5
7A87
  8
1
  6
CONTINUOUS
 10
4268.8406930000001
 20
5800.9652050000004
 30
0.0
 40
739.10000000000002
 50
5.0999999999999988
 51
90.0
  0
ARC
  5
7A88
  8
1
  6
CONTINUOUS
 10
4200.3406930000001
 20
5869.4652050000004
 30
0.0
 40
378.0
 50
289.30000000000001
 51
121.3
  0
LINE
  5
7A89
  8
2
  6
CENTER
 10
8200.8949300000022
 20
5869.4652050000004
 30
0.0
 11
6699.9672899999996
 21
5869.4652050000004
 31
0.0
  0
CIRCLE
  5
7A8A
  8
1
  6
CONTINUOUS
 10
4200.3406930000001
 20
5869.4652050000004
 30
0.0
 40
278.0
  0
LINE
  5
7A8B
  8
2
  6
CENTER
 10
4200.3406930000001
 20
4528.3409270000002
 30
0.0
 11
4200.3406930000001
 21
6606.8498579999996
 31
0.0
  0
LINE
  5
7A8C
  8
1
  6
CONTINUOUS
 10
4860.340693000001
 20
4984.4652049999986
 30
0.0
 11
4860.340693000001
 21
4859.4652049999986
 31
0.0
  0
LINE
  5
7A8D
  8
1
  6
CONTINUOUS
 10
4152.3406930000001
 20
6528.6652050000002
 30
0.0
 11
4152.3406930000001
 21
6629.4652049999986
 31
0.0
  0
ARC
  5
7A8E
  8
1
  6
CONTINUOUS
 10
4268.8406930000001
 20
5937.9652050000004
 30
0.0
 40
602.10000000000002
 50
90.0
 51
101.2
  0
LINE
  5
7A8F
  8
1
  6
CONTINUOUS
 10
6767.9192129999983
 20
4999.4652049999986
 30
0.0
 11
6767.9192129999983
 21
6247.4652050000004
 31
0.0
  0
LINE
  5
7A90
  8
1
  6
CONTINUOUS
 10
6957.9192130000001
 20
5339.4652049999986
 30
0.0
 11
6957.9192130000001
 21
5099.4652050000004
 31
0.0
  0
LINE
  5
7A91
  8
1
  6
CONTINUOUS
 10
6857.9192129999992
 20
5339.4652049999986
 30
0.0
 11
6857.9192129999992
 21
5099.4652050000004
 31
0.0
  0
LINE
  5
7A92
  8
1
  6
CONTINUOUS
 10
6857.9192129999992
 20
5099.4652050000004
 30
0.0
 11
6957.9192130000001
 21
5099.4652050000004
 31
0.0
  0
LINE
  5
7A93
  8
1
  6
CONTINUOUS
 10
6857.9192129999992
 20
5339.4652049999986
 30
0.0
 11
6957.9192130000001
 21
5339.4652049999986
 31
0.0
  0
LINE
  5
7A94
  8
1
  6
CONTINUOUS
 10
6840.9192129999992
 20
4859.4652049999986
 30
0.0
 11
6840.9192129999992
 21
4984.4652049999986
 31
0.0
  0
LINE
  5
7A95
  8
1
  6
CONTINUOUS
 10
6957.9192130000001
 20
6147.4652049999986
 30
0.0
 11
6957.9192130000001
 21
5591.4652049999986
 31
0.0
  0
LINE
  5
7A96
  8
1
  6
CONTINUOUS
 10
6857.9192129999992
 20
6147.4652049999986
 30
0.0
 11
6857.9192129999992
 21
5591.4652049999986
 31
0.0
  0
LINE
  5
7A97
  8
1
  6
CONTINUOUS
 10
6857.9192129999992
 20
5591.4652049999986
 30
0.0
 11
6957.9192130000001
 21
5591.4652049999986
 31
0.0
  0
LINE
  5
7A98
  8
1
  6
CONTINUOUS
 10
6857.9192129999992
 20
6147.4652049999986
 30
0.0
 11
6957.9192130000001
 21
6147.4652049999986
 31
0.0
  0
LINE
  5
7A99
  8
1
  6
CONTINUOUS
 10
7027.9192130000001
 20
4999.4652049999986
 30
0.0
 11
7027.9192130000001
 21
6247.4652050000004
 31
0.0
  0
LINE
  5
7A9A
  8
1
  6
CONTINUOUS
 10
8055.919213000001
 20
5259.4652049999986
 30
0.0
 11
8055.919213000001
 21
6479.4652050000004
 31
0.0
  0
LINE
  5
7A9B
  8
1
  6
CONTINUOUS
 10
7952.9192130000001
 20
4984.4652049999986
 30
0.0
 11
7952.9192130000001
 21
6629.4652049999986
 31
0.0
  0
LINE
  5
7A9C
  8
1
  6
CONTINUOUS
 10
7102.9192129999992
 20
4984.4652049999986
 30
0.0
 11
7102.9192129999992
 21
6629.4652049999986
 31
0.0
  0
LINE
  5
7A9D
  8
1
  6
CONTINUOUS
 10
7952.9192130000001
 20
5309.4652049999986
 30
0.0
 11
8055.919213000001
 21
5309.4652049999986
 31
0.0
  0
LINE
  5
7A9E
  8
1
  6
CONTINUOUS
 10
8020.9192129999992
 20
4859.4652049999986
 30
0.0
 11
8020.9192129999992
 21
4984.4652049999986
 31
0.0
  0
LINE
  5
7A9F
  8
1
  6
CONTINUOUS
 10
7952.9192130000001
 20
6589.4652049999986
 30
0.0
 11
7102.9192129999992
 21
6589.4652049999986
 31
0.0
  0
LINE
  5
7AA0
  8
1
  6
CONTINUOUS
 10
8002.9192130000001
 20
6629.4652049999986
 30
0.0
 11
7052.9192130000001
 21
6629.4652049999986
 31
0.0
  0
LINE
  5
7AA1
  8
1
  6
CONTINUOUS
 10
7952.9192130000001
 20
6429.4652049999986
 30
0.0
 11
8055.919213000001
 21
6429.4652049999986
 31
0.0
  0
LINE
  5
7AA2
  8
1
  6
CONTINUOUS
 10
2605.3406930000001
 20
9244.7597699999988
 30
0.0
 11
4578.3406930000001
 21
9244.7597699999988
 31
0.0
  0
LINE
  5
7AA3
  8
1
  6
CONTINUOUS
 10
3590.3406930000001
 20
10272.759770000001
 30
0.0
 11
4810.3406930000001
 21
10272.759770000001
 31
0.0
  0
LINE
  5
7AA4
  8
1
  6
CONTINUOUS
 10
2605.3406930000001
 20
9004.7597700000006
 30
0.0
 11
4578.3406930000001
 21
9004.7597700000006
 31
0.0
  0
LINE
  5
7AA5
  8
1
  6
CONTINUOUS
 10
3002.3406930000001
 20
9319.7597700000006
 30
0.0
 11
5008.5406929999999
 21
9319.7597700000006
 31
0.0
  0
LINE
  5
7AA6
  8
1
  6
CONTINUOUS
 10
3002.3406930000001
 20
10169.759770000001
 30
0.0
 11
5008.5406929999999
 21
10169.759770000001
 31
0.0
  0
LINE
  5
7AA7
  8
1
  6
CONTINUOUS
 10
2500.3406930000001
 20
9057.7597700000024
 30
0.0
 11
4860.340693000001
 21
9057.7597700000024
 31
0.0
  0
LINE
  5
7AA8
  8
1
  6
CONTINUOUS
 10
3002.3406930000001
 20
10169.759770000001
 30
0.0
 11
4152.3406930000001
 21
9319.7597700000006
 31
0.0
  0
LINE
  5
7AA9
  8
1
  6
CONTINUOUS
 10
3002.3406930000001
 20
9319.7597700000006
 30
0.0
 11
4152.3406930000001
 21
10169.759770000001
 31
0.0
  0
LINE
  5
7AAA
  8
1
  6
CONTINUOUS
 10
2500.3406930000001
 20
10237.759770000001
 30
0.0
 11
3640.3406930000001
 21
10237.759770000001
 31
0.0
  0
LINE
  5
7AAB
  8
1
  6
CONTINUOUS
 10
2500.3406930000001
 20
10237.759770000001
 30
0.0
 11
2500.3406930000001
 21
9057.7597700000024
 31
0.0
  0
LINE
  5
7AAC
  8
1
  6
CONTINUOUS
 10
3002.3406930000001
 20
9319.7597700000006
 30
0.0
 11
3002.3406930000001
 21
10169.759770000001
 31
0.0
  0
LINE
  5
7AAD
  8
1
  6
CONTINUOUS
 10
2852.8406930000001
 20
9174.7597700000006
 30
0.0
 11
2852.8406930000001
 21
9293.4597699999995
 31
0.0
  0
LINE
  5
7AAE
  8
1
  6
CONTINUOUS
 10
2797.8406930000001
 20
9174.7597700000006
 30
0.0
 11
2797.8406930000001
 21
9293.4597699999995
 31
0.0
  0
LINE
  5
7AAF
  8
1
  6
CONTINUOUS
 10
2945.3406930000001
 20
9074.7597700000006
 30
0.0
 11
2705.3406930000001
 21
9074.7597700000006
 31
0.0
  0
LINE
  5
7AB0
  8
1
  6
CONTINUOUS
 10
2945.3406930000001
 20
9174.7597700000006
 30
0.0
 11
2705.3406930000001
 21
9174.7597700000006
 31
0.0
  0
LINE
  5
7AB1
  8
1
  6
CONTINUOUS
 10
2605.3406930000001
 20
9004.7597700000006
 30
0.0
 11
2605.3406930000001
 21
9244.7597699999988
 31
0.0
  0
LINE
  5
7AB2
  8
1
  6
CONTINUOUS
 10
2705.3406930000001
 20
9074.7597700000006
 30
0.0
 11
2705.3406930000001
 21
9174.7597700000006
 31
0.0
  0
LINE
  5
7AB3
  8
1
  6
CONTINUOUS
 10
2945.3406930000001
 20
9074.7597700000006
 30
0.0
 11
2945.3406930000001
 21
9174.7597700000006
 31
0.0
  0
LINE
  5
7AB4
  8
1
  6
CONTINUOUS
 10
2626.2406930000002
 20
9892.9597699999995
 30
0.0
 11
3002.3406930000001
 21
9892.9597699999995
 31
0.0
  0
LINE
  5
7AB5
  8
1
  6
CONTINUOUS
 10
2626.2406930000002
 20
9293.4597699999995
 30
0.0
 11
3024.440693
 21
9293.4597699999995
 31
0.0
  0
LINE
  5
7AB6
  8
1
  6
CONTINUOUS
 10
2626.2406930000002
 20
9293.4597699999995
 30
0.0
 11
2626.2406930000002
 21
9892.9597699999995
 31
0.0
  0
LINE
  5
7AB7
  8
1
  6
CONTINUOUS
 10
3024.440693
 20
9293.4597699999995
 30
0.0
 11
3024.440693
 21
9319.7597700000006
 31
0.0
  0
LINE
  5
7AB8
  8
1
  6
CONTINUOUS
 10
3640.3406930000001
 20
10272.759770000001
 30
0.0
 11
3640.3406930000001
 21
10169.759770000001
 31
0.0
  0
LINE
  5
7AB9
  8
1
  6
CONTINUOUS
 10
4152.3406930000001
 20
9319.7597700000006
 30
0.0
 11
4152.3406930000001
 21
10169.759770000001
 31
0.0
  0
LINE
  5
7ABA
  8
1
  6
CONTINUOUS
 10
4478.3406930000001
 20
9174.7597700000006
 30
0.0
 11
3922.3406930000001
 21
9174.7597700000006
 31
0.0
  0
LINE
  5
7ABB
  8
1
  6
CONTINUOUS
 10
4478.3406930000001
 20
9074.7597700000006
 30
0.0
 11
3922.3406930000001
 21
9074.7597700000006
 31
0.0
  0
LINE
  5
7ABC
  8
1
  6
CONTINUOUS
 10
4172.8406930000001
 20
9319.7597700000006
 30
0.0
 11
4172.8406930000001
 21
9174.7597700000006
 31
0.0
  0
LINE
  5
7ABD
  8
1
  6
CONTINUOUS
 10
4227.8406930000001
 20
9319.7597700000006
 30
0.0
 11
4227.8406930000001
 21
9174.7597700000006
 31
0.0
  0
LINE
  5
7ABE
  8
1
  6
CONTINUOUS
 10
3922.3406930000001
 20
9074.7597700000006
 30
0.0
 11
3922.3406930000001
 21
9174.7597700000006
 31
0.0
  0
LINE
  5
7ABF
  8
1
  6
CONTINUOUS
 10
4860.340693000001
 20
9319.7597700000006
 30
0.0
 11
4860.340693000001
 21
9057.7597700000024
 31
0.0
  0
LINE
  5
7AC0
  8
1
  6
CONTINUOUS
 10
4578.3406930000001
 20
9004.7597700000006
 30
0.0
 11
4578.3406930000001
 21
9244.7597699999988
 31
0.0
  0
LINE
  5
7AC1
  8
1
  6
CONTINUOUS
 10
4478.3406930000001
 20
9074.7597700000006
 30
0.0
 11
4478.3406930000001
 21
9174.7597700000006
 31
0.0
  0
LINE
  5
7AC2
  8
1
  6
CONTINUOUS
 10
4760.3406929999992
 20
10272.759770000001
 30
0.0
 11
4760.3406929999992
 21
10169.759770000001
 31
0.0
  0
LINE
  5
7AC3
  8
1
  6
CONTINUOUS
 10
4860.340693000001
 20
10237.759770000001
 30
0.0
 11
4860.340693000001
 21
10169.759770000001
 31
0.0
  0
LINE
  5
7AC4
  8
1
  6
CONTINUOUS
 10
4760.3406929999992
 20
10237.759770000001
 30
0.0
 11
4860.340693000001
 21
10237.759770000001
 31
0.0
  0
LINE
  5
7AC5
  8
1
  6
CONTINUOUS
 10
5008.5406929999999
 20
9319.7597700000006
 30
0.0
 11
5008.5406929999999
 21
10169.759770000001
 31
0.0
  0
DIMENSION
  5
7AD9
  8
3
  6
CONTINUOUS
  2
*D1
 10
4200.3406930000001
 20
4427.0535929999987
 30
0.0
 11
3331.1015519999992
 21
4427.0535929999987
 31
0.0
 70
   128
 13
2500.3406930000001
 23
4859.4652049999986
 33
0.0
 14
4200.3406930000001
 24
4528.3409270000002
 34
0.0
1001
ACAD
1000
DSTYLE
1002
{
1070
   287
1070
     3
1070
   287
1070
     3
1070
    40
1040
45.0
1070
   143
1040
0.039
1070
   172
1070
     1
1070
   271
1070
     0
1070
   279
1070
     0
1070
   288
1070
     1
1002
}
  0
DIMENSION
  5
7AE5
  8
3
  6
CONTINUOUS
  2
*D2
 10
4860.340693000001
 20
4427.0535929999987
 30
0.0
 11
4530.3406930000001
 21
4539.5535929999987
 31
0.0
 70
     0
 13
4200.3406930000001
 23
4528.3409270000002
 33
0.0
 14
4860.340693000001
 24
4859.4652049999986
 34
0.0
1001
ACAD
1000
DSTYLE
1002
{
1070
   287
1070
     4
1070
   287
1070
     4
1070
    40
1040
45.0
1070
    75
1070
     1
1070
   143
1040
0.039
1070
   172
1070
     1
1070
   271
1070
     0
1070
   279
1070
     1
1070
   288
1070
     1
1002
}
  0
DIMENSION
  5
7AF2
  8
3
  6
CONTINUOUS
  2
*D3
 10
5435.6423630000008
 20
5869.4652050000004
 30
0.0
 11
5435.6423629999999
 21
6241.558916
 31
0.0
 70
   128
 13
4205.3406930000001
 23
6629.4652049999986
 33
0.0
 14
5004.7595469999987
 24
5869.4652050000004
 34
0.0
 50
90.0
1001
ACAD
1000
DSTYLE
1002
{
1070
   287
1070
     3
1070
   287
1070
     3
1070
    40
1040
45.0
1070
   143
1040
0.039
1070
   172
1070
     1
1070
   271
1070
     0
1070
   279
1070
     0
1070
   288
1070
     1
1002
}
  0
DIMENSION
  5
7AFE
  8
3
  6
CONTINUOUS
  2
*D4
 10
5435.6423629999999
 20
4859.4652049999986
 30
0.0
 11
5323.142362999999
 21
5364.4652050000013
 31
0.0
 70
     0
 13
5004.7595469999987
 23
5869.4652050000004
 33
0.0
 14
4860.340693000001
 24
4859.4652049999986
 34
0.0
 50
90.0
1001
ACAD
1000
DSTYLE
1002
{
1070
   287
1070
     4
1070
   287
1070
     4
1070
    40
1040
45.0
1070
    75
1070
     1
1070
   143
1040
0.039
1070
   172
1070
     1
1070
   271
1070
     0
1070
   279
1070
     1
1070
   288
1070
     1
1002
}
  0
DIMENSION
  5
7B0B
  8
3
  6
CONTINUOUS
  2
*D5
 10
4152.3406930000001
 20
6889.0255610000013
 30
0.0
 11
3563.1611710000002
 21
6889.0255610000013
 31
0.0
 70
   128
 13
3002.3406930000001
 23
6629.4652049999986
 33
0.0
 14
4152.3406930000001
 24
6629.4652049999986
 34
0.0
1001
ACAD
1000
DSTYLE
1002
{
1070
   287
1070
     3
1070
   287
1070
     3
1070
    40
1040
45.0
1070
   143
1040
0.039
1070
   172
1070
     1
1070
   271
1070
     0
1070
   279
1070
     0
1070
   288
1070
     1
1002
}
  0
DIMENSION
  5
7B18
  8
3
  6
CONTINUOUS
  2
*D6
 10
4200.3406930000001
 20
7153.6035499999989
 30
0.0
 11
3603.1714740000002
 21
7153.6035499999989
 31
0.0
 70
   128
 13
3002.3406930000001
 23
6629.4652049999986
 33
0.0
 14
4200.3406930000001
 24
6536.1559440000001
 34
0.0
1001
ACAD
1000
DSTYLE
1002
{
1070
   287
1070
     3
1070
   287
1070
     3
1070
    40
1040
45.0
1070
   143
1040
0.039
1070
   172
1070
     1
1070
   271
1070
     0
1070
   279
1070
     0
1070
   288
1070
     1
1002
}
  0
DIMENSION
  5
7B24
  8
3
  6
CONTINUOUS
  2
*D7
 10
5005.3406930000001
 20
7153.6035499999989
 30
0.0
 11
4602.8406930000001
 21
7266.1035499999998
 31
0.0
 70
     0
 13
4200.3406930000001
 23
6536.1559440000001
 33
0.0
 14
5005.3406930000001
 24
5869.4652050000004
 34
0.0
1001
ACAD
1000
DSTYLE
1002
{
1070
   287
1070
     4
1070
   287
1070
     4
1070
    40
1040
45.0
1070
    75
1070
     1
1070
   143
1040
0.039
1070
   172
1070
     1
1070
   271
1070
     0
1070
   279
1070
     1
1070
   288
1070
     1
1002
}
  0
DIMENSION
  5
7B31
  8
3
  6
CONTINUOUS
  2
*D8
 10
5757.4830019388182
 20
4859.4652049999986
 30
0.0
 11
5757.4830019388173
 21
5754.7558280000003
 31
0.0
 70
   128
 13
4205.3406930000001
 23
6629.4652049999986
 33
0.0
 14
4860.340693000001
 24
4859.4652049999986
 34
0.0
 50
90.0
1001
ACAD
1000
DSTYLE
1002
{
1070
   287
1070
     3
1070
   287
1070
     3
1070
    40
1040
45.0
1070
   143
1040
0.039
1070
   172
1070
     1
1070
   271
1070
     0
1070
   279
1070
     0
1070
   288
1070
     1
1002
}
  0
LINE
  5
7B32
  8
2
  6
CENTER
 10
5075.549849
 20
5869.4652050000004
 30
0.0
 11
3026.110373
 21
5869.4652050000004
 31
0.0
  0
DIMENSION
  5
7B3F
  8
3
  6
CONTINUOUS
  2
*D9
 10
4860.340693000001
 20
8601.3719060000003
 30
0.0
 11
3747.208502
 21
8601.3719060000003
 31
0.0
 70
   128
 13
2500.3406930000001
 23
9057.7597700000024
 33
0.0
 14
4860.340693000001
 24
9057.7597700000024
 34
0.0
1001
ACAD
1000
DSTYLE
1002
{
1070
   287
1070
     3
1070
   287
1070
     3
1070
    40
1040
45.0
1070
   143
1040
0.039
1070
   172
1070
     1
1070
   271
1070
     0
1070
   279
1070
     0
1070
   288
1070
     1
1002
}
  0
DIMENSION
  5
7B4C
  8
3
  6
CONTINUOUS
  2
*D10
 10
5323.6136000000006
 20
9057.7597700000024
 30
0.0
 11
5323.6135999999988
 21
9632.5225069999997
 31
0.0
 70
   128
 13
4860.340693000001
 23
10237.759770000001
 33
0.0
 14
4860.340693000001
 24
9057.7597700000024
 34
0.0
 50
90.0
1001
ACAD
1000
DSTYLE
1002
{
1070
   287
1070
     3
1070
   287
1070
     3
1070
    40
1040
45.0
1070
   143
1040
0.039
1070
   172
1070
     1
1070
   271
1070
     0
1070
   279
1070
     0
1070
   288
1070
     1
1002
}
  0
LINE
  5
7B4D
  8
2
  6
CENTER
 10
5168.5818520000003
 20
9744.7597700000006
 30
0.0
 11
2890.9884849999999
 21
9744.7597700000006
 31
0.0
  0
LINE
  5
7B4E
  8
2
  6
CENTER
 10
4200.3406930000001
 20
8871.5575810000009
 30
0.0
 11
4200.3406930000001
 21
10423.291708999999
 31
0.0
  0
LINE
  5
7B4F
  8
2
  6
CENTER
 10
7527.9192130000001
 20
6802.7610489999997
 30
0.0
 11
7527.9192130000001
 21
4682.0477000000001
 31
0.0
  0
DIMENSION
  5
7B5C
  8
3
  6
CONTINUOUS
  2
*D11
 10
7952.9192130000001
 20
6793.104656999999
 30
0.0
 11
7482.5589559999999
 21
6793.104656999999
 31
0.0
 70
   128
 13
7102.9192129999992
 23
6629.4652049999986
 33
0.0
 14
7952.9192130000001
 24
6629.4652049999986
 34
0.0
1001
ACAD
1000
DSTYLE
1002
{
1070
   287
1070
     3
1070
   287
1070
     3
1070
    40
1040
45.0
1070
   143
1040
0.039
1070
   172
1070
     1
1070
   271
1070
     0
1070
   279
1070
     0
1070
   288
1070
     1
1002
}
  0
DIMENSION
  5
7B69
  8
3
  6
CONTINUOUS
  2
*D12
 10
8458.8098830000017
 20
5309.4652049999986
 30
0.0
 11
8458.8098829999999
 21
5905.8355350000002
 31
0.0
 70
   128
 13
8055.919213000001
 23
6429.4652049999986
 33
0.0
 14
8055.919213000001
 24
5309.4652049999986
 34
0.0
 50
90.0
1001
ACAD
1000
DSTYLE
1002
{
1070
   287
1070
     3
1070
   287
1070
     3
1070
     3
1000
φ<>
1070
    40
1040
45.0
1070
   143
1040
0.039
1070
   172
1070
     1
1070
   271
1070
     0
1070
   279
1070
     0
1070
   288
1070
     1
1002
}
  0
DIMENSION
  5
7B76
  8
3
  6
CONTINUOUS
  2
*D13
 10
7527.9192130000001
 20
4538.9614899999997
 30
0.0
 11
7219.3477839999987
 21
4538.9614899999997
 31
0.0
 70
   128
 13
6840.9192129999992
 23
4859.4652049999986
 33
0.0
 14
7527.9192130000001
 24
4682.0477000000001
 34
0.0
1001
ACAD
1000
DSTYLE
1002
{
1070
   287
1070
     3
1070
   287
1070
     3
1070
    40
1040
45.0
1070
   143
1040
0.039
1070
   172
1070
     1
1070
   271
1070
     0
1070
   279
1070
     0
1070
   288
1070
     1
1002
}
  0
DIMENSION
  5
7B84
  8
3
  6
CONTINUOUS
  2
*D14
 10
8020.9192129999992
 20
4538.9614899999997
 30
0.0
 11
7778.6350499999999
 21
4538.9614899999997
 31
0.0
 70
   128
 13
7527.9192130000001
 23
4682.0477000000001
 33
0.0
 14
8020.9192129999992
 24
4859.4652049999986
 34
0.0
1001
ACAD
1000
DSTYLE
1002
{
1070
   287
1070
     4
1070
   287
1070
     4
1070
    40
1040
45.0
1070
    75
1070
     1
1070
   143
1040
0.039
1070
   172
1070
     1
1070
   271
1070
     0
1070
   279
1070
     1
1070
   288
1070
     1
1002
}
  0
DIMENSION
  5
7BA7
  8
3
  6
CONTINUOUS
  2
*D15
 10
7527.9192130000001
 20
7072.8741829999999
 30
0.0
 11
7146.4726129999999
 21
7072.8741829999999
 31
0.0
 70
   128
  1
MAX\P850
 13
6767.9192129999983
 23
6247.4652050000004
 33
0.0
 14
7527.9192130000001
 24
6999.3777049999999
 34
0.0
1001
ACAD
1000
DSTYLE
1002
{
1070
   287
1070
     3
1070
   287
1070
     3
1070
    40
1040
45.0
1070
   143
1040
0.039
1070
   172
1070
     1
1070
   271
1070
     0
1070
   279
1070
     0
1070
   288
1070
     1
1002
}
  0
DIMENSION
  5
7BB5
  8
3
  6
CONTINUOUS
  2
*D16
 10
8055.919213000001
 20
7072.8741829999999
 30
0.0
 11
7794.639181999999
 21
7073.6694520000001
 31
0.0
 70
   128
 13
7527.9192130000001
 23
6999.3777049999999
 33
0.0
 14
8055.919213000001
 24
6479.4652050000004
 34
0.0
1001
ACAD
1000
DSTYLE
1002
{
1070
   287
1070
     4
1070
   287
1070
     4
1070
    40
1040
45.0
1070
    75
1070
     1
1070
   143
1040
0.039
1070
   172
1070
     1
1070
   271
1070
     0
1070
   279
1070
     1
1070
   288
1070
     1
1002
}
  0
LINE
  5
7BCC
  8
4
  6
CONTINUOUS
 10
9250.0
 20
2500.0
 30
0.0
 11
9250.0
 21
1500.0
 31
0.0
  0
LINE
  5
7BCD
  8
4
  6
CONTINUOUS
 10
5750.0
 20
2500.0
 30
0.0
 11
5750.0
 21
1500.0
 31
0.0
  0
LINE
  5
7BCE
  8
4
  6
CONTINUOUS
 10
3250.0
 20
2500.0
 30
0.0
 11
3250.0
 21
1500.0
 31
0.0
  0
LINE
  5
7BD1
  8
4
  6
CONTINUOUS
 10
3250.0
 20
1500.0
 30
0.0
 11
9250.0
 21
1500.0
 31
0.0
  0
LINE
  5
7BD2
  8
4
  6
CONTINUOUS
 10
3250.0
 20
2000.0
 30
0.0
 11
9250.0
 21
2000.0
 31
0.0
  0
TEXT
  5
7BD3
  8
4
  6
CONTINUOUS
 10
3442.5104040000001
 20
2157.7151289999988
 30
0.0
 40
250.0
  1
機器名称
  0
TEXT
  5
7BD4
  8
4
  6
CONTINUOUS
 10
3431.2905300000002
 20
1608.225782999999
 30
0.0
 40
250.0
  1
機器型番
  0
TEXT
  5
7BD5
  8
4
  6
CONTINUOUS
 10
5888.393728
 20
2112.8588439999999
 30
0.0
 40
211.11111099999991
  1
ミツヤリミットロードファン
  0
TEXT
  5
7BD6
  8
4
  6
CONTINUOUS
 10
5933.2724779999999
 20
1585.7979210000001
 30
0.0
 40
250.0
  1
LLE#7-4
  0
TEXT
  5
7BD8
  8
4
  6
CONTINUOUS
 10
4523.9288280000001
 20
11917.14420699999
 30
0.0
 40
270.0
  1
床置ベット
  0
TEXT
  5
7BD9
  8
4
  6
CONTINUOUS
 10
1580.837966999999
 20
12669.404881
 30
0.0
 40
300.0
  1
ベルト駆動式片吸込両持排煙ファン
  0
LINE
  5
7BDA
  8
4
  6
CONTINUOUS
 10
1250.0
 20
12347.04377099999
 30
0.0
 11
9250.0
 21
12347.04377099999
 31
0.0
  0
LINE
  5
7BDB
  8
4
  6
CONTINUOUS
 10
1250.0
 20
13347.043771000001
 30
0.0
 11
9250.0
 21
13347.043771000001
 31
0.0
  0
LINE
  5
7BDC
  8
4
  6
CONTINUOUS
 10
3250.0
 20
2500.0
 30
0.0
 11
9250.0
 21
2500.0
 31
0.0
  0
LINE
  5
7BDD
  8
4
  6
CONTINUOUS
 10
1250.0
 20
13347.043771000001
 30
0.0
 11
1250.0
 21
12347.04377099999
 31
0.0
  0
TEXT
  5
7BDE
  8
4
  6
CONTINUOUS
 10
2344.6346669999998
 20
11911.597388
 30
0.0
 40
270.0
  1
右回転上向
  0
TEXT
  5
7BDF
  8
4
  6
CONTINUOUS
 10
7344.8477969999994
 20
13530.305408
 30
0.0
 40
280.0
  1
No.
  0
TEXT
  5
7BE0
  8
4
  6
CONTINUOUS
 10
6556.480313
 20
11917.14420699999
 30
0.0
 40
270.0
  1
縮尺：1/50
  0
LINE
  5
7BE1
  8
4
  6
CONTINUOUS
 10
9250.0
 20
13347.043771000001
 30
0.0
 11
9250.0
 21
12347.04377099999
 31
0.0
  0
LINE
  5
7BE3
  8
4
  6
CONTINUOUS
 10
7203.0871120000002
 20
13406.317916
 30
0.0
 11
7203.0871120000002
 21
13933.261307999999
 31
0.0
  0
LINE
  5
7BE4
  8
4
  6
CONTINUOUS
 10
7203.0871120000002
 20
13933.261307999999
 30
0.0
 11
9250.0
 21
13933.261307999999
 31
0.0
  0
LINE
  5
7BE5
  8
4
  6
CONTINUOUS
 10
9250.0
 20
13933.261307999999
 30
0.0
 11
9250.0
 21
13406.317916
 31
0.0
  0
LINE
  5
7BE6
  8
4
  6
CONTINUOUS
 10
9250.0
 20
13406.317916
 30
0.0
 11
7203.0871120000002
 21
13406.317916
 31
0.0
  0
DIMENSION
  5
7C47
  8
3
  2
*D17
 10
5005.3406930000001
 20
7417.5741492641864
 30
0.0
 11
3853.1249101989092
 21
7417.5741492641864
 31
0.0
 70
   128
 13
2500.3406930000001
 23
4984.4652049999986
 33
0.0
 14
5005.3406930000001
 24
5891.9652049999986
 34
0.0
1001
ACAD
1000
DSTYLE
1002
{
1070
   287
1070
     3
1070
   287
1070
     3
1070
    40
1040
45.0
1070
   143
1040
0.039
1070
   172
1070
     1
1070
   271
1070
     0
1070
   279
1070
     0
1070
   288
1070
     1
1002
}
  0
ENDSEC
  0
EOF
