  0
SECTION
  2
HEADER
  9
$ACADVER
  1
AC1009
  9
$INSBASE
 10
0.0
 20
0.0
 30
0.0
  9
$EXTMIN
 10
1000.0
 20
1200.0
 30
0.0
  9
$EXTMAX
 10
7400.0
 20
11146.609046400001
 30
0.0
  9
$LIMMIN
 10
0.0
 20
0.0
  9
$LIMMAX
 10
297.0
 20
210.0
  9
$ORTHOMODE
 70
     0
  9
$REGENMODE
 70
     1
  9
$FILLMODE
 70
     0
  9
$QTEXTMODE
 70
     0
  9
$MIRRTEXT
 70
     1
  9
$DRAGMODE
 70
     2
  9
$LTSCALE
 40
100.0
  9
$OSMODE
 70
    37
  9
$ATTMODE
 70
     1
  9
$TEXTSIZE
 40
180.0
  9
$TRACEWID
 40
0.05
  9
$TEXTSTYLE
  7
STANDARD
  9
$CLAYER
  8
3
  9
$CELTYPE
  6
BYLAYER
  9
$CECOLOR
 62
   256
  9
$DIMSCALE
 40
40.0
  9
$DIMASZ
 40
2.0
  9
$DIMEXO
 40
0.5
  9
$DIMDLI
 40
10.0
  9
$DIMRND
 40
0.0
  9
$DIMDLE
 40
0.0
  9
$DIMEXE
 40
1.0
  9
$DIMTP
 40
1.0
  9
$DIMTM
 40
1.0
  9
$DIMTXT
 40
3.0
  9
$DIMCEN
 40
0.0
  9
$DIMTSZ
 40
0.0
  9
$DIMTOL
 70
     0
  9
$DIMLIM
 70
     0
  9
$DIMTIH
 70
     0
  9
$DIMTOH
 70
     0
  9
$DIMSE1
 70
     0
  9
$DIMSE2
 70
     0
  9
$DIMTAD
 70
     1
  9
$DIMZIN
 70
     8
  9
$DIMBLK
  1

  9
$DIMASO
 70
     1
  9
$DIMSHO
 70
     1
  9
$DIMPOST
  1
(<>)
  9
$DIMAPOST
  1

  9
$DIMALT
 70
     0
  9
$DIMALTD
 70
     2
  9
$DIMALTF
 40
0.039
  9
$DIMLFAC
 40
1.0
  9
$DIMTOFL
 70
     1
  9
$DIMTVP
 40
0.0
  9
$DIMTIX
 70
     0
  9
$DIMSOXD
 70
     0
  9
$DIMSAH
 70
     1
  9
$DIMBLK1
  1
OPEN
  9
$DIMBLK2
  1
OPEN
  9
$DIMSTYLE
  2
IGA
  9
$DIMCLRD
 70
     0
  9
$DIMCLRE
 70
     0
  9
$DIMCLRT
 70
     0
  9
$DIMTFAC
 40
10.0
  9
$DIMGAP
 40
1.0
  9
$LUNITS
 70
     2
  9
$LUPREC
 70
     3
  9
$SKETCHINC
 40
0.1
  9
$FILLETRAD
 40
50.0
  9
$AUNITS
 70
     0
  9
$AUPREC
 70
     0
  9
$MENU
  1
acad
  9
$ELEVATION
 40
0.0
  9
$PELEVATION
 40
0.0
  9
$THICKNESS
 40
0.0
  9
$LIMCHECK
 70
     0
  9
$BLIPMODE
 70
     0
  9
$CHAMFERA
 40
0.5
  9
$CHAMFERB
 40
0.5
  9
$SKPOLY
 70
     0
  9
$TDCREATE
 40
2450751.4761824068
  9
$TDUPDATE
 40
2454953.6870592702
  9
$TDINDWG
 40
0.0060964583
  9
$TDUSRTIMER
 40
0.0060964583
  9
$USRTIMER
 70
     1
  9
$ANGBASE
 50
0.0
  9
$ANGDIR
 70
     0
  9
$PDMODE
 70
     0
  9
$PDSIZE
 40
0.0
  9
$PLINEWID
 40
0.0
  9
$COORDS
 70
     1
  9
$SPLFRAME
 70
     0
  9
$SPLINETYPE
 70
     6
  9
$SPLINESEGS
 70
     8
  9
$ATTDIA
 70
     0
  9
$ATTREQ
 70
     1
  9
$HANDLING
 70
 10241
  9
$HANDSEED
  5
801E
  9
$SURFTAB1
 70
     6
  9
$SURFTAB2
 70
     6
  9
$SURFTYPE
 70
     6
  9
$SURFU
 70
     6
  9
$SURFV
 70
     6
  9
$UCSNAME
  2

  9
$UCSORG
 10
0.0
 20
0.0
 30
0.0
  9
$UCSXDIR
 10
1.0
 20
0.0
 30
0.0
  9
$UCSYDIR
 10
0.0
 20
1.0
 30
0.0
  9
$PUCSNAME
  2

  9
$PUCSORG
 10
0.0
 20
0.0
 30
0.0
  9
$PUCSXDIR
 10
1.0
 20
0.0
 30
0.0
  9
$PUCSYDIR
 10
0.0
 20
1.0
 30
0.0
  9
$USERI1
 70
     0
  9
$USERI2
 70
     0
  9
$USERI3
 70
     0
  9
$USERI4
 70
     0
  9
$USERI5
 70
     0
  9
$USERR1
 40
0.0
  9
$USERR2
 40
0.0
  9
$USERR3
 40
0.0
  9
$USERR4
 40
0.0
  9
$USERR5
 40
0.0
  9
$WORLDVIEW
 70
     1
  9
$SHADEDGE
 70
     3
  9
$SHADEDIF
 70
    70
  9
$TILEMODE
 70
     1
  9
$MAXACTVP
 70
    16
  9
$PLIMCHECK
 70
     0
  9
$PEXTMIN
 10
1.0000000000000000E+020
 20
1.0000000000000000E+020
 30
1.0000000000000000E+020
  9
$PEXTMAX
 10
-1.0000000000000000E+020
 20
-1.0000000000000000E+020
 30
-1.0000000000000000E+020
  9
$PLIMMIN
 10
0.0
 20
0.0
  9
$PLIMMAX
 10
12.0
 20
9.0
  9
$UNITMODE
 70
     0
  9
$VISRETAIN
 70
     0
  9
$PLINEGEN
 70
     0
  9
$PSLTSCALE
 70
     1
  0
ENDSEC
  0
SECTION
  2
TABLES
  0
TABLE
  2
VPORT
 70
     2
  0
VPORT
  2
*ACTIVE
 70
     0
 10
0.0
 20
0.0
 11
1.0
 21
1.0
 12
19601.484494294331
 22
5941.3260851489404
 13
0.0
 23
0.0
 14
10.0
 24
10.0
 15
10.0
 25
10.0
 16
0.0
 26
0.0
 36
1.0
 17
0.0
 27
0.0
 37
0.0
 40
14482.326044279371
 41
3.1666666666666661
 42
50.0
 43
0.0
 44
0.0
 50
0.0
 51
0.0
 71
     0
 72
   100
 73
     1
 74
     0
 75
     0
 76
     0
 77
     0
 78
     0
  0
ENDTAB
  0
TABLE
  2
LTYPE
 70
     2
  0
LTYPE
  2
CONTINUOUS
 70
     0
  3
Solid line
 72
    65
 73
     0
 40
0.0
  0
LTYPE
  2
CENTER
 70
     0
  3
____ _ ____ _ ____ _ ____ _ ____ _ ____ _ ____ 
 72
    65
 73
     4
 40
2.0
 49
1.25
 49
-0.25
 49
0.25
 49
-0.25
  0
ENDTAB
  0
TABLE
  2
LAYER
 70
     6
  0
LAYER
  2
0
 70
     0
 62
     7
  6
CONTINUOUS
  0
LAYER
  2
3
 70
     0
 62
     2
  6
CONTINUOUS
  0
LAYER
  2
2
 70
     0
 62
     3
  6
CENTER
  0
LAYER
  2
1
 70
     0
 62
     4
  6
CONTINUOUS
  0
LAYER
  2
4
 70
     0
 62
     7
  6
CONTINUOUS
  0
LAYER
  2
DEFPOINTS
 70
     0
 62
     7
  6
CONTINUOUS
  0
ENDTAB
  0
TABLE
  2
STYLE
 70
     1
  0
STYLE
  2
STANDARD
 70
     0
 40
0.0
 41
1.0
 50
0.0
 71
     0
 42
180.0
  3
simplex.shx
  4
extfont.shx
  0
ENDTAB
  0
TABLE
  2
VIEW
 70
     0
  0
ENDTAB
  0
TABLE
  2
UCS
 70
     0
  0
ENDTAB
  0
TABLE
  2
APPID
 70
     1
  0
APPID
  2
ACAD
 70
     0
  0
ENDTAB
  0
TABLE
  2
DIMSTYLE
 70
     1
  0
DIMSTYLE
  2
IGA
 70
     0
  3

  4

  5

  6
OPEN
  7
OPEN
 40
2.0
 41
2.0
 42
0.5
 43
10.0
 44
1.0
 45
0.0
 46
0.0
 47
1.0
 48
1.0
140
3.0
141
0.0
142
0.0
143
0.03937
144
1.0
145
0.0
146
10.0
147
1.0
 71
     0
 72
     0
 73
     0
 74
     0
 75
     0
 76
     0
 77
     1
 78
     8
170
     0
171
     2
172
     0
173
     1
174
     0
175
     0
176
     0
177
     0
178
     0
  0
ENDTAB
  0
ENDSEC
  0
SECTION
  2
BLOCKS
  0
BLOCK
  8
0
  2
$MODEL_SPACE
 70
     0
 10
0.0
 20
0.0
 30
0.0
  3
$MODEL_SPACE
  1

  0
ENDBLK
  5
1B
  8
0
  0
BLOCK
 67
     1
  8
0
  2
$PAPER_SPACE
 70
     0
 10
0.0
 20
0.0
 30
0.0
  3
$PAPER_SPACE
  1

  0
ENDBLK
  5
18
 67
     1
  8
0
  0
BLOCK
  8
0
  2
_OPEN
 70
     0
 10
0.0
 20
0.0
 30
0.0
  3
_OPEN
  1

  0
LINE
  5
7AEC
  8
0
  6
BYBLOCK
 62
     0
 10
-1.0
 20
0.166667
 30
0.0
 11
0.0
 21
0.0
 31
0.0
  0
LINE
  5
7AED
  8
0
  6
BYBLOCK
 62
     0
 10
0.0
 20
0.0
 30
0.0
 11
-1.0
 21
-0.166667
 31
0.0
  0
LINE
  5
7AEE
  8
0
  6
BYBLOCK
 62
     0
 10
0.0
 20
0.0
 30
0.0
 11
-1.0
 21
0.0
 31
0.0
  0
ENDBLK
  5
7AEF
  8
0
  0
BLOCK
  8
0
  2
*D1
 70
     1
 10
0.0
 20
0.0
 30
0.0
  3
*D1
  1

  0
LINE
  5
7F6E
  8
3
  6
CONTINUOUS
 62
     0
 10
2186.104547349425
 20
5342.1868021376713
 30
0.0
 11
1851.6445053494269
 21
5342.1868021376722
 31
0.0
  0
LINE
  5
7F6F
  8
3
  6
CONTINUOUS
 62
     0
 10
2186.104547349425
 20
4312.1868021376713
 30
0.0
 11
1851.644505349426
 21
4312.1868021376722
 31
0.0
  0
LINE
  5
7F70
  8
3
  6
CONTINUOUS
 62
     0
 10
1891.6445053494269
 20
5262.1868021376722
 30
0.0
 11
1891.644505349426
 21
4392.1868021376722
 31
0.0
  0
INSERT
  5
7F71
  8
3
  6
CONTINUOUS
 62
     0
  2
_OPEN
 10
1891.6445053494269
 20
5342.1868021376722
 30
0.0
 41
80.0
 42
80.0
 43
80.0
 50
90.0
  0
INSERT
  5
7F72
  8
3
  6
CONTINUOUS
 62
     0
  2
_OPEN
 10
1891.644505349426
 20
4312.1868021376722
 30
0.0
 41
80.0
 42
80.0
 43
80.0
 50
270.0
  0
TEXT
  8
3
  40
120
  5
800C
  62
0
  72
0
  71
0
 10
1551.64
 20
4629.84
 30
0.000000
  1
1030
  0
POINT
  5
7F74
  8
DEFPOINTS
  6
CONTINUOUS
 62
     0
 10
2206.104547349425
 20
5342.1868021376713
 30
0.0
  0
POINT
  5
7F75
  8
DEFPOINTS
  6
CONTINUOUS
 62
     0
 10
2206.104547349425
 20
4312.1868021376713
 30
0.0
  0
POINT
  5
7F76
  8
DEFPOINTS
  6
CONTINUOUS
 62
     0
 10
1891.644505349426
 20
4312.1868021376722
 30
0.0
  0
ENDBLK
  5
7D1E
  8
0
  0
BLOCK
  8
0
  2
*D2
 70
     1
 10
0.0
 20
0.0
 30
0.0
  3
*D2
  1

  0
LINE
  5
7F77
  8
3
  6
CONTINUOUS
 62
     0
 10
2186.104547349425
 20
5342.1868021376713
 30
0.0
 11
1587.5229920746251
 21
5342.1868021376722
 31
0.0
  0
LINE
  5
7F78
  8
3
  6
CONTINUOUS
 62
     0
 10
2270.8098103494258
 20
4268.1868021376713
 30
0.0
 11
1587.522992074624
 21
4268.1868021376722
 31
0.0
  0
LINE
  5
7F79
  8
3
  6
CONTINUOUS
 62
     0
 10
1627.5229920746251
 20
5262.1868021376722
 30
0.0
 11
1627.5229920746251
 21
4348.1868021376713
 31
0.0
  0
INSERT
  5
7F7A
  8
3
  6
CONTINUOUS
 62
     0
  2
_OPEN
 10
1627.5229920746251
 20
5342.1868021376722
 30
0.0
 41
80.0
 42
80.0
 43
80.0
 50
90.0
  0
INSERT
  5
7F7B
  8
3
  6
CONTINUOUS
 62
     0
  2
_OPEN
 10
1627.5229920746251
 20
4268.1868021376722
 30
0.0
 41
80.0
 42
80.0
 43
80.0
 50
270.0
  0
TEXT
  8
3
  40
120
  5
800D
  62
0
  72
0
  71
0
 10
1287.52
 20
4629.84
 30
0.000000
  1
1074
  0
POINT
  5
7F7D
  8
DEFPOINTS
  6
CONTINUOUS
 62
     0
 10
2206.104547349425
 20
5342.1868021376713
 30
0.0
  0
POINT
  5
7F7E
  8
DEFPOINTS
  6
CONTINUOUS
 62
     0
 10
2290.8098103494258
 20
4268.1868021376713
 30
0.0
  0
POINT
  5
7F7F
  8
DEFPOINTS
  6
CONTINUOUS
 62
     0
 10
1627.5229920746251
 20
4268.1868021376722
 30
0.0
  0
ENDBLK
  5
7D9A
  8
0
  0
BLOCK
  8
0
  2
*D3
 70
     1
 10
0.0
 20
0.0
 30
0.0
  3
*D3
  1

  0
LINE
  5
7F80
  8
3
  6
CONTINUOUS
 62
     0
 10
2270.8098103494258
 20
4268.1868021376713
 30
0.0
 11
1587.522992074624
 21
4268.1868021376722
 31
0.0
  0
LINE
  5
7F81
  8
3
  6
CONTINUOUS
 62
     0
 10
2241.104547349425
 20
3518.1868021376722
 30
0.0
 11
1587.522992074624
 21
3518.1868021376722
 31
0.0
  0
LINE
  5
7F82
  8
3
  6
CONTINUOUS
 62
     0
 10
1627.522992074624
 20
4188.1868021376722
 30
0.0
 11
1627.522992074624
 21
3598.1868021376708
 31
0.0
  0
INSERT
  5
7F83
  8
3
  6
CONTINUOUS
 62
     0
  2
_OPEN
 10
1627.522992074624
 20
4268.1868021376722
 30
0.0
 41
80.0
 42
80.0
 43
80.0
 50
90.0
  0
INSERT
  5
7F84
  8
3
  6
CONTINUOUS
 62
     0
  2
_OPEN
 10
1627.522992074624
 20
3518.1868021376722
 30
0.0
 41
80.0
 42
80.0
 43
80.0
 50
270.0
  0
TEXT
  8
3
  40
120
  5
800E
  62
0
  72
0
  71
0
 10
1287.52
 20
3680.79
 30
0.000000
  1
750
  0
POINT
  5
7F86
  8
DEFPOINTS
  6
CONTINUOUS
 62
     0
 10
2290.8098103494258
 20
4268.1868021376713
 30
0.0
  0
POINT
  5
7F87
  8
DEFPOINTS
  6
CONTINUOUS
 62
     0
 10
2261.104547349425
 20
3518.1868021376722
 30
0.0
  0
POINT
  5
7F88
  8
DEFPOINTS
  6
CONTINUOUS
 62
     0
 10
1627.522992074624
 20
3518.1868021376722
 30
0.0
  0
ENDBLK
  5
7DA5
  8
0
  0
BLOCK
  8
0
  2
*D4
 70
     1
 10
0.0
 20
0.0
 30
0.0
  3
*D4
  1

  0
LINE
  5
7F89
  8
3
  6
CONTINUOUS
 62
     0
 10
2206.104547349425
 20
5415.1868021376722
 30
0.0
 11
2206.104547349425
 21
5625.4658625619813
 31
0.0
  0
LINE
  5
7F8A
  8
3
  6
CONTINUOUS
 62
     0
 10
2886.104547349425
 20
5304.1868021376713
 30
0.0
 11
2886.104547349425
 21
5625.4658625619813
 31
0.0
  0
LINE
  5
7F8B
  8
3
  6
CONTINUOUS
 62
     0
 10
2286.104547349425
 20
5585.4658625619813
 30
0.0
 11
2806.104547349425
 21
5585.4658625619813
 31
0.0
  0
INSERT
  5
7F8C
  8
3
  6
CONTINUOUS
 62
     0
  2
_OPEN
 10
2206.104547349425
 20
5585.4658625619813
 30
0.0
 41
80.0
 42
80.0
 43
80.0
 50
180.0
  0
INSERT
  5
7F8D
  8
3
  6
CONTINUOUS
 62
     0
  2
_OPEN
 10
2886.104547349425
 20
5585.4658625619813
 30
0.0
 41
80.0
 42
80.0
 43
80.0
  0
TEXT
  8
3
  40
120
  5
800F
  62
0
  72
0
  71
0
 10
2371.82
 20
5473.07
 30
0.000000
  1
680
  0
POINT
  5
7F8F
  8
DEFPOINTS
  6
CONTINUOUS
 62
     0
 10
2206.104547349425
 20
5395.1868021376713
 30
0.0
  0
POINT
  5
7F90
  8
DEFPOINTS
  6
CONTINUOUS
 62
     0
 10
2886.104547349425
 20
5284.1868021376713
 30
0.0
  0
POINT
  5
7F91
  8
DEFPOINTS
  6
CONTINUOUS
 62
     0
 10
2886.104547349425
 20
5585.4658625619813
 30
0.0
  0
ENDBLK
  5
7DDE
  8
0
  0
BLOCK
  8
0
  2
*D5
 70
     1
 10
0.0
 20
0.0
 30
0.0
  3
*D5
  1

  0
LINE
  5
7F92
  8
3
  6
CONTINUOUS
 62
     0
 10
2886.104547349425
 20
5304.1868021376713
 30
0.0
 11
2886.104547349425
 21
5625.4658625619813
 31
0.0
  0
LINE
  5
7F93
  8
3
  6
CONTINUOUS
 62
     0
 10
3754.104547349425
 20
4288.1868021376713
 30
0.0
 11
3754.104547349425
 21
5625.4658625619813
 31
0.0
  0
LINE
  5
7F94
  8
3
  6
CONTINUOUS
 62
     0
 10
2966.104547349425
 20
5585.4658625619813
 30
0.0
 11
3674.104547349425
 21
5585.4658625619813
 31
0.0
  0
INSERT
  5
7F95
  8
3
  6
CONTINUOUS
 62
     0
  2
_OPEN
 10
2886.104547349425
 20
5585.4658625619813
 30
0.0
 41
80.0
 42
80.0
 43
80.0
 50
180.0
  0
INSERT
  5
7F96
  8
3
  6
CONTINUOUS
 62
     0
  2
_OPEN
 10
3754.104547349425
 20
5585.4658625619813
 30
0.0
 41
80.0
 42
80.0
 43
80.0
  0
TEXT
  8
3
  40
120
  5
8010
  62
0
  72
0
  71
0
 10
3080.10
 20
5473.07
 30
0.000000
  1
868
  0
POINT
  5
7F98
  8
DEFPOINTS
  6
CONTINUOUS
 62
     0
 10
2886.104547349425
 20
5284.1868021376713
 30
0.0
  0
POINT
  5
7F99
  8
DEFPOINTS
  6
CONTINUOUS
 62
     0
 10
3754.104547349425
 20
4268.1868021376713
 30
0.0
  0
POINT
  5
7F9A
  8
DEFPOINTS
  6
CONTINUOUS
 62
     0
 10
3754.104547349425
 20
5585.4658625619813
 30
0.0
  0
ENDBLK
  5
7DD3
  8
0
  0
BLOCK
  8
0
  2
*D6
 70
     1
 10
0.0
 20
0.0
 30
0.0
  3
*D6
  1

  0
LINE
  5
7F9B
  8
3
  6
CONTINUOUS
 62
     0
 10
2261.104547349425
 20
7751.0193481376709
 30
0.0
 11
2261.104547349425
 21
7197.4310631376711
 31
0.0
  0
LINE
  5
7F9C
  8
3
  6
CONTINUOUS
 62
     0
 10
4381.104547349425
 20
7751.0193481376709
 30
0.0
 11
4381.104547349425
 21
7197.4310631376711
 31
0.0
  0
LINE
  5
7F9D
  8
3
  6
CONTINUOUS
 62
     0
 10
2341.104547349425
 20
7237.4310631376702
 30
0.0
 11
4301.1045473494241
 21
7237.4310631376702
 31
0.0
  0
INSERT
  5
7F9E
  8
3
  6
CONTINUOUS
 62
     0
  2
_OPEN
 10
2261.104547349425
 20
7237.4310631376702
 30
0.0
 41
80.0
 42
80.0
 43
80.0
 50
180.0
  0
INSERT
  5
7F9F
  8
3
  6
CONTINUOUS
 62
     0
  2
_OPEN
 10
4381.104547349425
 20
7237.4310631376702
 30
0.0
 41
80.0
 42
80.0
 43
80.0
  0
TEXT
  8
3
  40
120
  5
8011
  62
0
  72
0
  71
0
 10
3103.37
 20
7125.03
 30
0.000000
  1
2120
  0
POINT
  5
7FA1
  8
DEFPOINTS
  6
CONTINUOUS
 62
     0
 10
2261.104547349425
 20
7771.0193481376718
 30
0.0
  0
POINT
  5
7FA2
  8
DEFPOINTS
  6
CONTINUOUS
 62
     0
 10
4381.104547349425
 20
7771.0193481376718
 30
0.0
  0
POINT
  5
7FA3
  8
DEFPOINTS
  6
CONTINUOUS
 62
     0
 10
4381.104547349425
 20
7237.4310631376702
 30
0.0
  0
ENDBLK
  5
7CCF
  8
0
  0
BLOCK
  8
0
  2
*D7
 70
     1
 10
0.0
 20
0.0
 30
0.0
  3
*D7
  1

  0
LINE
  5
7FA4
  8
3
  6
CONTINUOUS
 62
     0
 10
4401.104547349425
 20
8831.0193481376718
 30
0.0
 11
4809.5960113494266
 21
8831.0193481376718
 31
0.0
  0
LINE
  5
7FA5
  8
3
  6
CONTINUOUS
 62
     0
 10
4401.104547349425
 20
7771.0193481376718
 30
0.0
 11
4809.5960113494266
 21
7771.0193481376718
 31
0.0
  0
LINE
  5
7FA6
  8
3
  6
CONTINUOUS
 62
     0
 10
4769.5960113494266
 20
8751.0193481376718
 30
0.0
 11
4769.5960113494266
 21
7851.0193481376718
 31
0.0
  0
INSERT
  5
7FA7
  8
3
  6
CONTINUOUS
 62
     0
  2
_OPEN
 10
4769.5960113494266
 20
8831.0193481376718
 30
0.0
 41
80.0
 42
80.0
 43
80.0
 50
90.0
  0
INSERT
  5
7FA8
  8
3
  6
CONTINUOUS
 62
     0
  2
_OPEN
 10
4769.5960113494266
 20
7771.0193481376718
 30
0.0
 41
80.0
 42
80.0
 43
80.0
 50
270.0
  0
TEXT
  8
3
  40
120
  5
8012
  62
0
  72
0
  71
0
 10
4429.60
 20
8117.22
 30
0.000000
  1
1060
  0
POINT
  5
7FAA
  8
DEFPOINTS
  6
CONTINUOUS
 62
     0
 10
4381.104547349425
 20
8831.0193481376718
 30
0.0
  0
POINT
  5
7FAB
  8
DEFPOINTS
  6
CONTINUOUS
 62
     0
 10
4381.104547349425
 20
7771.0193481376718
 30
0.0
  0
POINT
  5
7FAC
  8
DEFPOINTS
  6
CONTINUOUS
 62
     0
 10
4769.5960113494266
 20
7771.0193481376718
 30
0.0
  0
ENDBLK
  5
7CC4
  8
0
  0
BLOCK
  8
0
  2
*D8
 70
     1
 10
0.0
 20
0.0
 30
0.0
  3
*D8
  1

  0
LINE
  5
7FAD
  8
3
  6
CONTINUOUS
 62
     0
 10
6587.5844631878936
 20
4768.1868021376713
 30
0.0
 11
6939.0877821878958
 21
4768.1868021376713
 31
0.0
  0
LINE
  5
7FAE
  8
3
  6
CONTINUOUS
 62
     0
 10
6587.5844631878936
 20
3768.1868021376722
 30
0.0
 11
6939.0877821878958
 21
3768.1868021376722
 31
0.0
  0
LINE
  5
7FAF
  8
3
  6
CONTINUOUS
 62
     0
 10
6899.0877821878948
 20
4688.1868021376704
 30
0.0
 11
6899.0877821878948
 21
3848.1868021376708
 31
0.0
  0
INSERT
  5
7FB0
  8
3
  6
CONTINUOUS
 62
     0
  2
_OPEN
 10
6899.0877821878948
 20
4768.1868021376713
 30
0.0
 41
80.0
 42
80.0
 43
80.0
 50
90.0
  0
INSERT
  5
7FB1
  8
3
  6
CONTINUOUS
 62
     0
  2
_OPEN
 10
6899.0877821878948
 20
3768.1868021376722
 30
0.0
 41
80.0
 42
80.0
 43
80.0
 50
270.0
  0
TEXT
  8
3
  40
120
  5
8013
  62
0
  72
0
  71
0
 10
6559.09
 20
4100.09
 30
0.000000
  1
φ1000
  0
POINT
  5
7FB3
  8
DEFPOINTS
  6
CONTINUOUS
 62
     0
 10
6567.5844631878963
 20
4768.1868021376713
 30
0.0
  0
POINT
  5
7FB4
  8
DEFPOINTS
  6
CONTINUOUS
 62
     0
 10
6567.5844631878963
 20
3768.1868021376722
 30
0.0
  0
POINT
  5
7FB5
  8
DEFPOINTS
  6
CONTINUOUS
 62
     0
 10
6899.0877821878948
 20
3768.1868021376722
 30
0.0
  0
ENDBLK
  5
7D6B
  8
0
  0
BLOCK
  8
0
  2
*D9
 70
     1
 10
0.0
 20
0.0
 30
0.0
  3
*D9
  1

  0
LINE
  5
7FB6
  8
3
  6
CONTINUOUS
 62
     0
 10
5714.5844631878963
 20
5362.1868021376713
 30
0.0
 11
5714.5844631878963
 21
5583.1556691376709
 31
0.0
  0
LINE
  5
7FB7
  8
3
  6
CONTINUOUS
 62
     0
 10
6464.5844631878963
 20
5362.1868021376713
 30
0.0
 11
6464.5844631878963
 21
5583.1556691376709
 31
0.0
  0
LINE
  5
7FB8
  8
3
  6
CONTINUOUS
 62
     0
 10
5794.5844631878954
 20
5543.15566913767
 30
0.0
 11
6384.5844631878954
 21
5543.15566913767
 31
0.0
  0
INSERT
  5
7FB9
  8
3
  6
CONTINUOUS
 62
     0
  2
_OPEN
 10
5714.5844631878963
 20
5543.15566913767
 30
0.0
 41
80.0
 42
80.0
 43
80.0
 50
180.0
  0
INSERT
  5
7FBA
  8
3
  6
CONTINUOUS
 62
     0
  2
_OPEN
 10
6464.5844631878963
 20
5543.15566913767
 30
0.0
 41
80.0
 42
80.0
 43
80.0
  0
TEXT
  8
3
  40
120
  5
8014
  62
0
  72
0
  71
0
 10
5842.53
 20
5430.76
 30
0.000000
  1
750
  0
POINT
  5
7FBC
  8
DEFPOINTS
  6
CONTINUOUS
 62
     0
 10
5714.5844631878963
 20
5342.1868021376713
 30
0.0
  0
POINT
  5
7FBD
  8
DEFPOINTS
  6
CONTINUOUS
 62
     0
 10
6464.5844631878963
 20
5342.1868021376713
 30
0.0
  0
POINT
  5
7FBE
  8
DEFPOINTS
  6
CONTINUOUS
 62
     0
 10
6464.5844631878963
 20
5543.15566913767
 30
0.0
  0
ENDBLK
  5
7D76
  8
0
  0
BLOCK
  8
0
  2
*D10
 70
     1
 10
0.0
 20
0.0
 30
0.0
  3
*D10
  1

  0
LINE
  5
7FBF
  8
3
  6
CONTINUOUS
 62
     0
 10
5409.5844631878954
 20
4554.8868021376711
 30
0.0
 11
5409.5844631878954
 21
5909.7683441376703
 31
0.0
  0
LINE
  5
7FC0
  8
3
  6
CONTINUOUS
 62
     0
 10
6089.5844631878963
 20
5780.5382771376699
 30
0.0
 11
6089.5844631878963
 21
5909.7683441376703
 31
0.0
  0
LINE
  5
7FC1
  8
3
  6
CONTINUOUS
 62
     0
 10
5489.5844631878954
 20
5869.7683441376703
 30
0.0
 11
6009.5844631878954
 21
5869.7683441376703
 31
0.0
  0
INSERT
  5
7FC2
  8
3
  6
CONTINUOUS
 62
     0
  2
_OPEN
 10
5409.5844631878954
 20
5869.7683441376703
 30
0.0
 41
80.0
 42
80.0
 43
80.0
 50
180.0
  0
INSERT
  5
7FC3
  8
3
  6
CONTINUOUS
 62
     0
  2
_OPEN
 10
6089.5844631878963
 20
5869.7683441376703
 30
0.0
 41
80.0
 42
80.0
 43
80.0
  0
TEXT
  8
3
  40
120
  5
8015
  62
0
  72
0
  71
0
 10
5461.01
 20
5857.37
 30
0.000000
  1
MAX
  0
TEXT
  8
3
  40
120
  5
8016
  62
0
  72
0
  71
0
 10
5461.01
 20
5701.37
 30
0.000000
  1
770
  0
POINT
  5
7FC5
  8
DEFPOINTS
  6
CONTINUOUS
 62
     0
 10
5409.5844631878954
 20
4534.8868021376711
 30
0.0
  0
POINT
  5
7FC6
  8
DEFPOINTS
  6
CONTINUOUS
 62
     0
 10
6089.5844631878963
 20
5760.5382771376708
 30
0.0
  0
POINT
  5
7FC7
  8
DEFPOINTS
  6
CONTINUOUS
 62
     0
 10
6089.5844631878963
 20
5869.7683441376703
 30
0.0
  0
ENDBLK
  5
7E03
  8
0
  0
BLOCK
  8
0
  2
*D11
 70
     1
 10
0.0
 20
0.0
 30
0.0
  3
*D11
  1

  0
LINE
  5
7D57
  8
0
  6
BYBLOCK
 62
     0
 10
6089.5844631878963
 20
5780.5382771376699
 30
0.0
 11
6089.5844631878963
 21
5909.7683441376703
 31
0.0
  0
LINE
  5
7D58
  8
0
  6
BYBLOCK
 62
     0
 10
6567.5844631878963
 20
4838.1868021376713
 30
0.0
 11
6567.5844631878963
 21
5909.7683441376703
 31
0.0
  0
LINE
  5
7D59
  8
0
  6
BYBLOCK
 62
     0
 10
6169.5844631878954
 20
5869.7683441376703
 30
0.0
 11
6487.5844631878954
 21
5869.7683441376703
 31
0.0
  0
TEXT
  5
7D5A
  8
3
 62
     0
 10
6174.2987489021807
 20
5910.9497986334609
 30
0.0
 40
120.0
  1
478
  0
INSERT
  5
7D5B
  8
0
  6
BYBLOCK
 62
     0
  2
_OPEN
 10
6089.5844631878963
 20
5869.7683441376703
 30
0.0
 41
80.0
 42
80.0
 43
80.0
 50
180.0
  0
INSERT
  5
7D5C
  8
0
  6
BYBLOCK
 62
     0
  2
_OPEN
 10
6567.5844631878963
 20
5869.7683441376703
 30
0.0
 41
80.0
 42
80.0
 43
80.0
  0
POINT
  5
7D5D
  8
DEFPOINTS
  6
BYBLOCK
 62
     0
 10
6089.5844631878963
 20
5760.5382771376708
 30
0.0
  0
POINT
  5
7D5E
  8
DEFPOINTS
  6
BYBLOCK
 62
     0
 10
6567.5844631878963
 20
4818.1868021376713
 30
0.0
  0
POINT
  5
7D5F
  8
DEFPOINTS
  6
BYBLOCK
 62
     0
 10
6567.5844631878963
 20
5869.7683441376703
 30
0.0
  0
ENDBLK
  5
7D60
  8
0
  0
BLOCK
  8
0
  2
*D12
 70
     1
 10
0.0
 20
0.0
 30
0.0
  3
*D12
  1

  0
LINE
  5
7FC8
  8
3
 62
     0
 10
2206.104547349425
 20
5415.1868021376722
 30
0.0
 11
2206.104547349425
 21
5888.9877178289389
 31
0.0
  0
LINE
  5
7FC9
  8
3
 62
     0
 10
4381.104547349425
 20
3663.1868021376722
 30
0.0
 11
4381.104547349425
 21
5888.9877178289389
 31
0.0
  0
LINE
  5
7FCA
  8
3
 62
     0
 10
2286.104547349425
 20
5848.9877178289389
 30
0.0
 11
4301.1045473494241
 21
5848.9877178289389
 31
0.0
  0
INSERT
  5
7FCB
  8
3
 62
     0
  2
_OPEN
 10
2206.104547349425
 20
5848.9877178289389
 30
0.0
 41
80.0
 42
80.0
 43
80.0
 50
180.0
  0
INSERT
  5
7FCC
  8
3
 62
     0
  2
_OPEN
 10
4381.104547349425
 20
5848.9877178289389
 30
0.0
 41
80.0
 42
80.0
 43
80.0
  0
TEXT
  8
3
  40
120
  5
8017
  62
0
  72
0
  71
0
 10
3132.37
 20
5736.59
 30
0.000000
  1
2175
  0
POINT
  5
7FCE
  8
DEFPOINTS
 62
     0
 10
2206.104547349425
 20
5395.1868021376713
 30
0.0
  0
POINT
  5
7FCF
  8
DEFPOINTS
 62
     0
 10
4381.104547349425
 20
3643.1868021376722
 30
0.0
  0
POINT
  5
7FD0
  8
DEFPOINTS
 62
     0
 10
4381.104547349425
 20
5848.9877178289389
 30
0.0
  0
ENDBLK
  5
7DC8
  8
0
  0
BLOCK
  8
0
  2
*D13
 70
     1
 10
0.0
 20
0.0
 30
0.0
  3
*D13
  1

  0
LINE
  5
7FD1
  8
3
 62
     0
 10
2261.104547349425
 20
3318.1868021376722
 30
0.0
 11
2261.104547349425
 21
2984.0520393946722
 31
0.0
  0
LINE
  5
7FD2
  8
3
 62
     0
 10
2886.104547349425
 20
3318.1868021376722
 30
0.0
 11
2886.104547349425
 21
2984.0520393946722
 31
0.0
  0
LINE
  5
7FD3
  8
3
 62
     0
 10
2341.104547349425
 20
3024.0520393946708
 30
0.0
 11
2806.104547349425
 21
3024.0520393946708
 31
0.0
  0
INSERT
  5
7FD4
  8
3
 62
     0
  2
_OPEN
 10
2261.104547349425
 20
3024.0520393946708
 30
0.0
 41
80.0
 42
80.0
 43
80.0
 50
180.0
  0
INSERT
  5
7FD5
  8
3
 62
     0
  2
_OPEN
 10
2886.104547349425
 20
3024.0520393946708
 30
0.0
 41
80.0
 42
80.0
 43
80.0
  0
TEXT
  8
3
  40
120
  5
8018
  62
0
  72
0
  71
0
 10
2333.60
 20
2911.65
 30
0.000000
  1
625
  0
POINT
  5
7FD7
  8
DEFPOINTS
 62
     0
 10
2261.104547349425
 20
3338.1868021376722
 30
0.0
  0
POINT
  5
7FD8
  8
DEFPOINTS
 62
     0
 10
2886.104547349425
 20
3338.1868021376722
 30
0.0
  0
POINT
  5
7FD9
  8
DEFPOINTS
 62
     0
 10
2886.104547349425
 20
3024.0520393946708
 30
0.0
  0
ENDBLK
  5
7E17
  8
0
  0
BLOCK
  8
0
  2
*D14
 70
     1
 10
0.0
 20
0.0
 30
0.0
  3
*D14
  1

  0
LINE
  5
7FDA
  8
3
 62
     0
 10
2886.104547349425
 20
3318.1868021376722
 30
0.0
 11
2886.104547349425
 21
2984.0520393946722
 31
0.0
  0
LINE
  5
7FDB
  8
3
 62
     0
 10
4381.104547349425
 20
3318.1868021376722
 30
0.0
 11
4381.104547349425
 21
2984.0520393946722
 31
0.0
  0
LINE
  5
7FDC
  8
3
 62
     0
 10
2966.104547349425
 20
3024.0520393946708
 30
0.0
 11
4301.1045473494241
 21
3024.0520393946708
 31
0.0
  0
INSERT
  5
7FDD
  8
3
 62
     0
  2
_OPEN
 10
2886.104547349425
 20
3024.0520393946708
 30
0.0
 41
80.0
 42
80.0
 43
80.0
 50
180.0
  0
INSERT
  5
7FDE
  8
3
 62
     0
  2
_OPEN
 10
4381.104547349425
 20
3024.0520393946708
 30
0.0
 41
80.0
 42
80.0
 43
80.0
  0
TEXT
  8
3
  40
120
  5
8019
  62
0
  72
0
  71
0
 10
3393.60
 20
2911.65
 30
0.000000
  1
1495
  0
POINT
  5
7FE0
  8
DEFPOINTS
 62
     0
 10
2886.104547349425
 20
3338.1868021376722
 30
0.0
  0
POINT
  5
7FE1
  8
DEFPOINTS
 62
     0
 10
4381.104547349425
 20
3338.1868021376722
 30
0.0
  0
POINT
  5
7FE2
  8
DEFPOINTS
 62
     0
 10
4381.104547349425
 20
3024.0520393946708
 30
0.0
  0
ENDBLK
  5
7E24
  8
0
  0
BLOCK
  8
0
  2
*D15
 70
     1
 10
0.0
 20
0.0
 30
0.0
  3
*D15
  1

  0
LINE
  5
7FE3
  8
3
 62
     0
 10
5472.5844631878963
 20
3318.1868021376722
 30
0.0
 11
5472.5844631878963
 21
2984.0520393946722
 31
0.0
  0
LINE
  5
7FE4
  8
3
 62
     0
 10
6089.5844631878963
 20
3318.1868021376708
 30
0.0
 11
6089.5844631878963
 21
2984.0520393946722
 31
0.0
  0
LINE
  5
7FE5
  8
3
 62
     0
 10
5552.5844631878954
 20
3024.0520393946708
 30
0.0
 11
6009.5844631878954
 21
3024.0520393946708
 31
0.0
  0
INSERT
  5
7FE6
  8
3
 62
     0
  2
_OPEN
 10
5472.5844631878963
 20
3024.0520393946708
 30
0.0
 41
80.0
 42
80.0
 43
80.0
 50
180.0
  0
INSERT
  5
7FE7
  8
3
 62
     0
  2
_OPEN
 10
6089.5844631878963
 20
3024.0520393946708
 30
0.0
 41
80.0
 42
80.0
 43
80.0
  0
TEXT
  8
3
  40
120
  5
801A
  62
0
  72
0
  71
0
 10
5541.08
 20
2911.65
 30
0.000000
  1
617
  0
POINT
  5
7FE9
  8
DEFPOINTS
 62
     0
 10
5472.5844631878963
 20
3338.1868021376722
 30
0.0
  0
POINT
  5
7FEA
  8
DEFPOINTS
 62
     0
 10
6089.5844631878963
 20
3338.1868021376722
 30
0.0
  0
POINT
  5
7FEB
  8
DEFPOINTS
 62
     0
 10
6089.5844631878963
 20
3024.0520393946708
 30
0.0
  0
ENDBLK
  5
7E31
  8
0
  0
BLOCK
  8
0
  2
*D16
 70
     1
 10
0.0
 20
0.0
 30
0.0
  3
*D16
  1

  0
LINE
  5
7FEC
  8
3
 62
     0
 10
6089.5844631878963
 20
3318.1868021376708
 30
0.0
 11
6089.5844631878963
 21
2984.0520393946722
 31
0.0
  0
LINE
  5
7FED
  8
3
 62
     0
 10
6532.5844631878954
 20
3318.1868021376722
 30
0.0
 11
6532.5844631878954
 21
2984.0520393946722
 31
0.0
  0
LINE
  5
7FEE
  8
3
 62
     0
 10
6169.5844631878954
 20
3024.0520393946708
 30
0.0
 11
6452.5844631878954
 21
3024.0520393946708
 31
0.0
  0
INSERT
  5
7FEF
  8
3
 62
     0
  2
_OPEN
 10
6089.5844631878963
 20
3024.0520393946708
 30
0.0
 41
80.0
 42
80.0
 43
80.0
 50
180.0
  0
INSERT
  5
7FF0
  8
3
 62
     0
  2
_OPEN
 10
6532.5844631878954
 20
3024.0520393946708
 30
0.0
 41
80.0
 42
80.0
 43
80.0
  0
TEXT
  8
3
  40
120
  5
801B
  62
0
  72
0
  71
0
 10
6071.08
 20
2911.65
 30
0.000000
  1
443
  0
POINT
  5
7FF2
  8
DEFPOINTS
 62
     0
 10
6089.5844631878963
 20
3338.1868021376722
 30
0.0
  0
POINT
  5
7FF3
  8
DEFPOINTS
 62
     0
 10
6532.5844631878954
 20
3338.1868021376722
 30
0.0
  0
POINT
  5
7FF4
  8
DEFPOINTS
 62
     0
 10
6532.5844631878954
 20
3024.0520393946708
 30
0.0
  0
ENDBLK
  5
7E40
  8
0
  0
BLOCK
  8
0
  2
_DOT
 70
     0
 10
0.0
 20
0.0
 30
0.0
  3
_DOT
  1

  0
POLYLINE
  5
7E44
  8
0
  6
BYBLOCK
 62
     0
 66
     1
 10
0.0
 20
0.0
 30
0.0
 70
     1
 40
0.5
 41
0.5
  0
VERTEX
  5
7FF5
  8
0
  6
BYBLOCK
 62
     0
 10
-0.25
 20
0.0
 30
0.0
 42
1.0
  0
VERTEX
  5
7FF6
  8
0
  6
BYBLOCK
 62
     0
 10
0.25
 20
0.0
 30
0.0
 42
1.0
  0
SEQEND
  5
7FF7
  8
0
  6
BYBLOCK
 62
     0
  0
LINE
  5
7E48
  8
0
  6
BYBLOCK
 62
     0
 10
-0.5
 20
0.0
 30
0.0
 11
-1.0
 21
0.0
 31
0.0
  0
ENDBLK
  5
7E49
  8
0
  0
BLOCK
  8
0
  2
*D18
 70
     1
 10
0.0
 20
0.0
 30
0.0
  3
*D18
  1

  0
LINE
  5
7FF8
  8
3
 62
     0
 10
2241.104547349425
 20
3403.1868021376722
 30
0.0
 11
1589.918333578287
 21
3403.1868021376722
 31
0.0
  0
LINE
  5
7FF9
  8
3
 62
     0
 10
2241.104547349425
 20
3338.1868021376722
 30
0.0
 11
1589.918333578287
 21
3338.1868021376722
 31
0.0
  0
LINE
  5
7FFA
  8
3
 62
     0
 10
1629.918333578287
 20
3483.1868021376722
 30
0.0
 11
1629.918333578287
 21
3563.1868021376722
 31
0.0
  0
LINE
  5
7FFB
  8
3
 62
     0
 10
1629.918333578287
 20
3258.1868021376722
 30
0.0
 11
1629.918333578287
 21
2903.9010878519571
 31
0.0
  0
LINE
  5
7FFC
  8
3
 62
     0
 10
1629.918333578287
 20
3403.1868021376722
 30
0.0
 11
1629.918333578287
 21
3338.1868021376722
 31
0.0
  0
INSERT
  5
7FFD
  8
3
 62
     0
  2
_DOT
 10
1629.918333578287
 20
3403.1868021376722
 30
0.0
 41
80.0
 42
80.0
 43
80.0
 50
270.0
  0
INSERT
  5
7FFE
  8
3
 62
     0
  2
_OPEN
 10
1629.918333578287
 20
3338.1868021376722
 30
0.0
 41
80.0
 42
80.0
 43
80.0
 50
90.0
  0
TEXT
  8
3
  40
120
  5
801C
  62
0
  72
0
  71
0
 10
1289.92
 20
2828.64
 30
0.000000
  1
65
  0
POINT
  5
8000
  8
DEFPOINTS
 62
     0
 10
2261.104547349425
 20
3403.1868021376722
 30
0.0
  0
POINT
  5
8001
  8
DEFPOINTS
 62
     0
 10
2261.104547349425
 20
3338.1868021376722
 30
0.0
  0
POINT
  5
8002
  8
DEFPOINTS
 62
     0
 10
1629.918333578287
 20
3338.1868021376722
 30
0.0
  0
ENDBLK
  5
7E57
  8
0
  0
BLOCK
  8
0
  2
*D19
 70
     1
 10
0.0
 20
0.0
 30
0.0
  3
*D19
  1

  0
LINE
  5
7E5B
  8
0
  6
BYBLOCK
 62
     0
 10
2241.104547349425
 20
3403.1868021376722
 30
0.0
 11
1589.918333578287
 21
3403.1868021376722
 31
0.0
  0
LINE
  5
7E5C
  8
0
  6
BYBLOCK
 62
     0
 10
2241.104547349425
 20
3518.1868021376722
 30
0.0
 11
1589.918333578287
 21
3518.1868021376722
 31
0.0
  0
LINE
  5
7E5D
  8
0
  6
BYBLOCK
 62
     0
 10
1629.918333578287
 20
3323.1868021376722
 30
0.0
 11
1629.918333578287
 21
3243.1868021376722
 31
0.0
  0
LINE
  5
7E5E
  8
0
  6
BYBLOCK
 62
     0
 10
1629.918333578287
 20
3598.1868021376708
 30
0.0
 11
1629.918333578287
 21
3678.1868021376722
 31
0.0
  0
TEXT
  5
7E5F
  8
3
 62
     0
 10
1478.4897621497159
 20
3252.1153735662442
 30
0.0
 40
120.0
  1
(115)
 50
90.0
  0
LINE
  5
7E60
  8
0
  6
BYBLOCK
 62
     0
 10
1629.918333578287
 20
3403.1868021376722
 30
0.0
 11
1629.918333578287
 21
3518.1868021376722
 31
0.0
  0
INSERT
  5
7E61
  8
0
  6
BYBLOCK
 62
     0
  2
_DOT
 10
1629.918333578287
 20
3403.1868021376722
 30
0.0
 41
80.0
 42
80.0
 43
80.0
 50
90.0
  0
INSERT
  5
7E62
  8
0
  6
BYBLOCK
 62
     0
  2
_OPEN
 10
1629.918333578287
 20
3518.1868021376722
 30
0.0
 41
80.0
 42
80.0
 43
80.0
 50
270.0
  0
POINT
  5
7E63
  8
DEFPOINTS
  6
BYBLOCK
 62
     0
 10
2261.104547349425
 20
3403.1868021376722
 30
0.0
  0
POINT
  5
7E64
  8
DEFPOINTS
  6
BYBLOCK
 62
     0
 10
2261.104547349425
 20
3518.1868021376722
 30
0.0
  0
POINT
  5
7E65
  8
DEFPOINTS
  6
BYBLOCK
 62
     0
 10
1629.918333578287
 20
3518.1868021376722
 30
0.0
  0
ENDBLK
  5
7E66
  8
0
  0
BLOCK
  8
0
  2
*D20
 70
     1
 10
0.0
 20
0.0
 30
0.0
  3
*D20
  1

  0
LINE
  5
8003
  8
3
 62
     0
 10
2186.104547349425
 20
5395.1868021376713
 30
0.0
 11
1213.607475442564
 21
5395.1868021376722
 31
0.0
  0
LINE
  5
8004
  8
3
 62
     0
 10
2241.104547349425
 20
3338.1868021376722
 30
0.0
 11
1213.607475442564
 21
3338.1868021376722
 31
0.0
  0
LINE
  5
8005
  8
3
 62
     0
 10
1253.6074754425649
 20
5315.1868021376722
 30
0.0
 11
1253.607475442564
 21
3418.1868021376722
 31
0.0
  0
INSERT
  5
8006
  8
3
 62
     0
  2
_OPEN
 10
1253.6074754425649
 20
5395.1868021376722
 30
0.0
 41
80.0
 42
80.0
 43
80.0
 50
90.0
  0
INSERT
  5
8007
  8
3
 62
     0
  2
_OPEN
 10
1253.607475442564
 20
3338.1868021376722
 30
0.0
 41
80.0
 42
80.0
 43
80.0
 50
270.0
  0
TEXT
  8
3
  40
120
  5
801D
  62
0
  72
0
  71
0
 10
882.179
 20
4154.29
 30
0.000000
  1
(2057)
  0
POINT
  5
8009
  8
DEFPOINTS
 62
     0
 10
2206.104547349425
 20
5395.1868021376713
 30
0.0
  0
POINT
  5
800A
  8
DEFPOINTS
 62
     0
 10
2261.104547349425
 20
3338.1868021376722
 30
0.0
  0
POINT
  5
800B
  8
DEFPOINTS
 62
     0
 10
1253.607475442564
 20
3338.1868021376722
 30
0.0
  0
ENDBLK
  5
7E73
  8
0
  0
ENDSEC
  0
SECTION
  2
ENTITIES
  0
POLYLINE
  5
7A77
  8
1
  6
CONTINUOUS
 66
     1
 10
0.0
 20
0.0
 30
0.0
  0
VERTEX
  5
7F67
  8
1
  6
CONTINUOUS
 10
2206.104547349425
 20
5342.1868021376713
 30
0.0
  0
VERTEX
  5
7F68
  8
1
  6
CONTINUOUS
 10
2886.104547349425
 20
5284.1868021376713
 30
0.0
 42
-0.4
  0
VERTEX
  5
7F69
  8
1
  6
CONTINUOUS
 10
3757.0045473494238
 20
4342.1868021376713
 30
0.0
 42
-0.4
  0
VERTEX
  5
7F6A
  8
1
  6
CONTINUOUS
 10
2880.5045473494238
 20
3549.1868021376722
 30
0.0
 42
-0.4
  0
VERTEX
  5
7F6B
  8
1
  6
CONTINUOUS
 10
2284.9045473494261
 20
4207.6868021376713
 30
0.0
  0
VERTEX
  5
7F6C
  8
1
  6
CONTINUOUS
 10
2295.104547349425
 20
4312.1868021376713
 30
0.0
 42
-0.4
  0
SEQEND
  5
7F6D
  8
1
  6
CONTINUOUS
  0
LINE
  5
7A7F
  8
1
  6
CONTINUOUS
 10
2261.104547349425
 20
3518.1868021376722
 30
0.0
 11
4381.104547349425
 21
3518.1868021376722
 31
0.0
  0
LINE
  5
7A80
  8
1
  6
CONTINUOUS
 10
2261.104547349425
 20
3643.1868021376722
 30
0.0
 11
4381.104547349425
 21
3643.1868021376722
 31
0.0
  0
LINE
  5
7A81
  8
1
  6
CONTINUOUS
 10
2206.104547349425
 20
8763.0193481376737
 30
0.0
 11
3757.0045473494238
 21
8763.0193481376737
 31
0.0
  0
LINE
  5
7A82
  8
1
  6
CONTINUOUS
 10
2206.104547349425
 20
8013.0193481376728
 30
0.0
 11
3757.0045473494238
 21
8013.0193481376728
 31
0.0
  0
CIRCLE
  5
7A83
  8
1
  6
CONTINUOUS
 10
2886.104547349425
 20
4268.1868021376713
 30
0.0
 40
500.0
  0
CIRCLE
  5
7A84
  8
1
  6
CONTINUOUS
 10
2886.104547349425
 20
4268.1868021376713
 30
0.0
 40
550.0
  0
LINE
  5
7A85
  8
1
  6
CONTINUOUS
 10
2336.104547349425
 20
8866.0193481376737
 30
0.0
 11
3436.104547349425
 21
8866.0193481376737
 31
0.0
  0
LINE
  5
7A86
  8
1
  6
CONTINUOUS
 10
2626.104547349425
 20
7908.0193481376718
 30
0.0
 11
4306.104547349425
 21
7908.0193481376718
 31
0.0
  0
LINE
  5
7A87
  8
1
  6
CONTINUOUS
 10
2626.104547349425
 20
7708.0193481376718
 30
0.0
 11
4306.104547349425
 21
7708.0193481376718
 31
0.0
  0
LINE
  5
7A88
  8
1
  6
CONTINUOUS
 10
4141.0045473494247
 20
3971.8868021376711
 30
0.0
 11
2941.9045473494261
 21
4418.0868021376709
 31
0.0
  0
LINE
  5
7A89
  8
1
  6
CONTINUOUS
 10
4175.9045473494261
 20
4065.5868021376709
 30
0.0
 11
2976.8045473494249
 21
4511.7868021376698
 31
0.0
  0
LINE
  5
7A8A
  8
1
  6
CONTINUOUS
 10
4080.1045473494241
 20
3781.58680213767
 30
0.0
 11
2844.604547349425
 21
4113.58680213767
 31
0.0
  0
LINE
  5
7A8B
  8
1
  6
CONTINUOUS
 10
4054.204547349425
 20
3684.986802137671
 30
0.0
 11
2818.604547349425
 21
4017.0868021376709
 31
0.0
  0
LINE
  5
7A8C
  8
1
  6
CONTINUOUS
 10
3046.104547349425
 20
7771.0193481376718
 30
0.0
 11
4006.104547349425
 21
7771.0193481376718
 31
0.0
  0
LINE
  5
7A8D
  8
1
  6
CONTINUOUS
 10
2261.104547349425
 20
3338.1868021376722
 30
0.0
 11
4381.104547349425
 21
3338.1868021376722
 31
0.0
  0
LINE
  5
7A8E
  8
1
  6
CONTINUOUS
 10
2261.104547349425
 20
3403.1868021376722
 30
0.0
 11
4381.104547349425
 21
3403.1868021376722
 31
0.0
  0
LINE
  5
7A8F
  8
1
  6
CONTINUOUS
 10
2206.104547349425
 20
4259.1868021376713
 30
0.0
 11
2206.104547349425
 21
5395.1868021376713
 31
0.0
  0
LINE
  5
7A90
  8
1
  6
CONTINUOUS
 10
2256.104547349425
 20
4312.1868021376713
 30
0.0
 11
2256.104547349425
 21
5342.1868021376713
 31
0.0
  0
ARC
  5
7A91
  8
1
  6
CONTINUOUS
 10
2886.104547349425
 20
4268.1868021376713
 30
0.0
 40
260.0
 50
69.599999999999994
 51
255.0
  0
LINE
  5
7A92
  8
1
  6
CONTINUOUS
 10
2261.104547349425
 20
3643.1868021376722
 30
0.0
 11
2261.104547349425
 21
3518.1868021376722
 31
0.0
  0
LINE
  5
7A93
  8
1
  6
CONTINUOUS
 10
2261.104547349425
 20
3403.1868021376722
 30
0.0
 11
2261.104547349425
 21
3338.1868021376722
 31
0.0
  0
LINE
  5
7A94
  8
1
  6
CONTINUOUS
 10
2295.104547349425
 20
4312.1868021376713
 30
0.0
 11
2206.104547349425
 21
4312.1868021376713
 31
0.0
  0
LINE
  5
7A95
  8
2
  6
CENTER
 10
2196.4200493494259
 20
4268.1868021376713
 30
0.0
 11
3923.4029343494249
 21
4268.1868021376713
 31
0.0
  0
CIRCLE
  5
7A96
  8
1
  6
CONTINUOUS
 10
2886.104547349425
 20
4268.1868021376713
 30
0.0
 40
160.0
  0
LINE
  5
7A97
  8
2
  6
CENTER
 10
2886.104547349425
 20
9041.7299321376722
 30
0.0
 11
2886.104547349425
 21
7615.0020751376696
 31
0.0
  0
LINE
  5
7A98
  8
1
  6
CONTINUOUS
 10
2261.104547349425
 20
7771.0193481376718
 30
0.0
 11
2726.104547349425
 21
7771.0193481376718
 31
0.0
  0
LINE
  5
7A99
  8
1
  6
CONTINUOUS
 10
2256.104547349425
 20
8013.0193481376728
 30
0.0
 11
2256.104547349425
 21
8763.0193481376737
 31
0.0
  0
LINE
  5
7A9A
  8
1
  6
CONTINUOUS
 10
2206.104547349425
 20
7963.0193481376718
 30
0.0
 11
2206.104547349425
 21
8813.0193481376718
 31
0.0
  0
LINE
  5
7A9B
  8
1
  6
CONTINUOUS
 10
2261.104547349425
 20
8013.0193481376728
 30
0.0
 11
2261.104547349425
 21
7771.0193481376718
 31
0.0
  0
LINE
  5
7A9C
  8
1
  6
CONTINUOUS
 10
2626.104547349425
 20
7708.0193481376718
 30
0.0
 11
2626.104547349425
 21
7908.0193481376718
 31
0.0
  0
LINE
  5
7A9D
  8
1
  6
CONTINUOUS
 10
2261.104547349425
 20
8831.0193481376718
 30
0.0
 11
2386.104547349425
 21
8831.0193481376718
 31
0.0
  0
LINE
  5
7A9E
  8
1
  6
CONTINUOUS
 10
2261.104547349425
 20
8831.0193481376718
 30
0.0
 11
2261.104547349425
 21
8763.0193481376737
 31
0.0
  0
LINE
  5
7A9F
  8
1
  6
CONTINUOUS
 10
2386.104547349425
 20
8763.0193481376737
 30
0.0
 11
2386.104547349425
 21
8866.0193481376737
 31
0.0
  0
LINE
  5
7AA0
  8
1
  6
CONTINUOUS
 10
2726.104547349425
 20
7858.0193481376718
 30
0.0
 11
3046.104547349425
 21
7858.0193481376718
 31
0.0
  0
LINE
  5
7AA1
  8
1
  6
CONTINUOUS
 10
2726.104547349425
 20
7758.0193481376718
 30
0.0
 11
3046.104547349425
 21
7758.0193481376718
 31
0.0
  0
LINE
  5
7AA2
  8
1
  6
CONTINUOUS
 10
2726.104547349425
 20
7758.0193481376718
 30
0.0
 11
2726.104547349425
 21
7858.0193481376718
 31
0.0
  0
LINE
  5
7AA3
  8
1
  6
CONTINUOUS
 10
2862.104547349425
 20
7858.0193481376718
 30
0.0
 11
2862.104547349425
 21
8013.0193481376728
 31
0.0
  0
LINE
  5
7AA4
  8
1
  6
CONTINUOUS
 10
2910.104547349425
 20
7858.0193481376718
 30
0.0
 11
2910.104547349425
 21
8013.0193481376728
 31
0.0
  0
LINE
  5
7AA5
  8
1
  6
CONTINUOUS
 10
3046.104547349425
 20
7758.0193481376718
 30
0.0
 11
3046.104547349425
 21
7858.0193481376718
 31
0.0
  0
LINE
  5
7AA6
  8
1
  6
CONTINUOUS
 10
3881.104547349425
 20
3643.1868021376722
 30
0.0
 11
3896.104547349425
 21
3698.1868021376722
 31
0.0
  0
ARC
  5
7AA7
  8
1
  6
CONTINUOUS
 10
4106.104547349425
 20
3878.1868021376708
 30
0.0
 40
182.5
 50
326.60000000000002
 51
213.40000000000001
  0
CIRCLE
  5
7AA8
  8
1
  6
CONTINUOUS
 10
4106.104547349425
 20
3878.1868021376708
 30
0.0
 40
100.0
  0
LINE
  5
7AA9
  8
2
  6
CENTER
 10
4106.104547349425
 20
3773.1868021376722
 30
0.0
 11
4106.104547349425
 21
3983.1868021376708
 31
0.0
  0
ARC
  5
7AAA
  8
1
  6
CONTINUOUS
 10
4106.104547349425
 20
3878.1868021376708
 30
0.0
 40
200.0
 50
255.0
 51
69.599999999999994
  0
LINE
  5
7AAB
  8
1
  6
CONTINUOUS
 10
4316.1045473494241
 20
3698.1868021376722
 30
0.0
 11
3896.104547349425
 21
3698.1868021376722
 31
0.0
  0
LINE
  5
7AAC
  8
1
  6
CONTINUOUS
 10
3944.104547349425
 20
3768.1868021376722
 30
0.0
 11
3953.704547349425
 21
3777.6868021376722
 31
0.0
  0
LINE
  5
7AAD
  8
1
  6
CONTINUOUS
 10
3944.104547349425
 20
3698.1868021376722
 30
0.0
 11
3944.104547349425
 21
3768.1868021376722
 31
0.0
  0
LINE
  5
7AAE
  8
1
  6
CONTINUOUS
 10
4381.104547349425
 20
3643.1868021376722
 30
0.0
 11
4381.104547349425
 21
3518.1868021376722
 31
0.0
  0
LINE
  5
7AAF
  8
1
  6
CONTINUOUS
 10
4268.104547349425
 20
3768.1868021376722
 30
0.0
 11
4258.5045473494238
 21
3777.6868021376722
 31
0.0
  0
LINE
  5
7AB0
  8
1
  6
CONTINUOUS
 10
4268.104547349425
 20
3698.1868021376722
 30
0.0
 11
4268.104547349425
 21
3768.1868021376722
 31
0.0
  0
LINE
  5
7AB1
  8
1
  6
CONTINUOUS
 10
4331.104547349425
 20
3643.1868021376722
 30
0.0
 11
4316.1045473494241
 21
3698.1868021376722
 31
0.0
  0
LINE
  5
7AB2
  8
1
  6
CONTINUOUS
 10
4381.104547349425
 20
3403.1868021376722
 30
0.0
 11
4381.104547349425
 21
3338.1868021376722
 31
0.0
  0
LINE
  5
7AB3
  8
2
  6
CENTER
 10
4211.104547349425
 20
3878.1868021376708
 30
0.0
 11
4001.104547349425
 21
3878.1868021376708
 31
0.0
  0
LINE
  5
7AB4
  8
1
  6
CONTINUOUS
 10
3386.104547349425
 20
8831.0193481376718
 30
0.0
 11
4381.104547349425
 21
8831.0193481376718
 31
0.0
  0
LINE
  5
7AB5
  8
1
  6
CONTINUOUS
 10
3757.0045473494238
 20
8013.0193481376728
 30
0.0
 11
3757.0045473494238
 21
8763.0193481376737
 31
0.0
  0
LINE
  5
7AB6
  8
1
  6
CONTINUOUS
 10
3386.104547349425
 20
8763.0193481376737
 30
0.0
 11
3386.104547349425
 21
8866.0193481376737
 31
0.0
  0
LINE
  5
7AB7
  8
1
  6
CONTINUOUS
 10
3923.604547349425
 20
7931.4193481376724
 30
0.0
 11
3923.604547349425
 21
8492.9193481376715
 31
0.0
  0
LINE
  5
7AB8
  8
1
  6
CONTINUOUS
 10
4288.6045473494241
 20
7931.4193481376724
 30
0.0
 11
4288.6045473494241
 21
8492.9193481376715
 31
0.0
  0
LINE
  5
7AB9
  8
1
  6
CONTINUOUS
 10
4381.104547349425
 20
8831.0193481376718
 30
0.0
 11
4381.104547349425
 21
7771.0193481376718
 31
0.0
  0
LINE
  5
7ABA
  8
1
  6
CONTINUOUS
 10
4288.6045473494241
 20
7931.4193481376724
 30
0.0
 11
3923.604547349425
 21
7931.4193481376724
 31
0.0
  0
LINE
  5
7ABB
  8
1
  6
CONTINUOUS
 10
4006.104547349425
 20
7758.0193481376718
 30
0.0
 11
4206.104547349425
 21
7758.0193481376718
 31
0.0
  0
LINE
  5
7ABC
  8
1
  6
CONTINUOUS
 10
4006.104547349425
 20
7858.0193481376718
 30
0.0
 11
4206.104547349425
 21
7858.0193481376718
 31
0.0
  0
LINE
  5
7ABD
  8
1
  6
CONTINUOUS
 10
4006.104547349425
 20
7758.0193481376718
 30
0.0
 11
4006.104547349425
 21
7858.0193481376718
 31
0.0
  0
LINE
  5
7ABE
  8
1
  6
CONTINUOUS
 10
4130.1045473494241
 20
7858.0193481376718
 30
0.0
 11
4130.1045473494241
 21
7931.4193481376724
 31
0.0
  0
LINE
  5
7ABF
  8
1
  6
CONTINUOUS
 10
4082.104547349425
 20
7858.0193481376718
 30
0.0
 11
4082.104547349425
 21
7931.4193481376724
 31
0.0
  0
LINE
  5
7AC0
  8
1
  6
CONTINUOUS
 10
4306.104547349425
 20
7708.0193481376718
 30
0.0
 11
4306.104547349425
 21
7908.0193481376718
 31
0.0
  0
LINE
  5
7AC1
  8
1
  6
CONTINUOUS
 10
4206.104547349425
 20
7758.0193481376718
 30
0.0
 11
4206.104547349425
 21
7858.0193481376718
 31
0.0
  0
LINE
  5
7AC2
  8
1
  6
CONTINUOUS
 10
4206.104547349425
 20
7771.0193481376718
 30
0.0
 11
4381.104547349425
 21
7771.0193481376718
 31
0.0
  0
LINE
  5
7AC3
  8
1
  6
CONTINUOUS
 10
4288.6045473494241
 20
8492.9193481376715
 30
0.0
 11
3923.604547349425
 21
8492.9193481376715
 31
0.0
  0
LINE
  5
7AC7
  8
1
  6
CONTINUOUS
 10
6532.5844631878954
 20
3403.1868021376722
 30
0.0
 11
5472.5844631878963
 21
3403.1868021376722
 31
0.0
  0
LINE
  5
7AC8
  8
1
  6
CONTINUOUS
 10
6532.5844631878954
 20
3338.1868021376722
 30
0.0
 11
5472.5844631878963
 21
3338.1868021376722
 31
0.0
  0
LINE
  5
7AC9
  8
1
  6
CONTINUOUS
 10
6567.5844631878963
 20
3768.1868021376722
 30
0.0
 11
6464.5844631878963
 21
3768.1868021376722
 31
0.0
  0
LINE
  5
7ACA
  8
1
  6
CONTINUOUS
 10
6567.5844631878963
 20
4768.1868021376713
 30
0.0
 11
6464.5844631878963
 21
4768.1868021376713
 31
0.0
  0
LINE
  5
7ACB
  8
1
  6
CONTINUOUS
 10
6532.5844631878954
 20
3518.1868021376722
 30
0.0
 11
5472.5844631878963
 21
3518.1868021376722
 31
0.0
  0
LINE
  5
7ACC
  8
1
  6
CONTINUOUS
 10
6532.5844631878954
 20
3643.1868021376722
 30
0.0
 11
5472.5844631878963
 21
3643.1868021376722
 31
0.0
  0
LINE
  5
7ACD
  8
1
  6
CONTINUOUS
 10
5714.5844631878963
 20
4312.1868021376713
 30
0.0
 11
6464.5844631878963
 21
5342.1868021376713
 31
0.0
  0
LINE
  5
7ACE
  8
1
  6
CONTINUOUS
 10
5714.5844631878963
 20
5342.1868021376713
 30
0.0
 11
6464.5844631878963
 21
4312.1868021376713
 31
0.0
  0
LINE
  5
7ACF
  8
1
  6
CONTINUOUS
 10
5714.5844631878963
 20
5342.1868021376713
 30
0.0
 11
5714.5844631878963
 21
3643.1868021376722
 31
0.0
  0
LINE
  5
7AD0
  8
1
  6
CONTINUOUS
 10
6464.5844631878963
 20
5342.1868021376713
 30
0.0
 11
6464.5844631878963
 21
3643.1868021376722
 31
0.0
  0
LINE
  5
7AD1
  8
1
  6
CONTINUOUS
 10
6464.5844631878963
 20
4312.1868021376713
 30
0.0
 11
5714.5844631878963
 21
4312.1868021376713
 31
0.0
  0
LINE
  5
7AD2
  8
1
  6
CONTINUOUS
 10
5559.5844631878963
 20
3978.1868021376708
 30
0.0
 11
5559.5844631878963
 21
3778.1868021376722
 31
0.0
  0
LINE
  5
7AD3
  8
1
  6
CONTINUOUS
 10
5459.5844631878954
 20
3978.1868021376708
 30
0.0
 11
5459.5844631878954
 21
3778.1868021376722
 31
0.0
  0
LINE
  5
7AD4
  8
1
  6
CONTINUOUS
 10
5409.5844631878954
 20
4534.8868021376711
 30
0.0
 11
5409.5844631878954
 21
3678.1868021376722
 31
0.0
  0
LINE
  5
7AD5
  8
1
  6
CONTINUOUS
 10
5609.5844631878954
 20
4534.8868021376711
 30
0.0
 11
5609.5844631878954
 21
3678.1868021376722
 31
0.0
  0
LINE
  5
7AD6
  8
1
  6
CONTINUOUS
 10
5409.5844631878954
 20
3678.1868021376722
 30
0.0
 11
5609.5844631878954
 21
3678.1868021376722
 31
0.0
  0
LINE
  5
7AD7
  8
1
  6
CONTINUOUS
 10
5472.5844631878963
 20
3403.1868021376722
 30
0.0
 11
5472.5844631878963
 21
3338.1868021376722
 31
0.0
  0
LINE
  5
7AD8
  8
1
  6
CONTINUOUS
 10
5459.5844631878954
 20
3778.1868021376722
 30
0.0
 11
5559.5844631878963
 21
3778.1868021376722
 31
0.0
  0
LINE
  5
7AD9
  8
1
  6
CONTINUOUS
 10
5472.5844631878963
 20
3643.1868021376722
 30
0.0
 11
5472.5844631878963
 21
3518.1868021376722
 31
0.0
  0
POINT
  5
7ADA
  8
1
  6
CONTINUOUS
 10
5472.5844631878963
 20
3518.1868021376722
 30
0.0
  0
POINT
  5
7ADB
  8
1
  6
CONTINUOUS
 10
5472.5844631878963
 20
3403.1868021376722
 30
0.0
  0
LINE
  5
7ADC
  8
1
  6
CONTINUOUS
 10
5714.5844631878963
 20
3908.8868021376711
 30
0.0
 11
5559.5844631878963
 21
3908.8868021376711
 31
0.0
  0
LINE
  5
7ADD
  8
1
  6
CONTINUOUS
 10
5714.5844631878963
 20
3860.8868021376711
 30
0.0
 11
5559.5844631878963
 21
3860.8868021376711
 31
0.0
  0
LINE
  5
7ADE
  8
1
  6
CONTINUOUS
 10
5714.5844631878963
 20
4250.8868021376711
 30
0.0
 11
5559.5844631878963
 21
4250.8868021376711
 31
0.0
  0
LINE
  5
7ADF
  8
1
  6
CONTINUOUS
 10
5714.5844631878963
 20
4298.8868021376711
 30
0.0
 11
5559.5844631878963
 21
4298.8868021376711
 31
0.0
  0
LINE
  5
7AE0
  8
1
  6
CONTINUOUS
 10
5409.5844631878954
 20
4534.8868021376711
 30
0.0
 11
5609.5844631878954
 21
4534.8868021376711
 31
0.0
  0
LINE
  5
7AE1
  8
1
  6
CONTINUOUS
 10
5459.5844631878954
 20
4101.3868021376702
 30
0.0
 11
5559.5844631878963
 21
4101.3868021376702
 31
0.0
  0
LINE
  5
7AE2
  8
1
  6
CONTINUOUS
 10
5459.5844631878954
 20
4434.8868021376711
 30
0.0
 11
5559.5844631878963
 21
4434.8868021376711
 31
0.0
  0
LINE
  5
7AE3
  8
1
  6
CONTINUOUS
 10
5459.5844631878954
 20
3978.1868021376708
 30
0.0
 11
5559.5844631878963
 21
3978.1868021376708
 31
0.0
  0
LINE
  5
7AE4
  8
1
  6
CONTINUOUS
 10
5559.5844631878963
 20
4434.8868021376711
 30
0.0
 11
5559.5844631878963
 21
4101.3868021376702
 31
0.0
  0
LINE
  5
7AE5
  8
1
  6
CONTINUOUS
 10
5459.5844631878954
 20
4434.8868021376711
 30
0.0
 11
5459.5844631878954
 21
4101.3868021376702
 31
0.0
  0
LINE
  5
7AE6
  8
1
  6
CONTINUOUS
 10
6464.5844631878963
 20
5342.1868021376713
 30
0.0
 11
5714.5844631878963
 21
5342.1868021376713
 31
0.0
  0
LINE
  5
7AE7
  8
1
  6
CONTINUOUS
 10
6567.5844631878963
 20
4818.1868021376713
 30
0.0
 11
6567.5844631878963
 21
3718.1868021376722
 31
0.0
  0
LINE
  5
7AE8
  8
1
  6
CONTINUOUS
 10
6532.5844631878954
 20
3403.1868021376722
 30
0.0
 11
6532.5844631878954
 21
3338.1868021376722
 31
0.0
  0
LINE
  5
7AE9
  8
1
  6
CONTINUOUS
 10
6532.5844631878954
 20
3643.1868021376722
 30
0.0
 11
6532.5844631878954
 21
3518.1868021376722
 31
0.0
  0
DIMENSION
  5
7B16
  8
3
  6
CONTINUOUS
  2
*D1
 10
1891.644505349426
 20
4312.1868021376722
 30
0.0
 11
1891.644505349426
 21
4842.2378421376698
 31
0.0
 70
   128
 13
2206.104547349425
 23
5342.1868021376713
 33
0.0
 14
2206.104547349425
 24
4312.1868021376713
 34
0.0
 50
90.0
1001
ACAD
1000
DSTYLE
1002
{
1070
   287
1070
     3
1070
   287
1070
     3
1070
    40
1040
40.0
1070
   143
1040
0.039
1070
   172
1070
     1
1070
   271
1070
     0
1070
   279
1070
     0
1070
   288
1070
     1
1002
}
  0
DIMENSION
  5
7B23
  8
3
  6
CONTINUOUS
  2
*D2
 10
1627.5229920746251
 20
4268.1868021376722
 30
0.0
 11
1627.522992074624
 21
4842.2378421376698
 31
0.0
 70
   128
 13
2206.104547349425
 23
5342.1868021376713
 33
0.0
 14
2290.8098103494258
 24
4268.1868021376713
 34
0.0
 50
90.0
1001
ACAD
1000
DSTYLE
1002
{
1070
   287
1070
     3
1070
   287
1070
     3
1070
    40
1040
40.0
1070
   143
1040
0.039
1070
   172
1070
     1
1070
   271
1070
     0
1070
   279
1070
     0
1070
   288
1070
     1
1002
}
  0
DIMENSION
  5
7B2F
  8
3
  6
CONTINUOUS
  2
*D3
 10
1627.522992074624
 20
3518.1868021376722
 30
0.0
 11
1527.5229920746231
 21
3893.1868021376722
 31
0.0
 70
     0
 13
2290.8098103494258
 23
4268.1868021376713
 33
0.0
 14
2261.104547349425
 24
3518.1868021376722
 34
0.0
 50
90.0
1001
ACAD
1000
DSTYLE
1002
{
1070
   287
1070
     3
1070
   287
1070
     3
1070
    40
1040
40.0
1070
   143
1040
0.039
1070
   172
1070
     1
1070
   271
1070
     0
1070
   279
1070
     0
1070
   288
1070
     1
1002
}
  0
DIMENSION
  5
7B73
  8
3
  6
CONTINUOUS
  2
*D4
 10
2886.104547349425
 20
5585.4658625619813
 30
0.0
 11
2611.8188330637108
 21
5585.4658625619813
 31
0.0
 70
   128
 13
2206.104547349425
 23
5395.1868021376713
 33
0.0
 14
2886.104547349425
 24
5284.1868021376713
 34
0.0
1001
ACAD
1000
DSTYLE
1002
{
1070
   287
1070
     3
1070
   287
1070
     3
1070
    40
1040
40.0
1070
   143
1040
0.039
1070
   172
1070
     1
1070
   271
1070
     0
1070
   279
1070
     0
1070
   288
1070
     1
1002
}
  0
DIMENSION
  5
7B7F
  8
3
  6
CONTINUOUS
  2
*D5
 10
3754.104547349425
 20
5585.4658625619813
 30
0.0
 11
3320.104547349425
 21
5685.4658625619813
 31
0.0
 70
     0
 13
2886.104547349425
 23
5284.1868021376713
 33
0.0
 14
3754.104547349425
 24
4268.1868021376713
 34
0.0
1001
ACAD
1000
DSTYLE
1002
{
1070
   287
1070
     3
1070
   287
1070
     3
1070
    40
1040
40.0
1070
   143
1040
0.039
1070
   172
1070
     1
1070
   271
1070
     0
1070
   279
1070
     0
1070
   288
1070
     1
1002
}
  0
DIMENSION
  5
7B8C
  8
3
  6
CONTINUOUS
  2
*D6
 10
4381.104547349425
 20
7237.4310631376702
 30
0.0
 11
3343.3723923494249
 21
7237.4310631376702
 31
0.0
 70
   128
 13
2261.104547349425
 23
7771.0193481376718
 33
0.0
 14
4381.104547349425
 24
7771.0193481376718
 34
0.0
1001
ACAD
1000
DSTYLE
1002
{
1070
   287
1070
     3
1070
   287
1070
     3
1070
    40
1040
40.0
1070
   143
1040
0.039
1070
   172
1070
     1
1070
   271
1070
     0
1070
   279
1070
     0
1070
   288
1070
     1
1002
}
  0
DIMENSION
  5
7B99
  8
3
  6
CONTINUOUS
  2
*D7
 10
4769.5960113494266
 20
7771.0193481376718
 30
0.0
 11
4769.5960113494257
 21
8329.6171801376695
 31
0.0
 70
   128
 13
4381.104547349425
 23
8831.0193481376718
 33
0.0
 14
4381.104547349425
 24
7771.0193481376718
 34
0.0
 50
90.0
1001
ACAD
1000
DSTYLE
1002
{
1070
   287
1070
     3
1070
   287
1070
     3
1070
    40
1040
40.0
1070
   143
1040
0.039
1070
   172
1070
     1
1070
   271
1070
     0
1070
   279
1070
     0
1070
   288
1070
     1
1002
}
  0
LINE
  5
7B9A
  8
2
  6
CENTER
 10
3933.5660643494261
 20
8388.0193481376737
 30
0.0
 11
1957.6906593494259
 21
8388.0193481376737
 31
0.0
  0
LINE
  5
7B9B
  8
2
  6
CENTER
 10
2886.104547349425
 20
5376.5662551376709
 30
0.0
 11
2886.104547349425
 21
3338.1868021376722
 31
0.0
  0
LINE
  5
7B9C
  8
2
  6
CENTER
 10
6089.5844631878963
 20
5554.7930031376709
 30
0.0
 11
6089.5844631878963
 21
3338.1868021376722
 31
0.0
  0
DIMENSION
  5
7BE6
  8
3
  6
CONTINUOUS
  2
*D8
 10
6899.0877821878948
 20
3768.1868021376722
 30
0.0
 11
6899.0877821878948
 21
4312.4924141376696
 31
0.0
 70
   128
 13
6567.5844631878963
 23
4768.1868021376713
 33
0.0
 14
6567.5844631878963
 24
3768.1868021376722
 34
0.0
 50
90.0
1001
ACAD
1000
DSTYLE
1002
{
1070
   287
1070
     3
1070
   287
1070
     3
1070
     3
1000
φ<>
1070
    40
1040
40.0
1070
   143
1040
0.039
1070
   172
1070
     1
1070
   271
1070
     0
1070
   279
1070
     0
1070
   288
1070
     1
1002
}
  0
DIMENSION
  5
7BF3
  8
3
  6
CONTINUOUS
  2
*D9
 10
6464.5844631878963
 20
5543.15566913767
 30
0.0
 11
6082.5253065093493
 21
5543.15566913767
 31
0.0
 70
   128
 13
5714.5844631878963
 23
5342.1868021376713
 33
0.0
 14
6464.5844631878963
 24
5342.1868021376713
 34
0.0
1001
ACAD
1000
DSTYLE
1002
{
1070
   287
1070
     3
1070
   287
1070
     3
1070
    40
1040
40.0
1070
   143
1040
0.039
1070
   172
1070
     1
1070
   271
1070
     0
1070
   279
1070
     0
1070
   288
1070
     1
1002
}
  0
DIMENSION
  5
7C00
  8
3
  6
CONTINUOUS
  2
*D10
 10
6089.5844631878963
 20
5869.7683441376703
 30
0.0
 11
5701.0130346164669
 21
5869.7683441376703
 31
0.0
 70
   128
  1
MAX\P770
 13
5409.5844631878954
 23
4534.8868021376711
 33
0.0
 14
6089.5844631878963
 24
5760.5382771376708
 34
0.0
1001
ACAD
1000
DSTYLE
1002
{
1070
   287
1070
     3
1070
   287
1070
     3
1070
    40
1040
40.0
1070
   143
1040
0.039
1070
   172
1070
     1
1070
   271
1070
     0
1070
   279
1070
     0
1070
   288
1070
     1
1002
}
  0
DIMENSION
  5
7C0E
  8
3
  6
CONTINUOUS
  2
*D11
 10
6567.5844631878963
 20
5869.7683441376703
 30
0.0
 11
6328.5844631878954
 21
5970.9497986334609
 31
0.0
 70
   128
 13
6089.5844631878963
 23
5760.5382771376708
 33
0.0
 14
6567.5844631878963
 24
4818.1868021376713
 34
0.0
1001
ACAD
1000
DSTYLE
1002
{
1070
   288
1070
     1
1070
   172
1070
     1
1070
    40
1040
40.0
1070
   271
1070
     0
1070
   143
1040
0.039
1002
}
  0
LINE
  5
7C25
  8
2
  6
CENTER
 10
5217.1779981878963
 20
4268.1868021376713
 30
0.0
 11
6624.7124161878965
 21
4268.1868021376713
 31
0.0
  0
LINE
  5
7C26
  8
4
  6
CONTINUOUS
 10
7400.0
 20
2000.0
 30
0.0
 11
7400.0
 21
1200.0
 31
0.0
  0
LINE
  5
7C27
  8
4
  6
CONTINUOUS
 10
4600.0
 20
2000.0
 30
0.0
 11
4600.0
 21
1200.0
 31
0.0
  0
LINE
  5
7C28
  8
4
  6
CONTINUOUS
 10
2600.0
 20
2000.0
 30
0.0
 11
2600.0
 21
1200.0
 31
0.0
  0
LINE
  5
7C2B
  8
4
  6
CONTINUOUS
 10
2600.0
 20
1200.0
 30
0.0
 11
7400.0
 21
1200.0
 31
0.0
  0
LINE
  5
7C2C
  8
4
  6
CONTINUOUS
 10
2600.0
 20
1600.0
 30
0.0
 11
7400.0
 21
1600.0
 31
0.0
  0
TEXT
  5
7C2D
  8
4
  6
CONTINUOUS
 10
2754.0083232000002
 20
1726.1721031999989
 30
0.0
 40
200.0
  1
機器名称
  0
TEXT
  5
7C2E
  8
4
  6
CONTINUOUS
 10
2745.032424
 20
1286.5806264
 30
0.0
 40
200.0
  1
機器型番
  0
TEXT
  5
7C2F
  8
4
  6
CONTINUOUS
 10
4710.7149823999989
 20
1690.2870751999999
 30
0.0
 40
168.88888879999999
  1
ミツヤリミットロードファン
  0
TEXT
  5
7C30
  8
4
  6
CONTINUOUS
 10
4746.6179824000001
 20
1268.6383367999999
 30
0.0
 40
200.0
  1
LLE#6-4
  0
TEXT
  5
7C32
  8
4
  6
CONTINUOUS
 10
3078.1008000000002
 20
9533.7153655999991
 30
0.0
 40
216.0
  1
床置防振ベット
  0
TEXT
  5
7C33
  8
4
  6
CONTINUOUS
 10
1264.6703735999999
 20
10135.5239048
 30
0.0
 40
240.0
  1
ベルト駆動式片吸込両持排煙ファン
  0
LINE
  5
7C34
  8
4
  6
CONTINUOUS
 10
1000.0
 20
9877.635016799999
 30
0.0
 11
7400.0
 21
9877.635016799999
 31
0.0
  0
LINE
  5
7C35
  8
4
  6
CONTINUOUS
 10
1000.0
 20
10677.635016800001
 30
0.0
 11
7400.0
 21
10677.635016800001
 31
0.0
  0
LINE
  5
7C36
  8
4
  6
CONTINUOUS
 10
2600.0
 20
2000.0
 30
0.0
 11
7400.0
 21
2000.0
 31
0.0
  0
LINE
  5
7C37
  8
4
  6
CONTINUOUS
 10
1000.0
 20
10677.635016800001
 30
0.0
 11
1000.0
 21
9877.635016799999
 31
0.0
  0
TEXT
  5
7C38
  8
4
  6
CONTINUOUS
 10
1334.6654712
 20
9529.2779104000001
 30
0.0
 40
216.0
  1
左回転左横向
  0
TEXT
  5
7C39
  8
4
  6
CONTINUOUS
 10
5875.8782375999999
 20
10824.244326399999
 30
0.0
 40
224.0
  1
No.
  0
TEXT
  5
7C3A
  8
4
  6
CONTINUOUS
 10
5245.1842504000006
 20
9533.7153655999991
 30
0.0
 40
216.0
  1
縮尺：1/40
  0
LINE
  5
7C3B
  8
4
  6
CONTINUOUS
 10
7400.0
 20
10677.635016800001
 30
0.0
 11
7400.0
 21
9877.635016799999
 31
0.0
  0
LINE
  5
7C3D
  8
4
  6
CONTINUOUS
 10
5762.4696895999996
 20
10725.0543328
 30
0.0
 11
5762.4696895999996
 21
11146.609046400001
 31
0.0
  0
LINE
  5
7C3E
  8
4
  6
CONTINUOUS
 10
5762.4696895999996
 20
11146.609046400001
 30
0.0
 11
7400.0
 21
11146.609046400001
 31
0.0
  0
LINE
  5
7C3F
  8
4
  6
CONTINUOUS
 10
7400.0
 20
11146.609046400001
 30
0.0
 11
7400.0
 21
10725.0543328
 31
0.0
  0
LINE
  5
7C40
  8
4
  6
CONTINUOUS
 10
7400.0
 20
10725.0543328
 30
0.0
 11
5762.4696895999996
 21
10725.0543328
 31
0.0
  0
DIMENSION
  5
7D8F
  8
3
  2
*D12
 10
4381.104547349425
 20
5848.9877178289389
 30
0.0
 11
3372.3688270140851
 21
5848.9877178289389
 31
0.0
 70
   128
 13
2206.104547349425
 23
5395.1868021376713
 33
0.0
 14
4381.104547349425
 24
3643.1868021376722
 34
0.0
1001
ACAD
1000
DSTYLE
1002
{
1070
   287
1070
     3
1070
   287
1070
     3
1070
    40
1040
40.0
1070
   143
1040
0.039
1070
   172
1070
     1
1070
   271
1070
     0
1070
   279
1070
     0
1070
   288
1070
     1
1002
}
  0
DIMENSION
  5
7E18
  8
3
  2
*D13
 10
2886.104547349425
 20
3024.0520393946708
 30
0.0
 11
2573.604547349425
 21
3124.0520393946708
 31
0.0
 70
     0
 13
2261.104547349425
 23
3338.1868021376722
 33
0.0
 14
2886.104547349425
 24
3338.1868021376722
 34
0.0
1001
ACAD
1000
DSTYLE
1002
{
1070
   287
1070
     3
1070
   287
1070
     3
1070
    40
1040
40.0
1070
   143
1040
0.039
1070
   172
1070
     1
1070
   271
1070
     0
1070
   279
1070
     0
1002
}
  0
DIMENSION
  5
7E25
  8
3
  2
*D14
 10
4381.104547349425
 20
3024.0520393946708
 30
0.0
 11
3633.604547349425
 21
3124.0520393946708
 31
0.0
 70
     0
 13
2886.104547349425
 23
3338.1868021376722
 33
0.0
 14
4381.104547349425
 24
3338.1868021376722
 34
0.0
1001
ACAD
1000
DSTYLE
1002
{
1070
   287
1070
     3
1070
   287
1070
     3
1070
    40
1040
40.0
1070
   143
1040
0.039
1070
   172
1070
     1
1070
   271
1070
     0
1070
   279
1070
     0
1002
}
  0
DIMENSION
  5
7E32
  8
3
  2
*D15
 10
6089.5844631878963
 20
3024.0520393946708
 30
0.0
 11
5781.0844631878954
 21
3124.0520393946708
 31
0.0
 70
     0
 13
5472.5844631878963
 23
3338.1868021376722
 33
0.0
 14
6089.5844631878963
 24
3338.1868021376722
 34
0.0
1001
ACAD
1000
DSTYLE
1002
{
1070
   287
1070
     3
1070
   287
1070
     3
1070
    40
1040
40.0
1070
   143
1040
0.039
1070
   172
1070
     1
1070
   271
1070
     0
1070
   279
1070
     0
1002
}
  0
DIMENSION
  5
7E41
  8
3
  2
*D16
 10
6532.5844631878954
 20
3024.0520393946708
 30
0.0
 11
6311.0844631878963
 21
3124.0520393946708
 31
0.0
 70
     0
 13
6089.5844631878963
 23
3338.1868021376722
 33
0.0
 14
6532.5844631878954
 24
3338.1868021376722
 34
0.0
1001
ACAD
1000
DSTYLE
1002
{
1070
   287
1070
     3
1070
   287
1070
     3
1070
    40
1040
40.0
1070
   143
1040
0.039
1070
   172
1070
     1
1070
   271
1070
     0
1070
   279
1070
     0
1002
}
  0
DIMENSION
  5
7E58
  8
3
  2
*D18
 10
1629.918333578287
 20
3338.1868021376722
 30
0.0
 11
1529.918333578287
 21
3041.0439449948149
 31
0.0
 70
     0
 13
2261.104547349425
 23
3403.1868021376722
 33
0.0
 14
2261.104547349425
 24
3338.1868021376722
 34
0.0
 50
90.0
1001
ACAD
1000
DSTYLE
1002
{
1070
   287
1070
     3
1070
   287
1070
     3
1070
    40
1040
40.0
1070
   143
1040
0.039
1070
   172
1070
     1
1070
   271
1070
     0
1070
   279
1070
     0
1070
     6
1000
DOT
1002
}
  0
DIMENSION
  5
7E67
  8
3
  2
*D19
 10
1629.918333578287
 20
3518.1868021376722
 30
0.0
 11
1438.4897621497159
 21
3460.6868021376722
 31
0.0
 70
     0
 13
2261.104547349425
 23
3403.1868021376722
 33
0.0
 14
2261.104547349425
 24
3518.1868021376722
 34
0.0
 50
90.0
1001
ACAD
1000
DSTYLE
1002
{
1070
   172
1070
     1
1070
    40
1040
40.0
1070
     3
1000
(<>)
1070
   271
1070
     0
1070
     6
1000
_DOT
1070
   143
1040
0.039
1002
}
  0
DIMENSION
  5
7E74
  8
3
  2
*D20
 10
1253.607475442564
 20
3338.1868021376722
 30
0.0
 11
1122.178904013992
 21
4366.6868021376722
 31
0.0
 70
     0
 13
2206.104547349425
 23
5395.1868021376713
 33
0.0
 14
2261.104547349425
 24
3338.1868021376722
 34
0.0
 50
90.0
1001
ACAD
1000
DSTYLE
1002
{
1070
   287
1070
     3
1070
   287
1070
     3
1070
     3
1000
(<>)
1070
    40
1040
40.0
1070
   143
1040
0.039
1070
   172
1070
     1
1070
   271
1070
     0
1070
   279
1070
     0
1002
}
  0
ENDSEC
  0
EOF
