  0
SECTION
  2
HEADER
  9
$ACADVER
  1
AC1009
  9
$INSBASE
 10
0.0
 20
0.0
 30
0.0
  9
$EXTMIN
 10
1000.0
 20
1200.0
 30
0.0
  9
$EXTMAX
 10
7400.0
 20
11146.609046400001
 30
0.0
  9
$LIMMIN
 10
0.0
 20
0.0
  9
$LIMMAX
 10
297.0
 20
210.0
  9
$ORTHOMODE
 70
     0
  9
$REGENMODE
 70
     1
  9
$FILLMODE
 70
     0
  9
$QTEXTMODE
 70
     0
  9
$MIRRTEXT
 70
     1
  9
$DRAGMODE
 70
     2
  9
$LTSCALE
 40
100.0
  9
$OSMODE
 70
    37
  9
$ATTMODE
 70
     1
  9
$TEXTSIZE
 40
180.0
  9
$TRACEWID
 40
0.05
  9
$TEXTSTYLE
  7
STANDARD
  9
$CLAYER
  8
3
  9
$CELTYPE
  6
BYLAYER
  9
$CECOLOR
 62
   256
  9
$DIMSCALE
 40
40.0
  9
$DIMASZ
 40
2.0
  9
$DIMEXO
 40
0.5
  9
$DIMDLI
 40
10.0
  9
$DIMRND
 40
0.0
  9
$DIMDLE
 40
0.0
  9
$DIMEXE
 40
1.0
  9
$DIMTP
 40
1.0
  9
$DIMTM
 40
1.0
  9
$DIMTXT
 40
3.0
  9
$DIMCEN
 40
0.0
  9
$DIMTSZ
 40
0.0
  9
$DIMTOL
 70
     0
  9
$DIMLIM
 70
     0
  9
$DIMTIH
 70
     0
  9
$DIMTOH
 70
     0
  9
$DIMSE1
 70
     0
  9
$DIMSE2
 70
     0
  9
$DIMTAD
 70
     1
  9
$DIMZIN
 70
     8
  9
$DIMBLK
  1

  9
$DIMASO
 70
     1
  9
$DIMSHO
 70
     1
  9
$DIMPOST
  1

  9
$DIMAPOST
  1

  9
$DIMALT
 70
     0
  9
$DIMALTD
 70
     2
  9
$DIMALTF
 40
0.039
  9
$DIMLFAC
 40
1.0
  9
$DIMTOFL
 70
     1
  9
$DIMTVP
 40
0.0
  9
$DIMTIX
 70
     0
  9
$DIMSOXD
 70
     0
  9
$DIMSAH
 70
     1
  9
$DIMBLK1
  1
OPEN
  9
$DIMBLK2
  1
OPEN
  9
$DIMSTYLE
  2
IGA
  9
$DIMCLRD
 70
     0
  9
$DIMCLRE
 70
     0
  9
$DIMCLRT
 70
     0
  9
$DIMTFAC
 40
10.0
  9
$DIMGAP
 40
1.0
  9
$LUNITS
 70
     2
  9
$LUPREC
 70
     3
  9
$SKETCHINC
 40
0.1
  9
$FILLETRAD
 40
50.0
  9
$AUNITS
 70
     0
  9
$AUPREC
 70
     0
  9
$MENU
  1
acad
  9
$ELEVATION
 40
0.0
  9
$PELEVATION
 40
0.0
  9
$THICKNESS
 40
0.0
  9
$LIMCHECK
 70
     0
  9
$BLIPMODE
 70
     0
  9
$CHAMFERA
 40
0.5
  9
$CHAMFERB
 40
0.5
  9
$SKPOLY
 70
     0
  9
$TDCREATE
 40
2450751.5987119209
  9
$TDUPDATE
 40
2454953.6870041201
  9
$TDINDWG
 40
0.00893125
  9
$TDUSRTIMER
 40
0.00893125
  9
$USRTIMER
 70
     1
  9
$ANGBASE
 50
0.0
  9
$ANGDIR
 70
     0
  9
$PDMODE
 70
     0
  9
$PDSIZE
 40
0.0
  9
$PLINEWID
 40
0.0
  9
$COORDS
 70
     1
  9
$SPLFRAME
 70
     0
  9
$SPLINETYPE
 70
     6
  9
$SPLINESEGS
 70
     8
  9
$ATTDIA
 70
     0
  9
$ATTREQ
 70
     1
  9
$HANDLING
 70
 10241
  9
$HANDSEED
  5
804A
  9
$SURFTAB1
 70
     6
  9
$SURFTAB2
 70
     6
  9
$SURFTYPE
 70
     6
  9
$SURFU
 70
     6
  9
$SURFV
 70
     6
  9
$UCSNAME
  2

  9
$UCSORG
 10
0.0
 20
0.0
 30
0.0
  9
$UCSXDIR
 10
1.0
 20
0.0
 30
0.0
  9
$UCSYDIR
 10
0.0
 20
1.0
 30
0.0
  9
$PUCSNAME
  2

  9
$PUCSORG
 10
0.0
 20
0.0
 30
0.0
  9
$PUCSXDIR
 10
1.0
 20
0.0
 30
0.0
  9
$PUCSYDIR
 10
0.0
 20
1.0
 30
0.0
  9
$USERI1
 70
     0
  9
$USERI2
 70
     0
  9
$USERI3
 70
     0
  9
$USERI4
 70
     0
  9
$USERI5
 70
     0
  9
$USERR1
 40
0.0
  9
$USERR2
 40
0.0
  9
$USERR3
 40
0.0
  9
$USERR4
 40
0.0
  9
$USERR5
 40
0.0
  9
$WORLDVIEW
 70
     1
  9
$SHADEDGE
 70
     3
  9
$SHADEDIF
 70
    70
  9
$TILEMODE
 70
     1
  9
$MAXACTVP
 70
    16
  9
$PLIMCHECK
 70
     0
  9
$PEXTMIN
 10
1.0000000000000000E+020
 20
1.0000000000000000E+020
 30
1.0000000000000000E+020
  9
$PEXTMAX
 10
-1.0000000000000000E+020
 20
-1.0000000000000000E+020
 30
-1.0000000000000000E+020
  9
$PLIMMIN
 10
0.0
 20
0.0
  9
$PLIMMAX
 10
12.0
 20
9.0
  9
$UNITMODE
 70
     0
  9
$VISRETAIN
 70
     0
  9
$PLINEGEN
 70
     0
  9
$PSLTSCALE
 70
     1
  0
ENDSEC
  0
SECTION
  2
TABLES
  0
TABLE
  2
VPORT
 70
     2
  0
VPORT
  2
*ACTIVE
 70
     0
 10
0.0
 20
0.0
 11
1.0
 21
1.0
 12
16894.397368302729
 22
5099.664745899413
 13
0.0
 23
0.0
 14
10.0
 24
10.0
 15
10.0
 25
10.0
 16
0.0
 26
0.0
 36
1.0
 17
0.0
 27
0.0
 37
0.0
 40
12211.588723103951
 41
3.1666666666666661
 42
50.0
 43
0.0
 44
0.0
 50
0.0
 51
0.0
 71
     0
 72
   100
 73
     1
 74
     0
 75
     0
 76
     0
 77
     0
 78
     0
  0
ENDTAB
  0
TABLE
  2
LTYPE
 70
     2
  0
LTYPE
  2
CONTINUOUS
 70
     0
  3
Solid line
 72
    65
 73
     0
 40
0.0
  0
LTYPE
  2
CENTER
 70
     0
  3
____ _ ____ _ ____ _ ____ _ ____ _ ____ _ ____ 
 72
    65
 73
     4
 40
2.0
 49
1.25
 49
-0.25
 49
0.25
 49
-0.25
  0
ENDTAB
  0
TABLE
  2
LAYER
 70
     6
  0
LAYER
  2
0
 70
     0
 62
     7
  6
CONTINUOUS
  0
LAYER
  2
3
 70
     0
 62
     2
  6
CONTINUOUS
  0
LAYER
  2
2
 70
     0
 62
     3
  6
CENTER
  0
LAYER
  2
1
 70
     0
 62
     4
  6
CONTINUOUS
  0
LAYER
  2
4
 70
     0
 62
     7
  6
CONTINUOUS
  0
LAYER
  2
DEFPOINTS
 70
     0
 62
     7
  6
CONTINUOUS
  0
ENDTAB
  0
TABLE
  2
STYLE
 70
     1
  0
STYLE
  2
STANDARD
 70
     0
 40
0.0
 41
1.0
 50
0.0
 71
     0
 42
180.0
  3
simplex.shx
  4
extfont.shx
  0
ENDTAB
  0
TABLE
  2
VIEW
 70
     0
  0
ENDTAB
  0
TABLE
  2
UCS
 70
     0
  0
ENDTAB
  0
TABLE
  2
APPID
 70
     1
  0
APPID
  2
ACAD
 70
     0
  0
ENDTAB
  0
TABLE
  2
DIMSTYLE
 70
     1
  0
DIMSTYLE
  2
IGA
 70
     0
  3

  4

  5

  6
OPEN
  7
OPEN
 40
2.0
 41
2.0
 42
0.5
 43
10.0
 44
1.0
 45
0.0
 46
0.0
 47
1.0
 48
1.0
140
3.0
141
0.0
142
0.0
143
0.03937
144
1.0
145
0.0
146
10.0
147
1.0
 71
     0
 72
     0
 73
     0
 74
     0
 75
     0
 76
     0
 77
     1
 78
     8
170
     0
171
     2
172
     0
173
     1
174
     0
175
     0
176
     0
177
     0
178
     0
  0
ENDTAB
  0
ENDSEC
  0
SECTION
  2
BLOCKS
  0
BLOCK
  8
0
  2
$MODEL_SPACE
 70
     0
 10
0.0
 20
0.0
 30
0.0
  3
$MODEL_SPACE
  1

  0
ENDBLK
  5
1B
  8
0
  0
BLOCK
 67
     1
  8
0
  2
$PAPER_SPACE
 70
     0
 10
0.0
 20
0.0
 30
0.0
  3
$PAPER_SPACE
  1

  0
ENDBLK
  5
18
 67
     1
  8
0
  0
BLOCK
  8
0
  2
_OPEN
 70
     0
 10
0.0
 20
0.0
 30
0.0
  3
_OPEN
  1

  0
LINE
  5
7AEE
  8
0
  6
BYBLOCK
 62
     0
 10
-1.0
 20
0.166667
 30
0.0
 11
0.0
 21
0.0
 31
0.0
  0
LINE
  5
7AEF
  8
0
  6
BYBLOCK
 62
     0
 10
0.0
 20
0.0
 30
0.0
 11
-1.0
 21
-0.166667
 31
0.0
  0
LINE
  5
7AF0
  8
0
  6
BYBLOCK
 62
     0
 10
0.0
 20
0.0
 30
0.0
 11
-1.0
 21
0.0
 31
0.0
  0
ENDBLK
  5
7AF1
  8
0
  0
BLOCK
  8
0
  2
*D1
 70
     1
 10
0.0
 20
0.0
 30
0.0
  3
*D1
  1

  0
LINE
  5
7F99
  8
3
  6
CONTINUOUS
 62
     0
 10
2380.4444841766658
 20
3225.8254599609509
 30
0.0
 11
2380.4444841766658
 21
2921.5557470134581
 31
0.0
  0
LINE
  5
7F9A
  8
3
  6
CONTINUOUS
 62
     0
 10
3005.4444841766672
 20
3125.8387379609512
 30
0.0
 11
3005.4444841766672
 21
2921.5557470134581
 31
0.0
  0
LINE
  5
7F9B
  8
3
  6
CONTINUOUS
 62
     0
 10
2300.4444841766672
 20
2961.5557470134581
 30
0.0
 11
2220.4444841766672
 21
2961.5557470134581
 31
0.0
  0
LINE
  5
7F9C
  8
3
  6
CONTINUOUS
 62
     0
 10
3085.4444841766672
 20
2961.5557470134581
 30
0.0
 11
3165.4444841766672
 21
2961.5557470134581
 31
0.0
  0
LINE
  5
7F9D
  8
3
  6
CONTINUOUS
 62
     0
 10
2380.4444841766658
 20
2961.5557470134581
 30
0.0
 11
3005.4444841766672
 21
2961.5557470134581
 31
0.0
  0
INSERT
  5
7F9E
  8
3
  6
CONTINUOUS
 62
     0
  2
_OPEN
 10
2380.4444841766658
 20
2961.5557470134581
 30
0.0
 41
80.0
 42
80.0
 43
80.0
  0
INSERT
  5
7F9F
  8
3
  6
CONTINUOUS
 62
     0
  2
_OPEN
 10
3005.4444841766672
 20
2961.5557470134581
 30
0.0
 41
80.0
 42
80.0
 43
80.0
 50
180.0
  0
TEXT
  8
3
  40
120
  5
8038
  62
0
  72
0
  71
0
 10
2491.16
 20
2849.16
 30
0.000000
  1
625
  0
POINT
  5
7FA1
  8
DEFPOINTS
  6
CONTINUOUS
 62
     0
 10
2380.4444841766658
 20
3245.8254599609509
 30
0.0
  0
POINT
  5
7FA2
  8
DEFPOINTS
  6
CONTINUOUS
 62
     0
 10
3005.4444841766672
 20
3145.8387379609512
 30
0.0
  0
POINT
  5
7FA3
  8
DEFPOINTS
  6
CONTINUOUS
 62
     0
 10
3005.4444841766672
 20
2961.5557470134581
 30
0.0
  0
ENDBLK
  5
7E9F
  8
0
  0
BLOCK
  8
0
  2
*D2
 70
     1
 10
0.0
 20
0.0
 30
0.0
  3
*D2
  1

  0
LINE
  5
7FA4
  8
3
  6
CONTINUOUS
 62
     0
 10
3005.4444841766672
 20
3125.8387379609512
 30
0.0
 11
3005.4444841766672
 21
2921.5557470134581
 31
0.0
  0
LINE
  5
7FA5
  8
3
  6
CONTINUOUS
 62
     0
 10
4500.4444841766672
 20
3225.8254599609509
 30
0.0
 11
4500.4444841766672
 21
2921.5557470134581
 31
0.0
  0
LINE
  5
7FA6
  8
3
  6
CONTINUOUS
 62
     0
 10
3085.4444841766672
 20
2961.5557470134581
 30
0.0
 11
4420.4444841766672
 21
2961.5557470134581
 31
0.0
  0
INSERT
  5
7FA7
  8
3
  6
CONTINUOUS
 62
     0
  2
_OPEN
 10
3005.4444841766672
 20
2961.5557470134581
 30
0.0
 41
80.0
 42
80.0
 43
80.0
 50
180.0
  0
INSERT
  5
7FA8
  8
3
  6
CONTINUOUS
 62
     0
  2
_OPEN
 10
4500.4444841766672
 20
2961.5557470134581
 30
0.0
 41
80.0
 42
80.0
 43
80.0
  0
TEXT
  8
3
  40
120
  5
8039
  62
0
  72
0
  71
0
 10
3512.94
 20
2849.16
 30
0.000000
  1
1495
  0
POINT
  5
7FAA
  8
DEFPOINTS
  6
CONTINUOUS
 62
     0
 10
3005.4444841766672
 20
3145.8387379609512
 30
0.0
  0
POINT
  5
7FAB
  8
DEFPOINTS
  6
CONTINUOUS
 62
     0
 10
4500.4444841766672
 20
3245.8254599609509
 30
0.0
  0
POINT
  5
7FAC
  8
DEFPOINTS
  6
CONTINUOUS
 62
     0
 10
4500.4444841766672
 20
2961.5557470134581
 30
0.0
  0
ENDBLK
  5
7E94
  8
0
  0
BLOCK
  8
0
  2
*D3
 70
     1
 10
0.0
 20
0.0
 30
0.0
  3
*D3
  1

  0
LINE
  5
7FAD
  8
3
  6
CONTINUOUS
 62
     0
 10
2305.4444841766672
 20
4495.8254599609509
 30
0.0
 11
1934.476632176666
 21
4495.8254599609518
 31
0.0
  0
LINE
  5
7FAE
  8
3
  6
CONTINUOUS
 62
     0
 10
2305.4444841766672
 20
3465.8254599609518
 30
0.0
 11
1934.4766321766649
 21
3465.8254599609518
 31
0.0
  0
LINE
  5
7FAF
  8
3
  6
CONTINUOUS
 62
     0
 10
1974.476632176666
 20
4415.8254599609518
 30
0.0
 11
1974.476632176666
 21
3545.8254599609509
 31
0.0
  0
INSERT
  5
7FB0
  8
3
  6
CONTINUOUS
 62
     0
  2
_OPEN
 10
1974.476632176666
 20
4495.8254599609518
 30
0.0
 41
80.0
 42
80.0
 43
80.0
 50
90.0
  0
INSERT
  5
7FB1
  8
3
  6
CONTINUOUS
 62
     0
  2
_OPEN
 10
1974.476632176666
 20
3465.8254599609518
 30
0.0
 41
80.0
 42
80.0
 43
80.0
 50
270.0
  0
TEXT
  8
3
  40
120
  5
803A
  62
0
  72
0
  71
0
 10
1634.48
 20
3785.00
 30
0.000000
  1
1030
  0
POINT
  5
7FB3
  8
DEFPOINTS
  6
CONTINUOUS
 62
     0
 10
2325.4444841766672
 20
4495.8254599609509
 30
0.0
  0
POINT
  5
7FB4
  8
DEFPOINTS
  6
CONTINUOUS
 62
     0
 10
2325.4444841766672
 20
3465.8254599609518
 30
0.0
  0
POINT
  5
7FB5
  8
DEFPOINTS
  6
CONTINUOUS
 62
     0
 10
1974.476632176666
 20
3465.8254599609518
 30
0.0
  0
ENDBLK
  5
7D59
  8
0
  0
BLOCK
  8
0
  2
*D4
 70
     1
 10
0.0
 20
0.0
 30
0.0
  3
*D4
  1

  0
LINE
  5
7FB6
  8
3
  6
CONTINUOUS
 62
     0
 10
2985.4444841766672
 20
5259.8254599609518
 30
0.0
 11
1480.0903221507531
 21
5259.8254599609527
 31
0.0
  0
LINE
  5
7FB7
  8
3
  6
CONTINUOUS
 62
     0
 10
2390.149747176667
 20
4539.8254599609509
 30
0.0
 11
1480.0903221507531
 21
4539.8254599609527
 31
0.0
  0
LINE
  5
7FB8
  8
3
  6
CONTINUOUS
 62
     0
 10
1520.0903221507531
 20
5179.8254599609527
 30
0.0
 11
1520.0903221507531
 21
4619.8254599609518
 31
0.0
  0
INSERT
  5
7FB9
  8
3
  6
CONTINUOUS
 62
     0
  2
_OPEN
 10
1520.0903221507531
 20
5259.8254599609527
 30
0.0
 41
80.0
 42
80.0
 43
80.0
 50
90.0
  0
INSERT
  5
7FBA
  8
3
  6
CONTINUOUS
 62
     0
  2
_OPEN
 10
1520.0903221507531
 20
4539.8254599609527
 30
0.0
 41
80.0
 42
80.0
 43
80.0
 50
270.0
  0
TEXT
  8
3
  40
120
  5
803B
  62
0
  72
0
  71
0
 10
1180.09
 20
4685.93
 30
0.000000
  1
720
  0
POINT
  5
7FBC
  8
DEFPOINTS
  6
CONTINUOUS
 62
     0
 10
3005.4444841766672
 20
5259.8254599609518
 30
0.0
  0
POINT
  5
7FBD
  8
DEFPOINTS
  6
CONTINUOUS
 62
     0
 10
2410.149747176667
 20
4539.8254599609509
 30
0.0
  0
POINT
  5
7FBE
  8
DEFPOINTS
  6
CONTINUOUS
 62
     0
 10
1520.0903221507531
 20
4539.8254599609527
 30
0.0
  0
ENDBLK
  5
7E52
  8
0
  0
BLOCK
  8
0
  2
*D5
 70
     1
 10
0.0
 20
0.0
 30
0.0
  3
*D5
  1

  0
LINE
  5
7FBF
  8
3
  6
CONTINUOUS
 62
     0
 10
2390.149747176667
 20
4539.8254599609509
 30
0.0
 11
1480.0903221507519
 21
4539.8254599609527
 31
0.0
  0
LINE
  5
7FC0
  8
3
  6
CONTINUOUS
 62
     0
 10
2360.4444841766672
 20
3329.8254599609518
 30
0.0
 11
1480.0903221507519
 21
3329.8254599609518
 31
0.0
  0
LINE
  5
7FC1
  8
3
  6
CONTINUOUS
 62
     0
 10
1520.0903221507519
 20
4459.8254599609518
 30
0.0
 11
1520.0903221507519
 21
3409.8254599609518
 31
0.0
  0
INSERT
  5
7FC2
  8
3
  6
CONTINUOUS
 62
     0
  2
_OPEN
 10
1520.0903221507519
 20
4539.8254599609527
 30
0.0
 41
80.0
 42
80.0
 43
80.0
 50
90.0
  0
INSERT
  5
7FC3
  8
3
  6
CONTINUOUS
 62
     0
  2
_OPEN
 10
1520.0903221507519
 20
3329.8254599609518
 30
0.0
 41
80.0
 42
80.0
 43
80.0
 50
270.0
  0
TEXT
  8
3
  40
120
  5
803C
  62
0
  72
0
  71
0
 10
1180.09
 20
3722.43
 30
0.000000
  1
1210
  0
POINT
  5
7FC5
  8
DEFPOINTS
  6
CONTINUOUS
 62
     0
 10
2410.149747176667
 20
4539.8254599609509
 30
0.0
  0
POINT
  5
7FC6
  8
DEFPOINTS
  6
CONTINUOUS
 62
     0
 10
2380.4444841766658
 20
3329.8254599609518
 30
0.0
  0
POINT
  5
7FC7
  8
DEFPOINTS
  6
CONTINUOUS
 62
     0
 10
1520.0903221507519
 20
3329.8254599609518
 30
0.0
  0
ENDBLK
  5
7E0B
  8
0
  0
BLOCK
  8
0
  2
*D6
 70
     1
 10
0.0
 20
0.0
 30
0.0
  3
*D6
  1

  0
LINE
  5
7FC8
  8
3
  6
CONTINUOUS
 62
     0
 10
2360.4444841766672
 20
3329.8254599609518
 30
0.0
 11
1480.0903221507519
 21
3329.8254599609518
 31
0.0
  0
LINE
  5
7FC9
  8
3
  6
CONTINUOUS
 62
     0
 10
2360.4444841766672
 20
3245.8254599609509
 30
0.0
 11
1480.0903221507519
 21
3245.8254599609509
 31
0.0
  0
LINE
  5
7FCA
  8
3
  6
CONTINUOUS
 62
     0
 10
1520.0903221507519
 20
3409.8254599609518
 30
0.0
 11
1520.0903221507519
 21
3489.8254599609509
 31
0.0
  0
LINE
  5
7FCB
  8
3
  6
CONTINUOUS
 62
     0
 10
1520.0903221507519
 20
3165.8254599609509
 30
0.0
 11
1520.0903221507519
 21
2805.8254599609509
 31
0.0
  0
LINE
  5
7FCC
  8
3
  6
CONTINUOUS
 62
     0
 10
1520.0903221507519
 20
3329.8254599609518
 30
0.0
 11
1520.0903221507519
 21
3245.8254599609509
 31
0.0
  0
INSERT
  5
7FCD
  8
3
  6
CONTINUOUS
 62
     0
  2
_OPEN
 10
1520.0903221507519
 20
3329.8254599609518
 30
0.0
 41
80.0
 42
80.0
 43
80.0
 50
270.0
  0
INSERT
  5
7FCE
  8
3
  6
CONTINUOUS
 62
     0
  2
_OPEN
 10
1520.0903221507519
 20
3245.8254599609509
 30
0.0
 41
80.0
 42
80.0
 43
80.0
 50
90.0
  0
TEXT
  8
3
  40
120
  5
803D
  62
0
  72
0
  71
0
 10
1180.09
 20
2733.43
 30
0.000000
  1
84
  0
POINT
  5
7FD0
  8
DEFPOINTS
  6
CONTINUOUS
 62
     0
 10
2380.4444841766658
 20
3329.8254599609518
 30
0.0
  0
POINT
  5
7FD1
  8
DEFPOINTS
  6
CONTINUOUS
 62
     0
 10
2380.4444841766658
 20
3245.8254599609509
 30
0.0
  0
POINT
  5
7FD2
  8
DEFPOINTS
  6
CONTINUOUS
 62
     0
 10
1520.0903221507519
 20
3245.8254599609509
 30
0.0
  0
ENDBLK
  5
7E18
  8
0
  0
BLOCK
  8
0
  2
*D7
 70
     1
 10
0.0
 20
0.0
 30
0.0
  3
*D7
  1

  0
LINE
  5
7FD3
  8
3
  6
CONTINUOUS
 62
     0
 10
2380.4444841766658
 20
7228.959994386234
 30
0.0
 11
2380.4444841766658
 21
6802.741720386236
 31
0.0
  0
LINE
  5
7FD4
  8
3
  6
CONTINUOUS
 62
     0
 10
4500.4444841766672
 20
7228.959994386234
 30
0.0
 11
4500.4444841766672
 21
6802.741720386236
 31
0.0
  0
LINE
  5
7FD5
  8
3
  6
CONTINUOUS
 62
     0
 10
2460.4444841766672
 20
6842.7417203862351
 30
0.0
 11
4420.4444841766672
 21
6842.7417203862351
 31
0.0
  0
INSERT
  5
7FD6
  8
3
  6
CONTINUOUS
 62
     0
  2
_OPEN
 10
2380.4444841766658
 20
6842.7417203862351
 30
0.0
 41
80.0
 42
80.0
 43
80.0
 50
180.0
  0
INSERT
  5
7FD7
  8
3
  6
CONTINUOUS
 62
     0
  2
_OPEN
 10
4500.4444841766672
 20
6842.7417203862351
 30
0.0
 41
80.0
 42
80.0
 43
80.0
  0
TEXT
  8
3
  40
120
  5
803E
  62
0
  72
0
  71
0
 10
3240.81
 20
6730.34
 30
0.000000
  1
2120
  0
POINT
  5
7FD9
  8
DEFPOINTS
  6
CONTINUOUS
 62
     0
 10
2380.4444841766658
 20
7248.959994386234
 30
0.0
  0
POINT
  5
7FDA
  8
DEFPOINTS
  6
CONTINUOUS
 62
     0
 10
4500.4444841766672
 20
7248.959994386234
 30
0.0
  0
POINT
  5
7FDB
  8
DEFPOINTS
  6
CONTINUOUS
 62
     0
 10
4500.4444841766672
 20
6842.7417203862351
 30
0.0
  0
ENDBLK
  5
7D2B
  8
0
  0
BLOCK
  8
0
  2
*D8
 70
     1
 10
0.0
 20
0.0
 30
0.0
  3
*D8
  1

  0
LINE
  5
7FDC
  8
3
  6
CONTINUOUS
 62
     0
 10
4520.4444841766672
 20
8308.9599943862322
 30
0.0
 11
4989.9598941766671
 21
8308.9599943862322
 31
0.0
  0
LINE
  5
7FDD
  8
3
  6
CONTINUOUS
 62
     0
 10
4520.4444841766672
 20
7248.959994386234
 30
0.0
 11
4989.9598941766671
 21
7248.959994386234
 31
0.0
  0
LINE
  5
7FDE
  8
3
  6
CONTINUOUS
 62
     0
 10
4949.9598941766671
 20
8228.9599943862358
 30
0.0
 11
4949.9598941766671
 21
7328.959994386234
 31
0.0
  0
INSERT
  5
7FDF
  8
3
  6
CONTINUOUS
 62
     0
  2
_OPEN
 10
4949.9598941766671
 20
8308.9599943862322
 30
0.0
 41
80.0
 42
80.0
 43
80.0
 50
90.0
  0
INSERT
  5
7FE0
  8
3
  6
CONTINUOUS
 62
     0
  2
_OPEN
 10
4949.9598941766671
 20
7248.959994386234
 30
0.0
 41
80.0
 42
80.0
 43
80.0
 50
270.0
  0
TEXT
  8
3
  40
120
  5
803F
  62
0
  72
0
  71
0
 10
4609.96
 20
7588.56
 30
0.000000
  1
1060
  0
POINT
  5
7FE2
  8
DEFPOINTS
  6
CONTINUOUS
 62
     0
 10
4500.4444841766672
 20
8308.9599943862322
 30
0.0
  0
POINT
  5
7FE3
  8
DEFPOINTS
  6
CONTINUOUS
 62
     0
 10
4500.4444841766672
 20
7248.959994386234
 30
0.0
  0
POINT
  5
7FE4
  8
DEFPOINTS
  6
CONTINUOUS
 62
     0
 10
4949.9598941766671
 20
7248.959994386234
 30
0.0
  0
ENDBLK
  5
7D20
  8
0
  0
BLOCK
  8
0
  2
*D9
 70
     1
 10
0.0
 20
0.0
 30
0.0
  3
*D9
  1

  0
LINE
  5
7FE5
  8
3
  6
CONTINUOUS
 62
     0
 10
2985.4444841766672
 20
5259.8254599609518
 30
0.0
 11
1220.612331908975
 21
5259.8254599609527
 31
0.0
  0
LINE
  5
7FE6
  8
3
  6
CONTINUOUS
 62
     0
 10
2360.4444841766672
 20
3245.8254599609509
 30
0.0
 11
1220.612331908975
 21
3245.8254599609509
 31
0.0
  0
LINE
  5
7FE7
  8
3
  6
CONTINUOUS
 62
     0
 10
1260.612331908975
 20
5179.8254599609527
 30
0.0
 11
1260.612331908975
 21
3325.8254599609509
 31
0.0
  0
INSERT
  5
7FE8
  8
3
  6
CONTINUOUS
 62
     0
  2
_OPEN
 10
1260.612331908975
 20
5259.8254599609527
 30
0.0
 41
80.0
 42
80.0
 43
80.0
 50
90.0
  0
INSERT
  5
7FE9
  8
3
  6
CONTINUOUS
 62
     0
  2
_OPEN
 10
1260.612331908975
 20
3245.8254599609509
 30
0.0
 41
80.0
 42
80.0
 43
80.0
 50
270.0
  0
TEXT
  8
3
  40
120
  5
8040
  62
0
  72
0
  71
0
 10
920.612
 20
4142.93
 30
0.000000
  1
2014
  0
POINT
  5
7FEB
  8
DEFPOINTS
  6
CONTINUOUS
 62
     0
 10
3005.4444841766672
 20
5259.8254599609518
 30
0.0
  0
POINT
  5
7FEC
  8
DEFPOINTS
  6
CONTINUOUS
 62
     0
 10
2380.4444841766658
 20
3245.8254599609509
 30
0.0
  0
POINT
  5
7FED
  8
DEFPOINTS
  6
CONTINUOUS
 62
     0
 10
1260.612331908975
 20
3245.8254599609509
 30
0.0
  0
ENDBLK
  5
7E47
  8
0
  0
BLOCK
  8
0
  2
*D10
 70
     1
 10
0.0
 20
0.0
 30
0.0
  3
*D10
  1

  0
LINE
  5
7FEE
  8
3
  6
CONTINUOUS
 62
     0
 10
2325.4444841766672
 20
4568.8254599609518
 30
0.0
 11
2325.4444841766672
 21
5468.0423909609517
 31
0.0
  0
LINE
  5
7FEF
  8
3
  6
CONTINUOUS
 62
     0
 10
2999.8444841766668
 20
5278.7254599609523
 30
0.0
 11
2999.8444841766668
 21
5468.0423909609517
 31
0.0
  0
LINE
  5
7FF0
  8
3
  6
CONTINUOUS
 62
     0
 10
2245.4444841766672
 20
5428.0423909609517
 30
0.0
 11
2165.4444841766672
 21
5428.0423909609517
 31
0.0
  0
LINE
  5
7FF1
  8
3
  6
CONTINUOUS
 62
     0
 10
3079.8444841766668
 20
5428.0423909609517
 30
0.0
 11
3159.8444841766659
 21
5428.0423909609517
 31
0.0
  0
LINE
  5
7FF2
  8
3
  6
CONTINUOUS
 62
     0
 10
2325.4444841766672
 20
5428.0423909609517
 30
0.0
 11
2999.8444841766668
 21
5428.0423909609517
 31
0.0
  0
INSERT
  5
7FF3
  8
3
  6
CONTINUOUS
 62
     0
  2
_OPEN
 10
2325.4444841766672
 20
5428.0423909609517
 30
0.0
 41
80.0
 42
80.0
 43
80.0
  0
INSERT
  5
7FF4
  8
3
  6
CONTINUOUS
 62
     0
  2
_OPEN
 10
2999.8444841766668
 20
5428.0423909609517
 30
0.0
 41
80.0
 42
80.0
 43
80.0
 50
180.0
  0
TEXT
  8
3
  40
120
  5
8041
  62
0
  72
0
  71
0
 10
2482.70
 20
5315.64
 30
0.000000
  1
674
  0
POINT
  5
7FF6
  8
DEFPOINTS
  6
CONTINUOUS
 62
     0
 10
2325.4444841766672
 20
4548.8254599609509
 30
0.0
  0
POINT
  5
7FF7
  8
DEFPOINTS
  6
CONTINUOUS
 62
     0
 10
2999.8444841766668
 20
5258.7254599609523
 30
0.0
  0
POINT
  5
7FF8
  8
DEFPOINTS
  6
CONTINUOUS
 62
     0
 10
2999.8444841766668
 20
5428.0423909609517
 30
0.0
  0
ENDBLK
  5
7D0A
  8
0
  0
BLOCK
  8
0
  2
*D11
 70
     1
 10
0.0
 20
0.0
 30
0.0
  3
*D11
  1

  0
LINE
  5
7FF9
  8
3
  6
CONTINUOUS
 62
     0
 10
2999.8444841766668
 20
5278.7254599609523
 30
0.0
 11
2999.8444841766668
 21
5468.0423909609517
 31
0.0
  0
LINE
  5
7FFA
  8
3
  6
CONTINUOUS
 62
     0
 10
3867.578009176666
 20
4559.8254599609518
 30
0.0
 11
3867.578009176666
 21
5468.0423909609517
 31
0.0
  0
LINE
  5
7FFB
  8
3
  6
CONTINUOUS
 62
     0
 10
3079.8444841766668
 20
5428.0423909609517
 30
0.0
 11
3787.578009176666
 21
5428.0423909609517
 31
0.0
  0
INSERT
  5
7FFC
  8
3
  6
CONTINUOUS
 62
     0
  2
_OPEN
 10
2999.8444841766668
 20
5428.0423909609517
 30
0.0
 41
80.0
 42
80.0
 43
80.0
 50
180.0
  0
INSERT
  5
7FFD
  8
3
  6
CONTINUOUS
 62
     0
  2
_OPEN
 10
3867.578009176666
 20
5428.0423909609517
 30
0.0
 41
80.0
 42
80.0
 43
80.0
  0
TEXT
  8
3
  40
120
  5
8042
  62
0
  72
0
  71
0
 10
3193.71
 20
5315.64
 30
0.000000
  1
868
  0
POINT
  5
7FFF
  8
DEFPOINTS
  6
CONTINUOUS
 62
     0
 10
2999.8444841766668
 20
5258.7254599609523
 30
0.0
  0
POINT
  5
8000
  8
DEFPOINTS
  6
CONTINUOUS
 62
     0
 10
3867.578009176666
 20
4539.8254599609509
 30
0.0
  0
POINT
  5
8001
  8
DEFPOINTS
  6
CONTINUOUS
 62
     0
 10
3867.578009176666
 20
5428.0423909609517
 30
0.0
  0
ENDBLK
  5
7CFF
  8
0
  0
BLOCK
  8
0
  2
*D12
 70
     1
 10
0.0
 20
0.0
 30
0.0
  3
*D12
  1

  0
LINE
  5
8002
  8
3
  6
CONTINUOUS
 62
     0
 10
5672.9385939250424
 20
5282.7254599609523
 30
0.0
 11
5672.9385939250424
 21
5499.220950960952
 31
0.0
  0
LINE
  5
8003
  8
3
  6
CONTINUOUS
 62
     0
 10
6422.9385939250424
 20
5282.7254599609523
 30
0.0
 11
6422.9385939250424
 21
5499.220950960952
 31
0.0
  0
LINE
  5
8004
  8
3
  6
CONTINUOUS
 62
     0
 10
5752.9385939250424
 20
5459.2209509609511
 30
0.0
 11
6342.9385939250424
 21
5459.2209509609511
 31
0.0
  0
INSERT
  5
8005
  8
3
  6
CONTINUOUS
 62
     0
  2
_OPEN
 10
5672.9385939250424
 20
5459.2209509609511
 30
0.0
 41
80.0
 42
80.0
 43
80.0
 50
180.0
  0
INSERT
  5
8006
  8
3
  6
CONTINUOUS
 62
     0
  2
_OPEN
 10
6422.9385939250424
 20
5459.2209509609511
 30
0.0
 41
80.0
 42
80.0
 43
80.0
  0
TEXT
  8
3
  40
120
  5
8043
  62
0
  72
0
  71
0
 10
5770.20
 20
5346.82
 30
0.000000
  1
750
  0
POINT
  5
8008
  8
DEFPOINTS
  6
CONTINUOUS
 62
     0
 10
5672.9385939250424
 20
5262.7254599609514
 30
0.0
  0
POINT
  5
8009
  8
DEFPOINTS
  6
CONTINUOUS
 62
     0
 10
6422.9385939250424
 20
5262.7254599609514
 30
0.0
  0
POINT
  5
800A
  8
DEFPOINTS
  6
CONTINUOUS
 62
     0
 10
6422.9385939250424
 20
5459.2209509609511
 30
0.0
  0
ENDBLK
  5
7E2E
  8
0
  0
BLOCK
  8
0
  2
*D13
 70
     1
 10
0.0
 20
0.0
 30
0.0
  3
*D13
  1

  0
LINE
  5
800B
  8
3
  6
CONTINUOUS
 62
     0
 10
5367.9385939250433
 20
4826.5254599609516
 30
0.0
 11
5367.9385939250433
 21
5755.8055359609516
 31
0.0
  0
LINE
  5
800C
  8
3
  6
CONTINUOUS
 62
     0
 10
6047.9385939250424
 20
5697.090311960952
 30
0.0
 11
6047.9385939250424
 21
5755.8055359609516
 31
0.0
  0
LINE
  5
800D
  8
3
  6
CONTINUOUS
 62
     0
 10
5447.9385939250433
 20
5715.8055359609516
 30
0.0
 11
5967.9385939250424
 21
5715.8055359609516
 31
0.0
  0
INSERT
  5
800E
  8
3
  6
CONTINUOUS
 62
     0
  2
_OPEN
 10
5367.9385939250433
 20
5715.8055359609516
 30
0.0
 41
80.0
 42
80.0
 43
80.0
 50
180.0
  0
INSERT
  5
800F
  8
3
  6
CONTINUOUS
 62
     0
  2
_OPEN
 10
6047.9385939250424
 20
5715.8055359609516
 30
0.0
 41
80.0
 42
80.0
 43
80.0
  0
TEXT
  8
3
  40
120
  5
8044
  62
0
  72
0
  71
0
 10
5516.51
 20
5703.41
 30
0.000000
  1
MAX
  0
TEXT
  8
3
  40
120
  5
8045
  62
0
  72
0
  71
0
 10
5516.51
 20
5547.41
 30
0.000000
  1
770
  0
POINT
  5
8011
  8
DEFPOINTS
  6
CONTINUOUS
 62
     0
 10
5367.9385939250433
 20
4806.5254599609507
 30
0.0
  0
POINT
  5
8012
  8
DEFPOINTS
  6
CONTINUOUS
 62
     0
 10
6047.9385939250424
 20
5677.090311960952
 30
0.0
  0
POINT
  5
8013
  8
DEFPOINTS
  6
CONTINUOUS
 62
     0
 10
6047.9385939250424
 20
5715.8055359609516
 30
0.0
  0
ENDBLK
  5
7DB1
  8
0
  0
BLOCK
  8
0
  2
*D14
 70
     1
 10
0.0
 20
0.0
 30
0.0
  3
*D14
  1

  0
LINE
  5
7D87
  8
0
  6
BYBLOCK
 62
     0
 10
6885.3376270997333
 20
6350.1307266259446
 30
0.0
 11
6885.3376270997333
 21
6408.8459506259442
 31
0.0
  0
LINE
  5
7D88
  8
0
  6
BYBLOCK
 62
     0
 10
7363.3376270997333
 20
5762.8658746259443
 30
0.0
 11
7363.3376270997333
 21
6408.8459506259442
 31
0.0
  0
LINE
  5
7D89
  8
0
  6
BYBLOCK
 62
     0
 10
6965.3376270997323
 20
6368.8459506259442
 30
0.0
 11
7283.3376270997323
 21
6368.8459506259442
 31
0.0
  0
TEXT
  5
7D8A
  8
3
 62
     0
 10
6970.0519128140168
 20
6430.6973899909981
 30
0.0
 40
120.0
  1
478
  0
INSERT
  5
7D8B
  8
0
  6
BYBLOCK
 62
     0
  2
_OPEN
 10
6885.3376270997333
 20
6368.8459506259442
 30
0.0
 41
80.0
 42
80.0
 43
80.0
 50
180.0
  0
INSERT
  5
7D8C
  8
0
  6
BYBLOCK
 62
     0
  2
_OPEN
 10
7363.3376270997333
 20
6368.8459506259442
 30
0.0
 41
80.0
 42
80.0
 43
80.0
  0
POINT
  5
7D8D
  8
DEFPOINTS
  6
BYBLOCK
 62
     0
 10
6885.3376270997333
 20
6330.1307266259446
 30
0.0
  0
POINT
  5
7D8E
  8
DEFPOINTS
  6
BYBLOCK
 62
     0
 10
7363.3376270997333
 20
5742.8658746259453
 30
0.0
  0
POINT
  5
7D8F
  8
DEFPOINTS
  6
BYBLOCK
 62
     0
 10
7363.3376270997333
 20
6368.8459506259442
 30
0.0
  0
ENDBLK
  5
7D90
  8
0
  0
BLOCK
  8
0
  2
*D15
 70
     1
 10
0.0
 20
0.0
 30
0.0
  3
*D15
  1

  0
LINE
  5
8014
  8
3
  6
CONTINUOUS
 62
     0
 10
6545.9385939250424
 20
5039.8254599609509
 30
0.0
 11
6977.0446299250434
 21
5039.8254599609509
 31
0.0
  0
LINE
  5
8015
  8
3
  6
CONTINUOUS
 62
     0
 10
6545.9385939250424
 20
4039.8254599609509
 30
0.0
 11
6977.0446299250434
 21
4039.8254599609509
 31
0.0
  0
LINE
  5
8016
  8
3
  6
CONTINUOUS
 62
     0
 10
6937.0446299250434
 20
4959.8254599609518
 30
0.0
 11
6937.0446299250434
 21
4119.8254599609518
 31
0.0
  0
INSERT
  5
8017
  8
3
  6
CONTINUOUS
 62
     0
  2
_OPEN
 10
6937.0446299250434
 20
5039.8254599609509
 30
0.0
 41
80.0
 42
80.0
 43
80.0
 50
90.0
  0
INSERT
  5
8018
  8
3
  6
CONTINUOUS
 62
     0
  2
_OPEN
 10
6937.0446299250434
 20
4039.8254599609509
 30
0.0
 41
80.0
 42
80.0
 43
80.0
 50
270.0
  0
TEXT
  8
3
  40
120
  5
8046
  62
0
  72
0
  71
0
 10
6597.04
 20
4320.38
 30
0.000000
  1
φ1000
  0
POINT
  5
801A
  8
DEFPOINTS
  6
CONTINUOUS
 62
     0
 10
6525.9385939250424
 20
5039.8254599609509
 30
0.0
  0
POINT
  5
801B
  8
DEFPOINTS
  6
CONTINUOUS
 62
     0
 10
6525.9385939250424
 20
4039.8254599609509
 30
0.0
  0
POINT
  5
801C
  8
DEFPOINTS
  6
CONTINUOUS
 62
     0
 10
6937.0446299250434
 20
4039.8254599609509
 30
0.0
  0
ENDBLK
  5
7DA6
  8
0
  0
BLOCK
  8
0
  2
*D16
 70
     1
 10
0.0
 20
0.0
 30
0.0
  3
*D16
  1

  0
LINE
  5
801D
  8
3
  6
CONTINUOUS
 62
     0
 10
5430.9385939250424
 20
3225.8254599609509
 30
0.0
 11
5430.9385939250424
 21
2937.1369649824001
 31
0.0
  0
LINE
  5
801E
  8
3
  6
CONTINUOUS
 62
     0
 10
6047.9385939250424
 20
3133.3065854694551
 30
0.0
 11
6047.9385939250424
 21
2937.1369649824001
 31
0.0
  0
LINE
  5
801F
  8
3
  6
CONTINUOUS
 62
     0
 10
5510.9385939250424
 20
2977.1369649824001
 30
0.0
 11
5967.9385939250424
 21
2977.1369649824001
 31
0.0
  0
INSERT
  5
8020
  8
3
  6
CONTINUOUS
 62
     0
  2
_OPEN
 10
5430.9385939250424
 20
2977.1369649824001
 30
0.0
 41
80.0
 42
80.0
 43
80.0
 50
180.0
  0
INSERT
  5
8021
  8
3
  6
CONTINUOUS
 62
     0
  2
_OPEN
 10
6047.9385939250424
 20
2977.1369649824001
 30
0.0
 41
80.0
 42
80.0
 43
80.0
  0
TEXT
  8
3
  40
120
  5
8047
  62
0
  72
0
  71
0
 10
5545.08
 20
2864.74
 30
0.000000
  1
617
  0
POINT
  5
8023
  8
DEFPOINTS
  6
CONTINUOUS
 62
     0
 10
5430.9385939250424
 20
3245.8254599609509
 30
0.0
  0
POINT
  5
8024
  8
DEFPOINTS
  6
CONTINUOUS
 62
     0
 10
6047.9385939250424
 20
3153.3065854694551
 30
0.0
  0
POINT
  5
8025
  8
DEFPOINTS
  6
CONTINUOUS
 62
     0
 10
6047.9385939250424
 20
2977.1369649824001
 30
0.0
  0
ENDBLK
  5
7E7E
  8
0
  0
BLOCK
  8
0
  2
*D17
 70
     1
 10
0.0
 20
0.0
 30
0.0
  3
*D17
  1

  0
LINE
  5
7E80
  8
0
  6
BYBLOCK
 62
     0
 10
6885.3376270997333
 20
3786.3470001344472
 30
0.0
 11
6885.3376270997333
 21
3590.1773796473922
 31
0.0
  0
LINE
  5
7E81
  8
0
  6
BYBLOCK
 62
     0
 10
7328.3376270997323
 20
3878.8658746259439
 30
0.0
 11
7328.3376270997323
 21
3590.1773796473922
 31
0.0
  0
LINE
  5
7E82
  8
0
  6
BYBLOCK
 62
     0
 10
6965.3376270997323
 20
3630.1773796473922
 30
0.0
 11
7248.3376270997333
 21
3630.1773796473922
 31
0.0
  0
TEXT
  5
7E83
  8
3
 62
     0
 10
6952.5519128140168
 20
3691.0272439833639
 30
0.0
 40
120.0
  1
443
  0
INSERT
  5
7E84
  8
0
  6
BYBLOCK
 62
     0
  2
_OPEN
 10
6885.3376270997333
 20
3630.1773796473922
 30
0.0
 41
80.0
 42
80.0
 43
80.0
 50
180.0
  0
INSERT
  5
7E85
  8
0
  6
BYBLOCK
 62
     0
  2
_OPEN
 10
7328.3376270997323
 20
3630.1773796473922
 30
0.0
 41
80.0
 42
80.0
 43
80.0
  0
POINT
  5
7E86
  8
DEFPOINTS
  6
BYBLOCK
 62
     0
 10
6885.3376270997333
 20
3806.3470001344472
 30
0.0
  0
POINT
  5
7E87
  8
DEFPOINTS
  6
BYBLOCK
 62
     0
 10
7328.3376270997323
 20
3898.8658746259439
 30
0.0
  0
POINT
  5
7E88
  8
DEFPOINTS
  6
BYBLOCK
 62
     0
 10
7328.3376270997323
 20
3630.1773796473922
 30
0.0
  0
ENDBLK
  5
7E89
  8
0
  0
BLOCK
  8
0
  2
*D18
 70
     1
 10
0.0
 20
0.0
 30
0.0
  3
*D18
  1

  0
LINE
  5
8026
  8
3
  6
CONTINUOUS
 62
     0
 10
2305.4444841766672
 20
4539.8254599609509
 30
0.0
 11
1705.7531701484261
 21
4539.8254599609527
 31
0.0
  0
LINE
  5
8027
  8
3
  6
CONTINUOUS
 62
     0
 10
2305.4444841766672
 20
3465.8254599609518
 30
0.0
 11
1705.7531701484261
 21
3465.8254599609518
 31
0.0
  0
LINE
  5
8028
  8
3
  6
CONTINUOUS
 62
     0
 10
1745.7531701484261
 20
4459.8254599609518
 30
0.0
 11
1745.7531701484261
 21
3545.8254599609509
 31
0.0
  0
INSERT
  5
8029
  8
3
  6
CONTINUOUS
 62
     0
  2
_OPEN
 10
1745.7531701484261
 20
4539.8254599609527
 30
0.0
 41
80.0
 42
80.0
 43
80.0
 50
90.0
  0
INSERT
  5
802A
  8
3
  6
CONTINUOUS
 62
     0
  2
_OPEN
 10
1745.7531701484261
 20
3465.8254599609518
 30
0.0
 41
80.0
 42
80.0
 43
80.0
 50
270.0
  0
TEXT
  8
3
  40
120
  5
8048
  62
0
  72
0
  71
0
 10
1405.75
 20
3817.19
 30
0.000000
  1
1074
  0
POINT
  5
802C
  8
DEFPOINTS
  6
CONTINUOUS
 62
     0
 10
2325.4444841766672
 20
4539.8254599609509
 30
0.0
  0
POINT
  5
802D
  8
DEFPOINTS
  6
CONTINUOUS
 62
     0
 10
2325.4444841766672
 20
3465.8254599609518
 30
0.0
  0
POINT
  5
802E
  8
DEFPOINTS
  6
CONTINUOUS
 62
     0
 10
1745.7531701484261
 20
3465.8254599609518
 30
0.0
  0
ENDBLK
  5
7DEA
  8
0
  0
BLOCK
  8
0
  2
*D19
 70
     1
 10
0.0
 20
0.0
 30
0.0
  3
*D19
  1

  0
LINE
  5
802F
  8
3
 62
     0
 10
2325.4444841766672
 20
4568.8254599609518
 30
0.0
 11
2325.4444841766672
 21
5722.608150354954
 31
0.0
  0
LINE
  5
8030
  8
3
 62
     0
 10
4500.4444841766672
 20
3474.8254599609518
 30
0.0
 11
4500.4444841766672
 21
5722.608150354954
 31
0.0
  0
LINE
  5
8031
  8
3
 62
     0
 10
2405.4444841766672
 20
5682.608150354954
 30
0.0
 11
4420.4444841766672
 21
5682.608150354954
 31
0.0
  0
INSERT
  5
8032
  8
3
 62
     0
  2
_OPEN
 10
2325.4444841766672
 20
5682.608150354954
 30
0.0
 41
80.0
 42
80.0
 43
80.0
 50
180.0
  0
INSERT
  5
8033
  8
3
 62
     0
  2
_OPEN
 10
4500.4444841766672
 20
5682.608150354954
 30
0.0
 41
80.0
 42
80.0
 43
80.0
  0
TEXT
  8
3
  40
120
  5
8049
  62
0
  72
0
  71
0
 10
3212.39
 20
5570.21
 30
0.000000
  1
2175
  0
POINT
  5
8035
  8
DEFPOINTS
 62
     0
 10
2325.4444841766672
 20
4548.8254599609509
 30
0.0
  0
POINT
  5
8036
  8
DEFPOINTS
 62
     0
 10
4500.4444841766672
 20
3454.8254599609518
 30
0.0
  0
POINT
  5
8037
  8
DEFPOINTS
 62
     0
 10
4500.4444841766672
 20
5682.608150354954
 30
0.0
  0
ENDBLK
  5
7E3A
  8
0
  0
ENDSEC
  0
SECTION
  2
ENTITIES
  0
POLYLINE
  5
7A78
  8
1
  6
CONTINUOUS
 66
     1
 10
0.0
 20
0.0
 30
0.0
  0
VERTEX
  5
7F92
  8
1
  6
CONTINUOUS
 10
2325.4444841766672
 20
3465.8254599609518
 30
0.0
  0
VERTEX
  5
7F93
  8
1
  6
CONTINUOUS
 10
3005.4444841766672
 20
3523.8254599609509
 30
0.0
 42
0.4
  0
VERTEX
  5
7F94
  8
1
  6
CONTINUOUS
 10
3876.3444841766668
 20
4465.8254599609518
 30
0.0
 42
0.4
  0
VERTEX
  5
7F95
  8
1
  6
CONTINUOUS
 10
2999.8444841766668
 20
5258.7254599609523
 30
0.0
 42
0.4
  0
VERTEX
  5
7F96
  8
1
  6
CONTINUOUS
 10
2404.2444841766669
 20
4600.3254599609509
 30
0.0
  0
VERTEX
  5
7F97
  8
1
  6
CONTINUOUS
 10
2414.4444841766672
 20
4495.8254599609509
 30
0.0
 42
0.4
  0
SEQEND
  5
7F98
  8
1
  6
CONTINUOUS
  0
LINE
  5
7A80
  8
1
  6
CONTINUOUS
 10
2414.4444841766672
 20
4495.8254599609509
 30
0.0
 11
2325.4444841766672
 21
4495.8254599609509
 31
0.0
  0
LINE
  5
7A81
  8
1
  6
CONTINUOUS
 10
2325.4444841766672
 20
4548.8254599609509
 30
0.0
 11
2325.4444841766672
 21
3412.8254599609518
 31
0.0
  0
LINE
  5
7A82
  8
1
  6
CONTINUOUS
 10
2380.4444841766658
 20
3310.8254599609509
 30
0.0
 11
4500.4444841766672
 21
3310.8254599609509
 31
0.0
  0
LINE
  5
7A83
  8
1
  6
CONTINUOUS
 10
2380.4444841766658
 20
3245.8254599609509
 30
0.0
 11
4500.4444841766672
 21
3245.8254599609509
 31
0.0
  0
LINE
  5
7A84
  8
1
  6
CONTINUOUS
 10
2380.4444841766658
 20
3454.8254599609518
 30
0.0
 11
4500.4444841766672
 21
3454.8254599609518
 31
0.0
  0
LINE
  5
7A85
  8
1
  6
CONTINUOUS
 10
2380.4444841766658
 20
3329.8254599609518
 30
0.0
 11
4500.4444841766672
 21
3329.8254599609518
 31
0.0
  0
LINE
  5
7A86
  8
1
  6
CONTINUOUS
 10
4285.8444841766659
 20
3769.4254599609521
 30
0.0
 11
3102.1444841766661
 21
4667.2254599609523
 31
0.0
  0
LINE
  5
7A87
  8
1
  6
CONTINUOUS
 10
4346.3444841766659
 20
3849.125459960951
 30
0.0
 11
3162.5444841766648
 21
4746.9254599609521
 31
0.0
  0
LINE
  5
7A88
  8
1
  6
CONTINUOUS
 10
4117.8444841766668
 20
3521.2254599609519
 30
0.0
 11
2865.5444841766662
 21
4320.625459960952
 31
0.0
  0
LINE
  5
7A89
  8
1
  6
CONTINUOUS
 10
4171.644484176667
 20
3605.525459960952
 30
0.0
 11
2919.3444841766668
 21
4404.9254599609521
 31
0.0
  0
ARC
  5
7A8A
  8
1
  6
CONTINUOUS
 10
3005.4444841766672
 20
4539.8254599609509
 30
0.0
 40
260.0
 50
52.799999999999997
 51
237.39999999999989
  0
CIRCLE
  5
7A8B
  8
1
  6
CONTINUOUS
 10
3005.4444841766672
 20
4539.8254599609509
 30
0.0
 40
550.0
  0
CIRCLE
  5
7A8C
  8
1
  6
CONTINUOUS
 10
3005.4444841766672
 20
4539.8254599609509
 30
0.0
 40
500.0
  0
CIRCLE
  5
7A8D
  8
1
  6
CONTINUOUS
 10
3005.4444841766672
 20
4539.8254599609509
 30
0.0
 40
160.0
  0
LINE
  5
7A8E
  8
2
  6
CENTER
 10
3005.4444841766672
 20
3145.8387379609512
 30
0.0
 11
3005.4444841766672
 21
5349.1078289609513
 31
0.0
  0
LINE
  5
7A8F
  8
1
  6
CONTINUOUS
 10
2375.4444841766672
 20
4495.8254599609509
 30
0.0
 11
2375.4444841766672
 21
3465.8254599609518
 31
0.0
  0
LINE
  5
7A90
  8
1
  6
CONTINUOUS
 10
2380.4444841766658
 20
3310.8254599609509
 30
0.0
 11
2380.4444841766658
 21
3245.8254599609509
 31
0.0
  0
LINE
  5
7A91
  8
1
  6
CONTINUOUS
 10
2380.4444841766658
 20
3454.8254599609518
 30
0.0
 11
2380.4444841766658
 21
3329.8254599609518
 31
0.0
  0
LINE
  5
7A92
  8
2
  6
CENTER
 10
2259.2974441766669
 20
4539.8254599609509
 30
0.0
 11
3976.9669141766658
 21
4539.8254599609509
 31
0.0
  0
ARC
  5
7A93
  8
1
  6
CONTINUOUS
 10
4225.4444841766672
 20
3689.8254599609509
 30
0.0
 40
200.0
 50
237.39999999999989
 51
52.799999999999997
  0
LINE
  5
7A94
  8
2
  6
CENTER
 10
4330.4444841766672
 20
3689.8254599609509
 30
0.0
 11
4120.4444841766672
 21
3689.8254599609509
 31
0.0
  0
CIRCLE
  5
7A95
  8
1
  6
CONTINUOUS
 10
4225.4444841766672
 20
3689.8254599609509
 30
0.0
 40
100.0
  0
LINE
  5
7A96
  8
1
  6
CONTINUOUS
 10
4435.4444841766672
 20
3509.8254599609518
 30
0.0
 11
4015.4444841766681
 21
3509.8254599609518
 31
0.0
  0
ARC
  5
7A97
  8
1
  6
CONTINUOUS
 10
4225.4444841766672
 20
3689.8254599609509
 30
0.0
 40
182.5
 50
326.60000000000002
 51
213.40000000000001
  0
LINE
  5
7A98
  8
1
  6
CONTINUOUS
 10
4000.4444841766672
 20
3454.8254599609518
 30
0.0
 11
4015.4444841766681
 21
3509.8254599609518
 31
0.0
  0
LINE
  5
7A99
  8
1
  6
CONTINUOUS
 10
4063.4444841766672
 20
3509.8254599609518
 30
0.0
 11
4063.4444841766672
 21
3579.8254599609518
 31
0.0
  0
LINE
  5
7A9A
  8
1
  6
CONTINUOUS
 10
4063.4444841766672
 20
3579.8254599609518
 30
0.0
 11
4073.0444841766671
 21
3589.3254599609518
 31
0.0
  0
LINE
  5
7A9B
  8
2
  6
CENTER
 10
4225.4444841766672
 20
3584.8254599609509
 30
0.0
 11
4225.4444841766672
 21
3794.8254599609518
 31
0.0
  0
LINE
  5
7A9C
  8
1
  6
CONTINUOUS
 10
4450.4444841766663
 20
3454.8254599609518
 30
0.0
 11
4435.4444841766672
 21
3509.8254599609518
 31
0.0
  0
LINE
  5
7A9D
  8
1
  6
CONTINUOUS
 10
4387.4444841766672
 20
3509.8254599609518
 30
0.0
 11
4387.4444841766672
 21
3579.8254599609518
 31
0.0
  0
LINE
  5
7A9E
  8
1
  6
CONTINUOUS
 10
4387.4444841766672
 20
3579.8254599609518
 30
0.0
 11
4377.8444841766668
 21
3589.3254599609518
 31
0.0
  0
LINE
  5
7A9F
  8
1
  6
CONTINUOUS
 10
4500.4444841766672
 20
3310.8254599609509
 30
0.0
 11
4500.4444841766672
 21
3245.8254599609509
 31
0.0
  0
LINE
  5
7AA0
  8
1
  6
CONTINUOUS
 10
4500.4444841766672
 20
3454.8254599609518
 30
0.0
 11
4500.4444841766672
 21
3329.8254599609518
 31
0.0
  0
LINE
  5
7AA1
  8
1
  6
CONTINUOUS
 10
2325.4444841766672
 20
7490.959994386234
 30
0.0
 11
3876.3444841766668
 21
7490.959994386234
 31
0.0
  0
LINE
  5
7AA2
  8
1
  6
CONTINUOUS
 10
2325.4444841766672
 20
8240.9599943862358
 30
0.0
 11
3876.3444841766668
 21
8240.9599943862358
 31
0.0
  0
LINE
  5
7AA3
  8
1
  6
CONTINUOUS
 10
2325.4444841766672
 20
7440.9599943862349
 30
0.0
 11
2325.4444841766672
 21
8290.959994386234
 31
0.0
  0
LINE
  5
7AA4
  8
1
  6
CONTINUOUS
 10
2745.4444841766672
 20
7185.959994386234
 30
0.0
 11
4425.4444841766672
 21
7185.959994386234
 31
0.0
  0
LINE
  5
7AA5
  8
1
  6
CONTINUOUS
 10
2745.4444841766672
 20
7385.9599943862331
 30
0.0
 11
4425.4444841766672
 21
7385.9599943862331
 31
0.0
  0
LINE
  5
7AA6
  8
1
  6
CONTINUOUS
 10
3505.4444841766672
 20
8308.9599943862322
 30
0.0
 11
4500.4444841766672
 21
8308.9599943862322
 31
0.0
  0
LINE
  5
7AA7
  8
1
  6
CONTINUOUS
 10
3165.4444841766672
 20
7248.959994386234
 30
0.0
 11
4125.4444841766672
 21
7248.959994386234
 31
0.0
  0
LINE
  5
7AA8
  8
1
  6
CONTINUOUS
 10
2455.4444841766672
 20
8343.9599943862358
 30
0.0
 11
3555.4444841766672
 21
8343.9599943862358
 31
0.0
  0
LINE
  5
7AA9
  8
1
  6
CONTINUOUS
 10
2845.4444841766672
 20
7235.959994386234
 30
0.0
 11
3165.4444841766672
 21
7235.959994386234
 31
0.0
  0
LINE
  5
7AAA
  8
1
  6
CONTINUOUS
 10
2845.4444841766672
 20
7335.9599943862331
 30
0.0
 11
3165.4444841766672
 21
7335.9599943862331
 31
0.0
  0
LINE
  5
7AAB
  8
1
  6
CONTINUOUS
 10
2375.4444841766672
 20
7490.959994386234
 30
0.0
 11
2375.4444841766672
 21
8240.9599943862358
 31
0.0
  0
LINE
  5
7AAC
  8
1
  6
CONTINUOUS
 10
2380.4444841766658
 20
7248.959994386234
 30
0.0
 11
2845.4444841766672
 21
7248.959994386234
 31
0.0
  0
LINE
  5
7AAD
  8
1
  6
CONTINUOUS
 10
2380.4444841766658
 20
7490.959994386234
 30
0.0
 11
2380.4444841766658
 21
7248.959994386234
 31
0.0
  0
LINE
  5
7AAE
  8
1
  6
CONTINUOUS
 10
2845.4444841766672
 20
7235.959994386234
 30
0.0
 11
2845.4444841766672
 21
7335.9599943862331
 31
0.0
  0
LINE
  5
7AAF
  8
1
  6
CONTINUOUS
 10
2745.4444841766672
 20
7185.959994386234
 30
0.0
 11
2745.4444841766672
 21
7385.9599943862331
 31
0.0
  0
LINE
  5
7AB0
  8
1
  6
CONTINUOUS
 10
2505.4444841766672
 20
8240.9599943862358
 30
0.0
 11
2505.4444841766672
 21
8343.9599943862358
 31
0.0
  0
LINE
  5
7AB1
  8
1
  6
CONTINUOUS
 10
2380.4444841766658
 20
8308.9599943862322
 30
0.0
 11
2505.4444841766672
 21
8308.9599943862322
 31
0.0
  0
LINE
  5
7AB2
  8
1
  6
CONTINUOUS
 10
2380.4444841766658
 20
8308.9599943862322
 30
0.0
 11
2380.4444841766658
 21
8240.9599943862358
 31
0.0
  0
LINE
  5
7AB3
  8
1
  6
CONTINUOUS
 10
3029.4444841766672
 20
7335.9599943862331
 30
0.0
 11
3029.4444841766672
 21
7490.959994386234
 31
0.0
  0
LINE
  5
7AB4
  8
1
  6
CONTINUOUS
 10
2981.4444841766672
 20
7335.9599943862331
 30
0.0
 11
2981.4444841766672
 21
7490.959994386234
 31
0.0
  0
LINE
  5
7AB5
  8
1
  6
CONTINUOUS
 10
3165.4444841766672
 20
7235.959994386234
 30
0.0
 11
3165.4444841766672
 21
7335.9599943862331
 31
0.0
  0
LINE
  5
7AB6
  8
1
  6
CONTINUOUS
 10
3505.4444841766672
 20
8240.9599943862358
 30
0.0
 11
3505.4444841766672
 21
8343.9599943862358
 31
0.0
  0
LINE
  5
7AB7
  8
1
  6
CONTINUOUS
 10
4125.4444841766672
 20
7335.9599943862331
 30
0.0
 11
4325.4444841766663
 21
7335.9599943862331
 31
0.0
  0
LINE
  5
7AB8
  8
1
  6
CONTINUOUS
 10
4125.4444841766672
 20
7235.959994386234
 30
0.0
 11
4325.4444841766663
 21
7235.959994386234
 31
0.0
  0
LINE
  5
7AB9
  8
1
  6
CONTINUOUS
 10
4407.9444841766672
 20
7970.8599943862337
 30
0.0
 11
4042.9444841766672
 21
7970.8599943862337
 31
0.0
  0
LINE
  5
7ABA
  8
1
  6
CONTINUOUS
 10
4407.9444841766672
 20
7409.3599943862337
 30
0.0
 11
4042.9444841766672
 21
7409.3599943862337
 31
0.0
  0
LINE
  5
7ABB
  8
1
  6
CONTINUOUS
 10
3876.3444841766668
 20
7490.959994386234
 30
0.0
 11
3876.3444841766668
 21
8240.9599943862358
 31
0.0
  0
LINE
  5
7ABC
  8
1
  6
CONTINUOUS
 10
4042.9444841766672
 20
7409.3599943862337
 30
0.0
 11
4042.9444841766672
 21
7970.8599943862337
 31
0.0
  0
LINE
  5
7ABD
  8
1
  6
CONTINUOUS
 10
4125.4444841766672
 20
7235.959994386234
 30
0.0
 11
4125.4444841766672
 21
7335.9599943862331
 31
0.0
  0
LINE
  5
7ABE
  8
1
  6
CONTINUOUS
 10
4500.4444841766672
 20
8308.9599943862322
 30
0.0
 11
4500.4444841766672
 21
7248.959994386234
 31
0.0
  0
LINE
  5
7ABF
  8
1
  6
CONTINUOUS
 10
4407.9444841766672
 20
7409.3599943862337
 30
0.0
 11
4407.9444841766672
 21
7970.8599943862337
 31
0.0
  0
LINE
  5
7AC0
  8
1
  6
CONTINUOUS
 10
4325.4444841766663
 20
7248.959994386234
 30
0.0
 11
4500.4444841766672
 21
7248.959994386234
 31
0.0
  0
LINE
  5
7AC1
  8
1
  6
CONTINUOUS
 10
4325.4444841766663
 20
7235.959994386234
 30
0.0
 11
4325.4444841766663
 21
7335.9599943862331
 31
0.0
  0
LINE
  5
7AC2
  8
1
  6
CONTINUOUS
 10
4425.4444841766672
 20
7185.959994386234
 30
0.0
 11
4425.4444841766672
 21
7385.9599943862331
 31
0.0
  0
LINE
  5
7AC3
  8
1
  6
CONTINUOUS
 10
4201.4444841766681
 20
7335.9599943862331
 30
0.0
 11
4201.4444841766681
 21
7409.3599943862337
 31
0.0
  0
LINE
  5
7AC4
  8
1
  6
CONTINUOUS
 10
4249.4444841766672
 20
7335.9599943862331
 30
0.0
 11
4249.4444841766672
 21
7409.3599943862337
 31
0.0
  0
LINE
  5
7AC5
  8
1
  6
CONTINUOUS
 10
5367.9385939250433
 20
4806.5254599609507
 30
0.0
 11
5567.9385939250424
 21
4806.5254599609507
 31
0.0
  0
LINE
  5
7AC6
  8
1
  6
CONTINUOUS
 10
5367.9385939250433
 20
3489.8254599609509
 30
0.0
 11
5567.9385939250424
 21
3489.8254599609509
 31
0.0
  0
LINE
  5
7AC7
  8
1
  6
CONTINUOUS
 10
5367.9385939250433
 20
4806.5254599609507
 30
0.0
 11
5367.9385939250433
 21
3489.8254599609509
 31
0.0
  0
LINE
  5
7ACC
  8
1
  6
CONTINUOUS
 10
5567.9385939250424
 20
4806.5254599609507
 30
0.0
 11
5567.9385939250424
 21
3489.8254599609509
 31
0.0
  0
LINE
  5
7ACD
  8
1
  6
CONTINUOUS
 10
6422.9385939250424
 20
5262.7254599609514
 30
0.0
 11
6422.9385939250424
 21
3454.8254599609518
 31
0.0
  0
LINE
  5
7ACE
  8
1
  6
CONTINUOUS
 10
5672.9385939250424
 20
5262.7254599609514
 30
0.0
 11
5672.9385939250424
 21
3454.8254599609518
 31
0.0
  0
LINE
  5
7ACF
  8
1
  6
CONTINUOUS
 10
6525.9385939250424
 20
5089.8254599609518
 30
0.0
 11
6525.9385939250424
 21
3989.8254599609509
 31
0.0
  0
LINE
  5
7AD0
  8
1
  6
CONTINUOUS
 10
5417.9385939250424
 20
4706.5254599609516
 30
0.0
 11
5417.9385939250424
 21
4373.0254599609516
 31
0.0
  0
LINE
  5
7AD1
  8
1
  6
CONTINUOUS
 10
5517.9385939250424
 20
4706.5254599609516
 30
0.0
 11
5517.9385939250424
 21
4373.0254599609516
 31
0.0
  0
LINE
  5
7AD2
  8
1
  6
CONTINUOUS
 10
6422.9385939250424
 20
4495.8254599609509
 30
0.0
 11
5672.9385939250424
 21
4495.8254599609509
 31
0.0
  0
LINE
  5
7AD3
  8
1
  6
CONTINUOUS
 10
6490.9385939250433
 20
3454.8254599609518
 30
0.0
 11
5430.9385939250424
 21
3454.8254599609518
 31
0.0
  0
LINE
  5
7AD4
  8
1
  6
CONTINUOUS
 10
6490.9385939250433
 20
3329.8254599609518
 30
0.0
 11
5430.9385939250424
 21
3329.8254599609518
 31
0.0
  0
LINE
  5
7AD5
  8
1
  6
CONTINUOUS
 10
6422.9385939250424
 20
3465.8254599609518
 30
0.0
 11
5672.9385939250424
 21
3465.8254599609518
 31
0.0
  0
LINE
  5
7AD6
  8
1
  6
CONTINUOUS
 10
5672.9385939250424
 20
4495.8254599609509
 30
0.0
 11
6422.9385939250424
 21
3465.8254599609518
 31
0.0
  0
LINE
  5
7AD7
  8
1
  6
CONTINUOUS
 10
5672.9385939250424
 20
3465.8254599609518
 30
0.0
 11
6422.9385939250424
 21
4495.8254599609509
 31
0.0
  0
LINE
  5
7AD8
  8
1
  6
CONTINUOUS
 10
6490.9385939250433
 20
3245.8254599609509
 30
0.0
 11
5430.9385939250424
 21
3245.8254599609509
 31
0.0
  0
LINE
  5
7AD9
  8
1
  6
CONTINUOUS
 10
6490.9385939250433
 20
3310.8254599609509
 30
0.0
 11
5430.9385939250424
 21
3310.8254599609509
 31
0.0
  0
LINE
  5
7ADA
  8
1
  6
CONTINUOUS
 10
5417.9385939250424
 20
3789.8254599609509
 30
0.0
 11
5417.9385939250424
 21
3589.8254599609509
 31
0.0
  0
LINE
  5
7ADB
  8
1
  6
CONTINUOUS
 10
5517.9385939250424
 20
3789.8254599609509
 30
0.0
 11
5517.9385939250424
 21
3589.8254599609509
 31
0.0
  0
LINE
  5
7ADC
  8
1
  6
CONTINUOUS
 10
5430.9385939250424
 20
3454.8254599609518
 30
0.0
 11
5430.9385939250424
 21
3329.8254599609518
 31
0.0
  0
LINE
  5
7ADD
  8
1
  6
CONTINUOUS
 10
5417.9385939250424
 20
3589.8254599609509
 30
0.0
 11
5517.9385939250424
 21
3589.8254599609509
 31
0.0
  0
POINT
  5
7ADE
  8
1
  6
CONTINUOUS
 10
5430.9385939250424
 20
3310.8254599609509
 30
0.0
  0
LINE
  5
7ADF
  8
1
  6
CONTINUOUS
 10
5430.9385939250424
 20
3310.8254599609509
 30
0.0
 11
5430.9385939250424
 21
3245.8254599609509
 31
0.0
  0
LINE
  5
7AE0
  8
1
  6
CONTINUOUS
 10
5417.9385939250424
 20
3789.8254599609509
 30
0.0
 11
5517.9385939250424
 21
3789.8254599609509
 31
0.0
  0
LINE
  5
7AE1
  8
1
  6
CONTINUOUS
 10
5417.9385939250424
 20
4373.0254599609516
 30
0.0
 11
5517.9385939250424
 21
4373.0254599609516
 31
0.0
  0
LINE
  5
7AE2
  8
1
  6
CONTINUOUS
 10
5672.9385939250424
 20
4522.5254599609507
 30
0.0
 11
5517.9385939250424
 21
4522.5254599609507
 31
0.0
  0
LINE
  5
7AE3
  8
1
  6
CONTINUOUS
 10
5672.9385939250424
 20
3672.5254599609511
 30
0.0
 11
5517.9385939250424
 21
3672.5254599609511
 31
0.0
  0
LINE
  5
7AE4
  8
1
  6
CONTINUOUS
 10
5672.9385939250424
 20
3720.5254599609511
 30
0.0
 11
5517.9385939250424
 21
3720.5254599609511
 31
0.0
  0
LINE
  5
7AE5
  8
1
  6
CONTINUOUS
 10
6490.9385939250433
 20
3454.8254599609518
 30
0.0
 11
6490.9385939250433
 21
3329.8254599609518
 31
0.0
  0
LINE
  5
7AE6
  8
1
  6
CONTINUOUS
 10
6490.9385939250433
 20
3310.8254599609509
 30
0.0
 11
6490.9385939250433
 21
3245.8254599609509
 31
0.0
  0
LINE
  5
7AE7
  8
1
  6
CONTINUOUS
 10
6525.9385939250424
 20
4039.8254599609509
 30
0.0
 11
6422.9385939250424
 21
4039.8254599609509
 31
0.0
  0
LINE
  5
7AE8
  8
1
  6
CONTINUOUS
 10
6422.9385939250424
 20
5262.7254599609514
 30
0.0
 11
5672.9385939250424
 21
5262.7254599609514
 31
0.0
  0
LINE
  5
7AE9
  8
1
  6
CONTINUOUS
 10
5417.9385939250424
 20
4706.5254599609516
 30
0.0
 11
5517.9385939250424
 21
4706.5254599609516
 31
0.0
  0
LINE
  5
7AEA
  8
1
  6
CONTINUOUS
 10
5672.9385939250424
 20
4570.5254599609507
 30
0.0
 11
5517.9385939250424
 21
4570.5254599609507
 31
0.0
  0
LINE
  5
7AEB
  8
1
  6
CONTINUOUS
 10
6525.9385939250424
 20
5039.8254599609509
 30
0.0
 11
6422.9385939250424
 21
5039.8254599609509
 31
0.0
  0
DIMENSION
  5
7AFF
  8
3
  6
CONTINUOUS
  2
*D1
 10
3005.4444841766672
 20
2961.5557470134581
 30
0.0
 11
2731.158769890953
 21
2961.5557470134581
 31
0.0
 70
   128
 13
2380.4444841766658
 23
3245.8254599609509
 33
0.0
 14
3005.4444841766672
 24
3145.8387379609512
 34
0.0
1001
ACAD
1000
DSTYLE
1002
{
1070
   287
1070
     3
1070
   287
1070
     3
1070
    40
1040
40.0
1070
   143
1040
0.039
1070
   172
1070
     1
1070
   271
1070
     0
1070
   279
1070
     0
1070
   288
1070
     1
1002
}
  0
DIMENSION
  5
7B0B
  8
3
  6
CONTINUOUS
  2
*D2
 10
4500.4444841766672
 20
2961.5557470134581
 30
0.0
 11
3752.9444841766672
 21
3061.5557470134581
 31
0.0
 70
     0
 13
3005.4444841766672
 23
3145.8387379609512
 33
0.0
 14
4500.4444841766672
 24
3245.8254599609509
 34
0.0
1001
ACAD
1000
DSTYLE
1002
{
1070
   287
1070
     3
1070
   287
1070
     3
1070
    40
1040
40.0
1070
   143
1040
0.039
1070
   172
1070
     1
1070
   271
1070
     0
1070
   279
1070
     0
1070
   288
1070
     1
1002
}
  0
DIMENSION
  5
7B18
  8
3
  6
CONTINUOUS
  2
*D3
 10
1974.476632176666
 20
3465.8254599609518
 30
0.0
 11
1974.4766321766649
 21
3997.3950849609519
 31
0.0
 70
   128
 13
2325.4444841766672
 23
4495.8254599609509
 33
0.0
 14
2325.4444841766672
 24
3465.8254599609518
 34
0.0
 50
90.0
1001
ACAD
1000
DSTYLE
1002
{
1070
   287
1070
     3
1070
   287
1070
     3
1070
    40
1040
40.0
1070
   143
1040
0.039
1070
   172
1070
     1
1070
   271
1070
     0
1070
   279
1070
     0
1070
   288
1070
     1
1002
}
  0
DIMENSION
  5
7B25
  8
3
  6
CONTINUOUS
  2
*D4
 10
1520.0903221507531
 20
4539.8254599609527
 30
0.0
 11
1520.0903221507519
 21
4898.3280879609511
 31
0.0
 70
   128
 13
3005.4444841766672
 23
5259.8254599609518
 33
0.0
 14
2410.149747176667
 24
4539.8254599609509
 34
0.0
 50
90.0
1001
ACAD
1000
DSTYLE
1002
{
1070
   287
1070
     3
1070
   287
1070
     3
1070
    40
1040
40.0
1070
   143
1040
0.039
1070
   172
1070
     1
1070
   271
1070
     0
1070
   279
1070
     0
1070
   288
1070
     1
1002
}
  0
DIMENSION
  5
7B31
  8
3
  6
CONTINUOUS
  2
*D5
 10
1520.0903221507519
 20
3329.8254599609518
 30
0.0
 11
1420.0903221507519
 21
3934.8254599609518
 31
0.0
 70
     0
 13
2410.149747176667
 23
4539.8254599609509
 33
0.0
 14
2380.4444841766658
 24
3329.8254599609518
 34
0.0
 50
90.0
1001
ACAD
1000
DSTYLE
1002
{
1070
   287
1070
     3
1070
   287
1070
     3
1070
    40
1040
40.0
1070
   143
1040
0.039
1070
   172
1070
     1
1070
   271
1070
     0
1070
   279
1070
     0
1070
   288
1070
     1
1002
}
  0
DIMENSION
  5
7B41
  8
3
  6
CONTINUOUS
  2
*D6
 10
1520.0903221507519
 20
3245.8254599609509
 30
0.0
 11
1520.0903221507519
 21
2945.8254599609518
 31
0.0
 70
   128
 13
2380.4444841766658
 23
3329.8254599609518
 33
0.0
 14
2380.4444841766658
 24
3245.8254599609509
 34
0.0
 50
90.0
1001
ACAD
1000
DSTYLE
1002
{
1070
   287
1070
     3
1070
   287
1070
     3
1070
    40
1040
40.0
1070
   143
1040
0.039
1070
   172
1070
     1
1070
   271
1070
     0
1070
   279
1070
     0
1070
   288
1070
     1
1002
}
  0
DIMENSION
  5
7B68
  8
3
  6
CONTINUOUS
  2
*D7
 10
4500.4444841766672
 20
6842.7417203862351
 30
0.0
 11
3480.8116181766668
 21
6842.7417203862351
 31
0.0
 70
   128
 13
2380.4444841766658
 23
7248.959994386234
 33
0.0
 14
4500.4444841766672
 24
7248.959994386234
 34
0.0
1001
ACAD
1000
DSTYLE
1002
{
1070
   287
1070
     3
1070
   287
1070
     3
1070
    40
1040
40.0
1070
   143
1040
0.039
1070
   172
1070
     1
1070
   271
1070
     0
1070
   279
1070
     0
1070
   288
1070
     1
1002
}
  0
DIMENSION
  5
7B75
  8
3
  6
CONTINUOUS
  2
*D8
 10
4949.9598941766671
 20
7248.959994386234
 30
0.0
 11
4949.9598941766662
 21
7800.9638393862342
 31
0.0
 70
   128
 13
4500.4444841766672
 23
8308.9599943862322
 33
0.0
 14
4500.4444841766672
 24
7248.959994386234
 34
0.0
 50
90.0
1001
ACAD
1000
DSTYLE
1002
{
1070
   287
1070
     3
1070
   287
1070
     3
1070
    40
1040
40.0
1070
   143
1040
0.039
1070
   172
1070
     1
1070
   271
1070
     0
1070
   279
1070
     0
1070
   288
1070
     1
1002
}
  0
LINE
  5
7B76
  8
2
  6
CENTER
 10
3958.2790391766662
 20
7865.959994386234
 30
0.0
 11
2202.0015921766658
 21
7865.959994386234
 31
0.0
  0
LINE
  5
7B77
  8
2
  6
CENTER
 10
3005.4444841766672
 20
7087.6536033862358
 30
0.0
 11
3005.4444841766672
 21
8463.0974733862331
 31
0.0
  0
DIMENSION
  5
7B84
  8
3
  6
CONTINUOUS
  2
*D9
 10
1260.612331908975
 20
3245.8254599609509
 30
0.0
 11
1260.6123319089741
 21
4355.3342009609514
 31
0.0
 70
   128
 13
3005.4444841766672
 23
5259.8254599609518
 33
0.0
 14
2380.4444841766658
 24
3245.8254599609509
 34
0.0
 50
90.0
1001
ACAD
1000
DSTYLE
1002
{
1070
   287
1070
     3
1070
   287
1070
     3
1070
    40
1040
40.0
1070
   143
1040
0.039
1070
   172
1070
     1
1070
   271
1070
     0
1070
   279
1070
     0
1070
   288
1070
     1
1002
}
  0
DIMENSION
  5
7B91
  8
3
  6
CONTINUOUS
  2
*D10
 10
2999.8444841766668
 20
5428.0423909609517
 30
0.0
 11
2722.7016270338099
 21
5428.0423909609517
 31
0.0
 70
   128
 13
2325.4444841766672
 23
4548.8254599609509
 33
0.0
 14
2999.8444841766668
 24
5258.7254599609523
 34
0.0
1001
ACAD
1000
DSTYLE
1002
{
1070
   287
1070
     3
1070
   287
1070
     3
1070
    40
1040
40.0
1070
   143
1040
0.039
1070
   172
1070
     1
1070
   271
1070
     0
1070
   279
1070
     0
1070
   288
1070
     1
1002
}
  0
DIMENSION
  5
7B9D
  8
3
  6
CONTINUOUS
  2
*D11
 10
3867.578009176666
 20
5428.0423909609517
 30
0.0
 11
3433.7112466766671
 21
5528.0423909609508
 31
0.0
 70
     0
 13
2999.8444841766668
 23
5258.7254599609523
 33
0.0
 14
3867.578009176666
 24
4539.8254599609509
 34
0.0
1001
ACAD
1000
DSTYLE
1002
{
1070
   287
1070
     3
1070
   287
1070
     3
1070
    40
1040
40.0
1070
   143
1040
0.039
1070
   172
1070
     1
1070
   271
1070
     0
1070
   279
1070
     0
1070
   288
1070
     1
1002
}
  0
LINE
  5
7B9F
  8
2
  6
CENTER
 10
6047.9385939250424
 20
5468.4648379609516
 30
0.0
 11
6047.9385939250424
 21
3153.3065854694551
 31
0.0
  0
LINE
  5
7BA0
  8
2
  6
CENTER
 10
5224.6045969250417
 20
4539.8254599609509
 30
0.0
 11
6574.6297079250417
 21
4539.8254599609509
 31
0.0
  0
DIMENSION
  5
7BAD
  8
3
  6
CONTINUOUS
  2
*D12
 10
6422.9385939250424
 20
5459.2209509609511
 30
0.0
 11
6010.2005654937093
 21
5459.2209509609511
 31
0.0
 70
   128
 13
5672.9385939250424
 23
5262.7254599609514
 33
0.0
 14
6422.9385939250424
 24
5262.7254599609514
 34
0.0
1001
ACAD
1000
DSTYLE
1002
{
1070
   287
1070
     3
1070
   287
1070
     3
1070
    40
1040
40.0
1070
   143
1040
0.039
1070
   172
1070
     1
1070
   271
1070
     0
1070
   279
1070
     0
1070
   288
1070
     1
1002
}
  0
DIMENSION
  5
7BBA
  8
3
  6
CONTINUOUS
  2
*D13
 10
6047.9385939250424
 20
5715.8055359609516
 30
0.0
 11
5756.5100224964699
 21
5715.8055359609516
 31
0.0
 70
   128
  1
MAX\P770
 13
5367.9385939250433
 23
4806.5254599609507
 33
0.0
 14
6047.9385939250424
 24
5677.090311960952
 34
0.0
1001
ACAD
1000
DSTYLE
1002
{
1070
   287
1070
     3
1070
   287
1070
     3
1070
    40
1040
40.0
1070
   143
1040
0.039
1070
   172
1070
     1
1070
   271
1070
     0
1070
   279
1070
     0
1070
   288
1070
     1
1002
}
  0
DIMENSION
  5
7BC8
  8
3
  6
CONTINUOUS
  2
*D14
 10
6525.9385939250424
 20
5715.8055359609516
 30
0.0
 11
6286.9385939250433
 21
5837.6569753260046
 31
0.0
 12
-837.39903317468986
 22
-653.04041466499245
 32
0.0
 70
   128
 13
6047.9385939250424
 23
5677.090311960952
 33
0.0
 14
6525.9385939250424
 24
5089.8254599609518
 34
0.0
1001
ACAD
1000
DSTYLE
1002
{
1070
   288
1070
     1
1070
   172
1070
     1
1070
    40
1040
40.0
1070
   271
1070
     0
1070
   143
1040
0.039
1002
}
  0
DIMENSION
  5
7BEB
  8
3
  6
CONTINUOUS
  2
*D15
 10
6937.0446299250434
 20
4039.8254599609509
 30
0.0
 11
6937.0446299250416
 21
4532.7800509609506
 31
0.0
 70
   128
 13
6525.9385939250424
 23
5039.8254599609509
 33
0.0
 14
6525.9385939250424
 24
4039.8254599609509
 34
0.0
 50
90.0
1001
ACAD
1000
DSTYLE
1002
{
1070
   287
1070
     3
1070
   287
1070
     3
1070
     3
1000
φ<>
1070
    40
1040
40.0
1070
   143
1040
0.039
1070
   172
1070
     1
1070
   271
1070
     0
1070
   279
1070
     0
1070
   288
1070
     1
1002
}
  0
DIMENSION
  5
7BF8
  8
3
  6
CONTINUOUS
  2
*D16
 10
6047.9385939250424
 20
2977.1369649824001
 30
0.0
 11
5785.0814510678993
 21
2977.1369649824001
 31
0.0
 70
   128
 13
5430.9385939250424
 23
3245.8254599609509
 33
0.0
 14
6047.9385939250424
 24
3153.3065854694551
 34
0.0
1001
ACAD
1000
DSTYLE
1002
{
1070
   287
1070
     3
1070
   287
1070
     3
1070
    40
1040
40.0
1070
   143
1040
0.039
1070
   172
1070
     1
1070
   271
1070
     0
1070
   279
1070
     0
1070
   288
1070
     1
1002
}
  0
DIMENSION
  5
7C06
  8
3
  6
CONTINUOUS
  2
*D17
 10
6490.9385939250433
 20
2977.1369649824001
 30
0.0
 11
6269.4385939250424
 21
3097.9868293183708
 31
0.0
 12
-837.39903317468986
 22
-653.04041466499245
 32
0.0
 70
   128
 13
6047.9385939250424
 23
3153.3065854694551
 33
0.0
 14
6490.9385939250433
 24
3245.8254599609509
 34
0.0
1001
ACAD
1000
DSTYLE
1002
{
1070
   288
1070
     1
1070
   172
1070
     1
1070
    40
1040
40.0
1070
   271
1070
     0
1070
   143
1040
0.039
1002
}
  0
LINE
  5
7C1D
  8
4
  6
CONTINUOUS
 10
7400.0
 20
2000.0
 30
0.0
 11
7400.0
 21
1200.0
 31
0.0
  0
LINE
  5
7C1E
  8
4
  6
CONTINUOUS
 10
4600.0
 20
2000.0
 30
0.0
 11
4600.0
 21
1200.0
 31
0.0
  0
LINE
  5
7C1F
  8
4
  6
CONTINUOUS
 10
2600.0
 20
2000.0
 30
0.0
 11
2600.0
 21
1200.0
 31
0.0
  0
LINE
  5
7C22
  8
4
  6
CONTINUOUS
 10
2600.0
 20
1200.0
 30
0.0
 11
7400.0
 21
1200.0
 31
0.0
  0
LINE
  5
7C23
  8
4
  6
CONTINUOUS
 10
2600.0
 20
1600.0
 30
0.0
 11
7400.0
 21
1600.0
 31
0.0
  0
TEXT
  5
7C24
  8
4
  6
CONTINUOUS
 10
2754.0083232000002
 20
1726.1721031999989
 30
0.0
 40
200.0
  1
機器名称
  0
TEXT
  5
7C25
  8
4
  6
CONTINUOUS
 10
2745.032424
 20
1286.5806264
 30
0.0
 40
200.0
  1
機器型番
  0
TEXT
  5
7C26
  8
4
  6
CONTINUOUS
 10
4710.7149823999989
 20
1690.2870751999999
 30
0.0
 40
168.88888879999999
  1
ミツヤリミットロードファン
  0
TEXT
  5
7C27
  8
4
  6
CONTINUOUS
 10
4746.6179824000001
 20
1268.6383367999999
 30
0.0
 40
200.0
  1
LLE#6-4
  0
TEXT
  5
7C29
  8
4
  6
CONTINUOUS
 10
3048.0429256000002
 20
9533.7153655999991
 30
0.0
 40
216.0
  1
床置防振ベット
  0
TEXT
  5
7C2A
  8
4
  6
CONTINUOUS
 10
1264.6703735999999
 20
10135.5239048
 30
0.0
 40
240.0
  1
ベルト駆動式片吸込両持排煙ファン
  0
LINE
  5
7C2B
  8
4
  6
CONTINUOUS
 10
1000.0
 20
9877.635016799999
 30
0.0
 11
7400.0
 21
9877.635016799999
 31
0.0
  0
LINE
  5
7C2C
  8
4
  6
CONTINUOUS
 10
1000.0
 20
10677.635016800001
 30
0.0
 11
7400.0
 21
10677.635016800001
 31
0.0
  0
LINE
  5
7C2D
  8
4
  6
CONTINUOUS
 10
2600.0
 20
2000.0
 30
0.0
 11
7400.0
 21
2000.0
 31
0.0
  0
LINE
  5
7C2E
  8
4
  6
CONTINUOUS
 10
1000.0
 20
10677.635016800001
 30
0.0
 11
1000.0
 21
9877.635016799999
 31
0.0
  0
TEXT
  5
7C2F
  8
4
  6
CONTINUOUS
 10
1304.6075968
 20
9529.2779104000001
 30
0.0
 40
216.0
  1
右回転左横向
  0
TEXT
  5
7C30
  8
4
  6
CONTINUOUS
 10
5875.8782375999999
 20
10824.244326399999
 30
0.0
 40
224.0
  1
No.
  0
TEXT
  5
7C31
  8
4
  6
CONTINUOUS
 10
5245.1842504000006
 20
9533.7153655999991
 30
0.0
 40
216.0
  1
縮尺：1/40
  0
LINE
  5
7C32
  8
4
  6
CONTINUOUS
 10
7400.0
 20
10677.635016800001
 30
0.0
 11
7400.0
 21
9877.635016799999
 31
0.0
  0
LINE
  5
7C34
  8
4
  6
CONTINUOUS
 10
5762.4696895999996
 20
10725.0543328
 30
0.0
 11
5762.4696895999996
 21
11146.609046400001
 31
0.0
  0
LINE
  5
7C35
  8
4
  6
CONTINUOUS
 10
5762.4696895999996
 20
11146.609046400001
 30
0.0
 11
7400.0
 21
11146.609046400001
 31
0.0
  0
LINE
  5
7C36
  8
4
  6
CONTINUOUS
 10
7400.0
 20
11146.609046400001
 30
0.0
 11
7400.0
 21
10725.0543328
 31
0.0
  0
LINE
  5
7C37
  8
4
  6
CONTINUOUS
 10
7400.0
 20
10725.0543328
 30
0.0
 11
5762.4696895999996
 21
10725.0543328
 31
0.0
  0
DIMENSION
  5
7C7A
  8
3
  6
CONTINUOUS
  2
*D18
 10
1745.7531701484261
 20
3465.8254599609518
 30
0.0
 11
1745.7531701484261
 21
4029.5869749609519
 31
0.0
 70
   128
 13
2325.4444841766672
 23
4539.8254599609509
 33
0.0
 14
2325.4444841766672
 24
3465.8254599609518
 34
0.0
 50
90.0
1001
ACAD
1000
DSTYLE
1002
{
1070
   287
1070
     3
1070
   287
1070
     3
1070
    40
1040
40.0
1070
   143
1040
0.039
1070
   172
1070
     1
1070
   271
1070
     0
1070
   279
1070
     0
1070
   288
1070
     1
1002
}
  0
DIMENSION
  5
7E3B
  8
3
  2
*D19
 10
4500.4444841766672
 20
5682.608150354954
 30
0.0
 11
3452.3944246412429
 21
5682.608150354954
 31
0.0
 70
   128
 13
2325.4444841766672
 23
4548.8254599609509
 33
0.0
 14
4500.4444841766672
 24
3454.8254599609518
 34
0.0
1001
ACAD
1000
DSTYLE
1002
{
1070
   287
1070
     3
1070
   287
1070
     3
1070
    40
1040
40.0
1070
   143
1040
0.039
1070
   172
1070
     1
1070
   271
1070
     0
1070
   279
1070
     0
1070
   288
1070
     1
1002
}
  0
ENDSEC
  0
EOF
