  0
SECTION
  2
HEADER
  9
$ACADVER
  1
AC1009
  9
$INSBASE
 10
0.0
 20
0.0
 30
0.0
  9
$EXTMIN
 10
1000.0
 20
1200.0
 30
0.0
  9
$EXTMAX
 10
7400.0
 20
11146.609046400001
 30
0.0
  9
$LIMMIN
 10
0.0
 20
0.0
  9
$LIMMAX
 10
297.0
 20
210.0
  9
$ORTHOMODE
 70
     0
  9
$REGENMODE
 70
     1
  9
$FILLMODE
 70
     0
  9
$QTEXTMODE
 70
     0
  9
$MIRRTEXT
 70
     1
  9
$DRAGMODE
 70
     2
  9
$LTSCALE
 40
100.0
  9
$OSMODE
 70
    37
  9
$ATTMODE
 70
     1
  9
$TEXTSIZE
 40
180.0
  9
$TRACEWID
 40
0.05
  9
$TEXTSTYLE
  7
STANDARD
  9
$CLAYER
  8
3
  9
$CELTYPE
  6
BYLAYER
  9
$CECOLOR
 62
   256
  9
$DIMSCALE
 40
40.0
  9
$DIMASZ
 40
2.0
  9
$DIMEXO
 40
0.5
  9
$DIMDLI
 40
10.0
  9
$DIMRND
 40
0.0
  9
$DIMDLE
 40
0.0
  9
$DIMEXE
 40
1.0
  9
$DIMTP
 40
1.0
  9
$DIMTM
 40
1.0
  9
$DIMTXT
 40
3.0
  9
$DIMCEN
 40
0.0
  9
$DIMTSZ
 40
0.0
  9
$DIMTOL
 70
     0
  9
$DIMLIM
 70
     0
  9
$DIMTIH
 70
     0
  9
$DIMTOH
 70
     0
  9
$DIMSE1
 70
     0
  9
$DIMSE2
 70
     0
  9
$DIMTAD
 70
     1
  9
$DIMZIN
 70
     8
  9
$DIMBLK
  1

  9
$DIMASO
 70
     1
  9
$DIMSHO
 70
     1
  9
$DIMPOST
  1

  9
$DIMAPOST
  1

  9
$DIMALT
 70
     0
  9
$DIMALTD
 70
     2
  9
$DIMALTF
 40
0.039
  9
$DIMLFAC
 40
1.0
  9
$DIMTOFL
 70
     1
  9
$DIMTVP
 40
0.0
  9
$DIMTIX
 70
     0
  9
$DIMSOXD
 70
     0
  9
$DIMSAH
 70
     1
  9
$DIMBLK1
  1
OPEN
  9
$DIMBLK2
  1
OPEN
  9
$DIMSTYLE
  2
IGA
  9
$DIMCLRD
 70
     0
  9
$DIMCLRE
 70
     0
  9
$DIMCLRT
 70
     0
  9
$DIMTFAC
 40
10.0
  9
$DIMGAP
 40
1.0
  9
$LUNITS
 70
     2
  9
$LUPREC
 70
     3
  9
$SKETCHINC
 40
0.1
  9
$FILLETRAD
 40
50.0
  9
$AUNITS
 70
     0
  9
$AUPREC
 70
     0
  9
$MENU
  1
acad
  9
$ELEVATION
 40
0.0
  9
$PELEVATION
 40
0.0
  9
$THICKNESS
 40
0.0
  9
$LIMCHECK
 70
     0
  9
$BLIPMODE
 70
     0
  9
$CHAMFERA
 40
0.5
  9
$CHAMFERB
 40
0.5
  9
$SKPOLY
 70
     0
  9
$TDCREATE
 40
2450751.5869061342
  9
$TDUPDATE
 40
2454953.6869542012
  9
$TDINDWG
 40
0.0046967593
  9
$TDUSRTIMER
 40
0.0046967593
  9
$USRTIMER
 70
     1
  9
$ANGBASE
 50
0.0
  9
$ANGDIR
 70
     0
  9
$PDMODE
 70
     0
  9
$PDSIZE
 40
0.0
  9
$PLINEWID
 40
0.0
  9
$COORDS
 70
     1
  9
$SPLFRAME
 70
     0
  9
$SPLINETYPE
 70
     6
  9
$SPLINESEGS
 70
     8
  9
$ATTDIA
 70
     0
  9
$ATTREQ
 70
     1
  9
$HANDLING
 70
 10241
  9
$HANDSEED
  5
7F56
  9
$SURFTAB1
 70
     6
  9
$SURFTAB2
 70
     6
  9
$SURFTYPE
 70
     6
  9
$SURFU
 70
     6
  9
$SURFV
 70
     6
  9
$UCSNAME
  2

  9
$UCSORG
 10
0.0
 20
0.0
 30
0.0
  9
$UCSXDIR
 10
1.0
 20
0.0
 30
0.0
  9
$UCSYDIR
 10
0.0
 20
1.0
 30
0.0
  9
$PUCSNAME
  2

  9
$PUCSORG
 10
0.0
 20
0.0
 30
0.0
  9
$PUCSXDIR
 10
1.0
 20
0.0
 30
0.0
  9
$PUCSYDIR
 10
0.0
 20
1.0
 30
0.0
  9
$USERI1
 70
     0
  9
$USERI2
 70
     0
  9
$USERI3
 70
     0
  9
$USERI4
 70
     0
  9
$USERI5
 70
     0
  9
$USERR1
 40
0.0
  9
$USERR2
 40
0.0
  9
$USERR3
 40
0.0
  9
$USERR4
 40
0.0
  9
$USERR5
 40
0.0
  9
$WORLDVIEW
 70
     1
  9
$SHADEDGE
 70
     3
  9
$SHADEDIF
 70
    70
  9
$TILEMODE
 70
     1
  9
$MAXACTVP
 70
    16
  9
$PLIMCHECK
 70
     0
  9
$PEXTMIN
 10
1.0000000000000000E+020
 20
1.0000000000000000E+020
 30
1.0000000000000000E+020
  9
$PEXTMAX
 10
-1.0000000000000000E+020
 20
-1.0000000000000000E+020
 30
-1.0000000000000000E+020
  9
$PLIMMIN
 10
0.0
 20
0.0
  9
$PLIMMAX
 10
12.0
 20
9.0
  9
$UNITMODE
 70
     0
  9
$VISRETAIN
 70
     0
  9
$PLINEGEN
 70
     0
  9
$PSLTSCALE
 70
     1
  0
ENDSEC
  0
SECTION
  2
TABLES
  0
TABLE
  2
VPORT
 70
     2
  0
VPORT
  2
*ACTIVE
 70
     0
 10
0.0
 20
0.0
 11
1.0
 21
1.0
 12
16620.027052450379
 22
6110.2675766278171
 13
0.0
 23
0.0
 14
10.0
 24
10.0
 15
10.0
 25
10.0
 16
0.0
 26
0.0
 36
1.0
 17
0.0
 27
0.0
 37
0.0
 40
13257.476963148891
 41
3.1666666666666661
 42
50.0
 43
0.0
 44
0.0
 50
0.0
 51
0.0
 71
     0
 72
   100
 73
     1
 74
     0
 75
     0
 76
     0
 77
     0
 78
     0
  0
ENDTAB
  0
TABLE
  2
LTYPE
 70
     2
  0
LTYPE
  2
CONTINUOUS
 70
     0
  3
Solid line
 72
    65
 73
     0
 40
0.0
  0
LTYPE
  2
CENTER
 70
     0
  3
____ _ ____ _ ____ _ ____ _ ____ _ ____ _ ____ 
 72
    65
 73
     4
 40
2.0
 49
1.25
 49
-0.25
 49
0.25
 49
-0.25
  0
ENDTAB
  0
TABLE
  2
LAYER
 70
     6
  0
LAYER
  2
0
 70
     0
 62
     7
  6
CONTINUOUS
  0
LAYER
  2
3
 70
     0
 62
     2
  6
CONTINUOUS
  0
LAYER
  2
2
 70
     0
 62
     3
  6
CENTER
  0
LAYER
  2
1
 70
     0
 62
     4
  6
CONTINUOUS
  0
LAYER
  2
4
 70
     0
 62
     7
  6
CONTINUOUS
  0
LAYER
  2
DEFPOINTS
 70
     0
 62
     7
  6
CONTINUOUS
  0
ENDTAB
  0
TABLE
  2
STYLE
 70
     1
  0
STYLE
  2
STANDARD
 70
     0
 40
0.0
 41
1.0
 50
0.0
 71
     0
 42
180.0
  3
simplex.shx
  4
extfont.shx
  0
ENDTAB
  0
TABLE
  2
VIEW
 70
     0
  0
ENDTAB
  0
TABLE
  2
UCS
 70
     0
  0
ENDTAB
  0
TABLE
  2
APPID
 70
     1
  0
APPID
  2
ACAD
 70
     0
  0
ENDTAB
  0
TABLE
  2
DIMSTYLE
 70
     1
  0
DIMSTYLE
  2
IGA
 70
     0
  3

  4

  5

  6
OPEN
  7
OPEN
 40
2.0
 41
2.0
 42
0.5
 43
10.0
 44
1.0
 45
0.0
 46
0.0
 47
1.0
 48
1.0
140
3.0
141
0.0
142
0.0
143
0.03937
144
1.0
145
0.0
146
10.0
147
1.0
 71
     0
 72
     0
 73
     0
 74
     0
 75
     0
 76
     0
 77
     1
 78
     8
170
     0
171
     2
172
     0
173
     1
174
     0
175
     0
176
     0
177
     0
178
     0
  0
ENDTAB
  0
ENDSEC
  0
SECTION
  2
BLOCKS
  0
BLOCK
  8
0
  2
$MODEL_SPACE
 70
     0
 10
0.0
 20
0.0
 30
0.0
  3
$MODEL_SPACE
  1

  0
ENDBLK
  5
1B
  8
0
  0
BLOCK
 67
     1
  8
0
  2
$PAPER_SPACE
 70
     0
 10
0.0
 20
0.0
 30
0.0
  3
$PAPER_SPACE
  1

  0
ENDBLK
  5
18
 67
     1
  8
0
  0
BLOCK
  8
0
  2
_OPEN
 70
     0
 10
0.0
 20
0.0
 30
0.0
  3
_OPEN
  1

  0
LINE
  5
7AE8
  8
0
  6
BYBLOCK
 62
     0
 10
-1.0
 20
0.166667
 30
0.0
 11
0.0
 21
0.0
 31
0.0
  0
LINE
  5
7AE9
  8
0
  6
BYBLOCK
 62
     0
 10
0.0
 20
0.0
 30
0.0
 11
-1.0
 21
-0.166667
 31
0.0
  0
LINE
  5
7AEA
  8
0
  6
BYBLOCK
 62
     0
 10
0.0
 20
0.0
 30
0.0
 11
-1.0
 21
0.0
 31
0.0
  0
ENDBLK
  5
7AEB
  8
0
  0
BLOCK
  8
0
  2
*D1
 70
     1
 10
0.0
 20
0.0
 30
0.0
  3
*D1
  1

  0
LINE
  5
7EB3
  8
3
  6
CONTINUOUS
 62
     0
 10
1306.1358060146699
 20
3150.9400009699848
 30
0.0
 11
1306.1358060146699
 21
2772.5139299699849
 31
0.0
  0
LINE
  5
7EB4
  8
3
  6
CONTINUOUS
 62
     0
 10
2801.1358060146699
 20
3093.9918249699849
 30
0.0
 11
2801.1358060146699
 21
2772.5139299699849
 31
0.0
  0
LINE
  5
7EB5
  8
3
  6
CONTINUOUS
 62
     0
 10
1386.1358060146699
 20
2812.513929969984
 30
0.0
 11
2721.1358060146699
 21
2812.513929969984
 31
0.0
  0
INSERT
  5
7EB6
  8
3
  6
CONTINUOUS
 62
     0
  2
_OPEN
 10
1306.1358060146699
 20
2812.513929969984
 30
0.0
 41
80.0
 42
80.0
 43
80.0
 50
180.0
  0
INSERT
  5
7EB7
  8
3
  6
CONTINUOUS
 62
     0
  2
_OPEN
 10
2801.1358060146699
 20
2812.513929969984
 30
0.0
 41
80.0
 42
80.0
 43
80.0
  0
TEXT
  8
3
  40
120
  5
7F45
  62
0
  72
0
  71
0
 10
1803.58
 20
2700.11
 30
0.000000
  1
1495
  0
POINT
  5
7EB9
  8
DEFPOINTS
  6
CONTINUOUS
 62
     0
 10
1306.1358060146699
 20
3170.9400009699839
 30
0.0
  0
POINT
  5
7EBA
  8
DEFPOINTS
  6
CONTINUOUS
 62
     0
 10
2801.1358060146699
 20
3113.9918249699849
 30
0.0
  0
POINT
  5
7EBB
  8
DEFPOINTS
  6
CONTINUOUS
 62
     0
 10
2801.1358060146699
 20
2812.513929969984
 30
0.0
  0
ENDBLK
  5
7D24
  8
0
  0
BLOCK
  8
0
  2
*D2
 70
     1
 10
0.0
 20
0.0
 30
0.0
  3
*D2
  1

  0
LINE
  5
7EBC
  8
3
  6
CONTINUOUS
 62
     0
 10
2801.1358060146699
 20
3093.9918249699849
 30
0.0
 11
2801.1358060146699
 21
2772.5139299699849
 31
0.0
  0
LINE
  5
7EBD
  8
3
  6
CONTINUOUS
 62
     0
 10
3426.1358060146699
 20
3150.9400009699848
 30
0.0
 11
3426.1358060146699
 21
2772.5139299699849
 31
0.0
  0
LINE
  5
7EBE
  8
3
  6
CONTINUOUS
 62
     0
 10
2881.1358060146699
 20
2812.513929969984
 30
0.0
 11
3346.1358060146699
 21
2812.513929969984
 31
0.0
  0
INSERT
  5
7EBF
  8
3
  6
CONTINUOUS
 62
     0
  2
_OPEN
 10
2801.1358060146699
 20
2812.513929969984
 30
0.0
 41
80.0
 42
80.0
 43
80.0
 50
180.0
  0
INSERT
  5
7EC0
  8
3
  6
CONTINUOUS
 62
     0
  2
_OPEN
 10
3426.1358060146699
 20
2812.513929969984
 30
0.0
 41
80.0
 42
80.0
 43
80.0
  0
TEXT
  8
3
  40
120
  5
7F46
  62
0
  72
0
  71
0
 10
2873.64
 20
2700.11
 30
0.000000
  1
625
  0
POINT
  5
7EC2
  8
DEFPOINTS
  6
CONTINUOUS
 62
     0
 10
2801.1358060146699
 20
3113.9918249699849
 30
0.0
  0
POINT
  5
7EC3
  8
DEFPOINTS
  6
CONTINUOUS
 62
     0
 10
3426.1358060146699
 20
3170.9400009699839
 30
0.0
  0
POINT
  5
7EC4
  8
DEFPOINTS
  6
CONTINUOUS
 62
     0
 10
3426.1358060146699
 20
2812.513929969984
 30
0.0
  0
ENDBLK
  5
7D19
  8
0
  0
BLOCK
  8
0
  2
*D3
 70
     1
 10
0.0
 20
0.0
 30
0.0
  3
*D3
  1

  0
LINE
  5
7EC5
  8
3
  6
CONTINUOUS
 62
     0
 10
1727.1358060146699
 20
4849.9400009699848
 30
0.0
 11
1727.1358060146699
 21
5168.0471859699846
 31
0.0
  0
LINE
  5
7EC6
  8
3
  6
CONTINUOUS
 62
     0
 10
2757.1358060146699
 20
4849.9400009699848
 30
0.0
 11
2757.1358060146699
 21
5168.0471859699846
 31
0.0
  0
LINE
  5
7EC7
  8
3
  6
CONTINUOUS
 62
     0
 10
1807.1358060146699
 20
5128.0471859699855
 30
0.0
 11
2677.1358060146699
 21
5128.0471859699855
 31
0.0
  0
INSERT
  5
7EC8
  8
3
  6
CONTINUOUS
 62
     0
  2
_OPEN
 10
1727.1358060146699
 20
5128.0471859699855
 30
0.0
 41
80.0
 42
80.0
 43
80.0
 50
180.0
  0
INSERT
  5
7EC9
  8
3
  6
CONTINUOUS
 62
     0
  2
_OPEN
 10
2757.1358060146699
 20
5128.0471859699855
 30
0.0
 41
80.0
 42
80.0
 43
80.0
  0
TEXT
  8
3
  40
120
  5
7F47
  62
0
  72
0
  71
0
 10
1994.21
 20
5015.65
 30
0.000000
  1
1030
  0
POINT
  5
7ECB
  8
DEFPOINTS
  6
CONTINUOUS
 62
     0
 10
1727.1358060146699
 20
4829.9400009699848
 30
0.0
  0
POINT
  5
7ECC
  8
DEFPOINTS
  6
CONTINUOUS
 62
     0
 10
2757.1358060146699
 20
4829.9400009699848
 30
0.0
  0
POINT
  5
7ECD
  8
DEFPOINTS
  6
CONTINUOUS
 62
     0
 10
2757.1358060146699
 20
5128.0471859699855
 30
0.0
  0
ENDBLK
  5
7D0E
  8
0
  0
BLOCK
  8
0
  2
*D4
 70
     1
 10
0.0
 20
0.0
 30
0.0
  3
*D4
  1

  0
LINE
  5
7ECE
  8
3
  6
CONTINUOUS
 62
     0
 10
1727.1358060146699
 20
4849.9400009699848
 30
0.0
 11
1727.1358060146699
 21
5413.9599819699843
 31
0.0
  0
LINE
  5
7ECF
  8
3
  6
CONTINUOUS
 62
     0
 10
2801.1358060146699
 20
4765.234737969985
 30
0.0
 11
2801.1358060146699
 21
5413.9599819699843
 31
0.0
  0
LINE
  5
7ED0
  8
3
  6
CONTINUOUS
 62
     0
 10
1807.1358060146699
 20
5373.9599819699843
 30
0.0
 11
2721.1358060146699
 21
5373.9599819699843
 31
0.0
  0
INSERT
  5
7ED1
  8
3
  6
CONTINUOUS
 62
     0
  2
_OPEN
 10
1727.1358060146699
 20
5373.9599819699843
 30
0.0
 41
80.0
 42
80.0
 43
80.0
 50
180.0
  0
INSERT
  5
7ED2
  8
3
  6
CONTINUOUS
 62
     0
  2
_OPEN
 10
2801.1358060146699
 20
5373.9599819699843
 30
0.0
 41
80.0
 42
80.0
 43
80.0
  0
TEXT
  8
3
  40
120
  5
7F48
  62
0
  72
0
  71
0
 10
2065.02
 20
5261.56
 30
0.000000
  1
1074
  0
POINT
  5
7ED4
  8
DEFPOINTS
  6
CONTINUOUS
 62
     0
 10
1727.1358060146699
 20
4829.9400009699848
 30
0.0
  0
POINT
  5
7ED5
  8
DEFPOINTS
  6
CONTINUOUS
 62
     0
 10
2801.1358060146699
 20
4745.234737969985
 30
0.0
  0
POINT
  5
7ED6
  8
DEFPOINTS
  6
CONTINUOUS
 62
     0
 10
2801.1358060146699
 20
5373.9599819699843
 30
0.0
  0
ENDBLK
  5
7D03
  8
0
  0
BLOCK
  8
0
  2
*D5
 70
     1
 10
0.0
 20
0.0
 30
0.0
  3
*D5
  1

  0
LINE
  5
7ED7
  8
3
  6
CONTINUOUS
 62
     0
 10
2801.1358060146699
 20
4765.234737969985
 30
0.0
 11
2801.1358060146699
 21
5413.9599819699843
 31
0.0
  0
LINE
  5
7ED8
  8
3
  6
CONTINUOUS
 62
     0
 10
3521.1358060146708
 20
4169.9400009699848
 30
0.0
 11
3521.1358060146708
 21
5413.9599819699843
 31
0.0
  0
LINE
  5
7ED9
  8
3
  6
CONTINUOUS
 62
     0
 10
2881.1358060146699
 20
5373.9599819699843
 30
0.0
 11
3441.1358060146699
 21
5373.9599819699843
 31
0.0
  0
INSERT
  5
7EDA
  8
3
  6
CONTINUOUS
 62
     0
  2
_OPEN
 10
2801.1358060146699
 20
5373.9599819699843
 30
0.0
 41
80.0
 42
80.0
 43
80.0
 50
180.0
  0
INSERT
  5
7EDB
  8
3
  6
CONTINUOUS
 62
     0
  2
_OPEN
 10
3521.1358060146708
 20
5373.9599819699843
 30
0.0
 41
80.0
 42
80.0
 43
80.0
  0
TEXT
  8
3
  40
120
  5
7F49
  62
0
  72
0
  71
0
 10
2921.14
 20
5261.56
 30
0.000000
  1
720
  0
POINT
  5
7EDD
  8
DEFPOINTS
  6
CONTINUOUS
 62
     0
 10
2801.1358060146699
 20
4745.234737969985
 30
0.0
  0
POINT
  5
7EDE
  8
DEFPOINTS
  6
CONTINUOUS
 62
     0
 10
3521.1358060146708
 20
4149.9400009699839
 30
0.0
  0
POINT
  5
7EDF
  8
DEFPOINTS
  6
CONTINUOUS
 62
     0
 10
3521.1358060146708
 20
5373.9599819699843
 30
0.0
  0
ENDBLK
  5
7D88
  8
0
  0
BLOCK
  8
0
  2
*D6
 70
     1
 10
0.0
 20
0.0
 30
0.0
  3
*D6
  1

  0
LINE
  5
7EE0
  8
3
  6
CONTINUOUS
 62
     0
 10
2830.1358060146699
 20
4829.9400009699848
 30
0.0
 11
3951.7491940146701
 21
4829.9400009699848
 31
0.0
  0
LINE
  5
7EE1
  8
3
  6
CONTINUOUS
 62
     0
 10
3657.7819930146711
 20
4149.9400009699839
 30
0.0
 11
3951.7491940146701
 21
4149.9400009699839
 31
0.0
  0
LINE
  5
7EE2
  8
3
  6
CONTINUOUS
 62
     0
 10
3911.749194014671
 20
4749.9400009699839
 30
0.0
 11
3911.749194014671
 21
4229.9400009699848
 31
0.0
  0
INSERT
  5
7EE3
  8
3
  6
CONTINUOUS
 62
     0
  2
_OPEN
 10
3911.749194014671
 20
4829.9400009699848
 30
0.0
 41
80.0
 42
80.0
 43
80.0
 50
90.0
  0
INSERT
  5
7EE4
  8
3
  6
CONTINUOUS
 62
     0
  2
_OPEN
 10
3911.749194014671
 20
4149.9400009699839
 30
0.0
 41
80.0
 42
80.0
 43
80.0
 50
270.0
  0
TEXT
  8
3
  40
120
  5
7F4A
  62
0
  72
0
  71
0
 10
3571.75
 20
4343.25
 30
0.000000
  1
680
  0
POINT
  5
7EE6
  8
DEFPOINTS
  6
CONTINUOUS
 62
     0
 10
2810.1358060146699
 20
4829.9400009699848
 30
0.0
  0
POINT
  5
7EE7
  8
DEFPOINTS
  6
CONTINUOUS
 62
     0
 10
3637.7819930146702
 20
4149.9400009699839
 30
0.0
  0
POINT
  5
7EE8
  8
DEFPOINTS
  6
CONTINUOUS
 62
     0
 10
3911.749194014671
 20
4149.9400009699839
 30
0.0
  0
ENDBLK
  5
7D9E
  8
0
  0
BLOCK
  8
0
  2
*D7
 70
     1
 10
0.0
 20
0.0
 30
0.0
  3
*D7
  1

  0
LINE
  5
7EE9
  8
3
  6
CONTINUOUS
 62
     0
 10
3657.7819930146711
 20
4149.9400009699839
 30
0.0
 11
3951.7491940146701
 21
4149.9400009699839
 31
0.0
  0
LINE
  5
7EEA
  8
3
  6
CONTINUOUS
 62
     0
 10
3446.1358060146699
 20
3254.9400009699848
 30
0.0
 11
3951.7491940146701
 21
3254.9400009699848
 31
0.0
  0
LINE
  5
7EEB
  8
3
  6
CONTINUOUS
 62
     0
 10
3911.7491940146688
 20
4069.9400009699839
 30
0.0
 11
3911.7491940146688
 21
3334.9400009699839
 31
0.0
  0
INSERT
  5
7EEC
  8
3
  6
CONTINUOUS
 62
     0
  2
_OPEN
 10
3911.7491940146688
 20
4149.9400009699839
 30
0.0
 41
80.0
 42
80.0
 43
80.0
 50
90.0
  0
INSERT
  5
7EED
  8
3
  6
CONTINUOUS
 62
     0
  2
_OPEN
 10
3911.7491940146688
 20
3254.9400009699848
 30
0.0
 41
80.0
 42
80.0
 43
80.0
 50
270.0
  0
TEXT
  8
3
  40
120
  5
7F4B
  62
0
  72
0
  71
0
 10
3571.75
 20
3490.04
 30
0.000000
  1
895
  0
POINT
  5
7EEF
  8
DEFPOINTS
  6
CONTINUOUS
 62
     0
 10
3637.7819930146702
 20
4149.9400009699839
 30
0.0
  0
POINT
  5
7EF0
  8
DEFPOINTS
  6
CONTINUOUS
 62
     0
 10
3426.1358060146699
 20
3254.9400009699848
 30
0.0
  0
POINT
  5
7EF1
  8
DEFPOINTS
  6
CONTINUOUS
 62
     0
 10
3911.7491940146688
 20
3254.9400009699848
 30
0.0
  0
ENDBLK
  5
7D93
  8
0
  0
BLOCK
  8
0
  2
*D8
 70
     1
 10
0.0
 20
0.0
 30
0.0
  3
*D8
  1

  0
LINE
  5
7EF2
  8
3
  6
CONTINUOUS
 62
     0
 10
3446.1358060146699
 20
3254.9400009699848
 30
0.0
 11
3951.749194014671
 21
3254.9400009699848
 31
0.0
  0
LINE
  5
7EF3
  8
3
  6
CONTINUOUS
 62
     0
 10
3446.1358060146699
 20
3170.9400009699839
 30
0.0
 11
3951.749194014671
 21
3170.9400009699839
 31
0.0
  0
LINE
  5
7EF4
  8
3
  6
CONTINUOUS
 62
     0
 10
3911.749194014671
 20
3334.9400009699839
 30
0.0
 11
3911.749194014671
 21
3414.9400009699839
 31
0.0
  0
LINE
  5
7EF5
  8
3
  6
CONTINUOUS
 62
     0
 10
3911.749194014671
 20
3090.9400009699839
 30
0.0
 11
3911.749194014671
 21
2730.9400009699848
 31
0.0
  0
LINE
  5
7EF6
  8
3
  6
CONTINUOUS
 62
     0
 10
3911.749194014671
 20
3254.9400009699848
 30
0.0
 11
3911.749194014671
 21
3170.9400009699839
 31
0.0
  0
INSERT
  5
7EF7
  8
3
  6
CONTINUOUS
 62
     0
  2
_OPEN
 10
3911.749194014671
 20
3254.9400009699848
 30
0.0
 41
80.0
 42
80.0
 43
80.0
 50
270.0
  0
INSERT
  5
7EF8
  8
3
  6
CONTINUOUS
 62
     0
  2
_OPEN
 10
3911.749194014671
 20
3170.9400009699839
 30
0.0
 41
80.0
 42
80.0
 43
80.0
 50
90.0
  0
TEXT
  8
3
  40
120
  5
7F4C
  62
0
  72
0
  71
0
 10
3571.75
 20
2658.54
 30
0.000000
  1
84
  0
POINT
  5
7EFA
  8
DEFPOINTS
  6
CONTINUOUS
 62
     0
 10
3426.1358060146699
 20
3254.9400009699848
 30
0.0
  0
POINT
  5
7EFB
  8
DEFPOINTS
  6
CONTINUOUS
 62
     0
 10
3426.1358060146699
 20
3170.9400009699839
 30
0.0
  0
POINT
  5
7EFC
  8
DEFPOINTS
  6
CONTINUOUS
 62
     0
 10
3911.749194014671
 20
3170.9400009699839
 30
0.0
  0
ENDBLK
  5
7CD7
  8
0
  0
BLOCK
  8
0
  2
*D9
 70
     1
 10
0.0
 20
0.0
 30
0.0
  3
*D9
  1

  0
LINE
  5
7EFD
  8
3
  6
CONTINUOUS
 62
     0
 10
2830.1358060146699
 20
4829.9400009699848
 30
0.0
 11
4278.5424200146699
 21
4829.9400009699848
 31
0.0
  0
LINE
  5
7EFE
  8
3
  6
CONTINUOUS
 62
     0
 10
3446.1358060146699
 20
3170.9400009699839
 30
0.0
 11
4278.5424200146699
 21
3170.9400009699839
 31
0.0
  0
LINE
  5
7EFF
  8
3
  6
CONTINUOUS
 62
     0
 10
4238.5424200146699
 20
4749.9400009699839
 30
0.0
 11
4238.5424200146699
 21
3250.9400009699839
 31
0.0
  0
INSERT
  5
7F00
  8
3
  6
CONTINUOUS
 62
     0
  2
_OPEN
 10
4238.5424200146699
 20
4829.9400009699848
 30
0.0
 41
80.0
 42
80.0
 43
80.0
 50
90.0
  0
INSERT
  5
7F01
  8
3
  6
CONTINUOUS
 62
     0
  2
_OPEN
 10
4238.5424200146699
 20
3170.9400009699839
 30
0.0
 41
80.0
 42
80.0
 43
80.0
 50
270.0
  0
TEXT
  8
3
  40
120
  5
7F4D
  62
0
  72
0
  71
0
 10
3898.54
 20
3679.53
 30
0.000000
  1
1659
  0
POINT
  5
7F03
  8
DEFPOINTS
  6
CONTINUOUS
 62
     0
 10
2810.1358060146699
 20
4829.9400009699848
 30
0.0
  0
POINT
  5
7F04
  8
DEFPOINTS
  6
CONTINUOUS
 62
     0
 10
3426.1358060146699
 20
3170.9400009699839
 30
0.0
  0
POINT
  5
7F05
  8
DEFPOINTS
  6
CONTINUOUS
 62
     0
 10
4238.5424200146699
 20
3170.9400009699839
 30
0.0
  0
ENDBLK
  5
7CCA
  8
0
  0
BLOCK
  8
0
  2
*D10
 70
     1
 10
0.0
 20
0.0
 30
0.0
  3
*D10
  1

  0
LINE
  5
7F06
  8
3
  6
CONTINUOUS
 62
     0
 10
1306.1358060146699
 20
7475.523695969986
 30
0.0
 11
1306.1358060146699
 21
7028.9277019699848
 31
0.0
  0
LINE
  5
7F07
  8
3
  6
CONTINUOUS
 62
     0
 10
3426.1358060146699
 20
7475.523695969986
 30
0.0
 11
3426.1358060146699
 21
7028.9277019699848
 31
0.0
  0
LINE
  5
7F08
  8
3
  6
CONTINUOUS
 62
     0
 10
1386.1358060146699
 20
7068.9277019699857
 30
0.0
 11
3346.1358060146699
 21
7068.9277019699857
 31
0.0
  0
INSERT
  5
7F09
  8
3
  6
CONTINUOUS
 62
     0
  2
_OPEN
 10
1306.1358060146699
 20
7068.9277019699857
 30
0.0
 41
80.0
 42
80.0
 43
80.0
 50
180.0
  0
INSERT
  5
7F0A
  8
3
  6
CONTINUOUS
 62
     0
  2
_OPEN
 10
3426.1358060146699
 20
7068.9277019699857
 30
0.0
 41
80.0
 42
80.0
 43
80.0
  0
TEXT
  8
3
  40
120
  5
7F4E
  62
0
  72
0
  71
0
 10
2124.93
 20
6956.53
 30
0.000000
  1
2120
  0
POINT
  5
7F0C
  8
DEFPOINTS
  6
CONTINUOUS
 62
     0
 10
1306.1358060146699
 20
7495.5236959699851
 30
0.0
  0
POINT
  5
7F0D
  8
DEFPOINTS
  6
CONTINUOUS
 62
     0
 10
3426.1358060146699
 20
7495.5236959699851
 30
0.0
  0
POINT
  5
7F0E
  8
DEFPOINTS
  6
CONTINUOUS
 62
     0
 10
3426.1358060146699
 20
7068.9277019699857
 30
0.0
  0
ENDBLK
  5
7CBF
  8
0
  0
BLOCK
  8
0
  2
*D11
 70
     1
 10
0.0
 20
0.0
 30
0.0
  3
*D11
  1

  0
LINE
  5
7F0F
  8
3
  6
CONTINUOUS
 62
     0
 10
3446.1358060146699
 20
8555.5236959699869
 30
0.0
 11
3946.3026400146709
 21
8555.5236959699869
 31
0.0
  0
LINE
  5
7F10
  8
3
  6
CONTINUOUS
 62
     0
 10
3446.1358060146699
 20
7495.5236959699851
 30
0.0
 11
3946.3026400146709
 21
7495.5236959699851
 31
0.0
  0
LINE
  5
7F11
  8
3
  6
CONTINUOUS
 62
     0
 10
3906.3026400146719
 20
8475.5236959699869
 30
0.0
 11
3906.3026400146719
 21
7575.523695969986
 31
0.0
  0
INSERT
  5
7F12
  8
3
  6
CONTINUOUS
 62
     0
  2
_OPEN
 10
3906.3026400146719
 20
8555.5236959699869
 30
0.0
 41
80.0
 42
80.0
 43
80.0
 50
90.0
  0
INSERT
  5
7F13
  8
3
  6
CONTINUOUS
 62
     0
  2
_OPEN
 10
3906.3026400146719
 20
7495.5236959699851
 30
0.0
 41
80.0
 42
80.0
 43
80.0
 50
270.0
  0
TEXT
  8
3
  40
120
  5
7F4F
  62
0
  72
0
  71
0
 10
3566.30
 20
7808.65
 30
0.000000
  1
1060
  0
POINT
  5
7F15
  8
DEFPOINTS
  6
CONTINUOUS
 62
     0
 10
3426.1358060146699
 20
8555.5236959699869
 30
0.0
  0
POINT
  5
7F16
  8
DEFPOINTS
  6
CONTINUOUS
 62
     0
 10
3426.1358060146699
 20
7495.5236959699851
 30
0.0
  0
POINT
  5
7F17
  8
DEFPOINTS
  6
CONTINUOUS
 62
     0
 10
3906.3026400146719
 20
7495.5236959699851
 30
0.0
  0
ENDBLK
  5
7CB4
  8
0
  0
BLOCK
  8
0
  2
*D12
 70
     1
 10
0.0
 20
0.0
 30
0.0
  3
*D12
  1

  0
LINE
  5
7F18
  8
3
  6
CONTINUOUS
 62
     0
 10
6532.3752324024117
 20
4649.9400009699839
 30
0.0
 11
6928.5587834024118
 21
4649.9400009699839
 31
0.0
  0
LINE
  5
7F19
  8
3
  6
CONTINUOUS
 62
     0
 10
6532.3752324024117
 20
3649.9400009699839
 30
0.0
 11
6928.5587834024118
 21
3649.9400009699839
 31
0.0
  0
LINE
  5
7F1A
  8
3
  6
CONTINUOUS
 62
     0
 10
6888.5587834024109
 20
4569.9400009699839
 30
0.0
 11
6888.5587834024109
 21
3729.9400009699848
 31
0.0
  0
INSERT
  5
7F1B
  8
3
  6
CONTINUOUS
 62
     0
  2
_OPEN
 10
6888.5587834024109
 20
4649.9400009699839
 30
0.0
 41
80.0
 42
80.0
 43
80.0
 50
90.0
  0
INSERT
  5
7F1C
  8
3
  6
CONTINUOUS
 62
     0
  2
_OPEN
 10
6888.5587834024109
 20
3649.9400009699839
 30
0.0
 41
80.0
 42
80.0
 43
80.0
 50
270.0
  0
TEXT
  8
3
  40
120
  5
7F50
  62
0
  72
0
  71
0
 10
6548.56
 20
3973.36
 30
0.000000
  1
φ1000
  0
POINT
  5
7F1E
  8
DEFPOINTS
  6
CONTINUOUS
 62
     0
 10
6512.3752324024108
 20
4649.9400009699839
 30
0.0
  0
POINT
  5
7F1F
  8
DEFPOINTS
  6
CONTINUOUS
 62
     0
 10
6512.3752324024108
 20
3649.9400009699839
 30
0.0
  0
POINT
  5
7F20
  8
DEFPOINTS
  6
CONTINUOUS
 62
     0
 10
6888.5587834024109
 20
3649.9400009699839
 30
0.0
  0
ENDBLK
  5
7D5B
  8
0
  0
BLOCK
  8
0
  2
*D13
 70
     1
 10
0.0
 20
0.0
 30
0.0
  3
*D13
  1

  0
LINE
  5
7F21
  8
3
  6
CONTINUOUS
 62
     0
 10
5659.3752324024099
 20
4849.9400009699848
 30
0.0
 11
5659.3752324024099
 21
5015.7362859699851
 31
0.0
  0
LINE
  5
7F22
  8
3
  6
CONTINUOUS
 62
     0
 10
6409.3752324024099
 20
4849.9400009699848
 30
0.0
 11
6409.3752324024099
 21
5015.7362859699851
 31
0.0
  0
LINE
  5
7F23
  8
3
  6
CONTINUOUS
 62
     0
 10
5739.3752324024099
 20
4975.7362859699851
 30
0.0
 11
6329.3752324024108
 21
4975.7362859699851
 31
0.0
  0
INSERT
  5
7F24
  8
3
  6
CONTINUOUS
 62
     0
  2
_OPEN
 10
5659.3752324024099
 20
4975.7362859699851
 30
0.0
 41
80.0
 42
80.0
 43
80.0
 50
180.0
  0
INSERT
  5
7F25
  8
3
  6
CONTINUOUS
 62
     0
  2
_OPEN
 10
6409.3752324024099
 20
4975.7362859699851
 30
0.0
 41
80.0
 42
80.0
 43
80.0
  0
TEXT
  8
3
  40
120
  5
7F51
  62
0
  72
0
  71
0
 10
5693.66
 20
4863.34
 30
0.000000
  1
750
  0
POINT
  5
7F27
  8
DEFPOINTS
  6
CONTINUOUS
 62
     0
 10
5659.3752324024099
 20
4829.9400009699848
 30
0.0
  0
POINT
  5
7F28
  8
DEFPOINTS
  6
CONTINUOUS
 62
     0
 10
6409.3752324024099
 20
4829.9400009699848
 30
0.0
  0
POINT
  5
7F29
  8
DEFPOINTS
  6
CONTINUOUS
 62
     0
 10
6409.3752324024099
 20
4975.7362859699851
 30
0.0
  0
ENDBLK
  5
7C9E
  8
0
  0
BLOCK
  8
0
  2
*D14
 70
     1
 10
0.0
 20
0.0
 30
0.0
  3
*D14
  1

  0
LINE
  5
7F2A
  8
3
  6
CONTINUOUS
 62
     0
 10
5354.3752324024108
 20
4436.6400009699864
 30
0.0
 11
5354.3752324024108
 21
5293.7518319699839
 31
0.0
  0
LINE
  5
7F2B
  8
3
  6
CONTINUOUS
 62
     0
 10
6034.3752324024099
 20
5201.8306329699853
 30
0.0
 11
6034.3752324024099
 21
5293.7518319699839
 31
0.0
  0
LINE
  5
7F2C
  8
3
  6
CONTINUOUS
 62
     0
 10
5434.3752324024108
 20
5253.7518319699848
 30
0.0
 11
5954.3752324024108
 21
5253.7518319699848
 31
0.0
  0
INSERT
  5
7F2D
  8
3
  6
CONTINUOUS
 62
     0
  2
_OPEN
 10
5354.3752324024108
 20
5253.7518319699848
 30
0.0
 41
80.0
 42
80.0
 43
80.0
 50
180.0
  0
INSERT
  5
7F2E
  8
3
  6
CONTINUOUS
 62
     0
  2
_OPEN
 10
6034.3752324024099
 20
5253.7518319699848
 30
0.0
 41
80.0
 42
80.0
 43
80.0
  0
TEXT
  8
3
  40
120
  5
7F52
  62
0
  72
0
  71
0
 10
5502.95
 20
5241.35
 30
0.000000
  1
MAX
  0
TEXT
  8
3
  40
120
  5
7F53
  62
0
  72
0
  71
0
 10
5502.95
 20
5085.35
 30
0.000000
  1
770
  0
POINT
  5
7F30
  8
DEFPOINTS
  6
CONTINUOUS
 62
     0
 10
5354.3752324024108
 20
4416.6400009699846
 30
0.0
  0
POINT
  5
7F31
  8
DEFPOINTS
  6
CONTINUOUS
 62
     0
 10
6034.3752324024099
 20
5181.8306329699853
 30
0.0
  0
POINT
  5
7F32
  8
DEFPOINTS
  6
CONTINUOUS
 62
     0
 10
6034.3752324024099
 20
5253.7518319699848
 30
0.0
  0
ENDBLK
  5
7D66
  8
0
  0
BLOCK
  8
0
  2
*D15
 70
     1
 10
0.0
 20
0.0
 30
0.0
  3
*D15
  1

  0
LINE
  5
7D3C
  8
0
  6
BYBLOCK
 62
     0
 10
6034.3752324024099
 20
5201.8306329699853
 30
0.0
 11
6034.3752324024099
 21
5293.7518319699839
 31
0.0
  0
LINE
  5
7D3D
  8
0
  6
BYBLOCK
 62
     0
 10
6512.3752324024108
 20
4719.9400009699848
 30
0.0
 11
6512.3752324024108
 21
5293.7518319699839
 31
0.0
  0
LINE
  5
7D3E
  8
0
  6
BYBLOCK
 62
     0
 10
6114.3752324024099
 20
5253.7518319699848
 30
0.0
 11
6432.3752324024108
 21
5253.7518319699848
 31
0.0
  0
TEXT
  5
7D3F
  8
3
 62
     0
 10
6119.0895181166961
 20
5302.0250361836625
 30
0.0
 40
120.0
  1
478
  0
INSERT
  5
7D40
  8
0
  6
BYBLOCK
 62
     0
  2
_OPEN
 10
6034.3752324024099
 20
5253.7518319699848
 30
0.0
 41
80.0
 42
80.0
 43
80.0
 50
180.0
  0
INSERT
  5
7D41
  8
0
  6
BYBLOCK
 62
     0
  2
_OPEN
 10
6512.3752324024108
 20
5253.7518319699848
 30
0.0
 41
80.0
 42
80.0
 43
80.0
  0
POINT
  5
7D42
  8
DEFPOINTS
  6
BYBLOCK
 62
     0
 10
6034.3752324024099
 20
5181.8306329699853
 30
0.0
  0
POINT
  5
7D43
  8
DEFPOINTS
  6
BYBLOCK
 62
     0
 10
6512.3752324024108
 20
4699.9400009699839
 30
0.0
  0
POINT
  5
7D44
  8
DEFPOINTS
  6
BYBLOCK
 62
     0
 10
6512.3752324024108
 20
5253.7518319699848
 30
0.0
  0
ENDBLK
  5
7D45
  8
0
  0
BLOCK
  8
0
  2
*D16
 70
     1
 10
0.0
 20
0.0
 30
0.0
  3
*D16
  1

  0
LINE
  5
7F33
  8
3
  6
CONTINUOUS
 62
     0
 10
5417.3752324024099
 20
3150.9400009699848
 30
0.0
 11
5417.3752324024099
 21
2763.2643818175261
 31
0.0
  0
LINE
  5
7F34
  8
3
  6
CONTINUOUS
 62
     0
 10
6034.3752324024099
 20
3031.6142533873581
 30
0.0
 11
6034.3752324024099
 21
2763.2643818175261
 31
0.0
  0
LINE
  5
7F35
  8
3
  6
CONTINUOUS
 62
     0
 10
5497.3752324024108
 20
2803.2643818175261
 30
0.0
 11
5954.3752324024108
 21
2803.2643818175261
 31
0.0
  0
INSERT
  5
7F36
  8
3
  6
CONTINUOUS
 62
     0
  2
_OPEN
 10
5417.3752324024099
 20
2803.2643818175261
 30
0.0
 41
80.0
 42
80.0
 43
80.0
 50
180.0
  0
INSERT
  5
7F37
  8
3
  6
CONTINUOUS
 62
     0
  2
_OPEN
 10
6034.3752324024099
 20
2803.2643818175261
 30
0.0
 41
80.0
 42
80.0
 43
80.0
  0
TEXT
  8
3
  40
120
  5
7F54
  62
0
  72
0
  71
0
 10
5531.52
 20
2690.86
 30
0.000000
  1
617
  0
POINT
  5
7F39
  8
DEFPOINTS
  6
CONTINUOUS
 62
     0
 10
5417.3752324024099
 20
3170.9400009699839
 30
0.0
  0
POINT
  5
7F3A
  8
DEFPOINTS
  6
CONTINUOUS
 62
     0
 10
6034.3752324024099
 20
3051.6142533873581
 30
0.0
  0
POINT
  5
7F3B
  8
DEFPOINTS
  6
CONTINUOUS
 62
     0
 10
6034.3752324024099
 20
2803.2643818175261
 30
0.0
  0
ENDBLK
  5
7DB6
  8
0
  0
BLOCK
  8
0
  2
*D17
 70
     1
 10
0.0
 20
0.0
 30
0.0
  3
*D17
  1

  0
LINE
  5
7DB8
  8
0
  6
BYBLOCK
 62
     0
 10
6034.3752324024099
 20
3031.6142533873581
 30
0.0
 11
6034.3752324024099
 21
2762.7230858175271
 31
0.0
  0
LINE
  5
7DB9
  8
0
  6
BYBLOCK
 62
     0
 10
6477.3752324024117
 20
3150.9400009699848
 30
0.0
 11
6477.3752324024117
 21
2762.7230858175271
 31
0.0
  0
LINE
  5
7DBA
  8
0
  6
BYBLOCK
 62
     0
 10
6114.3752324024099
 20
2802.7230858175271
 30
0.0
 11
6397.3752324024108
 21
2802.7230858175271
 31
0.0
  0
TEXT
  5
7DBB
  8
3
 62
     0
 10
6101.5895181166961
 20
2845.314702424253
 30
0.0
 40
120.0
  1
443
  0
INSERT
  5
7DBC
  8
0
  6
BYBLOCK
 62
     0
  2
_OPEN
 10
6034.3752324024099
 20
2802.7230858175271
 30
0.0
 41
80.0
 42
80.0
 43
80.0
 50
180.0
  0
INSERT
  5
7DBD
  8
0
  6
BYBLOCK
 62
     0
  2
_OPEN
 10
6477.3752324024117
 20
2802.7230858175271
 30
0.0
 41
80.0
 42
80.0
 43
80.0
  0
POINT
  5
7DBE
  8
DEFPOINTS
  6
BYBLOCK
 62
     0
 10
6034.3752324024099
 20
3051.6142533873581
 30
0.0
  0
POINT
  5
7DBF
  8
DEFPOINTS
  6
BYBLOCK
 62
     0
 10
6477.3752324024117
 20
3170.9400009699839
 30
0.0
  0
POINT
  5
7DC0
  8
DEFPOINTS
  6
BYBLOCK
 62
     0
 10
6477.3752324024117
 20
2802.7230858175271
 30
0.0
  0
ENDBLK
  5
7DC1
  8
0
  0
BLOCK
  8
0
  2
*D18
 70
     1
 10
0.0
 20
0.0
 30
0.0
  3
*D18
  1

  0
LINE
  5
7F3C
  8
3
 62
     0
 10
3521.1358060146708
 20
5433.9599819699843
 30
0.0
 11
3521.1358060146708
 21
5648.3240255827259
 31
0.0
  0
LINE
  5
7F3D
  8
3
 62
     0
 10
1306.1358060146699
 20
3399.9400009699839
 30
0.0
 11
1306.1358060146699
 21
5648.3240255827259
 31
0.0
  0
LINE
  5
7F3E
  8
3
 62
     0
 10
3441.1358060146699
 20
5608.3240255827259
 30
0.0
 11
1386.1358060146699
 21
5608.3240255827259
 31
0.0
  0
INSERT
  5
7F3F
  8
3
 62
     0
  2
_OPEN
 10
3521.1358060146708
 20
5608.3240255827259
 30
0.0
 41
80.0
 42
80.0
 43
80.0
  0
INSERT
  5
7F40
  8
3
 62
     0
  2
_OPEN
 10
1306.1358060146699
 20
5608.3240255827259
 30
0.0
 41
80.0
 42
80.0
 43
80.0
 50
180.0
  0
TEXT
  8
3
  40
120
  5
7F55
  62
0
  72
0
  71
0
 10
2194.66
 20
5495.92
 30
0.000000
  1
2215
  0
POINT
  5
7F42
  8
DEFPOINTS
 62
     0
 10
3521.1358060146708
 20
5413.9599819699843
 30
0.0
  0
POINT
  5
7F43
  8
DEFPOINTS
 62
     0
 10
1306.1358060146699
 20
3379.9400009699848
 30
0.0
  0
POINT
  5
7F44
  8
DEFPOINTS
 62
     0
 10
1306.1358060146699
 20
5608.3240255827259
 30
0.0
  0
ENDBLK
  5
7DAA
  8
0
  0
ENDSEC
  0
SECTION
  2
ENTITIES
  0
LINE
  5
7A75
  8
1
  6
CONTINUOUS
 10
6409.3752324024099
 20
4779.9400009699848
 30
0.0
 11
5659.3752324024099
 21
4779.9400009699848
 31
0.0
  0
LINE
  5
7A76
  8
1
  6
CONTINUOUS
 10
6477.3752324024117
 20
3379.9400009699848
 30
0.0
 11
5417.3752324024099
 21
3379.9400009699848
 31
0.0
  0
LINE
  5
7A77
  8
1
  6
CONTINUOUS
 10
6477.3752324024117
 20
3254.9400009699848
 30
0.0
 11
5417.3752324024099
 21
3254.9400009699848
 31
0.0
  0
LINE
  5
7A78
  8
1
  6
CONTINUOUS
 10
6459.3752324024108
 20
4829.9400009699848
 30
0.0
 11
5609.3752324024108
 21
4829.9400009699848
 31
0.0
  0
LINE
  5
7A79
  8
1
  6
CONTINUOUS
 10
6477.3752324024117
 20
3170.9400009699839
 30
0.0
 11
5417.3752324024099
 21
3170.9400009699839
 31
0.0
  0
LINE
  5
7A7A
  8
1
  6
CONTINUOUS
 10
6477.3752324024117
 20
3235.9400009699839
 30
0.0
 11
5417.3752324024099
 21
3235.9400009699839
 31
0.0
  0
LINE
  5
7A7B
  8
1
  6
CONTINUOUS
 10
1653.1358060146699
 20
3428.3400009699849
 30
0.0
 11
2894.7358060146698
 21
3907.3400009699849
 31
0.0
  0
LINE
  5
7A7C
  8
1
  6
CONTINUOUS
 10
1617.1358060146699
 20
3521.6400009699851
 30
0.0
 11
2858.7358060146712
 21
4000.6400009699851
 31
0.0
  0
LINE
  5
7A7D
  8
1
  6
CONTINUOUS
 10
1536.935806014669
 20
3704.5400009699852
 30
0.0
 11
2730.3358060146711
 21
4293.3400009699853
 31
0.0
  0
LINE
  5
7A7E
  8
1
  6
CONTINUOUS
 10
2810.1358060146699
 20
4829.9400009699848
 30
0.0
 11
1674.1358060146699
 21
4829.9400009699848
 31
0.0
  0
LINE
  5
7A7F
  8
2
  6
CENTER
 10
1655.30968201467
 20
4149.9400009699839
 30
0.0
 11
3637.7819930146702
 21
4149.9400009699839
 31
0.0
  0
CIRCLE
  5
7A80
  8
1
  6
CONTINUOUS
 10
2801.1358060146699
 20
4149.9400009699839
 30
0.0
 40
160.0
  0
POLYLINE
  5
7A81
  8
1
  6
CONTINUOUS
 66
     1
 10
0.0
 20
0.0
 30
0.0
  0
VERTEX
  5
7EAC
  8
1
  6
CONTINUOUS
 10
1727.1358060146699
 20
4829.9400009699848
 30
0.0
  0
VERTEX
  5
7EAD
  8
1
  6
CONTINUOUS
 10
1785.1358060146699
 20
4149.9400009699839
 30
0.0
 42
0.4
  0
VERTEX
  5
7EAE
  8
1
  6
CONTINUOUS
 10
2727.1358060146699
 20
3278.9400009699839
 30
0.0
 42
0.4
  0
VERTEX
  5
7EAF
  8
1
  6
CONTINUOUS
 10
3520.0358060146709
 20
4155.4400009699839
 30
0.0
 42
0.4
  0
VERTEX
  5
7EB0
  8
1
  6
CONTINUOUS
 10
2861.6358060146699
 20
4751.1400009699846
 30
0.0
  0
VERTEX
  5
7EB1
  8
1
  6
CONTINUOUS
 10
2757.1358060146699
 20
4740.9400009699848
 30
0.0
 42
0.4
  0
SEQEND
  5
7EB2
  8
1
  6
CONTINUOUS
  0
LINE
  5
7A89
  8
1
  6
CONTINUOUS
 10
3426.1358060146699
 20
3254.9400009699848
 30
0.0
 11
1306.1358060146699
 21
3254.9400009699848
 31
0.0
  0
LINE
  5
7A8A
  8
1
  6
CONTINUOUS
 10
3426.1358060146699
 20
3379.9400009699848
 30
0.0
 11
1306.1358060146699
 21
3379.9400009699848
 31
0.0
  0
CIRCLE
  5
7A8B
  8
1
  6
CONTINUOUS
 10
2801.1358060146699
 20
4149.9400009699839
 30
0.0
 40
500.0
  0
CIRCLE
  5
7A8C
  8
1
  6
CONTINUOUS
 10
2801.1358060146699
 20
4149.9400009699839
 30
0.0
 40
550.0
  0
LINE
  5
7A8D
  8
1
  6
CONTINUOUS
 10
2757.1358060146699
 20
4779.9400009699848
 30
0.0
 11
1727.1358060146699
 21
4779.9400009699848
 31
0.0
  0
ARC
  5
7A8E
  8
1
  6
CONTINUOUS
 10
2801.1358060146699
 20
4149.9400009699839
 30
0.0
 40
260.0
 50
291.10000000000002
 51
116.3
  0
LINE
  5
7A8F
  8
1
  6
CONTINUOUS
 10
3426.1358060146699
 20
3170.9400009699839
 30
0.0
 11
1306.1358060146699
 21
3170.9400009699839
 31
0.0
  0
LINE
  5
7A90
  8
1
  6
CONTINUOUS
 10
3426.1358060146699
 20
3235.9400009699839
 30
0.0
 11
1306.1358060146699
 21
3235.9400009699839
 31
0.0
  0
LINE
  5
7A91
  8
1
  6
CONTINUOUS
 10
1492.6358060146699
 20
3794.240000969985
 30
0.0
 11
2686.1358060146699
 21
4383.0400009699852
 31
0.0
  0
ARC
  5
7A92
  8
1
  6
CONTINUOUS
 10
1581.1358060146699
 20
3614.9400009699839
 30
0.0
 40
182.5
 50
326.60000000000002
 51
213.40000000000001
  0
LINE
  5
7A93
  8
1
  6
CONTINUOUS
 10
1371.1358060146699
 20
3434.9400009699848
 30
0.0
 11
1791.1358060146699
 21
3434.9400009699848
 31
0.0
  0
CIRCLE
  5
7A94
  8
1
  6
CONTINUOUS
 10
1581.1358060146699
 20
3614.9400009699839
 30
0.0
 40
100.0
  0
LINE
  5
7A95
  8
2
  6
CENTER
 10
1476.1358060146699
 20
3614.9400009699839
 30
0.0
 11
1686.1358060146699
 21
3614.9400009699839
 31
0.0
  0
ARC
  5
7A96
  8
1
  6
CONTINUOUS
 10
1581.1358060146699
 20
3614.9400009699839
 30
0.0
 40
200.0
 50
116.3
 51
291.10000000000002
  0
LINE
  5
7A97
  8
1
  6
CONTINUOUS
 10
1306.1358060146699
 20
3379.9400009699848
 30
0.0
 11
1306.1358060146699
 21
3254.9400009699848
 31
0.0
  0
LINE
  5
7A98
  8
1
  6
CONTINUOUS
 10
1419.1358060146699
 20
3504.9400009699848
 30
0.0
 11
1428.7358060146701
 21
3514.4400009699848
 31
0.0
  0
LINE
  5
7A99
  8
1
  6
CONTINUOUS
 10
1419.1358060146699
 20
3434.9400009699848
 30
0.0
 11
1419.1358060146699
 21
3504.9400009699848
 31
0.0
  0
LINE
  5
7A9A
  8
1
  6
CONTINUOUS
 10
1356.1358060146699
 20
3379.9400009699848
 30
0.0
 11
1371.1358060146699
 21
3434.9400009699848
 31
0.0
  0
LINE
  5
7A9B
  8
1
  6
CONTINUOUS
 10
1306.1358060146699
 20
3235.9400009699839
 30
0.0
 11
1306.1358060146699
 21
3170.9400009699839
 31
0.0
  0
LINE
  5
7A9C
  8
2
  6
CENTER
 10
1581.1358060146699
 20
3509.9400009699848
 30
0.0
 11
1581.1358060146699
 21
3719.9400009699848
 31
0.0
  0
LINE
  5
7A9D
  8
1
  6
CONTINUOUS
 10
1743.1358060146699
 20
3504.9400009699848
 30
0.0
 11
1733.5358060146691
 21
3514.4400009699848
 31
0.0
  0
LINE
  5
7A9E
  8
1
  6
CONTINUOUS
 10
1743.1358060146699
 20
3434.9400009699848
 30
0.0
 11
1743.1358060146699
 21
3504.9400009699848
 31
0.0
  0
LINE
  5
7A9F
  8
1
  6
CONTINUOUS
 10
1806.1358060146699
 20
3379.9400009699848
 30
0.0
 11
1791.1358060146699
 21
3434.9400009699848
 31
0.0
  0
LINE
  5
7AA0
  8
2
  6
CENTER
 10
2801.1358060146699
 20
8726.8396359699836
 30
0.0
 11
2801.1358060146699
 21
7375.798347969986
 31
0.0
  0
LINE
  5
7AA1
  8
1
  6
CONTINUOUS
 10
3426.1358060146699
 20
3379.9400009699848
 30
0.0
 11
3426.1358060146699
 21
3254.9400009699848
 31
0.0
  0
LINE
  5
7AA2
  8
1
  6
CONTINUOUS
 10
3426.1358060146699
 20
3235.9400009699839
 30
0.0
 11
3426.1358060146699
 21
3170.9400009699839
 31
0.0
  0
LINE
  5
7AA3
  8
1
  6
CONTINUOUS
 10
2757.1358060146699
 20
4740.9400009699848
 30
0.0
 11
2757.1358060146699
 21
4829.9400009699848
 31
0.0
  0
LINE
  5
7AA4
  8
1
  6
CONTINUOUS
 10
5659.3752324024099
 20
4829.9400009699848
 30
0.0
 11
5659.3752324024099
 21
3379.9400009699848
 31
0.0
  0
LINE
  5
7AA7
  8
1
  6
CONTINUOUS
 10
5504.3752324024108
 20
3714.9400009699839
 30
0.0
 11
5504.3752324024108
 21
3514.9400009699839
 31
0.0
  0
LINE
  5
7AA8
  8
1
  6
CONTINUOUS
 10
5404.3752324024108
 20
3714.9400009699839
 30
0.0
 11
5404.3752324024108
 21
3514.9400009699839
 31
0.0
  0
LINE
  5
7AA9
  8
1
  6
CONTINUOUS
 10
5354.3752324024108
 20
4416.6400009699846
 30
0.0
 11
5354.3752324024108
 21
3414.9400009699839
 31
0.0
  0
LINE
  5
7AAA
  8
1
  6
CONTINUOUS
 10
5554.3752324024108
 20
4416.6400009699846
 30
0.0
 11
5554.3752324024108
 21
3414.9400009699839
 31
0.0
  0
LINE
  5
7AAB
  8
1
  6
CONTINUOUS
 10
5404.3752324024108
 20
3514.9400009699839
 30
0.0
 11
5504.3752324024108
 21
3514.9400009699839
 31
0.0
  0
LINE
  5
7AAC
  8
1
  6
CONTINUOUS
 10
5354.3752324024108
 20
3414.9400009699839
 30
0.0
 11
5554.3752324024108
 21
3414.9400009699839
 31
0.0
  0
LINE
  5
7AAD
  8
1
  6
CONTINUOUS
 10
5417.3752324024099
 20
3379.9400009699848
 30
0.0
 11
5417.3752324024099
 21
3254.9400009699848
 31
0.0
  0
POINT
  5
7AAE
  8
1
  6
CONTINUOUS
 10
5417.3752324024099
 20
3235.9400009699839
 30
0.0
  0
LINE
  5
7AAF
  8
1
  6
CONTINUOUS
 10
5417.3752324024099
 20
3235.9400009699839
 30
0.0
 11
5417.3752324024099
 21
3170.9400009699839
 31
0.0
  0
LINE
  5
7AB0
  8
1
  6
CONTINUOUS
 10
5659.3752324024099
 20
3645.6400009699851
 30
0.0
 11
5504.3752324024108
 21
3645.6400009699851
 31
0.0
  0
LINE
  5
7AB1
  8
1
  6
CONTINUOUS
 10
5659.3752324024099
 20
3597.640000969986
 30
0.0
 11
5504.3752324024108
 21
3597.640000969986
 31
0.0
  0
LINE
  5
7AB2
  8
1
  6
CONTINUOUS
 10
5659.3752324024099
 20
4132.6400009699846
 30
0.0
 11
5504.3752324024108
 21
4132.6400009699846
 31
0.0
  0
LINE
  5
7AB3
  8
1
  6
CONTINUOUS
 10
5659.3752324024099
 20
4180.6400009699864
 30
0.0
 11
5504.3752324024108
 21
4180.6400009699864
 31
0.0
  0
LINE
  5
7AB4
  8
1
  6
CONTINUOUS
 10
5404.3752324024108
 20
3983.1400009699851
 30
0.0
 11
5504.3752324024108
 21
3983.1400009699851
 31
0.0
  0
LINE
  5
7AB5
  8
1
  6
CONTINUOUS
 10
5404.3752324024108
 20
4316.6400009699846
 30
0.0
 11
5504.3752324024108
 21
4316.6400009699846
 31
0.0
  0
LINE
  5
7AB6
  8
1
  6
CONTINUOUS
 10
5404.3752324024108
 20
3714.9400009699839
 30
0.0
 11
5504.3752324024108
 21
3714.9400009699839
 31
0.0
  0
LINE
  5
7AB7
  8
1
  6
CONTINUOUS
 10
5504.3752324024108
 20
4316.6400009699846
 30
0.0
 11
5504.3752324024108
 21
3983.1400009699851
 31
0.0
  0
LINE
  5
7AB8
  8
1
  6
CONTINUOUS
 10
5404.3752324024108
 20
4316.6400009699846
 30
0.0
 11
5404.3752324024108
 21
3983.1400009699851
 31
0.0
  0
LINE
  5
7AB9
  8
1
  6
CONTINUOUS
 10
5354.3752324024108
 20
4416.6400009699846
 30
0.0
 11
5554.3752324024108
 21
4416.6400009699846
 31
0.0
  0
LINE
  5
7ABA
  8
1
  6
CONTINUOUS
 10
2961.1358060146699
 20
7482.5236959699851
 30
0.0
 11
2641.1358060146699
 21
7482.5236959699851
 31
0.0
  0
LINE
  5
7ABB
  8
1
  6
CONTINUOUS
 10
2961.1358060146699
 20
7582.5236959699851
 30
0.0
 11
2641.1358060146699
 21
7582.5236959699851
 31
0.0
  0
LINE
  5
7ABC
  8
1
  6
CONTINUOUS
 10
3061.1358060146699
 20
7432.5236959699851
 30
0.0
 11
1381.1358060146699
 21
7432.5236959699851
 31
0.0
  0
LINE
  5
7ABD
  8
1
  6
CONTINUOUS
 10
3061.1358060146699
 20
7632.5236959699851
 30
0.0
 11
1381.1358060146699
 21
7632.5236959699851
 31
0.0
  0
LINE
  5
7ABE
  8
1
  6
CONTINUOUS
 10
1727.1358060146699
 20
8487.5236959699851
 30
0.0
 11
2757.1358060146699
 21
7737.5236959699851
 31
0.0
  0
LINE
  5
7ABF
  8
1
  6
CONTINUOUS
 10
2757.1358060146699
 20
8487.5236959699851
 30
0.0
 11
1727.1358060146699
 21
7737.5236959699851
 31
0.0
  0
LINE
  5
7AC0
  8
1
  6
CONTINUOUS
 10
3524.0358060146709
 20
8487.5236959699851
 30
0.0
 11
1727.1358060146699
 21
8487.5236959699851
 31
0.0
  0
LINE
  5
7AC1
  8
1
  6
CONTINUOUS
 10
3524.0358060146709
 20
7737.5236959699851
 30
0.0
 11
1727.1358060146699
 21
7737.5236959699851
 31
0.0
  0
LINE
  5
7AC2
  8
1
  6
CONTINUOUS
 10
3351.1358060146699
 20
8590.5236959699832
 30
0.0
 11
2251.1358060146699
 21
8590.5236959699832
 31
0.0
  0
LINE
  5
7AC3
  8
1
  6
CONTINUOUS
 10
2301.1358060146699
 20
8555.5236959699869
 30
0.0
 11
1306.1358060146699
 21
8555.5236959699869
 31
0.0
  0
LINE
  5
7AC4
  8
1
  6
CONTINUOUS
 10
1681.1358060146699
 20
7582.5236959699851
 30
0.0
 11
1481.1358060146699
 21
7582.5236959699851
 31
0.0
  0
LINE
  5
7AC5
  8
1
  6
CONTINUOUS
 10
1681.1358060146699
 20
7482.5236959699851
 30
0.0
 11
1481.1358060146699
 21
7482.5236959699851
 31
0.0
  0
LINE
  5
7AC6
  8
1
  6
CONTINUOUS
 10
1398.6358060146699
 20
7655.9236959699847
 30
0.0
 11
1763.6358060146699
 21
7655.9236959699847
 31
0.0
  0
LINE
  5
7AC7
  8
1
  6
CONTINUOUS
 10
1398.6358060146699
 20
8217.4236959699847
 30
0.0
 11
1727.1358060146699
 21
8217.4236959699847
 31
0.0
  0
LINE
  5
7AC8
  8
1
  6
CONTINUOUS
 10
1398.6358060146699
 20
7655.9236959699847
 30
0.0
 11
1398.6358060146699
 21
8217.4236959699847
 31
0.0
  0
LINE
  5
7AC9
  8
1
  6
CONTINUOUS
 10
1306.1358060146699
 20
8555.5236959699869
 30
0.0
 11
1306.1358060146699
 21
7495.5236959699851
 31
0.0
  0
LINE
  5
7ACA
  8
1
  6
CONTINUOUS
 10
1481.1358060146699
 20
7495.5236959699851
 30
0.0
 11
1306.1358060146699
 21
7495.5236959699851
 31
0.0
  0
LINE
  5
7ACB
  8
1
  6
CONTINUOUS
 10
1481.1358060146699
 20
7482.5236959699851
 30
0.0
 11
1481.1358060146699
 21
7582.5236959699851
 31
0.0
  0
LINE
  5
7ACC
  8
1
  6
CONTINUOUS
 10
1381.1358060146699
 20
7432.5236959699851
 30
0.0
 11
1381.1358060146699
 21
7632.5236959699851
 31
0.0
  0
LINE
  5
7ACD
  8
1
  6
CONTINUOUS
 10
2641.1358060146699
 20
7495.5236959699851
 30
0.0
 11
1681.1358060146699
 21
7495.5236959699851
 31
0.0
  0
LINE
  5
7ACE
  8
1
  6
CONTINUOUS
 10
1727.1358060146699
 20
7737.5236959699851
 30
0.0
 11
1727.1358060146699
 21
8487.5236959699851
 31
0.0
  0
LINE
  5
7ACF
  8
1
  6
CONTINUOUS
 10
1605.1358060146699
 20
7582.5236959699851
 30
0.0
 11
1605.1358060146699
 21
7655.9236959699847
 31
0.0
  0
LINE
  5
7AD0
  8
1
  6
CONTINUOUS
 10
1557.1358060146699
 20
7582.5236959699851
 30
0.0
 11
1557.1358060146699
 21
7655.9236959699847
 31
0.0
  0
LINE
  5
7AD1
  8
1
  6
CONTINUOUS
 10
1681.1358060146699
 20
7482.5236959699851
 30
0.0
 11
1681.1358060146699
 21
7582.5236959699851
 31
0.0
  0
LINE
  5
7AD2
  8
1
  6
CONTINUOUS
 10
1763.6358060146699
 20
7655.9236959699847
 30
0.0
 11
1763.6358060146699
 21
7737.5236959699851
 31
0.0
  0
LINE
  5
7AD3
  8
1
  6
CONTINUOUS
 10
2641.1358060146699
 20
7482.5236959699851
 30
0.0
 11
2641.1358060146699
 21
7582.5236959699851
 31
0.0
  0
LINE
  5
7AD4
  8
1
  6
CONTINUOUS
 10
2301.1358060146699
 20
8487.5236959699851
 30
0.0
 11
2301.1358060146699
 21
8590.5236959699832
 31
0.0
  0
LINE
  5
7AD5
  8
1
  6
CONTINUOUS
 10
3426.1358060146699
 20
7495.5236959699851
 30
0.0
 11
2961.1358060146699
 21
7495.5236959699851
 31
0.0
  0
LINE
  5
7AD6
  8
1
  6
CONTINUOUS
 10
3426.1358060146699
 20
8555.5236959699869
 30
0.0
 11
3301.1358060146699
 21
8555.5236959699869
 31
0.0
  0
LINE
  5
7AD7
  8
1
  6
CONTINUOUS
 10
2757.1358060146699
 20
7737.5236959699851
 30
0.0
 11
2757.1358060146699
 21
8487.5236959699851
 31
0.0
  0
LINE
  5
7AD8
  8
1
  6
CONTINUOUS
 10
2777.1358060146699
 20
7582.5236959699851
 30
0.0
 11
2777.1358060146699
 21
7737.5236959699851
 31
0.0
  0
LINE
  5
7AD9
  8
1
  6
CONTINUOUS
 10
2825.1358060146699
 20
7582.5236959699851
 30
0.0
 11
2825.1358060146699
 21
7737.5236959699851
 31
0.0
  0
LINE
  5
7ADA
  8
1
  6
CONTINUOUS
 10
2961.1358060146699
 20
7482.5236959699851
 30
0.0
 11
2961.1358060146699
 21
7582.5236959699851
 31
0.0
  0
LINE
  5
7ADB
  8
1
  6
CONTINUOUS
 10
3061.1358060146699
 20
7432.5236959699851
 30
0.0
 11
3061.1358060146699
 21
7632.5236959699851
 31
0.0
  0
LINE
  5
7ADC
  8
1
  6
CONTINUOUS
 10
3301.1358060146699
 20
8487.5236959699851
 30
0.0
 11
3301.1358060146699
 21
8590.5236959699832
 31
0.0
  0
LINE
  5
7ADD
  8
1
  6
CONTINUOUS
 10
3524.0358060146709
 20
7737.5236959699851
 30
0.0
 11
3524.0358060146709
 21
8487.5236959699851
 31
0.0
  0
LINE
  5
7ADE
  8
1
  6
CONTINUOUS
 10
3426.1358060146699
 20
7737.5236959699851
 30
0.0
 11
3426.1358060146699
 21
7495.5236959699851
 31
0.0
  0
LINE
  5
7ADF
  8
1
  6
CONTINUOUS
 10
3426.1358060146699
 20
8555.5236959699869
 30
0.0
 11
3426.1358060146699
 21
8487.5236959699851
 31
0.0
  0
LINE
  5
7AE0
  8
1
  6
CONTINUOUS
 10
6409.3752324024099
 20
4829.9400009699848
 30
0.0
 11
6409.3752324024099
 21
3379.9400009699848
 31
0.0
  0
LINE
  5
7AE1
  8
1
  6
CONTINUOUS
 10
6512.3752324024108
 20
4699.9400009699839
 30
0.0
 11
6512.3752324024108
 21
3599.9400009699848
 31
0.0
  0
LINE
  5
7AE2
  8
1
  6
CONTINUOUS
 10
6512.3752324024108
 20
3649.9400009699839
 30
0.0
 11
6409.3752324024099
 21
3649.9400009699839
 31
0.0
  0
LINE
  5
7AE3
  8
1
  6
CONTINUOUS
 10
6477.3752324024117
 20
3379.9400009699848
 30
0.0
 11
6477.3752324024117
 21
3254.9400009699848
 31
0.0
  0
LINE
  5
7AE4
  8
1
  6
CONTINUOUS
 10
6477.3752324024117
 20
3235.9400009699839
 30
0.0
 11
6477.3752324024117
 21
3170.9400009699839
 31
0.0
  0
LINE
  5
7AE5
  8
1
  6
CONTINUOUS
 10
6512.3752324024108
 20
4649.9400009699839
 30
0.0
 11
6409.3752324024099
 21
4649.9400009699839
 31
0.0
  0
DIMENSION
  5
7AF9
  8
3
  6
CONTINUOUS
  2
*D1
 10
2801.1358060146699
 20
2812.513929969984
 30
0.0
 11
2043.58141301467
 21
2812.513929969984
 31
0.0
 70
   128
 13
1306.1358060146699
 23
3170.9400009699839
 33
0.0
 14
2801.1358060146699
 24
3113.9918249699849
 34
0.0
1001
ACAD
1000
DSTYLE
1002
{
1070
   287
1070
     3
1070
   287
1070
     3
1070
    40
1040
40.0
1070
   143
1040
0.039
1070
   172
1070
     1
1070
   271
1070
     0
1070
   279
1070
     0
1070
   288
1070
     1
1002
}
  0
DIMENSION
  5
7B05
  8
3
  6
CONTINUOUS
  2
*D2
 10
3426.1358060146699
 20
2812.513929969984
 30
0.0
 11
3113.6358060146699
 21
2912.5139299699849
 31
0.0
 70
     0
 13
2801.1358060146699
 23
3113.9918249699849
 33
0.0
 14
3426.1358060146699
 24
3170.9400009699839
 34
0.0
1001
ACAD
1000
DSTYLE
1002
{
1070
   287
1070
     3
1070
   287
1070
     3
1070
    40
1040
40.0
1070
   143
1040
0.039
1070
   172
1070
     1
1070
   271
1070
     0
1070
   279
1070
     0
1070
   288
1070
     1
1002
}
  0
DIMENSION
  5
7B12
  8
3
  6
CONTINUOUS
  2
*D3
 10
2757.1358060146699
 20
5128.0471859699855
 30
0.0
 11
2234.2107950146701
 21
5128.0471859699855
 31
0.0
 70
   128
 13
1727.1358060146699
 23
4829.9400009699848
 33
0.0
 14
2757.1358060146699
 24
4829.9400009699848
 34
0.0
1001
ACAD
1000
DSTYLE
1002
{
1070
   287
1070
     3
1070
   287
1070
     3
1070
    40
1040
40.0
1070
   143
1040
0.039
1070
   172
1070
     1
1070
   271
1070
     0
1070
   279
1070
     0
1070
   288
1070
     1
1002
}
  0
DIMENSION
  5
7B1F
  8
3
  6
CONTINUOUS
  2
*D4
 10
2801.1358060146699
 20
5373.9599819699843
 30
0.0
 11
2305.0159940146691
 21
5373.9599819699843
 31
0.0
 70
   128
 13
1727.1358060146699
 23
4829.9400009699848
 33
0.0
 14
2801.1358060146699
 24
4745.234737969985
 34
0.0
1001
ACAD
1000
DSTYLE
1002
{
1070
   287
1070
     3
1070
   287
1070
     3
1070
    40
1040
40.0
1070
   143
1040
0.039
1070
   172
1070
     1
1070
   271
1070
     0
1070
   279
1070
     0
1070
   288
1070
     1
1002
}
  0
DIMENSION
  5
7B2B
  8
3
  6
CONTINUOUS
  2
*D5
 10
3521.1358060146708
 20
5373.9599819699843
 30
0.0
 11
3161.1358060146699
 21
5473.9599819699843
 31
0.0
 70
     0
 13
2801.1358060146699
 23
4745.234737969985
 33
0.0
 14
3521.1358060146708
 24
4149.9400009699839
 34
0.0
1001
ACAD
1000
DSTYLE
1002
{
1070
   287
1070
     3
1070
   287
1070
     3
1070
    40
1040
40.0
1070
   143
1040
0.039
1070
   172
1070
     1
1070
   271
1070
     0
1070
   279
1070
     0
1070
   288
1070
     1
1002
}
  0
DIMENSION
  5
7B38
  8
3
  6
CONTINUOUS
  2
*D6
 10
3911.749194014671
 20
4149.9400009699839
 30
0.0
 11
3911.7491940146688
 21
4555.6542866842701
 31
0.0
 70
   128
 13
2810.1358060146699
 23
4829.9400009699848
 33
0.0
 14
3637.7819930146702
 24
4149.9400009699839
 34
0.0
 50
90.0
1001
ACAD
1000
DSTYLE
1002
{
1070
   287
1070
     3
1070
   287
1070
     3
1070
    40
1040
40.0
1070
   143
1040
0.039
1070
   172
1070
     1
1070
   271
1070
     0
1070
   279
1070
     0
1070
   288
1070
     1
1002
}
  0
DIMENSION
  5
7B44
  8
3
  6
CONTINUOUS
  2
*D7
 10
3911.7491940146688
 20
3254.9400009699848
 30
0.0
 11
3811.7491940146688
 21
3702.4400009699848
 31
0.0
 70
     0
 13
3637.7819930146702
 23
4149.9400009699839
 33
0.0
 14
3426.1358060146699
 24
3254.9400009699848
 34
0.0
 50
90.0
1001
ACAD
1000
DSTYLE
1002
{
1070
   287
1070
     3
1070
   287
1070
     3
1070
    40
1040
40.0
1070
   143
1040
0.039
1070
   172
1070
     1
1070
   271
1070
     0
1070
   279
1070
     0
1070
   288
1070
     1
1002
}
  0
DIMENSION
  5
7B54
  8
3
  6
CONTINUOUS
  2
*D8
 10
3911.749194014671
 20
3170.9400009699839
 30
0.0
 11
3911.7491940146688
 21
2870.9400009699848
 31
0.0
 70
   128
 13
3426.1358060146699
 23
3254.9400009699848
 33
0.0
 14
3426.1358060146699
 24
3170.9400009699839
 34
0.0
 50
90.0
1001
ACAD
1000
DSTYLE
1002
{
1070
   287
1070
     3
1070
   287
1070
     3
1070
    40
1040
40.0
1070
   143
1040
0.039
1070
   172
1070
     1
1070
   271
1070
     0
1070
   279
1070
     0
1070
   288
1070
     1
1002
}
  0
DIMENSION
  5
7B7B
  8
3
  6
CONTINUOUS
  2
*D9
 10
4238.5424200146699
 20
3170.9400009699839
 30
0.0
 11
4238.542420014669
 21
3891.9320999699839
 31
0.0
 70
   128
 13
2810.1358060146699
 23
4829.9400009699848
 33
0.0
 14
3426.1358060146699
 24
3170.9400009699839
 34
0.0
 50
90.0
1001
ACAD
1000
DSTYLE
1002
{
1070
   287
1070
     3
1070
   287
1070
     3
1070
    40
1040
40.0
1070
   143
1040
0.039
1070
   172
1070
     1
1070
   271
1070
     0
1070
   279
1070
     0
1070
   288
1070
     1
1002
}
  0
DIMENSION
  5
7B88
  8
3
  6
CONTINUOUS
  2
*D10
 10
3426.1358060146699
 20
7068.9277019699857
 30
0.0
 11
2364.9280310146692
 21
7068.9277019699857
 31
0.0
 70
   128
 13
1306.1358060146699
 23
7495.5236959699851
 33
0.0
 14
3426.1358060146699
 24
7495.5236959699851
 34
0.0
1001
ACAD
1000
DSTYLE
1002
{
1070
   287
1070
     3
1070
   287
1070
     3
1070
    40
1040
40.0
1070
   143
1040
0.039
1070
   172
1070
     1
1070
   271
1070
     0
1070
   279
1070
     0
1070
   288
1070
     1
1002
}
  0
DIMENSION
  5
7B95
  8
3
  6
CONTINUOUS
  2
*D11
 10
3906.3026400146719
 20
7495.5236959699851
 30
0.0
 11
3906.30264001467
 21
8021.0453189699829
 31
0.0
 70
   128
 13
3426.1358060146699
 23
8555.5236959699869
 33
0.0
 14
3426.1358060146699
 24
7495.5236959699851
 34
0.0
 50
90.0
1001
ACAD
1000
DSTYLE
1002
{
1070
   287
1070
     3
1070
   287
1070
     3
1070
    40
1040
40.0
1070
   143
1040
0.039
1070
   172
1070
     1
1070
   271
1070
     0
1070
   279
1070
     0
1070
   288
1070
     1
1002
}
  0
LINE
  5
7B96
  8
2
  6
CENTER
 10
3638.41338101467
 20
8112.5236959699851
 30
0.0
 11
1580.62434201467
 21
8112.5236959699851
 31
0.0
  0
LINE
  5
7B97
  8
2
  6
CENTER
 10
2801.1358060146699
 20
4881.0518609699857
 30
0.0
 11
2801.1358060146699
 21
3113.9918249699849
 31
0.0
  0
LINE
  5
7B98
  8
2
  6
CENTER
 10
6034.3752324024099
 20
4988.5131549699863
 30
0.0
 11
6034.3752324024099
 21
3051.6142533873581
 31
0.0
  0
DIMENSION
  5
7BA5
  8
3
  6
CONTINUOUS
  2
*D12
 10
6888.5587834024109
 20
3649.9400009699839
 30
0.0
 11
6888.5587834024109
 21
4185.7562759699849
 31
0.0
 70
   128
 13
6512.3752324024108
 23
4649.9400009699839
 33
0.0
 14
6512.3752324024108
 24
3649.9400009699839
 34
0.0
 50
90.0
1001
ACAD
1000
DSTYLE
1002
{
1070
   287
1070
     3
1070
   287
1070
     3
1070
     3
1000
φ<>
1070
    40
1040
40.0
1070
   143
1040
0.039
1070
   172
1070
     1
1070
   271
1070
     0
1070
   279
1070
     0
1070
   288
1070
     1
1002
}
  0
DIMENSION
  5
7BB2
  8
3
  6
CONTINUOUS
  2
*D13
 10
6409.3752324024099
 20
4975.7362859699851
 30
0.0
 11
5933.6609466881246
 21
4975.7362859699851
 31
0.0
 70
   128
 13
5659.3752324024099
 23
4829.9400009699848
 33
0.0
 14
6409.3752324024099
 24
4829.9400009699848
 34
0.0
1001
ACAD
1000
DSTYLE
1002
{
1070
   287
1070
     3
1070
   287
1070
     3
1070
    40
1040
40.0
1070
   143
1040
0.039
1070
   172
1070
     1
1070
   271
1070
     0
1070
   279
1070
     0
1070
   288
1070
     1
1002
}
  0
DIMENSION
  5
7BBF
  8
3
  6
CONTINUOUS
  2
*D14
 10
6034.3752324024099
 20
5253.7518319699848
 30
0.0
 11
5742.9466609738392
 21
5253.7518319699848
 31
0.0
 70
   128
  1
MAX\P770
 13
5354.3752324024108
 23
4416.6400009699846
 33
0.0
 14
6034.3752324024099
 24
5181.8306329699853
 34
0.0
1001
ACAD
1000
DSTYLE
1002
{
1070
   287
1070
     3
1070
   287
1070
     3
1070
    40
1040
40.0
1070
   143
1040
0.039
1070
   172
1070
     1
1070
   271
1070
     0
1070
   279
1070
     0
1070
   288
1070
     1
1002
}
  0
DIMENSION
  5
7BCD
  8
3
  6
CONTINUOUS
  2
*D15
 10
6512.3752324024108
 20
5253.7518319699848
 30
0.0
 11
6273.3752324024108
 21
5362.0250361836634
 31
0.0
 70
   128
 13
6034.3752324024099
 23
5181.8306329699853
 33
0.0
 14
6512.3752324024108
 24
4699.9400009699839
 34
0.0
1001
ACAD
1000
DSTYLE
1002
{
1070
   288
1070
     1
1070
   172
1070
     1
1070
    40
1040
40.0
1070
   271
1070
     0
1070
   143
1040
0.039
1002
}
  0
DIMENSION
  5
7BF0
  8
3
  6
CONTINUOUS
  2
*D16
 10
6034.3752324024099
 20
2803.2643818175261
 30
0.0
 11
5771.5180895452668
 21
2803.2643818175261
 31
0.0
 70
   128
 13
5417.3752324024099
 23
3170.9400009699839
 33
0.0
 14
6034.3752324024099
 24
3051.6142533873581
 34
0.0
1001
ACAD
1000
DSTYLE
1002
{
1070
   287
1070
     3
1070
   287
1070
     3
1070
    40
1040
40.0
1070
   143
1040
0.039
1070
   172
1070
     1
1070
   271
1070
     0
1070
   279
1070
     0
1070
   288
1070
     1
1002
}
  0
DIMENSION
  5
7BFE
  8
3
  6
CONTINUOUS
  2
*D17
 10
6477.3752324024117
 20
2802.7230858175271
 30
0.0
 11
6255.8752324024108
 21
2905.314702424253
 31
0.0
 70
   128
 13
6034.3752324024099
 23
3051.6142533873581
 33
0.0
 14
6477.3752324024117
 24
3170.9400009699839
 34
0.0
1001
ACAD
1000
DSTYLE
1002
{
1070
   288
1070
     1
1070
   172
1070
     1
1070
    40
1040
40.0
1070
   271
1070
     0
1070
   143
1040
0.039
1002
}
  0
LINE
  5
7C15
  8
2
  6
CENTER
 10
5248.6024364024106
 20
4149.9400009699839
 30
0.0
 11
6639.4630754024101
 21
4149.9400009699839
 31
0.0
  0
LINE
  5
7C16
  8
4
  6
CONTINUOUS
 10
7400.0
 20
2000.0
 30
0.0
 11
7400.0
 21
1200.0
 31
0.0
  0
LINE
  5
7C17
  8
4
  6
CONTINUOUS
 10
4600.0
 20
2000.0
 30
0.0
 11
4600.0
 21
1200.0
 31
0.0
  0
LINE
  5
7C18
  8
4
  6
CONTINUOUS
 10
2600.0
 20
2000.0
 30
0.0
 11
2600.0
 21
1200.0
 31
0.0
  0
LINE
  5
7C1B
  8
4
  6
CONTINUOUS
 10
2600.0
 20
1200.0
 30
0.0
 11
7400.0
 21
1200.0
 31
0.0
  0
LINE
  5
7C1C
  8
4
  6
CONTINUOUS
 10
2600.0
 20
1600.0
 30
0.0
 11
7400.0
 21
1600.0
 31
0.0
  0
TEXT
  5
7C1D
  8
4
  6
CONTINUOUS
 10
2754.0083232000002
 20
1726.1721031999989
 30
0.0
 40
200.0
  1
機器名称
  0
TEXT
  5
7C1E
  8
4
  6
CONTINUOUS
 10
2745.032424
 20
1286.5806264
 30
0.0
 40
200.0
  1
機器型番
  0
TEXT
  5
7C1F
  8
4
  6
CONTINUOUS
 10
4710.7149823999989
 20
1690.2870751999999
 30
0.0
 40
168.88888879999999
  1
ミツヤリミットロードファン
  0
TEXT
  5
7C20
  8
4
  6
CONTINUOUS
 10
4746.6179824000001
 20
1268.6383367999999
 30
0.0
 40
200.0
  1
LLE#6-4
  0
TEXT
  5
7C22
  8
4
  6
CONTINUOUS
 10
2897.7534104000001
 20
9533.7153655999991
 30
0.0
 40
216.0
  1
床置防振ベット
  0
TEXT
  5
7C23
  8
4
  6
CONTINUOUS
 10
1264.6703735999999
 20
10135.5239048
 30
0.0
 40
240.0
  1
ベルト駆動式片吸込両持排煙ファン
  0
LINE
  5
7C24
  8
4
  6
CONTINUOUS
 10
1000.0
 20
9877.635016799999
 30
0.0
 11
7400.0
 21
9877.635016799999
 31
0.0
  0
LINE
  5
7C25
  8
4
  6
CONTINUOUS
 10
1000.0
 20
10677.635016800001
 30
0.0
 11
7400.0
 21
10677.635016800001
 31
0.0
  0
LINE
  5
7C26
  8
4
  6
CONTINUOUS
 10
2600.0
 20
2000.0
 30
0.0
 11
7400.0
 21
2000.0
 31
0.0
  0
LINE
  5
7C27
  8
4
  6
CONTINUOUS
 10
1000.0
 20
10677.635016800001
 30
0.0
 11
1000.0
 21
9877.635016799999
 31
0.0
  0
TEXT
  5
7C28
  8
4
  6
CONTINUOUS
 10
1154.3180815999999
 20
9529.2779104000001
 30
0.0
 40
216.0
  1
右回転上向
  0
TEXT
  5
7C29
  8
4
  6
CONTINUOUS
 10
5875.8782375999999
 20
10824.244326399999
 30
0.0
 40
224.0
  1
No.
  0
TEXT
  5
7C2A
  8
4
  6
CONTINUOUS
 10
5245.1842504000006
 20
9533.7153655999991
 30
0.0
 40
216.0
  1
縮尺：1/40
  0
LINE
  5
7C2B
  8
4
  6
CONTINUOUS
 10
7400.0
 20
10677.635016800001
 30
0.0
 11
7400.0
 21
9877.635016799999
 31
0.0
  0
LINE
  5
7C2D
  8
4
  6
CONTINUOUS
 10
5762.4696895999996
 20
10725.0543328
 30
0.0
 11
5762.4696895999996
 21
11146.609046400001
 31
0.0
  0
LINE
  5
7C2E
  8
4
  6
CONTINUOUS
 10
5762.4696895999996
 20
11146.609046400001
 30
0.0
 11
7400.0
 21
11146.609046400001
 31
0.0
  0
LINE
  5
7C2F
  8
4
  6
CONTINUOUS
 10
7400.0
 20
11146.609046400001
 30
0.0
 11
7400.0
 21
10725.0543328
 31
0.0
  0
LINE
  5
7C30
  8
4
  6
CONTINUOUS
 10
7400.0
 20
10725.0543328
 30
0.0
 11
5762.4696895999996
 21
10725.0543328
 31
0.0
  0
DIMENSION
  5
7DAB
  8
3
  2
*D18
 10
1306.1358060146699
 20
5608.3240255827259
 30
0.0
 11
2434.6607481366009
 21
5608.3240255827259
 31
0.0
 70
   128
 13
3521.1358060146708
 23
5413.9599819699843
 33
0.0
 14
1306.1358060146699
 24
3379.9400009699848
 34
0.0
1001
ACAD
1000
DSTYLE
1002
{
1070
   287
1070
     3
1070
   287
1070
     3
1070
    40
1040
40.0
1070
   143
1040
0.039
1070
   172
1070
     1
1070
   271
1070
     0
1070
   279
1070
     0
1070
   288
1070
     1
1002
}
  0
ENDSEC
  0
EOF
