  0
SECTION
  2
HEADER
  9
$ACADVER
  1
AC1009
  9
$INSBASE
 10
0.0
 20
0.0
 30
0.0
  9
$EXTMIN
 10
-5830.6422576000004
 20
-5183.0550504000003
 30
0.0
  9
$EXTMAX
 10
569.35774239999989
 20
4763.5539951999999
 30
0.0
  9
$LIMMIN
 10
0.0
 20
0.0
  9
$LIMMAX
 10
297.0
 20
210.0
  9
$ORTHOMODE
 70
     0
  9
$REGENMODE
 70
     1
  9
$FILLMODE
 70
     0
  9
$QTEXTMODE
 70
     0
  9
$MIRRTEXT
 70
     1
  9
$DRAGMODE
 70
     2
  9
$LTSCALE
 40
100.0
  9
$OSMODE
 70
    37
  9
$ATTMODE
 70
     1
  9
$TEXTSIZE
 40
180.0
  9
$TRACEWID
 40
0.05
  9
$TEXTSTYLE
  7
STANDARD
  9
$CLAYER
  8
3
  9
$CELTYPE
  6
BYLAYER
  9
$CECOLOR
 62
   256
  9
$DIMSCALE
 40
40.0
  9
$DIMASZ
 40
2.0
  9
$DIMEXO
 40
0.5
  9
$DIMDLI
 40
10.0
  9
$DIMRND
 40
0.0
  9
$DIMDLE
 40
0.0
  9
$DIMEXE
 40
1.0
  9
$DIMTP
 40
1.0
  9
$DIMTM
 40
1.0
  9
$DIMTXT
 40
3.0
  9
$DIMCEN
 40
0.0
  9
$DIMTSZ
 40
0.0
  9
$DIMTOL
 70
     0
  9
$DIMLIM
 70
     0
  9
$DIMTIH
 70
     0
  9
$DIMTOH
 70
     0
  9
$DIMSE1
 70
     0
  9
$DIMSE2
 70
     0
  9
$DIMTAD
 70
     1
  9
$DIMZIN
 70
     8
  9
$DIMBLK
  1

  9
$DIMASO
 70
     1
  9
$DIMSHO
 70
     1
  9
$DIMPOST
  1

  9
$DIMAPOST
  1

  9
$DIMALT
 70
     0
  9
$DIMALTD
 70
     2
  9
$DIMALTF
 40
0.039
  9
$DIMLFAC
 40
1.0
  9
$DIMTOFL
 70
     1
  9
$DIMTVP
 40
0.0
  9
$DIMTIX
 70
     0
  9
$DIMSOXD
 70
     0
  9
$DIMSAH
 70
     1
  9
$DIMBLK1
  1
OPEN
  9
$DIMBLK2
  1
OPEN
  9
$DIMSTYLE
  2
IGA
  9
$DIMCLRD
 70
     0
  9
$DIMCLRE
 70
     0
  9
$DIMCLRT
 70
     0
  9
$DIMTFAC
 40
10.0
  9
$DIMGAP
 40
1.0
  9
$LUNITS
 70
     2
  9
$LUPREC
 70
     3
  9
$SKETCHINC
 40
0.1
  9
$FILLETRAD
 40
50.0
  9
$AUNITS
 70
     0
  9
$AUPREC
 70
     0
  9
$MENU
  1
acad
  9
$ELEVATION
 40
0.0
  9
$PELEVATION
 40
0.0
  9
$THICKNESS
 40
0.0
  9
$LIMCHECK
 70
     0
  9
$BLIPMODE
 70
     0
  9
$CHAMFERA
 40
0.5
  9
$CHAMFERB
 40
0.5
  9
$SKPOLY
 70
     0
  9
$TDCREATE
 40
2450751.4918189808
  9
$TDUPDATE
 40
2454953.6869044672
  9
$TDINDWG
 40
0.0049638426
  9
$TDUSRTIMER
 40
0.0049638426
  9
$USRTIMER
 70
     1
  9
$ANGBASE
 50
0.0
  9
$ANGDIR
 70
     0
  9
$PDMODE
 70
     0
  9
$PDSIZE
 40
0.0
  9
$PLINEWID
 40
0.0
  9
$COORDS
 70
     1
  9
$SPLFRAME
 70
     0
  9
$SPLINETYPE
 70
     6
  9
$SPLINESEGS
 70
     8
  9
$ATTDIA
 70
     0
  9
$ATTREQ
 70
     1
  9
$HANDLING
 70
 10241
  9
$HANDSEED
  5
7F4E
  9
$SURFTAB1
 70
     6
  9
$SURFTAB2
 70
     6
  9
$SURFTYPE
 70
     6
  9
$SURFU
 70
     6
  9
$SURFV
 70
     6
  9
$UCSNAME
  2

  9
$UCSORG
 10
0.0
 20
0.0
 30
0.0
  9
$UCSXDIR
 10
1.0
 20
0.0
 30
0.0
  9
$UCSYDIR
 10
0.0
 20
1.0
 30
0.0
  9
$PUCSNAME
  2

  9
$PUCSORG
 10
0.0
 20
0.0
 30
0.0
  9
$PUCSXDIR
 10
1.0
 20
0.0
 30
0.0
  9
$PUCSYDIR
 10
0.0
 20
1.0
 30
0.0
  9
$USERI1
 70
     0
  9
$USERI2
 70
     0
  9
$USERI3
 70
     0
  9
$USERI4
 70
     0
  9
$USERI5
 70
     0
  9
$USERR1
 40
0.0
  9
$USERR2
 40
0.0
  9
$USERR3
 40
0.0
  9
$USERR4
 40
0.0
  9
$USERR5
 40
0.0
  9
$WORLDVIEW
 70
     1
  9
$SHADEDGE
 70
     3
  9
$SHADEDIF
 70
    70
  9
$TILEMODE
 70
     1
  9
$MAXACTVP
 70
    16
  9
$PLIMCHECK
 70
     0
  9
$PEXTMIN
 10
1.0000000000000000E+020
 20
1.0000000000000000E+020
 30
1.0000000000000000E+020
  9
$PEXTMAX
 10
-1.0000000000000000E+020
 20
-1.0000000000000000E+020
 30
-1.0000000000000000E+020
  9
$PLIMMIN
 10
0.0
 20
0.0
  9
$PLIMMAX
 10
12.0
 20
9.0
  9
$UNITMODE
 70
     0
  9
$VISRETAIN
 70
     0
  9
$PLINEGEN
 70
     0
  9
$PSLTSCALE
 70
     1
  0
ENDSEC
  0
SECTION
  2
TABLES
  0
TABLE
  2
VPORT
 70
     2
  0
VPORT
  2
*ACTIVE
 70
     0
 10
0.0
 20
0.0
 11
1.0
 21
1.0
 12
9524.1388598206977
 22
-325.38874107813172
 13
0.0
 23
0.0
 14
10.0
 24
10.0
 15
10.0
 25
10.0
 16
0.0
 26
0.0
 36
1.0
 17
0.0
 27
0.0
 37
0.0
 40
11604.801726994951
 41
3.1666666666666661
 42
50.0
 43
0.0
 44
0.0
 50
0.0
 51
0.0
 71
     0
 72
   100
 73
     1
 74
     0
 75
     0
 76
     0
 77
     0
 78
     0
  0
ENDTAB
  0
TABLE
  2
LTYPE
 70
     2
  0
LTYPE
  2
CONTINUOUS
 70
     0
  3
Solid line
 72
    65
 73
     0
 40
0.0
  0
LTYPE
  2
CENTER
 70
     0
  3
____ _ ____ _ ____ _ ____ _ ____ _ ____ _ ____ 
 72
    65
 73
     4
 40
2.0
 49
1.25
 49
-0.25
 49
0.25
 49
-0.25
  0
ENDTAB
  0
TABLE
  2
LAYER
 70
     6
  0
LAYER
  2
0
 70
     0
 62
     7
  6
CONTINUOUS
  0
LAYER
  2
3
 70
     0
 62
     2
  6
CONTINUOUS
  0
LAYER
  2
2
 70
     0
 62
     3
  6
CENTER
  0
LAYER
  2
1
 70
     0
 62
     4
  6
CONTINUOUS
  0
LAYER
  2
4
 70
     0
 62
     7
  6
CONTINUOUS
  0
LAYER
  2
DEFPOINTS
 70
     0
 62
     7
  6
CONTINUOUS
  0
ENDTAB
  0
TABLE
  2
STYLE
 70
     1
  0
STYLE
  2
STANDARD
 70
     0
 40
0.0
 41
1.0
 50
0.0
 71
     0
 42
180.0
  3
simplex.shx
  4
extfont.shx
  0
ENDTAB
  0
TABLE
  2
VIEW
 70
     0
  0
ENDTAB
  0
TABLE
  2
UCS
 70
     0
  0
ENDTAB
  0
TABLE
  2
APPID
 70
     1
  0
APPID
  2
ACAD
 70
     0
  0
ENDTAB
  0
TABLE
  2
DIMSTYLE
 70
     1
  0
DIMSTYLE
  2
IGA
 70
     0
  3

  4

  5

  6
OPEN
  7
OPEN
 40
2.0
 41
2.0
 42
0.5
 43
10.0
 44
1.0
 45
0.0
 46
0.0
 47
1.0
 48
1.0
140
3.0
141
0.0
142
0.0
143
0.03937
144
1.0
145
0.0
146
10.0
147
1.0
 71
     0
 72
     0
 73
     0
 74
     0
 75
     0
 76
     0
 77
     1
 78
     8
170
     0
171
     2
172
     0
173
     1
174
     0
175
     0
176
     0
177
     0
178
     0
  0
ENDTAB
  0
ENDSEC
  0
SECTION
  2
BLOCKS
  0
BLOCK
  8
0
  2
$MODEL_SPACE
 70
     0
 10
0.0
 20
0.0
 30
0.0
  3
$MODEL_SPACE
  1

  0
ENDBLK
  5
1B
  8
0
  0
BLOCK
 67
     1
  8
0
  2
$PAPER_SPACE
 70
     0
 10
0.0
 20
0.0
 30
0.0
  3
$PAPER_SPACE
  1

  0
ENDBLK
  5
18
 67
     1
  8
0
  0
BLOCK
  8
0
  2
_OPEN
 70
     0
 10
0.0
 20
0.0
 30
0.0
  3
_OPEN
  1

  0
LINE
  5
7AEA
  8
0
  6
BYBLOCK
 62
     0
 10
-1.0
 20
0.166667
 30
0.0
 11
0.0
 21
0.0
 31
0.0
  0
LINE
  5
7AEB
  8
0
  6
BYBLOCK
 62
     0
 10
0.0
 20
0.0
 30
0.0
 11
-1.0
 21
-0.166667
 31
0.0
  0
LINE
  5
7AEC
  8
0
  6
BYBLOCK
 62
     0
 10
0.0
 20
0.0
 30
0.0
 11
-1.0
 21
0.0
 31
0.0
  0
ENDBLK
  5
7AED
  8
0
  0
BLOCK
  8
0
  2
*D1
 70
     1
 10
0.0
 20
0.0
 30
0.0
  3
*D1
  1

  0
LINE
  5
7EAB
  8
3
  6
CONTINUOUS
 62
     0
 10
-4914.9177964603177
 20
-3072.7877857522822
 30
0.0
 11
-4914.9177964603177
 21
-3489.866847752282
 31
0.0
  0
LINE
  5
7EAC
  8
3
  6
CONTINUOUS
 62
     0
 10
-3419.9177964603182
 20
-3189.8780737522829
 30
0.0
 11
-3419.9177964603182
 21
-3489.866847752282
 31
0.0
  0
LINE
  5
7EAD
  8
3
  6
CONTINUOUS
 62
     0
 10
-4834.9177964603177
 20
-3449.866847752282
 30
0.0
 11
-3499.9177964603182
 21
-3449.866847752282
 31
0.0
  0
INSERT
  5
7EAE
  8
3
  6
CONTINUOUS
 62
     0
  2
_OPEN
 10
-4914.9177964603177
 20
-3449.866847752282
 30
0.0
 41
80.0
 42
80.0
 43
80.0
 50
180.0
  0
INSERT
  5
7EAF
  8
3
  6
CONTINUOUS
 62
     0
  2
_OPEN
 10
-3419.9177964603182
 20
-3449.866847752282
 30
0.0
 41
80.0
 42
80.0
 43
80.0
  0
TEXT
  8
3
  40
120
  5
7F3D
  62
0
  72
0
  71
0
 10
-4381.99
 20
-3562.27
 30
0.000000
  1
1495
  0
POINT
  5
7EB1
  8
DEFPOINTS
  6
CONTINUOUS
 62
     0
 10
-4914.9177964603177
 20
-3052.7877857522831
 30
0.0
  0
POINT
  5
7EB2
  8
DEFPOINTS
  6
CONTINUOUS
 62
     0
 10
-3419.9177964603182
 20
-3169.8780737522829
 30
0.0
  0
POINT
  5
7EB3
  8
DEFPOINTS
  6
CONTINUOUS
 62
     0
 10
-3419.9177964603182
 20
-3449.866847752282
 30
0.0
  0
ENDBLK
  5
7D27
  8
0
  0
BLOCK
  8
0
  2
*D2
 70
     1
 10
0.0
 20
0.0
 30
0.0
  3
*D2
  1

  0
LINE
  5
7EB4
  8
3
  6
CONTINUOUS
 62
     0
 10
-3419.9177964603182
 20
-3189.8780737522829
 30
0.0
 11
-3419.9177964603182
 21
-3489.866847752282
 31
0.0
  0
LINE
  5
7EB5
  8
3
  6
CONTINUOUS
 62
     0
 10
-2794.9177964603168
 20
-3072.7877857522822
 30
0.0
 11
-2794.9177964603168
 21
-3489.866847752282
 31
0.0
  0
LINE
  5
7EB6
  8
3
  6
CONTINUOUS
 62
     0
 10
-3339.9177964603168
 20
-3449.866847752282
 30
0.0
 11
-2874.9177964603168
 21
-3449.866847752282
 31
0.0
  0
INSERT
  5
7EB7
  8
3
  6
CONTINUOUS
 62
     0
  2
_OPEN
 10
-3419.9177964603182
 20
-3449.866847752282
 30
0.0
 41
80.0
 42
80.0
 43
80.0
 50
180.0
  0
INSERT
  5
7EB8
  8
3
  6
CONTINUOUS
 62
     0
  2
_OPEN
 10
-2794.9177964603168
 20
-3449.866847752282
 30
0.0
 41
80.0
 42
80.0
 43
80.0
  0
TEXT
  8
3
  40
120
  5
7F3E
  62
0
  72
0
  71
0
 10
-3347.42
 20
-3562.27
 30
0.000000
  1
625
  0
POINT
  5
7EBA
  8
DEFPOINTS
  6
CONTINUOUS
 62
     0
 10
-3419.9177964603182
 20
-3169.8780737522829
 30
0.0
  0
POINT
  5
7EBB
  8
DEFPOINTS
  6
CONTINUOUS
 62
     0
 10
-2794.9177964603168
 20
-3052.7877857522831
 30
0.0
  0
POINT
  5
7EBC
  8
DEFPOINTS
  6
CONTINUOUS
 62
     0
 10
-2794.9177964603168
 20
-3449.866847752282
 30
0.0
  0
ENDBLK
  5
7D1C
  8
0
  0
BLOCK
  8
0
  2
*D3
 70
     1
 10
0.0
 20
0.0
 30
0.0
  3
*D3
  1

  0
LINE
  5
7EBD
  8
3
  6
CONTINUOUS
 62
     0
 10
-2719.9177964603159
 20
-1144.7877857522819
 30
0.0
 11
-2310.048594460317
 21
-1144.7877857522819
 31
0.0
  0
LINE
  5
7EBE
  8
3
  6
CONTINUOUS
 62
     0
 10
-2719.9177964603159
 20
-2174.7877857522822
 30
0.0
 11
-2310.048594460317
 21
-2174.7877857522822
 31
0.0
  0
LINE
  5
7EBF
  8
3
  6
CONTINUOUS
 62
     0
 10
-2350.048594460317
 20
-1224.7877857522819
 30
0.0
 11
-2350.048594460317
 21
-2094.7877857522822
 31
0.0
  0
INSERT
  5
7EC0
  8
3
  6
CONTINUOUS
 62
     0
  2
_OPEN
 10
-2350.048594460317
 20
-1144.7877857522819
 30
0.0
 41
80.0
 42
80.0
 43
80.0
 50
90.0
  0
INSERT
  5
7EC1
  8
3
  6
CONTINUOUS
 62
     0
  2
_OPEN
 10
-2350.048594460317
 20
-2174.7877857522822
 30
0.0
 41
80.0
 42
80.0
 43
80.0
 50
270.0
  0
TEXT
  8
3
  40
120
  5
7F3F
  62
0
  72
0
  71
0
 10
-2690.05
 20
-1892.37
 30
0.000000
  1
1030
  0
POINT
  5
7EC3
  8
DEFPOINTS
  6
CONTINUOUS
 62
     0
 10
-2739.9177964603159
 20
-1144.7877857522819
 30
0.0
  0
POINT
  5
7EC4
  8
DEFPOINTS
  6
CONTINUOUS
 62
     0
 10
-2739.9177964603159
 20
-2174.7877857522822
 30
0.0
  0
POINT
  5
7EC5
  8
DEFPOINTS
  6
CONTINUOUS
 62
     0
 10
-2350.048594460317
 20
-2174.7877857522822
 30
0.0
  0
ENDBLK
  5
7D11
  8
0
  0
BLOCK
  8
0
  2
*D4
 70
     1
 10
0.0
 20
0.0
 30
0.0
  3
*D4
  1

  0
LINE
  5
7EC6
  8
3
  6
CONTINUOUS
 62
     0
 10
-2719.9177964603159
 20
-1144.7877857522819
 30
0.0
 11
-1994.6126854603169
 21
-1144.7877857522819
 31
0.0
  0
LINE
  5
7EC7
  8
3
  6
CONTINUOUS
 62
     0
 10
-2804.6230594603171
 20
-2218.7877857522831
 30
0.0
 11
-1994.6126854603169
 21
-2218.7877857522831
 31
0.0
  0
LINE
  5
7EC8
  8
3
  6
CONTINUOUS
 62
     0
 10
-2034.6126854603169
 20
-1224.7877857522819
 30
0.0
 11
-2034.6126854603169
 21
-2138.7877857522831
 31
0.0
  0
INSERT
  5
7EC9
  8
3
  6
CONTINUOUS
 62
     0
  2
_OPEN
 10
-2034.6126854603169
 20
-1144.7877857522819
 30
0.0
 41
80.0
 42
80.0
 43
80.0
 50
90.0
  0
INSERT
  5
7ECA
  8
3
  6
CONTINUOUS
 62
     0
  2
_OPEN
 10
-2034.6126854603169
 20
-2218.7877857522831
 30
0.0
 41
80.0
 42
80.0
 43
80.0
 50
270.0
  0
TEXT
  8
3
  40
120
  5
7F40
  62
0
  72
0
  71
0
 10
-2374.61
 20
-1892.37
 30
0.000000
  1
1074
  0
POINT
  5
7ECC
  8
DEFPOINTS
  6
CONTINUOUS
 62
     0
 10
-2739.9177964603159
 20
-1144.7877857522819
 30
0.0
  0
POINT
  5
7ECD
  8
DEFPOINTS
  6
CONTINUOUS
 62
     0
 10
-2824.6230594603171
 20
-2218.7877857522831
 30
0.0
  0
POINT
  5
7ECE
  8
DEFPOINTS
  6
CONTINUOUS
 62
     0
 10
-2034.6126854603169
 20
-2218.7877857522831
 30
0.0
  0
ENDBLK
  5
7D06
  8
0
  0
BLOCK
  8
0
  2
*D5
 70
     1
 10
0.0
 20
0.0
 30
0.0
  3
*D5
  1

  0
LINE
  5
7ECF
  8
3
  6
CONTINUOUS
 62
     0
 10
-2804.6230594603171
 20
-2218.7877857522831
 30
0.0
 11
-1994.6126854603169
 21
-2218.7877857522831
 31
0.0
  0
LINE
  5
7ED0
  8
3
  6
CONTINUOUS
 62
     0
 10
-2774.9177964603168
 20
-2968.7877857522831
 30
0.0
 11
-1994.6126854603169
 21
-2968.7877857522831
 31
0.0
  0
LINE
  5
7ED1
  8
3
  6
CONTINUOUS
 62
     0
 10
-2034.6126854603169
 20
-2298.7877857522822
 30
0.0
 11
-2034.6126854603169
 21
-2888.7877857522831
 31
0.0
  0
INSERT
  5
7ED2
  8
3
  6
CONTINUOUS
 62
     0
  2
_OPEN
 10
-2034.6126854603169
 20
-2218.7877857522831
 30
0.0
 41
80.0
 42
80.0
 43
80.0
 50
90.0
  0
INSERT
  5
7ED3
  8
3
  6
CONTINUOUS
 62
     0
  2
_OPEN
 10
-2034.6126854603169
 20
-2968.7877857522831
 30
0.0
 41
80.0
 42
80.0
 43
80.0
 50
270.0
  0
TEXT
  8
3
  40
120
  5
7F41
  62
0
  72
0
  71
0
 10
-2374.61
 20
-2806.19
 30
0.000000
  1
750
  0
POINT
  5
7ED5
  8
DEFPOINTS
  6
CONTINUOUS
 62
     0
 10
-2824.6230594603171
 20
-2218.7877857522831
 30
0.0
  0
POINT
  5
7ED6
  8
DEFPOINTS
  6
CONTINUOUS
 62
     0
 10
-2794.9177964603168
 20
-2968.7877857522831
 30
0.0
  0
POINT
  5
7ED7
  8
DEFPOINTS
  6
CONTINUOUS
 62
     0
 10
-2034.6126854603169
 20
-2968.7877857522831
 30
0.0
  0
ENDBLK
  5
7CFB
  8
0
  0
BLOCK
  8
0
  2
*D6
 70
     1
 10
0.0
 20
0.0
 30
0.0
  3
*D6
  1

  0
LINE
  5
7ED8
  8
3
  6
CONTINUOUS
 62
     0
 10
-2774.9177964603168
 20
-2968.7877857522831
 30
0.0
 11
-1994.6126854603169
 21
-2968.7877857522831
 31
0.0
  0
LINE
  5
7ED9
  8
3
  6
CONTINUOUS
 62
     0
 10
-2774.9177964603168
 20
-3052.7877857522831
 30
0.0
 11
-1994.6126854603169
 21
-3052.7877857522831
 31
0.0
  0
LINE
  5
7EDA
  8
3
  6
CONTINUOUS
 62
     0
 10
-2034.6126854603169
 20
-2888.7877857522831
 30
0.0
 11
-2034.6126854603169
 21
-2808.7877857522831
 31
0.0
  0
LINE
  5
7EDB
  8
3
  6
CONTINUOUS
 62
     0
 10
-2034.6126854603169
 20
-3132.7877857522822
 30
0.0
 11
-2034.6126854603169
 21
-3492.7877857522831
 31
0.0
  0
LINE
  5
7EDC
  8
3
  6
CONTINUOUS
 62
     0
 10
-2034.6126854603169
 20
-2968.7877857522831
 30
0.0
 11
-2034.6126854603169
 21
-3052.7877857522831
 31
0.0
  0
INSERT
  5
7EDD
  8
3
  6
CONTINUOUS
 62
     0
  2
_OPEN
 10
-2034.6126854603169
 20
-2968.7877857522831
 30
0.0
 41
80.0
 42
80.0
 43
80.0
 50
270.0
  0
INSERT
  5
7EDE
  8
3
  6
CONTINUOUS
 62
     0
  2
_OPEN
 10
-2034.6126854603169
 20
-3052.7877857522831
 30
0.0
 41
80.0
 42
80.0
 43
80.0
 50
90.0
  0
TEXT
  8
3
  40
120
  5
7F42
  62
0
  72
0
  71
0
 10
-2374.61
 20
-3565.19
 30
0.000000
  1
84
  0
POINT
  5
7EE0
  8
DEFPOINTS
  6
CONTINUOUS
 62
     0
 10
-2794.9177964603168
 20
-2968.7877857522831
 30
0.0
  0
POINT
  5
7EE1
  8
DEFPOINTS
  6
CONTINUOUS
 62
     0
 10
-2794.9177964603168
 20
-3052.7877857522831
 30
0.0
  0
POINT
  5
7EE2
  8
DEFPOINTS
  6
CONTINUOUS
 62
     0
 10
-2034.6126854603169
 20
-3052.7877857522831
 30
0.0
  0
ENDBLK
  5
7CF0
  8
0
  0
BLOCK
  8
0
  2
*D7
 70
     1
 10
0.0
 20
0.0
 30
0.0
  3
*D7
  1

  0
LINE
  5
7EE3
  8
3
  6
CONTINUOUS
 62
     0
 10
-2719.9177964603159
 20
-1091.7877857522819
 30
0.0
 11
-1725.3431289597461
 21
-1091.7877857522819
 31
0.0
  0
LINE
  5
7EE4
  8
3
  6
CONTINUOUS
 62
     0
 10
-2774.9177964603168
 20
-3052.7877857522831
 30
0.0
 11
-1725.3431289597461
 21
-3052.7877857522831
 31
0.0
  0
LINE
  5
7EE5
  8
3
  6
CONTINUOUS
 62
     0
 10
-1765.3431289597461
 20
-1171.7877857522819
 30
0.0
 11
-1765.343128959747
 21
-2972.7877857522831
 31
0.0
  0
INSERT
  5
7EE6
  8
3
  6
CONTINUOUS
 62
     0
  2
_OPEN
 10
-1765.3431289597461
 20
-1091.7877857522819
 30
0.0
 41
80.0
 42
80.0
 43
80.0
 50
90.0
  0
INSERT
  5
7EE7
  8
3
  6
CONTINUOUS
 62
     0
  2
_OPEN
 10
-1765.343128959747
 20
-3052.7877857522831
 30
0.0
 41
80.0
 42
80.0
 43
80.0
 50
270.0
  0
TEXT
  8
3
  40
120
  5
7F43
  62
0
  72
0
  71
0
 10
-2105.34
 20
-2348.25
 30
0.000000
  1
1961
  0
POINT
  5
7EE9
  8
DEFPOINTS
  6
CONTINUOUS
 62
     0
 10
-2739.9177964603159
 20
-1091.7877857522819
 30
0.0
  0
POINT
  5
7EEA
  8
DEFPOINTS
  6
CONTINUOUS
 62
     0
 10
-2794.9177964603168
 20
-3052.7877857522831
 30
0.0
  0
POINT
  5
7EEB
  8
DEFPOINTS
  6
CONTINUOUS
 62
     0
 10
-1765.343128959747
 20
-3052.7877857522831
 30
0.0
  0
ENDBLK
  5
7DB9
  8
0
  0
BLOCK
  8
0
  2
*D8
 70
     1
 10
0.0
 20
0.0
 30
0.0
  3
*D8
  1

  0
LINE
  5
7EEC
  8
3
  6
CONTINUOUS
 62
     0
 10
-4287.9177964603177
 20
-2198.7877857522822
 30
0.0
 11
-4287.9177964603177
 21
-895.14179075228265
 31
0.0
  0
LINE
  5
7EED
  8
3
  6
CONTINUOUS
 62
     0
 10
-3419.9177964603182
 20
-1182.7877857522819
 30
0.0
 11
-3419.9177964603182
 21
-895.14179075228265
 31
0.0
  0
LINE
  5
7EEE
  8
3
  6
CONTINUOUS
 62
     0
 10
-4207.9177964603168
 20
-935.14179075228276
 30
0.0
 11
-3499.9177964603182
 21
-935.14179075228276
 31
0.0
  0
INSERT
  5
7EEF
  8
3
  6
CONTINUOUS
 62
     0
  2
_OPEN
 10
-4287.9177964603177
 20
-935.14179075228276
 30
0.0
 41
80.0
 42
80.0
 43
80.0
 50
180.0
  0
INSERT
  5
7EF0
  8
3
  6
CONTINUOUS
 62
     0
  2
_OPEN
 10
-3419.9177964603182
 20
-935.14179075228276
 30
0.0
 41
80.0
 42
80.0
 43
80.0
  0
TEXT
  8
3
  40
120
  5
7F44
  62
0
  72
0
  71
0
 10
-4066.56
 20
-1047.54
 30
0.000000
  1
868
  0
POINT
  5
7EF2
  8
DEFPOINTS
  6
CONTINUOUS
 62
     0
 10
-4287.9177964603177
 20
-2218.7877857522831
 30
0.0
  0
POINT
  5
7EF3
  8
DEFPOINTS
  6
CONTINUOUS
 62
     0
 10
-3419.9177964603182
 20
-1202.7877857522819
 30
0.0
  0
POINT
  5
7EF4
  8
DEFPOINTS
  6
CONTINUOUS
 62
     0
 10
-3419.9177964603182
 20
-935.14179075228276
 30
0.0
  0
ENDBLK
  5
7D75
  8
0
  0
BLOCK
  8
0
  2
*D9
 70
     1
 10
0.0
 20
0.0
 30
0.0
  3
*D9
  1

  0
LINE
  5
7EF5
  8
3
  6
CONTINUOUS
 62
     0
 10
-3419.9177964603182
 20
-1182.7877857522819
 30
0.0
 11
-3419.9177964603182
 21
-895.14179075228265
 31
0.0
  0
LINE
  5
7EF6
  8
3
  6
CONTINUOUS
 62
     0
 10
-2739.9177964603159
 20
-1071.7877857522819
 30
0.0
 11
-2739.9177964603159
 21
-895.14179075228265
 31
0.0
  0
LINE
  5
7EF7
  8
3
  6
CONTINUOUS
 62
     0
 10
-3339.9177964603168
 20
-935.14179075228276
 30
0.0
 11
-2819.9177964603159
 21
-935.14179075228276
 31
0.0
  0
INSERT
  5
7EF8
  8
3
  6
CONTINUOUS
 62
     0
  2
_OPEN
 10
-3419.9177964603182
 20
-935.14179075228276
 30
0.0
 41
80.0
 42
80.0
 43
80.0
 50
180.0
  0
INSERT
  5
7EF9
  8
3
  6
CONTINUOUS
 62
     0
  2
_OPEN
 10
-2739.9177964603159
 20
-935.14179075228276
 30
0.0
 41
80.0
 42
80.0
 43
80.0
  0
TEXT
  8
3
  40
120
  5
7F45
  62
0
  72
0
  71
0
 10
-3319.92
 20
-1047.54
 30
0.000000
  1
680
  0
POINT
  5
7EFB
  8
DEFPOINTS
  6
CONTINUOUS
 62
     0
 10
-3419.9177964603182
 20
-1202.7877857522819
 30
0.0
  0
POINT
  5
7EFC
  8
DEFPOINTS
  6
CONTINUOUS
 62
     0
 10
-2739.9177964603159
 20
-1091.7877857522819
 30
0.0
  0
POINT
  5
7EFD
  8
DEFPOINTS
  6
CONTINUOUS
 62
     0
 10
-2739.9177964603159
 20
-935.14179075228276
 30
0.0
  0
ENDBLK
  5
7CCD
  8
0
  0
BLOCK
  8
0
  2
*D10
 70
     1
 10
0.0
 20
0.0
 30
0.0
  3
*D10
  1

  0
LINE
  5
7EFE
  8
3
  6
CONTINUOUS
 62
     0
 10
-4914.9177964603186
 20
606.07735888740535
 30
0.0
 11
-4914.9177964603186
 21
163.65001288740541
 31
0.0
  0
LINE
  5
7EFF
  8
3
  6
CONTINUOUS
 62
     0
 10
-2794.9177964603168
 20
606.07735888740535
 30
0.0
 11
-2794.9177964603168
 21
163.65001288740541
 31
0.0
  0
LINE
  5
7F00
  8
3
  6
CONTINUOUS
 62
     0
 10
-4834.9177964603177
 20
203.65001288740541
 30
0.0
 11
-2874.9177964603168
 21
203.65001288740541
 31
0.0
  0
INSERT
  5
7F01
  8
3
  6
CONTINUOUS
 62
     0
  2
_OPEN
 10
-4914.9177964603186
 20
203.65001288740541
 30
0.0
 41
80.0
 42
80.0
 43
80.0
 50
180.0
  0
INSERT
  5
7F02
  8
3
  6
CONTINUOUS
 62
     0
  2
_OPEN
 10
-2794.9177964603168
 20
203.65001288740541
 30
0.0
 41
80.0
 42
80.0
 43
80.0
  0
TEXT
  8
3
  40
120
  5
7F46
  62
0
  72
0
  71
0
 10
-4086.69
 20
91.2500
 30
0.000000
  1
2120
  0
POINT
  5
7F04
  8
DEFPOINTS
  6
CONTINUOUS
 62
     0
 10
-4914.9177964603186
 20
626.07735888740535
 30
0.0
  0
POINT
  5
7F05
  8
DEFPOINTS
  6
CONTINUOUS
 62
     0
 10
-2794.9177964603168
 20
626.07735888740535
 30
0.0
  0
POINT
  5
7F06
  8
DEFPOINTS
  6
CONTINUOUS
 62
     0
 10
-2794.9177964603168
 20
203.65001288740541
 30
0.0
  0
ENDBLK
  5
7CC2
  8
0
  0
BLOCK
  8
0
  2
*D11
 70
     1
 10
0.0
 20
0.0
 30
0.0
  3
*D11
  1

  0
LINE
  5
7F07
  8
3
  6
CONTINUOUS
 62
     0
 10
-2774.9177964603168
 20
1686.0773588874049
 30
0.0
 11
-2242.9345494603181
 21
1686.0773588874049
 31
0.0
  0
LINE
  5
7F08
  8
3
  6
CONTINUOUS
 62
     0
 10
-2774.9177964603168
 20
626.07735888740535
 30
0.0
 11
-2242.9345494603181
 21
626.07735888740524
 31
0.0
  0
LINE
  5
7F09
  8
3
  6
CONTINUOUS
 62
     0
 10
-2282.9345494603181
 20
1606.0773588874049
 30
0.0
 11
-2282.9345494603181
 21
706.07735888740524
 31
0.0
  0
INSERT
  5
7F0A
  8
3
  6
CONTINUOUS
 62
     0
  2
_OPEN
 10
-2282.9345494603181
 20
1686.0773588874049
 30
0.0
 41
80.0
 42
80.0
 43
80.0
 50
90.0
  0
INSERT
  5
7F0B
  8
3
  6
CONTINUOUS
 62
     0
  2
_OPEN
 10
-2282.9345494603181
 20
626.07735888740524
 30
0.0
 41
80.0
 42
80.0
 43
80.0
 50
270.0
  0
TEXT
  8
3
  40
120
  5
7F47
  62
0
  72
0
  71
0
 10
-2622.93
 20
963.352
 30
0.000000
  1
1060
  0
POINT
  5
7F0D
  8
DEFPOINTS
  6
CONTINUOUS
 62
     0
 10
-2794.9177964603168
 20
1686.0773588874049
 30
0.0
  0
POINT
  5
7F0E
  8
DEFPOINTS
  6
CONTINUOUS
 62
     0
 10
-2794.9177964603168
 20
626.07735888740535
 30
0.0
  0
POINT
  5
7F0F
  8
DEFPOINTS
  6
CONTINUOUS
 62
     0
 10
-2282.9345494603181
 20
626.07735888740524
 30
0.0
  0
ENDBLK
  5
7CB7
  8
0
  0
BLOCK
  8
0
  2
*D12
 70
     1
 10
0.0
 20
0.0
 30
0.0
  3
*D12
  1

  0
LINE
  5
7F10
  8
3
  6
CONTINUOUS
 62
     0
 10
-770.6767980989589
 20
-1124.7877857522819
 30
0.0
 11
-770.6767980989589
 21
-901.84591775228262
 31
0.0
  0
LINE
  5
7F11
  8
3
  6
CONTINUOUS
 62
     0
 10
-20.676798098958891
 20
-1124.7877857522819
 30
0.0
 11
-20.67679809895888
 21
-901.84591775228262
 31
0.0
  0
LINE
  5
7F12
  8
3
  6
CONTINUOUS
 62
     0
 10
-690.6767980989589
 20
-941.84591775228273
 30
0.0
 11
-100.6767980989588
 21
-941.84591775228273
 31
0.0
  0
INSERT
  5
7F13
  8
3
  6
CONTINUOUS
 62
     0
  2
_OPEN
 10
-770.6767980989589
 20
-941.84591775228273
 30
0.0
 41
80.0
 42
80.0
 43
80.0
 50
180.0
  0
INSERT
  5
7F14
  8
3
  6
CONTINUOUS
 62
     0
  2
_OPEN
 10
-20.67679809895888
 20
-941.84591775228273
 30
0.0
 41
80.0
 42
80.0
 43
80.0
  0
TEXT
  8
3
  40
120
  5
7F48
  62
0
  72
0
  71
0
 10
-736.391
 20
-1054.25
 30
0.000000
  1
750
  0
POINT
  5
7F16
  8
DEFPOINTS
  6
CONTINUOUS
 62
     0
 10
-770.6767980989589
 20
-1144.7877857522819
 30
0.0
  0
POINT
  5
7F17
  8
DEFPOINTS
  6
CONTINUOUS
 62
     0
 10
-20.676798098958891
 20
-1144.7877857522819
 30
0.0
  0
POINT
  5
7F18
  8
DEFPOINTS
  6
CONTINUOUS
 62
     0
 10
-20.67679809895888
 20
-941.84591775228273
 30
0.0
  0
ENDBLK
  5
7CAC
  8
0
  0
BLOCK
  8
0
  2
*D13
 70
     1
 10
0.0
 20
0.0
 30
0.0
  3
*D13
  1

  0
LINE
  5
7F19
  8
3
  6
CONTINUOUS
 62
     0
 10
-1012.676798098959
 20
-3072.7877857522822
 30
0.0
 11
-1012.676798098959
 21
-3435.4629028130248
 31
0.0
  0
LINE
  5
7F1A
  8
3
  6
CONTINUOUS
 62
     0
 10
-395.6767980989589
 20
-3201.8240763469971
 30
0.0
 11
-395.6767980989589
 21
-3435.4629028130248
 31
0.0
  0
LINE
  5
7F1B
  8
3
  6
CONTINUOUS
 62
     0
 10
-932.67679809895878
 20
-3395.4629028130248
 30
0.0
 11
-475.6767980989589
 21
-3395.4629028130248
 31
0.0
  0
INSERT
  5
7F1C
  8
3
  6
CONTINUOUS
 62
     0
  2
_OPEN
 10
-1012.676798098959
 20
-3395.4629028130248
 30
0.0
 41
80.0
 42
80.0
 43
80.0
 50
180.0
  0
INSERT
  5
7F1D
  8
3
  6
CONTINUOUS
 62
     0
  2
_OPEN
 10
-395.6767980989589
 20
-3395.4629028130248
 30
0.0
 41
80.0
 42
80.0
 43
80.0
  0
TEXT
  8
3
  40
120
  5
7F49
  62
0
  72
0
  71
0
 10
-898.534
 20
-3507.86
 30
0.000000
  1
617
  0
POINT
  5
7F1F
  8
DEFPOINTS
  6
CONTINUOUS
 62
     0
 10
-1012.676798098959
 20
-3052.7877857522831
 30
0.0
  0
POINT
  5
7F20
  8
DEFPOINTS
  6
CONTINUOUS
 62
     0
 10
-395.6767980989589
 20
-3181.8240763469971
 30
0.0
  0
POINT
  5
7F21
  8
DEFPOINTS
  6
CONTINUOUS
 62
     0
 10
-395.6767980989589
 20
-3395.4629028130248
 30
0.0
  0
ENDBLK
  5
7DA3
  8
0
  0
BLOCK
  8
0
  2
*D14
 70
     1
 10
0.0
 20
0.0
 30
0.0
  3
*D14
  1

  0
LINE
  5
7DA5
  8
0
  6
BYBLOCK
 62
     0
 10
-395.6767980989589
 20
-3201.8240763469971
 30
0.0
 11
-395.6767980989589
 21
-3435.4629028130248
 31
0.0
  0
LINE
  5
7DA6
  8
0
  6
BYBLOCK
 62
     0
 10
47.323201901041102
 20
-3072.7877857522822
 30
0.0
 11
47.323201901041102
 21
-3435.4629028130248
 31
0.0
  0
LINE
  5
7DA7
  8
0
  6
BYBLOCK
 62
     0
 10
-315.67679809895878
 20
-3395.4629028130248
 30
0.0
 11
-32.676798098958898
 21
-3395.4629028130248
 31
0.0
  0
TEXT
  5
7DA8
  8
3
 62
     0
 10
-310.600144241424
 20
-3344.445115867486
 30
0.0
 40
120.0
  1
443
  0
INSERT
  5
7DA9
  8
0
  6
BYBLOCK
 62
     0
  2
_OPEN
 10
-395.6767980989589
 20
-3395.4629028130248
 30
0.0
 41
80.0
 42
80.0
 43
80.0
 50
180.0
  0
INSERT
  5
7DAA
  8
0
  6
BYBLOCK
 62
     0
  2
_OPEN
 10
47.323201901041102
 20
-3395.4629028130248
 30
0.0
 41
80.0
 42
80.0
 43
80.0
  0
POINT
  5
7DAB
  8
DEFPOINTS
  6
BYBLOCK
 62
     0
 10
-395.6767980989589
 20
-3181.8240763469971
 30
0.0
  0
POINT
  5
7DAC
  8
DEFPOINTS
  6
BYBLOCK
 62
     0
 10
47.323201901041102
 20
-3052.7877857522831
 30
0.0
  0
POINT
  5
7DAD
  8
DEFPOINTS
  6
BYBLOCK
 62
     0
 10
47.323201901041102
 20
-3395.4629028130248
 30
0.0
  0
ENDBLK
  5
7DAE
  8
0
  0
BLOCK
  8
0
  2
*D15
 70
     1
 10
0.0
 20
0.0
 30
0.0
  3
*D15
  1

  0
LINE
  5
7F22
  8
3
  6
CONTINUOUS
 62
     0
 10
102.323201901041
 20
-1718.7877857522819
 30
0.0
 11
491.7139809010402
 21
-1718.7877857522819
 31
0.0
  0
LINE
  5
7F23
  8
3
  6
CONTINUOUS
 62
     0
 10
102.323201901041
 20
-2718.7877857522831
 30
0.0
 11
491.71398090103992
 21
-2718.7877857522831
 31
0.0
  0
LINE
  5
7F24
  8
3
  6
CONTINUOUS
 62
     0
 10
451.7139809010402
 20
-1798.7877857522819
 30
0.0
 11
451.71398090103997
 21
-2638.7877857522831
 31
0.0
  0
INSERT
  5
7F25
  8
3
  6
CONTINUOUS
 62
     0
  2
_OPEN
 10
451.7139809010402
 20
-1718.7877857522819
 30
0.0
 41
80.0
 42
80.0
 43
80.0
 50
90.0
  0
INSERT
  5
7F26
  8
3
  6
CONTINUOUS
 62
     0
  2
_OPEN
 10
451.71398090103997
 20
-2718.7877857522831
 30
0.0
 41
80.0
 42
80.0
 43
80.0
 50
270.0
  0
TEXT
  8
3
  40
120
  5
7F4A
  62
0
  72
0
  71
0
 10
111.714
 20
-2442.78
 30
0.000000
  1
φ1000
  0
POINT
  5
7F28
  8
DEFPOINTS
  6
CONTINUOUS
 62
     0
 10
82.323201901041088
 20
-1718.7877857522819
 30
0.0
  0
POINT
  5
7F29
  8
DEFPOINTS
  6
CONTINUOUS
 62
     0
 10
82.323201901041088
 20
-2718.7877857522831
 30
0.0
  0
POINT
  5
7F2A
  8
DEFPOINTS
  6
CONTINUOUS
 62
     0
 10
451.71398090103997
 20
-2718.7877857522831
 30
0.0
  0
ENDBLK
  5
7D32
  8
0
  0
BLOCK
  8
0
  2
*D16
 70
     1
 10
0.0
 20
0.0
 30
0.0
  3
*D16
  1

  0
LINE
  5
7F2B
  8
3
  6
CONTINUOUS
 62
     0
 10
-1075.676798098958
 20
-1932.0877857522819
 30
0.0
 11
-1075.676798098958
 21
-651.77398375228222
 31
0.0
  0
LINE
  5
7F2C
  8
3
  6
CONTINUOUS
 62
     0
 10
-395.6767980989589
 20
-725.78447675228244
 30
0.0
 11
-395.6767980989589
 21
-651.77398375228222
 31
0.0
  0
LINE
  5
7F2D
  8
3
  6
CONTINUOUS
 62
     0
 10
-995.6767980989589
 20
-691.77398375228222
 30
0.0
 11
-475.6767980989589
 21
-691.77398375228222
 31
0.0
  0
INSERT
  5
7F2E
  8
3
  6
CONTINUOUS
 62
     0
  2
_OPEN
 10
-1075.676798098958
 20
-691.77398375228222
 30
0.0
 41
80.0
 42
80.0
 43
80.0
 50
180.0
  0
INSERT
  5
7F2F
  8
3
  6
CONTINUOUS
 62
     0
  2
_OPEN
 10
-395.6767980989589
 20
-691.77398375228222
 30
0.0
 41
80.0
 42
80.0
 43
80.0
  0
TEXT
  8
3
  40
120
  5
7F4B
  62
0
  72
0
  71
0
 10
-1024.25
 20
-704.174
 30
0.000000
  1
MAX
  0
TEXT
  8
3
  40
120
  5
7F4C
  62
0
  72
0
  71
0
 10
-1024.25
 20
-860.174
 30
0.000000
  1
770
  0
POINT
  5
7F31
  8
DEFPOINTS
  6
CONTINUOUS
 62
     0
 10
-1075.676798098958
 20
-1952.0877857522819
 30
0.0
  0
POINT
  5
7F32
  8
DEFPOINTS
  6
CONTINUOUS
 62
     0
 10
-395.6767980989589
 20
-745.78447675228244
 30
0.0
  0
POINT
  5
7F33
  8
DEFPOINTS
  6
CONTINUOUS
 62
     0
 10
-395.6767980989589
 20
-691.77398375228222
 30
0.0
  0
ENDBLK
  5
7D69
  8
0
  0
BLOCK
  8
0
  2
*D17
 70
     1
 10
0.0
 20
0.0
 30
0.0
  3
*D17
  1

  0
LINE
  5
7D4A
  8
0
  6
BYBLOCK
 62
     0
 10
-395.6767980989589
 20
-154.37410245905119
 30
0.0
 11
-395.6767980989589
 21
-80.363609459051077
 31
0.0
  0
LINE
  5
7D4B
  8
0
  6
BYBLOCK
 62
     0
 10
82.323201901041088
 20
-1077.377411459051
 30
0.0
 11
82.323201901041088
 21
-80.363609459051077
 31
0.0
  0
LINE
  5
7D4C
  8
0
  6
BYBLOCK
 62
     0
 10
-315.67679809895878
 20
-120.36360945905101
 30
0.0
 11
2.3232019010411018
 21
-120.36360945905101
 31
0.0
  0
TEXT
  5
7D4D
  8
3
 62
     0
 10
-318.33842049329962
 20
-70.855104948135704
 30
0.0
 40
120.0
  1
478
  0
INSERT
  5
7D4E
  8
0
  6
BYBLOCK
 62
     0
  2
_OPEN
 10
-395.6767980989589
 20
-120.36360945905101
 30
0.0
 41
80.0
 42
80.0
 43
80.0
 50
180.0
  0
INSERT
  5
7D4F
  8
0
  6
BYBLOCK
 62
     0
  2
_OPEN
 10
82.323201901041088
 20
-120.36360945905101
 30
0.0
 41
80.0
 42
80.0
 43
80.0
  0
POINT
  5
7D50
  8
DEFPOINTS
  6
BYBLOCK
 62
     0
 10
-395.6767980989589
 20
-174.37410245905119
 30
0.0
  0
POINT
  5
7D51
  8
DEFPOINTS
  6
BYBLOCK
 62
     0
 10
82.323201901041088
 20
-1097.377411459051
 30
0.0
  0
POINT
  5
7D52
  8
DEFPOINTS
  6
BYBLOCK
 62
     0
 10
82.323201901041088
 20
-120.36360945905101
 30
0.0
  0
ENDBLK
  5
7D53
  8
0
  0
BLOCK
  8
0
  2
*D18
 70
     1
 10
0.0
 20
0.0
 30
0.0
  3
*D18
  1

  0
LINE
  5
7F34
  8
3
 62
     0
 10
-2739.9177964603159
 20
-1071.7877857522819
 30
0.0
 11
-2739.9177964603159
 21
-681.43956029691981
 31
0.0
  0
LINE
  5
7F35
  8
3
 62
     0
 10
-4914.9177964603177
 20
-2823.7877857522822
 30
0.0
 11
-4914.9177964603177
 21
-681.43956029691981
 31
0.0
  0
LINE
  5
7F36
  8
3
 62
     0
 10
-2819.9177964603159
 20
-721.43956029691969
 30
0.0
 11
-4834.9177964603177
 21
-721.43956029691969
 31
0.0
  0
INSERT
  5
7F37
  8
3
 62
     0
  2
_OPEN
 10
-2739.9177964603159
 20
-721.43956029691969
 30
0.0
 41
80.0
 42
80.0
 43
80.0
  0
INSERT
  5
7F38
  8
3
 62
     0
  2
_OPEN
 10
-4914.9177964603177
 20
-721.43956029691969
 30
0.0
 41
80.0
 42
80.0
 43
80.0
 50
180.0
  0
TEXT
  8
3
  40
120
  5
7F4D
  62
0
  72
0
  71
0
 10
-3971.40
 20
-833.840
 30
0.000000
  1
2175
  0
POINT
  5
7F3A
  8
DEFPOINTS
 62
     0
 10
-2739.9177964603159
 20
-1091.7877857522819
 30
0.0
  0
POINT
  5
7F3B
  8
DEFPOINTS
 62
     0
 10
-4914.9177964603177
 20
-2843.7877857522831
 30
0.0
  0
POINT
  5
7F3C
  8
DEFPOINTS
 62
     0
 10
-4914.9177964603177
 20
-721.43956029691969
 30
0.0
  0
ENDBLK
  5
7D81
  8
0
  0
ENDSEC
  0
SECTION
  2
ENTITIES
  0
LINE
  5
7A78
  8
1
  6
CONTINUOUS
 10
-2794.9177964603168
 20
-2987.7877857522822
 30
0.0
 11
-4914.9177964603177
 21
-2987.7877857522822
 31
0.0
  0
LINE
  5
7A79
  8
1
  6
CONTINUOUS
 10
-2794.9177964603168
 20
-3052.7877857522831
 30
0.0
 11
-4914.9177964603177
 21
-3052.7877857522831
 31
0.0
  0
LINE
  5
7A7A
  8
1
  6
CONTINUOUS
 10
-4588.0177964603172
 20
-2801.987785752282
 30
0.0
 11
-3352.4177964603168
 21
-2469.8877857522821
 31
0.0
  0
LINE
  5
7A7B
  8
1
  6
CONTINUOUS
 10
-4613.9177964603168
 20
-2705.3877857522821
 30
0.0
 11
-3378.4177964603182
 21
-2373.3877857522821
 31
0.0
  0
LINE
  5
7A7C
  8
1
  6
CONTINUOUS
 10
-4709.7177964603161
 20
-2421.3877857522821
 30
0.0
 11
-3510.617796460318
 21
-1975.187785752282
 31
0.0
  0
LINE
  5
7A7D
  8
1
  6
CONTINUOUS
 10
-4674.8177964603174
 20
-2515.0877857522819
 30
0.0
 11
-3475.717796460317
 21
-2068.8877857522821
 31
0.0
  0
LINE
  5
7A7E
  8
1
  6
CONTINUOUS
 10
-2794.9177964603168
 20
-2843.7877857522831
 30
0.0
 11
-4914.9177964603177
 21
-2843.7877857522831
 31
0.0
  0
LINE
  5
7A7F
  8
1
  6
CONTINUOUS
 10
-2794.9177964603168
 20
-2968.7877857522831
 30
0.0
 11
-4914.9177964603177
 21
-2968.7877857522831
 31
0.0
  0
POLYLINE
  5
7A80
  8
1
  6
CONTINUOUS
 66
     1
 10
0.0
 20
0.0
 30
0.0
  0
VERTEX
  5
7EA4
  8
1
  6
CONTINUOUS
 10
-2739.9177964603159
 20
-1144.7877857522819
 30
0.0
  0
VERTEX
  5
7EA5
  8
1
  6
CONTINUOUS
 10
-3419.9177964603182
 20
-1202.7877857522819
 30
0.0
 42
0.4
  0
VERTEX
  5
7EA6
  8
1
  6
CONTINUOUS
 10
-4290.8177964603174
 20
-2144.7877857522822
 30
0.0
 42
0.4
  0
VERTEX
  5
7EA7
  8
1
  6
CONTINUOUS
 10
-3414.3177964603169
 20
-2937.7877857522822
 30
0.0
 42
0.4
  0
VERTEX
  5
7EA8
  8
1
  6
CONTINUOUS
 10
-2818.717796460317
 20
-2279.2877857522822
 30
0.0
  0
VERTEX
  5
7EA9
  8
1
  6
CONTINUOUS
 10
-2828.9177964603159
 20
-2174.7877857522822
 30
0.0
 42
0.4
  0
SEQEND
  5
7EAA
  8
1
  6
CONTINUOUS
  0
ARC
  5
7A88
  8
1
  6
CONTINUOUS
 10
-4639.9177964603168
 20
-2608.7877857522822
 30
0.0
 40
200.0
 50
110.40000000000001
 51
285.0
  0
LINE
  5
7A89
  8
1
  6
CONTINUOUS
 10
-4849.9177964603168
 20
-2788.7877857522822
 30
0.0
 11
-4429.9177964603177
 21
-2788.7877857522822
 31
0.0
  0
ARC
  5
7A8A
  8
1
  6
CONTINUOUS
 10
-4639.9177964603168
 20
-2608.7877857522822
 30
0.0
 40
182.5
 50
326.60000000000002
 51
213.40000000000001
  0
LINE
  5
7A8B
  8
1
  6
CONTINUOUS
 10
-4914.9177964603177
 20
-2987.7877857522822
 30
0.0
 11
-4914.9177964603177
 21
-3052.7877857522831
 31
0.0
  0
LINE
  5
7A8C
  8
1
  6
CONTINUOUS
 10
-4864.9177964603177
 20
-2843.7877857522831
 30
0.0
 11
-4849.9177964603168
 21
-2788.7877857522822
 31
0.0
  0
LINE
  5
7A8D
  8
1
  6
CONTINUOUS
 10
-4801.9177964603177
 20
-2788.7877857522822
 30
0.0
 11
-4801.9177964603177
 21
-2718.7877857522831
 31
0.0
  0
LINE
  5
7A8E
  8
1
  6
CONTINUOUS
 10
-4801.9177964603177
 20
-2718.7877857522831
 30
0.0
 11
-4792.3177964603174
 21
-2709.2877857522822
 31
0.0
  0
LINE
  5
7A8F
  8
1
  6
CONTINUOUS
 10
-4914.9177964603177
 20
-2843.7877857522831
 30
0.0
 11
-4914.9177964603177
 21
-2968.7877857522831
 31
0.0
  0
LINE
  5
7A90
  8
2
  6
CENTER
 10
-4639.9177964603168
 20
-2713.7877857522822
 30
0.0
 11
-4639.9177964603168
 21
-2503.7877857522822
 31
0.0
  0
CIRCLE
  5
7A91
  8
1
  6
CONTINUOUS
 10
-4639.9177964603168
 20
-2608.7877857522822
 30
0.0
 40
100.0
  0
LINE
  5
7A92
  8
1
  6
CONTINUOUS
 10
-4414.9177964603177
 20
-2843.7877857522831
 30
0.0
 11
-4429.9177964603177
 21
-2788.7877857522822
 31
0.0
  0
LINE
  5
7A93
  8
1
  6
CONTINUOUS
 10
-4477.9177964603168
 20
-2788.7877857522822
 30
0.0
 11
-4477.9177964603168
 21
-2718.7877857522831
 31
0.0
  0
LINE
  5
7A94
  8
1
  6
CONTINUOUS
 10
-4477.9177964603168
 20
-2718.7877857522831
 30
0.0
 11
-4487.5177964603172
 21
-2709.2877857522822
 31
0.0
  0
LINE
  5
7A95
  8
2
  6
CENTER
 10
-4744.9177964603177
 20
-2608.7877857522822
 30
0.0
 11
-4534.9177964603177
 21
-2608.7877857522822
 31
0.0
  0
CIRCLE
  5
7A96
  8
1
  6
CONTINUOUS
 10
-3419.9177964603182
 20
-2218.7877857522831
 30
0.0
 40
550.0
  0
CIRCLE
  5
7A97
  8
1
  6
CONTINUOUS
 10
-3419.9177964603182
 20
-2218.7877857522831
 30
0.0
 40
500.0
  0
ARC
  5
7A98
  8
1
  6
CONTINUOUS
 10
-3419.9177964603182
 20
-2218.7877857522831
 30
0.0
 40
260.0
 50
285.0
 51
110.40000000000001
  0
CIRCLE
  5
7A99
  8
1
  6
CONTINUOUS
 10
-3419.9177964603182
 20
-2218.7877857522831
 30
0.0
 40
160.0
  0
LINE
  5
7A9A
  8
2
  6
CENTER
 10
171.37636390104029
 20
-2218.7877857522831
 30
0.0
 11
-1179.1567140989589
 21
-2218.7877857522831
 31
0.0
  0
LINE
  5
7A9B
  8
2
  6
CENTER
 10
-3419.9177964603182
 20
1834.0606028874049
 30
0.0
 11
-3419.9177964603182
 21
464.44507688740532
 31
0.0
  0
LINE
  5
7A9C
  8
1
  6
CONTINUOUS
 10
-2789.9177964603168
 20
-2174.7877857522822
 30
0.0
 11
-2789.9177964603168
 21
-1144.7877857522819
 31
0.0
  0
LINE
  5
7A9D
  8
1
  6
CONTINUOUS
 10
-2739.9177964603159
 20
-2227.7877857522822
 30
0.0
 11
-2739.9177964603159
 21
-1091.7877857522819
 31
0.0
  0
LINE
  5
7A9E
  8
1
  6
CONTINUOUS
 10
-2794.9177964603168
 20
-2987.7877857522822
 30
0.0
 11
-2794.9177964603168
 21
-3052.7877857522831
 31
0.0
  0
LINE
  5
7A9F
  8
1
  6
CONTINUOUS
 10
-2794.9177964603168
 20
-2843.7877857522831
 30
0.0
 11
-2794.9177964603168
 21
-2968.7877857522831
 31
0.0
  0
LINE
  5
7AA0
  8
1
  6
CONTINUOUS
 10
-2828.9177964603159
 20
-2174.7877857522822
 30
0.0
 11
-2739.9177964603159
 21
-2174.7877857522822
 31
0.0
  0
LINE
  5
7AA1
  8
1
  6
CONTINUOUS
 10
-3579.9177964603191
 20
626.07735888740535
 30
0.0
 11
-4539.9177964603186
 21
626.07735888740535
 31
0.0
  0
LINE
  5
7AA2
  8
1
  6
CONTINUOUS
 10
-3919.9177964603182
 20
1686.0773588874049
 30
0.0
 11
-4914.9177964603186
 21
1686.0773588874049
 31
0.0
  0
LINE
  5
7AA3
  8
1
  6
CONTINUOUS
 10
-3159.9177964603182
 20
563.07735888740535
 30
0.0
 11
-4839.9177964603186
 21
563.07735888740535
 31
0.0
  0
LINE
  5
7AA4
  8
1
  6
CONTINUOUS
 10
-3159.9177964603182
 20
763.07735888740535
 30
0.0
 11
-4839.9177964603186
 21
763.07735888740535
 31
0.0
  0
LINE
  5
7AA5
  8
1
  6
CONTINUOUS
 10
-2739.9177964603159
 20
868.07735888740535
 30
0.0
 11
-4290.8177964603155
 21
868.07735888740535
 31
0.0
  0
LINE
  5
7AA6
  8
1
  6
CONTINUOUS
 10
-2739.9177964603159
 20
1618.0773588874049
 30
0.0
 11
-4290.8177964603155
 21
1618.0773588874049
 31
0.0
  0
LINE
  5
7AA7
  8
1
  6
CONTINUOUS
 10
-4739.9177964603186
 20
626.07735888740535
 30
0.0
 11
-4914.9177964603186
 21
626.07735888740535
 31
0.0
  0
LINE
  5
7AA8
  8
1
  6
CONTINUOUS
 10
-4822.4177964603177
 20
1347.977358887405
 30
0.0
 11
-4457.4177964603177
 21
1347.977358887405
 31
0.0
  0
LINE
  5
7AA9
  8
1
  6
CONTINUOUS
 10
-4822.4177964603177
 20
786.47735888740544
 30
0.0
 11
-4457.4177964603177
 21
786.47735888740544
 31
0.0
  0
LINE
  5
7AAA
  8
1
  6
CONTINUOUS
 10
-4914.9177964603186
 20
1686.0773588874049
 30
0.0
 11
-4914.9177964603186
 21
626.07735888740535
 31
0.0
  0
LINE
  5
7AAB
  8
1
  6
CONTINUOUS
 10
-4822.4177964603177
 20
786.47735888740544
 30
0.0
 11
-4822.4177964603177
 21
1347.977358887405
 31
0.0
  0
LINE
  5
7AAC
  8
1
  6
CONTINUOUS
 10
-4839.9177964603186
 20
563.07735888740535
 30
0.0
 11
-4839.9177964603186
 21
763.07735888740535
 31
0.0
  0
LINE
  5
7AAD
  8
1
  6
CONTINUOUS
 10
-4290.8177964603155
 20
868.07735888740535
 30
0.0
 11
-4290.8177964603155
 21
1618.0773588874049
 31
0.0
  0
LINE
  5
7AAE
  8
1
  6
CONTINUOUS
 10
-4457.4177964603177
 20
786.47735888740544
 30
0.0
 11
-4457.4177964603177
 21
1347.977358887405
 31
0.0
  0
LINE
  5
7AAF
  8
1
  6
CONTINUOUS
 10
-4615.9177964603177
 20
713.07735888740535
 30
0.0
 11
-4615.9177964603177
 21
786.47735888740544
 31
0.0
  0
LINE
  5
7AB0
  8
1
  6
CONTINUOUS
 10
-4663.9177964603177
 20
713.07735888740535
 30
0.0
 11
-4663.9177964603177
 21
786.47735888740544
 31
0.0
  0
LINE
  5
7AB1
  8
1
  6
CONTINUOUS
 10
-4539.9177964603186
 20
713.07735888740535
 30
0.0
 11
-4739.9177964603186
 21
713.07735888740535
 31
0.0
  0
LINE
  5
7AB2
  8
1
  6
CONTINUOUS
 10
-4539.9177964603186
 20
613.07735888740535
 30
0.0
 11
-4739.9177964603186
 21
613.07735888740535
 31
0.0
  0
LINE
  5
7AB3
  8
1
  6
CONTINUOUS
 10
-4539.9177964603186
 20
613.07735888740535
 30
0.0
 11
-4539.9177964603186
 21
713.07735888740535
 31
0.0
  0
LINE
  5
7AB4
  8
1
  6
CONTINUOUS
 10
-4739.9177964603186
 20
613.07735888740535
 30
0.0
 11
-4739.9177964603186
 21
713.07735888740535
 31
0.0
  0
LINE
  5
7AB5
  8
1
  6
CONTINUOUS
 10
-2869.9177964603168
 20
1721.0773588874049
 30
0.0
 11
-3969.9177964603182
 21
1721.0773588874049
 31
0.0
  0
LINE
  5
7AB6
  8
1
  6
CONTINUOUS
 10
-2794.9177964603168
 20
626.07735888740535
 30
0.0
 11
-3259.9177964603182
 21
626.07735888740535
 31
0.0
  0
LINE
  5
7AB7
  8
1
  6
CONTINUOUS
 10
-3919.9177964603182
 20
1618.0773588874049
 30
0.0
 11
-3919.9177964603182
 21
1721.0773588874049
 31
0.0
  0
LINE
  5
7AB8
  8
1
  6
CONTINUOUS
 10
-3259.9177964603182
 20
613.07735888740535
 30
0.0
 11
-3579.9177964603191
 21
613.07735888740535
 31
0.0
  0
LINE
  5
7AB9
  8
1
  6
CONTINUOUS
 10
-3259.9177964603182
 20
713.07735888740535
 30
0.0
 11
-3579.9177964603191
 21
713.07735888740535
 31
0.0
  0
LINE
  5
7ABA
  8
1
  6
CONTINUOUS
 10
-3443.9177964603182
 20
713.07735888740535
 30
0.0
 11
-3443.9177964603182
 21
868.07735888740535
 31
0.0
  0
LINE
  5
7ABB
  8
1
  6
CONTINUOUS
 10
-3395.9177964603182
 20
713.07735888740535
 30
0.0
 11
-3395.9177964603182
 21
868.07735888740535
 31
0.0
  0
LINE
  5
7ABC
  8
1
  6
CONTINUOUS
 10
-3579.9177964603191
 20
613.07735888740535
 30
0.0
 11
-3579.9177964603191
 21
713.07735888740535
 31
0.0
  0
LINE
  5
7ABD
  8
1
  6
CONTINUOUS
 10
-3259.9177964603182
 20
613.07735888740535
 30
0.0
 11
-3259.9177964603182
 21
713.07735888740535
 31
0.0
  0
LINE
  5
7ABE
  8
1
  6
CONTINUOUS
 10
-3159.9177964603182
 20
563.07735888740535
 30
0.0
 11
-3159.9177964603182
 21
763.07735888740535
 31
0.0
  0
LINE
  5
7ABF
  8
1
  6
CONTINUOUS
 10
-2739.9177964603159
 20
818.07735888740535
 30
0.0
 11
-2739.9177964603159
 21
1668.0773588874049
 31
0.0
  0
LINE
  5
7AC0
  8
1
  6
CONTINUOUS
 10
-2789.9177964603168
 20
868.07735888740535
 30
0.0
 11
-2789.9177964603168
 21
1618.0773588874049
 31
0.0
  0
LINE
  5
7AC1
  8
1
  6
CONTINUOUS
 10
-2794.9177964603168
 20
868.07735888740535
 30
0.0
 11
-2794.9177964603168
 21
626.07735888740535
 31
0.0
  0
LINE
  5
7AC2
  8
1
  6
CONTINUOUS
 10
-2919.9177964603182
 20
1618.0773588874049
 30
0.0
 11
-2919.9177964603182
 21
1721.0773588874049
 31
0.0
  0
LINE
  5
7AC3
  8
1
  6
CONTINUOUS
 10
-2794.9177964603168
 20
1686.0773588874049
 30
0.0
 11
-2919.9177964603182
 21
1686.0773588874049
 31
0.0
  0
LINE
  5
7AC4
  8
1
  6
CONTINUOUS
 10
-2794.9177964603168
 20
1686.0773588874049
 30
0.0
 11
-2794.9177964603168
 21
1618.0773588874049
 31
0.0
  0
LINE
  5
7AC5
  8
1
  6
CONTINUOUS
 10
47.323201901041102
 20
-2987.7877857522822
 30
0.0
 11
-1012.676798098959
 21
-2987.7877857522822
 31
0.0
  0
LINE
  5
7AC6
  8
1
  6
CONTINUOUS
 10
47.323201901041102
 20
-3052.7877857522831
 30
0.0
 11
-1012.676798098959
 21
-3052.7877857522831
 31
0.0
  0
LINE
  5
7AC7
  8
1
  6
CONTINUOUS
 10
82.323201901041088
 20
-2718.7877857522831
 30
0.0
 11
-20.676798098958891
 21
-2718.7877857522831
 31
0.0
  0
LINE
  5
7AC8
  8
1
  6
CONTINUOUS
 10
82.323201901041088
 20
-1718.7877857522819
 30
0.0
 11
-20.676798098958891
 21
-1718.7877857522819
 31
0.0
  0
LINE
  5
7AC9
  8
1
  6
CONTINUOUS
 10
47.323201901041102
 20
-2968.7877857522831
 30
0.0
 11
-1012.676798098959
 21
-2968.7877857522831
 31
0.0
  0
LINE
  5
7ACA
  8
1
  6
CONTINUOUS
 10
47.323201901041102
 20
-2843.7877857522831
 30
0.0
 11
-1012.676798098959
 21
-2843.7877857522831
 31
0.0
  0
LINE
  5
7ACB
  8
1
  6
CONTINUOUS
 10
-770.6767980989589
 20
-2174.7877857522822
 30
0.0
 11
-20.676798098958891
 21
-1144.7877857522819
 31
0.0
  0
LINE
  5
7ACC
  8
1
  6
CONTINUOUS
 10
-770.6767980989589
 20
-1144.7877857522819
 30
0.0
 11
-20.676798098958891
 21
-2174.7877857522822
 31
0.0
  0
LINE
  5
7ACD
  8
1
  6
CONTINUOUS
 10
-770.6767980989589
 20
-1144.7877857522819
 30
0.0
 11
-770.6767980989589
 21
-2843.7877857522831
 31
0.0
  0
LINE
  5
7ACE
  8
1
  6
CONTINUOUS
 10
-20.676798098958891
 20
-1144.7877857522819
 30
0.0
 11
-20.676798098958891
 21
-2843.7877857522831
 31
0.0
  0
LINE
  5
7ACF
  8
1
  6
CONTINUOUS
 10
-20.676798098958891
 20
-2174.7877857522822
 30
0.0
 11
-770.6767980989589
 21
-2174.7877857522822
 31
0.0
  0
LINE
  5
7AD0
  8
1
  6
CONTINUOUS
 10
-925.6767980989589
 20
-2508.7877857522822
 30
0.0
 11
-925.6767980989589
 21
-2708.7877857522822
 31
0.0
  0
LINE
  5
7AD1
  8
1
  6
CONTINUOUS
 10
-1025.676798098958
 20
-2508.7877857522822
 30
0.0
 11
-1025.676798098958
 21
-2708.7877857522822
 31
0.0
  0
LINE
  5
7AD2
  8
1
  6
CONTINUOUS
 10
-1075.676798098958
 20
-1952.0877857522819
 30
0.0
 11
-1075.676798098958
 21
-2808.7877857522831
 31
0.0
  0
LINE
  5
7AD3
  8
1
  6
CONTINUOUS
 10
-875.6767980989589
 20
-1952.0877857522819
 30
0.0
 11
-875.6767980989589
 21
-2808.7877857522831
 31
0.0
  0
LINE
  5
7AD4
  8
1
  6
CONTINUOUS
 10
-1075.676798098958
 20
-2808.7877857522831
 30
0.0
 11
-875.6767980989589
 21
-2808.7877857522831
 31
0.0
  0
LINE
  5
7AD5
  8
1
  6
CONTINUOUS
 10
-1012.676798098959
 20
-2987.7877857522822
 30
0.0
 11
-1012.676798098959
 21
-3052.7877857522831
 31
0.0
  0
LINE
  5
7AD6
  8
1
  6
CONTINUOUS
 10
-1025.676798098958
 20
-2708.7877857522822
 30
0.0
 11
-925.6767980989589
 21
-2708.7877857522822
 31
0.0
  0
LINE
  5
7AD7
  8
1
  6
CONTINUOUS
 10
-1012.676798098959
 20
-2843.7877857522831
 30
0.0
 11
-1012.676798098959
 21
-2968.7877857522831
 31
0.0
  0
POINT
  5
7AD8
  8
1
  6
CONTINUOUS
 10
-1012.676798098959
 20
-2968.7877857522831
 30
0.0
  0
POINT
  5
7AD9
  8
1
  6
CONTINUOUS
 10
-1012.676798098959
 20
-2987.7877857522822
 30
0.0
  0
LINE
  5
7ADA
  8
1
  6
CONTINUOUS
 10
-770.6767980989589
 20
-2578.0877857522819
 30
0.0
 11
-925.6767980989589
 21
-2578.0877857522819
 31
0.0
  0
LINE
  5
7ADB
  8
1
  6
CONTINUOUS
 10
-770.6767980989589
 20
-2626.0877857522819
 30
0.0
 11
-925.6767980989589
 21
-2626.0877857522819
 31
0.0
  0
LINE
  5
7ADC
  8
1
  6
CONTINUOUS
 10
-770.6767980989589
 20
-2236.0877857522819
 30
0.0
 11
-925.6767980989589
 21
-2236.0877857522819
 31
0.0
  0
LINE
  5
7ADD
  8
1
  6
CONTINUOUS
 10
-770.6767980989589
 20
-2188.0877857522819
 30
0.0
 11
-925.6767980989589
 21
-2188.0877857522819
 31
0.0
  0
LINE
  5
7ADE
  8
1
  6
CONTINUOUS
 10
-1075.676798098958
 20
-1952.0877857522819
 30
0.0
 11
-875.6767980989589
 21
-1952.0877857522819
 31
0.0
  0
LINE
  5
7ADF
  8
1
  6
CONTINUOUS
 10
-1025.676798098958
 20
-2385.5877857522819
 30
0.0
 11
-925.6767980989589
 21
-2385.5877857522819
 31
0.0
  0
LINE
  5
7AE0
  8
1
  6
CONTINUOUS
 10
-1025.676798098958
 20
-2052.0877857522819
 30
0.0
 11
-925.6767980989589
 21
-2052.0877857522819
 31
0.0
  0
LINE
  5
7AE1
  8
1
  6
CONTINUOUS
 10
-1025.676798098958
 20
-2508.7877857522822
 30
0.0
 11
-925.6767980989589
 21
-2508.7877857522822
 31
0.0
  0
LINE
  5
7AE2
  8
1
  6
CONTINUOUS
 10
-925.6767980989589
 20
-2052.0877857522819
 30
0.0
 11
-925.6767980989589
 21
-2385.5877857522819
 31
0.0
  0
LINE
  5
7AE3
  8
1
  6
CONTINUOUS
 10
-1025.676798098958
 20
-2052.0877857522819
 30
0.0
 11
-1025.676798098958
 21
-2385.5877857522819
 31
0.0
  0
LINE
  5
7AE4
  8
1
  6
CONTINUOUS
 10
-20.676798098958891
 20
-1144.7877857522819
 30
0.0
 11
-770.6767980989589
 21
-1144.7877857522819
 31
0.0
  0
LINE
  5
7AE5
  8
1
  6
CONTINUOUS
 10
82.323201901041088
 20
-1668.7877857522819
 30
0.0
 11
82.323201901041088
 21
-2768.7877857522822
 31
0.0
  0
LINE
  5
7AE6
  8
1
  6
CONTINUOUS
 10
47.323201901041102
 20
-2987.7877857522822
 30
0.0
 11
47.323201901041102
 21
-3052.7877857522831
 31
0.0
  0
LINE
  5
7AE7
  8
1
  6
CONTINUOUS
 10
47.323201901041102
 20
-2843.7877857522831
 30
0.0
 11
47.323201901041102
 21
-2968.7877857522831
 31
0.0
  0
DIMENSION
  5
7AFB
  8
3
  6
CONTINUOUS
  2
*D1
 10
-3419.9177964603182
 20
-3449.866847752282
 30
0.0
 11
-4141.9929004603173
 21
-3449.866847752282
 31
0.0
 70
   128
 13
-4914.9177964603177
 23
-3052.7877857522831
 33
0.0
 14
-3419.9177964603182
 24
-3169.8780737522829
 34
0.0
1001
ACAD
1000
DSTYLE
1002
{
1070
   287
1070
     3
1070
   287
1070
     3
1070
    40
1040
40.0
1070
   143
1040
0.039
1070
   172
1070
     1
1070
   271
1070
     0
1070
   279
1070
     0
1070
   288
1070
     1
1002
}
  0
DIMENSION
  5
7B07
  8
3
  6
CONTINUOUS
  2
*D2
 10
-2794.9177964603168
 20
-3449.866847752282
 30
0.0
 11
-3107.4177964603168
 21
-3349.8668477522829
 31
0.0
 70
     0
 13
-3419.9177964603182
 23
-3169.8780737522829
 33
0.0
 14
-2794.9177964603168
 24
-3052.7877857522831
 34
0.0
1001
ACAD
1000
DSTYLE
1002
{
1070
   287
1070
     3
1070
   287
1070
     3
1070
    40
1040
40.0
1070
   143
1040
0.039
1070
   172
1070
     1
1070
   271
1070
     0
1070
   279
1070
     0
1070
   288
1070
     1
1002
}
  0
DIMENSION
  5
7B14
  8
3
  6
CONTINUOUS
  2
*D3
 10
-2350.048594460317
 20
-2174.7877857522822
 30
0.0
 11
-2350.048594460317
 21
-1679.969974752282
 31
0.0
 70
   128
 13
-2739.9177964603159
 23
-1144.7877857522819
 33
0.0
 14
-2739.9177964603159
 24
-2174.7877857522822
 34
0.0
 50
90.0
1001
ACAD
1000
DSTYLE
1002
{
1070
   287
1070
     3
1070
   287
1070
     3
1070
    40
1040
40.0
1070
   143
1040
0.039
1070
   172
1070
     1
1070
   271
1070
     0
1070
   279
1070
     0
1070
   288
1070
     1
1002
}
  0
DIMENSION
  5
7B21
  8
3
  6
CONTINUOUS
  2
*D4
 10
-2034.6126854603169
 20
-2218.7877857522831
 30
0.0
 11
-2034.6126854603169
 21
-1679.969974752282
 31
0.0
 70
   128
 13
-2739.9177964603159
 23
-1144.7877857522819
 33
0.0
 14
-2824.6230594603171
 24
-2218.7877857522831
 34
0.0
 50
90.0
1001
ACAD
1000
DSTYLE
1002
{
1070
   287
1070
     3
1070
   287
1070
     3
1070
    40
1040
40.0
1070
   143
1040
0.039
1070
   172
1070
     1
1070
   271
1070
     0
1070
   279
1070
     0
1070
   288
1070
     1
1002
}
  0
DIMENSION
  5
7B2D
  8
3
  6
CONTINUOUS
  2
*D5
 10
-2034.6126854603169
 20
-2968.7877857522831
 30
0.0
 11
-2134.6126854603158
 21
-2593.7877857522831
 31
0.0
 70
     0
 13
-2824.6230594603171
 23
-2218.7877857522831
 33
0.0
 14
-2794.9177964603168
 24
-2968.7877857522831
 34
0.0
 50
90.0
1001
ACAD
1000
DSTYLE
1002
{
1070
   287
1070
     3
1070
   287
1070
     3
1070
    40
1040
40.0
1070
   143
1040
0.039
1070
   172
1070
     1
1070
   271
1070
     0
1070
   279
1070
     0
1070
   288
1070
     1
1002
}
  0
DIMENSION
  5
7B3D
  8
3
  6
CONTINUOUS
  2
*D6
 10
-2034.6126854603169
 20
-3052.7877857522831
 30
0.0
 11
-2034.6126854603169
 21
-3352.7877857522831
 31
0.0
 70
   128
 13
-2794.9177964603168
 23
-2968.7877857522831
 33
0.0
 14
-2794.9177964603168
 24
-3052.7877857522831
 34
0.0
 50
90.0
1001
ACAD
1000
DSTYLE
1002
{
1070
   287
1070
     3
1070
   287
1070
     3
1070
    40
1040
40.0
1070
   143
1040
0.039
1070
   172
1070
     1
1070
   271
1070
     0
1070
   279
1070
     0
1070
   288
1070
     1
1002
}
  0
DIMENSION
  5
7B64
  8
3
  6
CONTINUOUS
  2
*D7
 10
-1765.343128959747
 20
-3052.7877857522831
 30
0.0
 11
-1765.3431289597461
 21
-2135.8524927522822
 31
0.0
 70
   128
 13
-2739.9177964603159
 23
-1091.7877857522819
 33
0.0
 14
-2794.9177964603168
 24
-3052.7877857522831
 34
0.0
 50
90.0
1001
ACAD
1000
DSTYLE
1002
{
1070
   287
1070
     3
1070
   287
1070
     3
1070
    40
1040
40.0
1070
   143
1040
0.039
1070
   172
1070
     1
1070
   271
1070
     0
1070
   279
1070
     0
1070
   288
1070
     1
1002
}
  0
DIMENSION
  5
7B71
  8
3
  6
CONTINUOUS
  2
*D8
 10
-3419.9177964603182
 20
-935.14179075228276
 30
0.0
 11
-3826.5570454603171
 21
-935.14179075228276
 31
0.0
 70
   128
 13
-4287.9177964603177
 23
-2218.7877857522831
 33
0.0
 14
-3419.9177964603182
 24
-1202.7877857522819
 34
0.0
1001
ACAD
1000
DSTYLE
1002
{
1070
   287
1070
     3
1070
   287
1070
     3
1070
    40
1040
40.0
1070
   143
1040
0.039
1070
   172
1070
     1
1070
   271
1070
     0
1070
   279
1070
     0
1070
   288
1070
     1
1002
}
  0
DIMENSION
  5
7B7D
  8
3
  6
CONTINUOUS
  2
*D9
 10
-2739.9177964603159
 20
-935.14179075228276
 30
0.0
 11
-3079.9177964603168
 21
-835.14179075228276
 31
0.0
 70
     0
 13
-3419.9177964603182
 23
-1202.7877857522819
 33
0.0
 14
-2739.9177964603159
 24
-1091.7877857522819
 34
0.0
1001
ACAD
1000
DSTYLE
1002
{
1070
   287
1070
     3
1070
   287
1070
     3
1070
    40
1040
40.0
1070
   143
1040
0.039
1070
   172
1070
     1
1070
   271
1070
     0
1070
   279
1070
     0
1070
   288
1070
     1
1002
}
  0
DIMENSION
  5
7B8A
  8
3
  6
CONTINUOUS
  2
*D10
 10
-2794.9177964603168
 20
203.65001288740541
 30
0.0
 11
-3846.691253460318
 21
203.65001288740541
 31
0.0
 70
   128
 13
-4914.9177964603186
 23
626.07735888740535
 33
0.0
 14
-2794.9177964603168
 24
626.07735888740535
 34
0.0
1001
ACAD
1000
DSTYLE
1002
{
1070
   287
1070
     3
1070
   287
1070
     3
1070
    40
1040
40.0
1070
   143
1040
0.039
1070
   172
1070
     1
1070
   271
1070
     0
1070
   279
1070
     0
1070
   288
1070
     1
1002
}
  0
DIMENSION
  5
7B97
  8
3
  6
CONTINUOUS
  2
*D11
 10
-2282.9345494603181
 20
626.07735888740524
 30
0.0
 11
-2282.9345494603181
 21
1175.752470887405
 31
0.0
 70
   128
 13
-2794.9177964603168
 23
1686.0773588874049
 33
0.0
 14
-2794.9177964603168
 24
626.07735888740535
 34
0.0
 50
90.0
1001
ACAD
1000
DSTYLE
1002
{
1070
   287
1070
     3
1070
   287
1070
     3
1070
    40
1040
40.0
1070
   143
1040
0.039
1070
   172
1070
     1
1070
   271
1070
     0
1070
   279
1070
     0
1070
   288
1070
     1
1002
}
  0
LINE
  5
7B98
  8
2
  6
CENTER
 10
-4425.0458324603169
 20
1243.0773588874049
 30
0.0
 11
-2605.0818794603179
 21
1243.0773588874049
 31
0.0
  0
LINE
  5
7B99
  8
2
  6
CENTER
 10
-3419.9177964603182
 20
-1138.284527752282
 30
0.0
 11
-3419.9177964603182
 21
-3169.8780737522829
 31
0.0
  0
LINE
  5
7B9A
  8
2
  6
CENTER
 10
-395.6767980989589
 20
-924.46582075228241
 30
0.0
 11
-395.6767980989589
 21
-3181.8240763469971
 31
0.0
  0
LINE
  5
7B9B
  8
2
  6
CENTER
 10
-2621.8653974603162
 20
-2218.7877857522831
 30
0.0
 11
-4492.6684744603172
 21
-2218.7877857522831
 31
0.0
  0
DIMENSION
  5
7BA8
  8
3
  6
CONTINUOUS
  2
*D12
 10
-20.67679809895888
 20
-941.84591775228273
 30
0.0
 11
-496.39108381324468
 21
-941.84591775228273
 31
0.0
 70
   128
 13
-770.6767980989589
 23
-1144.7877857522819
 33
0.0
 14
-20.676798098958891
 24
-1144.7877857522819
 34
0.0
1001
ACAD
1000
DSTYLE
1002
{
1070
   287
1070
     3
1070
   287
1070
     3
1070
    40
1040
40.0
1070
   143
1040
0.039
1070
   172
1070
     1
1070
   271
1070
     0
1070
   279
1070
     0
1070
   288
1070
     1
1002
}
  0
DIMENSION
  5
7BB5
  8
3
  6
CONTINUOUS
  2
*D13
 10
-395.6767980989589
 20
-3395.4629028130248
 30
0.0
 11
-658.53394095610179
 21
-3395.4629028130248
 31
0.0
 70
   128
 13
-1012.676798098959
 23
-3052.7877857522831
 33
0.0
 14
-395.6767980989589
 24
-3181.8240763469971
 34
0.0
1001
ACAD
1000
DSTYLE
1002
{
1070
   287
1070
     3
1070
   287
1070
     3
1070
    40
1040
40.0
1070
   143
1040
0.039
1070
   172
1070
     1
1070
   271
1070
     0
1070
   279
1070
     0
1070
   288
1070
     1
1002
}
  0
DIMENSION
  5
7BC3
  8
3
  6
CONTINUOUS
  2
*D14
 10
47.323201901041102
 20
-3395.4629028130248
 30
0.0
 11
-156.3144299557097
 21
-3284.445115867486
 31
0.0
 70
   128
 13
-395.6767980989589
 23
-3181.8240763469971
 33
0.0
 14
47.323201901041102
 24
-3052.7877857522831
 34
0.0
1001
ACAD
1000
DSTYLE
1002
{
1070
   288
1070
     1
1070
   172
1070
     1
1070
    40
1040
40.0
1070
   271
1070
     0
1070
   143
1040
0.039
1002
}
  0
DIMENSION
  5
7BE6
  8
3
  6
CONTINUOUS
  2
*D15
 10
451.71398090103997
 20
-2718.7877857522831
 30
0.0
 11
451.71398090104037
 21
-2230.3775797522821
 31
0.0
 70
   128
 13
82.323201901041088
 23
-1718.7877857522819
 33
0.0
 14
82.323201901041088
 24
-2718.7877857522831
 34
0.0
 50
90.0
1001
ACAD
1000
DSTYLE
1002
{
1070
   287
1070
     3
1070
   287
1070
     3
1070
     3
1000
φ<>
1070
    40
1040
40.0
1070
   143
1040
0.039
1070
   172
1070
     1
1070
   271
1070
     0
1070
   279
1070
     0
1070
   288
1070
     1
1002
}
  0
DIMENSION
  5
7BF3
  8
3
  6
CONTINUOUS
  2
*D16
 10
-395.6767980989589
 20
-691.77398375228222
 30
0.0
 11
-784.24822667038734
 21
-691.77398375228222
 31
0.0
 70
   128
  1
MAX\P770
 13
-1075.676798098958
 23
-1952.0877857522819
 33
0.0
 14
-395.6767980989589
 24
-745.78447675228244
 34
0.0
1001
ACAD
1000
DSTYLE
1002
{
1070
   287
1070
     3
1070
   287
1070
     3
1070
    40
1040
40.0
1070
   143
1040
0.039
1070
   172
1070
     1
1070
   271
1070
     0
1070
   279
1070
     0
1070
   288
1070
     1
1002
}
  0
DIMENSION
  5
7C01
  8
3
  6
CONTINUOUS
  2
*D17
 10
82.323201901041088
 20
-691.77398375228222
 30
0.0
 11
-164.0527062075852
 21
-582.26547924136685
 31
0.0
 12
0.0
 22
-571.41037429323114
 32
0.0
 70
   128
 13
-395.6767980989589
 23
-745.78447675228244
 33
0.0
 14
82.323201901041088
 24
-1668.7877857522819
 34
0.0
1001
ACAD
1000
DSTYLE
1002
{
1070
   288
1070
     1
1070
   172
1070
     1
1070
    40
1040
40.0
1070
   271
1070
     0
1070
   143
1040
0.039
1002
}
  0
LINE
  5
7C18
  8
4
  6
CONTINUOUS
 10
569.35774239999989
 20
-4383.0550504000003
 30
0.0
 11
569.35774239999989
 21
-5183.0550504000003
 31
0.0
  0
LINE
  5
7C19
  8
4
  6
CONTINUOUS
 10
-2230.6422576
 20
-4383.0550504000003
 30
0.0
 11
-2230.6422576
 21
-5183.0550504000003
 31
0.0
  0
LINE
  5
7C1A
  8
4
  6
CONTINUOUS
 10
-4230.6422575999986
 20
-4383.0550504000003
 30
0.0
 11
-4230.6422575999986
 21
-5183.0550504000003
 31
0.0
  0
LINE
  5
7C1D
  8
4
  6
CONTINUOUS
 10
-4230.6422575999986
 20
-5183.0550504000003
 30
0.0
 11
569.35774239999989
 21
-5183.0550504000003
 31
0.0
  0
LINE
  5
7C1E
  8
4
  6
CONTINUOUS
 10
-4230.6422575999986
 20
-4783.0550504000003
 30
0.0
 11
569.35774239999989
 21
-4783.0550504000003
 31
0.0
  0
TEXT
  5
7C1F
  8
4
  6
CONTINUOUS
 10
-4076.6339343999998
 20
-4656.8829471999998
 30
0.0
 40
200.0
  1
機器名称
  0
TEXT
  5
7C20
  8
4
  6
CONTINUOUS
 10
-4085.6098336
 20
-5096.474424
 30
0.0
 40
200.0
  1
機器型番
  0
TEXT
  5
7C21
  8
4
  6
CONTINUOUS
 10
-2119.9272752000002
 20
-4692.7679751999985
 30
0.0
 40
168.88888879999999
  1
ミツヤリミットロードファン
  0
TEXT
  5
7C22
  8
4
  6
CONTINUOUS
 10
-2084.0242751999999
 20
-5114.4167135999996
 30
0.0
 40
200.0
  1
LLE#6-4
  0
TEXT
  5
7C24
  8
4
  6
CONTINUOUS
 10
-3812.6572544000001
 20
3150.6603144000001
 30
0.0
 40
216.0
  1
床置防振ベット
  0
TEXT
  5
7C25
  8
4
  6
CONTINUOUS
 10
-5565.9718848000011
 20
3752.4688543999991
 30
0.0
 40
240.0
  1
ベルト駆動式片吸込両持排煙ファン
  0
LINE
  5
7C26
  8
4
  6
CONTINUOUS
 10
-5830.6422576000004
 20
3494.5799663999992
 30
0.0
 11
569.35774239999989
 21
3494.5799663999992
 31
0.0
  0
LINE
  5
7C27
  8
4
  6
CONTINUOUS
 10
-5830.6422576000004
 20
4294.5799663999987
 30
0.0
 11
569.35774239999989
 21
4294.5799663999987
 31
0.0
  0
LINE
  5
7C28
  8
4
  6
CONTINUOUS
 10
-4230.6422575999986
 20
-4383.0550504000003
 30
0.0
 11
569.35774239999989
 21
-4383.0550504000003
 31
0.0
  0
LINE
  5
7C29
  8
4
  6
CONTINUOUS
 10
-5830.6422576000004
 20
4294.5799663999987
 30
0.0
 11
-5830.6422576000004
 21
3494.5799663999992
 31
0.0
  0
TEXT
  5
7C2A
  8
4
  6
CONTINUOUS
 10
-5556.0925832000012
 20
3146.2228592000001
 30
0.0
 40
216.0
  1
右回転右横向
  0
TEXT
  5
7C2B
  8
4
  6
CONTINUOUS
 10
-954.76402080000025
 20
4441.1892752000012
 30
0.0
 40
224.0
  1
No.
  0
TEXT
  5
7C2C
  8
4
  6
CONTINUOUS
 10
-1585.4580072000001
 20
3150.6603144000001
 30
0.0
 40
216.0
  1
縮尺：1/40
  0
LINE
  5
7C2D
  8
4
  6
CONTINUOUS
 10
569.35774239999989
 20
4294.5799663999987
 30
0.0
 11
569.35774239999989
 21
3494.5799663999992
 31
0.0
  0
LINE
  5
7C2F
  8
4
  6
CONTINUOUS
 10
-1068.172568
 20
4341.9992816000004
 30
0.0
 11
-1068.172568
 21
4763.5539951999999
 31
0.0
  0
LINE
  5
7C30
  8
4
  6
CONTINUOUS
 10
-1068.172568
 20
4763.5539951999999
 30
0.0
 11
569.35774239999989
 21
4763.5539951999999
 31
0.0
  0
LINE
  5
7C31
  8
4
  6
CONTINUOUS
 10
569.35774239999989
 20
4763.5539951999999
 30
0.0
 11
569.35774239999989
 21
4341.9992816000004
 31
0.0
  0
LINE
  5
7C32
  8
4
  6
CONTINUOUS
 10
569.35774239999989
 20
4341.9992816000004
 30
0.0
 11
-1068.172568
 21
4341.9992816000004
 31
0.0
  0
DIMENSION
  5
7D82
  8
3
  2
*D18
 10
-4914.9177964603177
 20
-721.43956029691969
 30
0.0
 11
-3731.3995080096788
 21
-721.43956029691969
 31
0.0
 70
   128
 13
-2739.9177964603159
 23
-1091.7877857522819
 33
0.0
 14
-4914.9177964603177
 24
-2843.7877857522831
 34
0.0
1001
ACAD
1000
DSTYLE
1002
{
1070
   287
1070
     3
1070
   287
1070
     3
1070
    40
1040
40.0
1070
   143
1040
0.039
1070
   172
1070
     1
1070
   271
1070
     0
1070
   279
1070
     0
1070
   288
1070
     1
1002
}
  0
ENDSEC
  0
EOF
